osu file format v14

[General]
AudioFilename: audio.mp3
AudioLeadIn: 0
PreviewTime: 111833
Countdown: 0
SampleSet: Normal
StackLeniency: 0.7
Mode: 3
LetterboxInBreaks: 0
SpecialStyle: 0
WidescreenStoryboard: 1

[Editor]
DistanceSpacing: 1.4
BeatDivisor: 6
GridSize: 4
TimelineZoom: 1.5

[Metadata]
Title:LOW BIT FANTASY
TitleUnicode:ロービットファンタジー
Artist:Hoshimiya Toto + Kijibato
ArtistUnicode:星宮とと + Kijibato
Creator:Hugged
Version:10-Bit!
Source:
Tags:japanese electronic 2 step 2step steps city pop future bass hardcore techno house japan city-pop citypop hardcore-techno futurebass kawaiicore 8bit tsuzutsu つづつ ほしみやとと レトロ テレビゲーム ゲーム ポップ チップチューン kawaii core 8 eight 8-bit cute video game retro chiptune BORSCH+ BORSCH + KBSNK Stardrop Records
BeatmapID:3578727
BeatmapSetID:1749412

[Difficulty]
HPDrainRate:8.5
CircleSize:10
OverallDifficulty:8
ApproachRate:5
SliderMultiplier:1.4
SliderTickRate:1

[Events]
//Background and Video events
0,0,"lowbit.jpg",0,0
//Break Periods
//Storyboard Layer 0 (Background)
//Storyboard Layer 1 (Fail)
//Storyboard Layer 2 (Pass)
//Storyboard Layer 3 (Foreground)
//Storyboard Layer 4 (Overlay)
//Storyboard Sound Samples

[TimingPoints]
1950,348.837209302326,4,1,1,25,1,0
61950,-100,4,1,1,25,0,1
84275,-100,4,1,1,25,0,0
113229,-100,4,1,1,25,0,1
124740,-100,4,1,1,25,0,0
169740,-100,4,1,1,25,0,1
180554,-100,4,1,1,25,0,0

[HitObjects]
486,192,1949,5,0,0:0:0:0:
435,192,1949,1,0,0:0:0:0:
332,192,1949,1,0,0:0:0:0:
128,192,2037,1,0,0:0:0:0:
384,192,2124,1,0,0:0:0:0:
230,192,2124,1,0,0:0:0:0:
179,192,2298,1,0,0:0:0:0:
76,192,2298,1,0,0:0:0:0:
25,192,2298,1,0,0:0:0:0:
384,192,2386,1,0,0:0:0:0:
128,192,2473,1,0,0:0:0:0:
281,192,2473,1,0,0:0:0:0:
384,192,2560,1,0,0:0:0:0:
25,192,2647,1,0,0:0:0:0:
230,192,2647,1,0,0:0:0:0:
179,192,2647,1,0,0:0:0:0:
332,192,2734,1,0,0:0:0:0:
435,192,2822,1,0,0:0:0:0:
128,192,2822,1,0,0:0:0:0:
384,192,2996,1,0,0:0:0:0:
25,192,2996,1,0,0:0:0:0:
486,192,3170,1,0,0:0:0:0:
128,192,3170,1,0,0:0:0:0:
76,192,3345,1,0,0:0:0:0:
25,192,3345,1,0,0:0:0:0:
179,192,3345,1,0,0:0:0:0:
281,192,3432,1,0,0:0:0:0:
384,192,3519,1,0,0:0:0:0:
486,192,3519,1,0,0:0:0:0:
281,192,3694,1,0,0:0:0:0:
230,192,3694,1,0,0:0:0:0:
128,192,3694,1,0,0:0:0:0:
384,192,3781,1,0,0:0:0:0:
486,192,3868,1,0,0:0:0:0:
179,192,3868,1,0,0:0:0:0:
332,192,3955,1,0,0:0:0:0:
230,192,4043,1,0,0:0:0:0:
25,192,4043,1,0,0:0:0:0:
128,192,4043,1,0,0:0:0:0:
281,192,4130,1,0,0:0:0:0:
332,192,4217,1,0,0:0:0:0:
435,192,4217,1,0,0:0:0:0:
179,192,4391,1,0,0:0:0:0:
76,192,4391,1,0,0:0:0:0:
281,192,4566,1,0,0:0:0:0:
486,192,4566,1,0,0:0:0:0:
384,192,4740,1,0,0:0:0:0:
332,192,4740,1,0,0:0:0:0:
230,192,4740,1,0,0:0:0:0:
76,192,4827,1,0,0:0:0:0:
281,192,4915,1,0,0:0:0:0:
179,192,4915,1,0,0:0:0:0:
486,192,5089,1,0,0:0:0:0:
435,192,5089,1,0,0:0:0:0:
230,192,5089,1,0,0:0:0:0:
25,192,5176,1,0,0:0:0:0:
384,192,5263,1,0,0:0:0:0:
128,192,5263,1,0,0:0:0:0:
281,192,5351,1,0,0:0:0:0:
76,192,5438,1,0,0:0:0:0:
230,192,5438,1,0,0:0:0:0:
179,192,5438,1,0,0:0:0:0:
332,192,5525,1,0,0:0:0:0:
435,192,5612,1,0,0:0:0:0:
128,192,5612,1,0,0:0:0:0:
332,192,5787,1,0,0:0:0:0:
230,192,5787,1,0,0:0:0:0:
179,192,5787,1,0,0:0:0:0:
281,192,5961,1,0,0:0:0:0:
128,192,5961,1,0,0:0:0:0:
25,192,6136,1,0,0:0:0:0:
435,192,6136,1,0,0:0:0:0:
486,192,6136,1,0,0:0:0:0:
128,192,6223,1,0,0:0:0:0:
230,192,6310,1,0,0:0:0:0:
384,192,6310,1,0,0:0:0:0:
76,192,6484,1,0,0:0:0:0:
332,192,6484,1,0,0:0:0:0:
25,192,6484,1,0,0:0:0:0:
435,192,6572,1,0,0:0:0:0:
76,192,6659,1,0,0:0:0:0:
25,192,6659,1,0,0:0:0:0:
332,192,6659,1,0,0:0:0:0:
179,192,6833,1,0,0:0:0:0:
128,192,6833,1,0,0:0:0:0:
486,192,6833,1,0,0:0:0:0:
435,192,6891,1,0,0:0:0:0:
384,192,6950,1,0,0:0:0:0:
25,192,7008,1,0,0:0:0:0:
332,192,7008,1,0,0:0:0:0:
486,192,7095,1,0,0:0:0:0:
435,192,7153,1,0,0:0:0:0:
230,192,7182,1,0,0:0:0:0:
384,192,7211,1,0,0:0:0:0:
332,192,7269,1,0,0:0:0:0:
76,192,7356,1,0,0:0:0:0:
486,192,7356,1,0,0:0:0:0:
435,192,7415,1,0,0:0:0:0:
384,192,7473,1,0,0:0:0:0:
332,192,7531,1,0,0:0:0:0:
25,192,7531,1,0,0:0:0:0:
281,192,7531,1,0,0:0:0:0:
230,192,7618,1,0,0:0:0:0:
76,192,7705,1,0,0:0:0:0:
128,192,7705,1,0,0:0:0:0:
486,192,7880,1,0,0:0:0:0:
435,192,7880,1,0,0:0:0:0:
281,192,7880,1,0,0:0:0:0:
25,192,7967,1,0,0:0:0:0:
332,192,8054,1,0,0:0:0:0:
179,192,8054,1,0,0:0:0:0:
25,192,8141,1,0,0:0:0:0:
281,192,8229,1,0,0:0:0:0:
230,192,8229,1,0,0:0:0:0:
486,192,8229,1,0,0:0:0:0:
128,192,8316,1,0,0:0:0:0:
384,192,8403,1,0,0:0:0:0:
25,192,8577,1,0,0:0:0:0:
281,192,8577,1,0,0:0:0:0:
384,192,8752,1,0,0:0:0:0:
128,192,8752,1,0,0:0:0:0:
486,192,8926,1,0,0:0:0:0:
435,192,8926,1,0,0:0:0:0:
179,192,8926,1,0,0:0:0:0:
332,192,9013,1,0,0:0:0:0:
230,192,9101,1,0,0:0:0:0:
25,192,9101,1,0,0:0:0:0:
128,192,9275,1,0,0:0:0:0:
179,192,9275,1,0,0:0:0:0:
384,192,9275,1,0,0:0:0:0:
332,192,9362,1,0,0:0:0:0:
281,192,9450,1,0,0:0:0:0:
486,192,9450,1,0,0:0:0:0:
179,192,9537,1,0,0:0:0:0:
332,192,9624,1,0,0:0:0:0:
76,192,9624,1,0,0:0:0:0:
25,192,9624,1,0,0:0:0:0:
179,192,9711,1,0,0:0:0:0:
281,192,9798,1,0,0:0:0:0:
384,192,9798,1,0,0:0:0:0:
128,192,9973,1,0,0:0:0:0:
230,192,9973,1,0,0:0:0:0:
332,192,10147,1,0,0:0:0:0:
435,192,10147,1,0,0:0:0:0:
179,192,10322,1,0,0:0:0:0:
76,192,10322,1,0,0:0:0:0:
25,192,10322,1,0,0:0:0:0:
281,192,10409,1,0,0:0:0:0:
384,192,10496,1,0,0:0:0:0:
128,192,10496,1,0,0:0:0:0:
332,192,10670,1,0,0:0:0:0:
435,192,10670,1,0,0:0:0:0:
486,192,10670,1,0,0:0:0:0:
281,192,10758,1,0,0:0:0:0:
230,192,10845,1,0,0:0:0:0:
76,192,10845,1,0,0:0:0:0:
332,192,10932,1,0,0:0:0:0:
435,192,11019,1,0,0:0:0:0:
179,192,11019,1,0,0:0:0:0:
25,192,11019,1,0,0:0:0:0:
384,192,11106,1,0,0:0:0:0:
332,192,11194,1,0,0:0:0:0:
128,192,11194,1,0,0:0:0:0:
76,192,11368,1,0,0:0:0:0:
25,192,11368,1,0,0:0:0:0:
281,192,11368,1,0,0:0:0:0:
332,192,11455,1,0,0:0:0:0:
435,192,11543,1,0,0:0:0:0:
179,192,11543,1,0,0:0:0:0:
332,192,11630,1,0,0:0:0:0:
281,192,11717,1,0,0:0:0:0:
230,192,11717,1,0,0:0:0:0:
25,192,11717,1,0,0:0:0:0:
384,192,11804,1,0,0:0:0:0:
128,192,11891,1,0,0:0:0:0:
486,192,11891,1,0,0:0:0:0:
76,192,11979,1,0,0:0:0:0:
179,192,11979,1,0,0:0:0:0:
384,192,11979,1,0,0:0:0:0:
332,192,12066,1,0,0:0:0:0:
128,192,12153,1,0,0:0:0:0:
435,192,12153,1,0,0:0:0:0:
179,192,12240,1,0,0:0:0:0:
76,192,12240,1,0,0:0:0:0:
332,192,12240,1,0,0:0:0:0:
281,192,12327,1,0,0:0:0:0:
384,192,12415,1,0,0:0:0:0:
25,192,12415,1,0,0:0:0:0:
76,192,12473,1,0,0:0:0:0:
281,192,12502,1,0,0:0:0:0:
128,192,12531,1,0,0:0:0:0:
332,192,12589,1,0,0:0:0:0:
179,192,12589,1,0,0:0:0:0:
435,192,12676,1,0,0:0:0:0:
25,192,12676,1,0,0:0:0:0:
76,192,12734,1,0,0:0:0:0:
332,192,12763,1,0,0:0:0:0:
128,192,12793,1,0,0:0:0:0:
179,192,12851,1,0,0:0:0:0:
486,192,12851,1,0,0:0:0:0:
384,192,12938,1,0,0:0:0:0:
25,192,12938,1,0,0:0:0:0:
76,192,12996,1,0,0:0:0:0:
281,192,13025,1,0,0:0:0:0:
128,192,13054,1,0,0:0:0:0:
179,192,13112,128,0,13461:0:0:0:0:
435,192,13984,128,0,14159:0:0:0:0:
179,192,13984,128,0,14159:0:0:0:0:
128,192,14159,128,0,14333:0:0:0:0:
384,192,14159,128,0,14333:0:0:0:0:
76,192,14333,128,0,14508:0:0:0:0:
332,192,14333,128,0,14508:0:0:0:0:
25,192,14508,128,0,15205:0:0:0:0:
486,192,14508,1,0,0:0:0:0:
281,192,14508,1,0,0:0:0:0:
435,192,14595,1,0,0:0:0:0:
384,192,14682,1,0,0:0:0:0:
179,192,14682,1,0,0:0:0:0:
332,192,14769,1,0,0:0:0:0:
486,192,14856,1,0,0:0:0:0:
230,192,14856,1,0,0:0:0:0:
435,192,14944,1,0,0:0:0:0:
128,192,15031,1,0,0:0:0:0:
384,192,15031,1,0,0:0:0:0:
332,192,15118,1,0,0:0:0:0:
281,192,15205,128,0,15903:0:0:0:0:
76,192,15205,1,0,0:0:0:0:
486,192,15205,1,0,0:0:0:0:
128,192,15293,1,0,0:0:0:0:
179,192,15380,1,0,0:0:0:0:
230,192,15467,1,0,0:0:0:0:
25,192,15554,1,0,0:0:0:0:
384,192,15554,1,0,0:0:0:0:
76,192,15641,1,0,0:0:0:0:
128,192,15729,1,0,0:0:0:0:
384,192,15729,1,0,0:0:0:0:
179,192,15816,1,0,0:0:0:0:
230,192,15903,128,0,16601:0:0:0:0:
486,192,15903,1,0,0:0:0:0:
25,192,15903,1,0,0:0:0:0:
435,192,15990,1,0,0:0:0:0:
384,192,16077,1,0,0:0:0:0:
76,192,16077,1,0,0:0:0:0:
332,192,16165,1,0,0:0:0:0:
281,192,16252,1,0,0:0:0:0:
179,192,16252,1,0,0:0:0:0:
332,192,16339,1,0,0:0:0:0:
384,192,16426,1,0,0:0:0:0:
128,192,16426,1,0,0:0:0:0:
435,192,16513,1,0,0:0:0:0:
332,192,16601,128,0,17298:0:0:0:0:
486,192,16601,1,0,0:0:0:0:
25,192,16601,1,0,0:0:0:0:
128,192,16688,1,0,0:0:0:0:
230,192,16775,1,0,0:0:0:0:
76,192,16862,1,0,0:0:0:0:
179,192,16950,1,0,0:0:0:0:
281,192,17037,1,0,0:0:0:0:
128,192,17124,1,0,0:0:0:0:
230,192,17211,1,0,0:0:0:0:
25,192,17298,1,0,0:0:0:0:
486,192,17298,1,0,0:0:0:0:
384,192,17386,1,0,0:0:0:0:
281,192,17473,1,0,0:0:0:0:
76,192,17473,1,0,0:0:0:0:
179,192,17560,1,0,0:0:0:0:
128,192,17647,1,0,0:0:0:0:
435,192,17647,1,0,0:0:0:0:
332,192,17734,1,0,0:0:0:0:
230,192,17822,1,0,0:0:0:0:
179,192,17822,1,0,0:0:0:0:
128,192,17909,1,0,0:0:0:0:
486,192,17996,1,0,0:0:0:0:
384,192,17996,1,0,0:0:0:0:
281,192,18083,1,0,0:0:0:0:
332,192,18170,1,0,0:0:0:0:
179,192,18170,1,0,0:0:0:0:
76,192,18258,1,0,0:0:0:0:
179,192,18345,1,0,0:0:0:0:
435,192,18345,1,0,0:0:0:0:
332,192,18432,1,0,0:0:0:0:
230,192,18519,1,0,0:0:0:0:
25,192,18519,1,0,0:0:0:0:
128,192,18606,1,0,0:0:0:0:
230,192,18694,1,0,0:0:0:0:
486,192,18694,1,0,0:0:0:0:
128,192,18781,1,0,0:0:0:0:
25,192,18868,1,0,0:0:0:0:
435,192,18868,1,0,0:0:0:0:
332,192,18955,1,0,0:0:0:0:
384,192,19043,1,0,0:0:0:0:
76,192,19043,1,0,0:0:0:0:
179,192,19130,1,0,0:0:0:0:
281,192,19217,1,0,0:0:0:0:
332,192,19217,1,0,0:0:0:0:
435,192,19304,1,0,0:0:0:0:
25,192,19391,1,0,0:0:0:0:
128,192,19391,1,0,0:0:0:0:
230,192,19479,1,0,0:0:0:0:
332,192,19566,1,0,0:0:0:0:
76,192,19566,1,0,0:0:0:0:
486,192,19653,1,0,0:0:0:0:
128,192,19740,1,0,0:0:0:0:
179,192,19740,1,0,0:0:0:0:
281,192,19827,1,0,0:0:0:0:
384,192,19915,1,0,0:0:0:0:
76,192,19915,1,0,0:0:0:0:
486,192,20002,1,0,0:0:0:0:
25,192,20089,1,0,0:0:0:0:
230,192,20089,1,0,0:0:0:0:
179,192,20089,1,0,0:0:0:0:
281,192,20176,1,0,0:0:0:0:
332,192,20263,1,0,0:0:0:0:
486,192,20263,1,0,0:0:0:0:
76,192,20438,1,0,0:0:0:0:
128,192,20438,1,0,0:0:0:0:
384,192,20438,1,0,0:0:0:0:
179,192,20612,1,0,0:0:0:0:
435,192,20612,1,0,0:0:0:0:
281,192,20787,1,0,0:0:0:0:
230,192,20787,1,0,0:0:0:0:
25,192,20787,1,0,0:0:0:0:
332,192,20874,1,0,0:0:0:0:
435,192,20961,1,0,0:0:0:0:
76,192,20961,1,0,0:0:0:0:
332,192,21136,1,0,0:0:0:0:
384,192,21136,1,0,0:0:0:0:
179,192,21136,1,0,0:0:0:0:
128,192,21310,1,0,0:0:0:0:
486,192,21310,1,0,0:0:0:0:
76,192,21484,1,0,0:0:0:0:
25,192,21484,1,0,0:0:0:0:
281,192,21484,1,0,0:0:0:0:
230,192,21572,1,0,0:0:0:0:
128,192,21659,1,0,0:0:0:0:
435,192,21659,1,0,0:0:0:0:
281,192,21833,1,0,0:0:0:0:
179,192,21833,1,0,0:0:0:0:
76,192,21833,1,0,0:0:0:0:
25,192,22008,1,0,0:0:0:0:
435,192,22008,1,0,0:0:0:0:
179,192,22182,1,0,0:0:0:0:
230,192,22182,1,0,0:0:0:0:
486,192,22182,1,0,0:0:0:0:
384,192,22269,1,0,0:0:0:0:
281,192,22356,1,0,0:0:0:0:
128,192,22356,1,0,0:0:0:0:
76,192,22531,1,0,0:0:0:0:
25,192,22531,1,0,0:0:0:0:
332,192,22531,1,0,0:0:0:0:
179,192,22705,1,0,0:0:0:0:
435,192,22705,1,0,0:0:0:0:
332,192,22880,1,0,0:0:0:0:
128,192,22880,1,0,0:0:0:0:
76,192,22880,1,0,0:0:0:0:
179,192,22967,1,0,0:0:0:0:
230,192,23054,1,0,0:0:0:0:
384,192,23054,1,0,0:0:0:0:
435,192,23054,1,0,0:0:0:0:
332,192,23229,1,0,0:0:0:0:
76,192,23229,1,0,0:0:0:0:
25,192,23229,1,0,0:0:0:0:
179,192,23403,1,0,0:0:0:0:
435,192,23403,1,0,0:0:0:0:
486,192,23403,1,0,0:0:0:0:
128,192,23577,1,0,0:0:0:0:
76,192,23577,1,0,0:0:0:0:
384,192,23577,1,0,0:0:0:0:
332,192,23665,1,0,0:0:0:0:
281,192,23752,1,0,0:0:0:0:
179,192,23752,1,0,0:0:0:0:
486,192,23752,1,0,0:0:0:0:
435,192,23926,1,0,0:0:0:0:
384,192,23926,1,0,0:0:0:0:
25,192,23926,1,0,0:0:0:0:
179,192,24101,1,0,0:0:0:0:
332,192,24101,1,0,0:0:0:0:
128,192,24101,1,0,0:0:0:0:
76,192,24275,1,0,0:0:0:0:
384,192,24275,1,0,0:0:0:0:
435,192,24275,1,0,0:0:0:0:
128,192,24362,1,0,0:0:0:0:
179,192,24450,1,0,0:0:0:0:
332,192,24450,1,0,0:0:0:0:
384,192,24450,1,0,0:0:0:0:
128,192,24537,1,0,0:0:0:0:
76,192,24624,1,0,0:0:0:0:
435,192,24624,1,0,0:0:0:0:
230,192,24624,1,0,0:0:0:0:
384,192,24711,1,0,0:0:0:0:
332,192,24798,1,0,0:0:0:0:
179,192,24798,1,0,0:0:0:0:
128,192,24798,1,0,0:0:0:0:
384,192,24886,1,0,0:0:0:0:
435,192,24973,1,0,0:0:0:0:
281,192,24973,1,0,0:0:0:0:
25,192,24973,1,0,0:0:0:0:
332,192,25060,1,0,0:0:0:0:
76,192,25060,1,0,0:0:0:0:
128,192,25147,1,0,0:0:0:0:
384,192,25147,1,0,0:0:0:0:
179,192,25147,1,0,0:0:0:0:
435,192,25234,1,0,0:0:0:0:
76,192,25234,1,0,0:0:0:0:
25,192,25322,128,0,25670:0:0:0:0:
486,192,25322,128,0,25670:0:0:0:0:
281,192,25322,1,0,0:0:0:0:
230,192,25409,1,0,0:0:0:0:
281,192,25496,1,0,0:0:0:0:
230,192,25583,1,0,0:0:0:0:
128,192,25670,1,0,0:0:0:0:
76,192,25670,1,0,0:0:0:0:
435,192,25670,1,0,0:0:0:0:
384,192,25670,1,0,0:0:0:0:
179,192,25670,1,0,0:0:0:0:
332,192,25670,1,0,0:0:0:0:
281,192,25845,1,0,0:0:0:0:
230,192,25845,1,0,0:0:0:0:
384,192,25932,1,0,0:0:0:0:
25,192,26019,1,0,0:0:0:0:
486,192,26019,1,0,0:0:0:0:
76,192,26019,1,0,0:0:0:0:
179,192,26019,1,0,0:0:0:0:
281,192,26106,1,0,0:0:0:0:
384,192,26194,1,0,0:0:0:0:
128,192,26194,1,0,0:0:0:0:
281,192,26281,1,0,0:0:0:0:
76,192,26368,1,0,0:0:0:0:
25,192,26368,1,0,0:0:0:0:
486,192,26368,1,0,0:0:0:0:
435,192,26368,1,0,0:0:0:0:
128,192,26543,1,0,0:0:0:0:
384,192,26543,1,0,0:0:0:0:
179,192,26717,1,0,0:0:0:0:
332,192,26717,1,0,0:0:0:0:
435,192,26717,1,0,0:0:0:0:
76,192,26717,1,0,0:0:0:0:
230,192,26891,1,0,0:0:0:0:
281,192,26891,1,0,0:0:0:0:
435,192,27066,1,0,0:0:0:0:
332,192,27066,1,0,0:0:0:0:
76,192,27066,1,0,0:0:0:0:
25,192,27066,1,0,0:0:0:0:
179,192,27240,1,0,0:0:0:0:
384,192,27240,1,0,0:0:0:0:
281,192,27327,1,0,0:0:0:0:
128,192,27415,1,0,0:0:0:0:
76,192,27415,1,0,0:0:0:0:
435,192,27415,1,0,0:0:0:0:
332,192,27415,1,0,0:0:0:0:
179,192,27502,1,0,0:0:0:0:
230,192,27589,1,0,0:0:0:0:
384,192,27589,1,0,0:0:0:0:
281,192,27676,1,0,0:0:0:0:
486,192,27763,1,0,0:0:0:0:
435,192,27763,1,0,0:0:0:0:
332,192,27763,1,0,0:0:0:0:
25,192,27763,1,0,0:0:0:0:
230,192,27851,1,0,0:0:0:0:
384,192,27938,1,0,0:0:0:0:
128,192,27938,1,0,0:0:0:0:
179,192,28112,1,0,0:0:0:0:
76,192,28112,1,0,0:0:0:0:
281,192,28112,1,0,0:0:0:0:
486,192,28112,1,0,0:0:0:0:
332,192,28287,1,0,0:0:0:0:
435,192,28287,1,0,0:0:0:0:
281,192,28461,1,0,0:0:0:0:
486,192,28461,1,0,0:0:0:0:
230,192,28461,1,0,0:0:0:0:
25,192,28461,1,0,0:0:0:0:
179,192,28636,1,0,0:0:0:0:
332,192,28636,1,0,0:0:0:0:
230,192,28723,1,0,0:0:0:0:
281,192,28810,1,0,0:0:0:0:
384,192,28810,1,0,0:0:0:0:
435,192,28810,1,0,0:0:0:0:
76,192,28810,1,0,0:0:0:0:
128,192,28984,1,0,0:0:0:0:
332,192,28984,1,0,0:0:0:0:
486,192,29159,1,0,0:0:0:0:
435,192,29159,1,0,0:0:0:0:
281,192,29159,1,0,0:0:0:0:
179,192,29159,1,0,0:0:0:0:
384,192,29333,1,0,0:0:0:0:
128,192,29333,1,0,0:0:0:0:
332,192,29508,1,0,0:0:0:0:
281,192,29508,1,0,0:0:0:0:
76,192,29508,1,0,0:0:0:0:
25,192,29508,1,0,0:0:0:0:
179,192,29682,1,0,0:0:0:0:
435,192,29682,1,0,0:0:0:0:
486,192,29856,1,0,0:0:0:0:
76,192,29856,1,0,0:0:0:0:
281,192,29856,1,0,0:0:0:0:
332,192,29856,1,0,0:0:0:0:
128,192,29915,1,0,0:0:0:0:
179,192,29973,1,0,0:0:0:0:
435,192,30031,1,0,0:0:0:0:
230,192,30031,1,0,0:0:0:0:
384,192,30089,1,0,0:0:0:0:
332,192,30147,1,0,0:0:0:0:
76,192,30205,1,0,0:0:0:0:
25,192,30205,1,0,0:0:0:0:
486,192,30205,1,0,0:0:0:0:
281,192,30205,1,0,0:0:0:0:
128,192,30263,1,0,0:0:0:0:
179,192,30322,1,0,0:0:0:0:
435,192,30380,1,0,0:0:0:0:
230,192,30380,1,0,0:0:0:0:
384,192,30438,1,0,0:0:0:0:
332,192,30496,1,0,0:0:0:0:
25,192,30554,1,0,0:0:0:0:
281,192,30554,1,0,0:0:0:0:
230,192,30554,1,0,0:0:0:0:
486,192,30554,1,0,0:0:0:0:
76,192,30612,1,0,0:0:0:0:
128,192,30670,1,0,0:0:0:0:
179,192,30729,1,0,0:0:0:0:
384,192,30729,1,0,0:0:0:0:
332,192,30787,1,0,0:0:0:0:
281,192,30845,1,0,0:0:0:0:
230,192,30903,128,0,31252:0:0:0:0:
25,192,30903,128,0,31252:0:0:0:0:
486,192,30903,1,0,0:0:0:0:
435,192,30903,1,0,0:0:0:0:
486,192,31252,1,0,0:0:0:0:
435,192,31252,1,0,0:0:0:0:
179,192,31252,1,0,0:0:0:0:
76,192,31252,1,0,0:0:0:0:
128,192,31252,1,0,0:0:0:0:
281,192,31252,1,0,0:0:0:0:
384,192,31339,1,0,0:0:0:0:
128,192,31426,1,0,0:0:0:0:
230,192,31426,1,0,0:0:0:0:
384,192,31513,1,0,0:0:0:0:
76,192,31601,1,0,0:0:0:0:
25,192,31601,1,0,0:0:0:0:
332,192,31601,1,0,0:0:0:0:
281,192,31601,1,0,0:0:0:0:
179,192,31688,1,0,0:0:0:0:
128,192,31775,1,0,0:0:0:0:
435,192,31775,1,0,0:0:0:0:
332,192,31862,1,0,0:0:0:0:
435,192,31950,1,0,0:0:0:0:
486,192,31950,1,0,0:0:0:0:
179,192,31950,1,0,0:0:0:0:
76,192,31950,1,0,0:0:0:0:
230,192,32037,1,0,0:0:0:0:
128,192,32124,1,0,0:0:0:0:
332,192,32124,1,0,0:0:0:0:
230,192,32211,1,0,0:0:0:0:
179,192,32298,1,0,0:0:0:0:
76,192,32298,1,0,0:0:0:0:
25,192,32298,1,0,0:0:0:0:
384,192,32298,1,0,0:0:0:0:
332,192,32386,1,0,0:0:0:0:
128,192,32473,1,0,0:0:0:0:
281,192,32473,1,0,0:0:0:0:
332,192,32560,1,0,0:0:0:0:
384,192,32647,1,0,0:0:0:0:
435,192,32647,1,0,0:0:0:0:
179,192,32647,1,0,0:0:0:0:
230,192,32647,1,0,0:0:0:0:
76,192,32734,1,0,0:0:0:0:
179,192,32822,1,0,0:0:0:0:
332,192,32822,1,0,0:0:0:0:
230,192,32909,1,0,0:0:0:0:
128,192,32996,1,0,0:0:0:0:
384,192,32996,1,0,0:0:0:0:
486,192,32996,1,0,0:0:0:0:
25,192,32996,1,0,0:0:0:0:
332,192,33083,1,0,0:0:0:0:
281,192,33170,1,0,0:0:0:0:
179,192,33170,1,0,0:0:0:0:
332,192,33258,1,0,0:0:0:0:
384,192,33345,1,0,0:0:0:0:
435,192,33345,1,0,0:0:0:0:
128,192,33345,1,0,0:0:0:0:
76,192,33345,1,0,0:0:0:0:
230,192,33432,1,0,0:0:0:0:
332,192,33519,1,0,0:0:0:0:
486,192,33519,1,0,0:0:0:0:
230,192,33606,1,0,0:0:0:0:
384,192,33694,1,0,0:0:0:0:
435,192,33694,1,0,0:0:0:0:
179,192,33694,1,0,0:0:0:0:
25,192,33694,1,0,0:0:0:0:
281,192,33781,1,0,0:0:0:0:
332,192,33868,1,0,0:0:0:0:
128,192,33868,1,0,0:0:0:0:
230,192,33955,1,0,0:0:0:0:
76,192,34043,1,0,0:0:0:0:
25,192,34043,1,0,0:0:0:0:
332,192,34043,1,0,0:0:0:0:
435,192,34043,1,0,0:0:0:0:
128,192,34130,1,0,0:0:0:0:
230,192,34217,1,0,0:0:0:0:
384,192,34217,1,0,0:0:0:0:
128,192,34304,1,0,0:0:0:0:
179,192,34391,1,0,0:0:0:0:
230,192,34391,1,0,0:0:0:0:
435,192,34391,1,0,0:0:0:0:
486,192,34391,1,0,0:0:0:0:
332,192,34479,1,0,0:0:0:0:
384,192,34566,1,0,0:0:0:0:
25,192,34566,1,0,0:0:0:0:
230,192,34653,1,0,0:0:0:0:
128,192,34740,1,0,0:0:0:0:
76,192,34740,1,0,0:0:0:0:
332,192,34740,1,0,0:0:0:0:
435,192,34740,1,0,0:0:0:0:
281,192,34827,1,0,0:0:0:0:
179,192,34915,1,0,0:0:0:0:
384,192,34915,1,0,0:0:0:0:
281,192,35002,1,0,0:0:0:0:
332,192,35089,1,0,0:0:0:0:
435,192,35089,1,0,0:0:0:0:
486,192,35089,1,0,0:0:0:0:
25,192,35089,1,0,0:0:0:0:
128,192,35176,1,0,0:0:0:0:
384,192,35263,1,0,0:0:0:0:
230,192,35263,1,0,0:0:0:0:
179,192,35351,1,0,0:0:0:0:
128,192,35438,1,0,0:0:0:0:
281,192,35438,1,0,0:0:0:0:
486,192,35438,1,0,0:0:0:0:
76,192,35438,1,0,0:0:0:0:
435,192,35496,1,0,0:0:0:0:
384,192,35554,1,0,0:0:0:0:
179,192,35612,1,0,0:0:0:0:
332,192,35612,1,0,0:0:0:0:
281,192,35670,1,0,0:0:0:0:
230,192,35729,1,0,0:0:0:0:
25,192,35787,1,0,0:0:0:0:
486,192,35787,1,0,0:0:0:0:
435,192,35787,1,0,0:0:0:0:
384,192,35787,1,0,0:0:0:0:
76,192,35845,1,0,0:0:0:0:
128,192,35903,1,0,0:0:0:0:
179,192,35961,1,0,0:0:0:0:
332,192,35961,1,0,0:0:0:0:
230,192,36019,1,0,0:0:0:0:
281,192,36077,1,0,0:0:0:0:
486,192,36136,1,0,0:0:0:0:
128,192,36136,1,0,0:0:0:0:
76,192,36136,1,0,0:0:0:0:
25,192,36136,1,0,0:0:0:0:
435,192,36194,1,0,0:0:0:0:
384,192,36252,1,0,0:0:0:0:
332,192,36310,1,0,0:0:0:0:
179,192,36310,1,0,0:0:0:0:
281,192,36368,1,0,0:0:0:0:
230,192,36426,1,0,0:0:0:0:
76,192,36484,1,0,0:0:0:0:
486,192,36484,1,0,0:0:0:0:
435,192,36484,1,0,0:0:0:0:
25,192,36484,1,0,0:0:0:0:
128,192,36543,1,0,0:0:0:0:
179,192,36601,1,0,0:0:0:0:
384,192,36659,1,0,0:0:0:0:
230,192,36659,1,0,0:0:0:0:
332,192,36717,1,0,0:0:0:0:
281,192,36775,1,0,0:0:0:0:
435,192,36833,128,0,37356:0:0:0:0:
230,192,36833,1,0,0:0:0:0:
76,192,37008,1,0,0:0:0:0:
179,192,37095,1,0,0:0:0:0:
76,192,37182,1,0,0:0:0:0:
179,192,37269,1,0,0:0:0:0:
76,192,37356,1,0,0:0:0:0:
332,192,37531,1,0,0:0:0:0:
435,192,37618,1,0,0:0:0:0:
332,192,37705,1,0,0:0:0:0:
25,192,37705,1,0,0:0:0:0:
435,192,37793,1,0,0:0:0:0:
128,192,37793,1,0,0:0:0:0:
230,192,37880,1,0,0:0:0:0:
332,192,37880,1,0,0:0:0:0:
76,192,37967,1,0,0:0:0:0:
179,192,38054,1,0,0:0:0:0:
76,192,38141,1,0,0:0:0:0:
435,192,38229,128,0,38577:0:0:0:0:
332,192,38316,128,0,38577:0:0:0:0:
230,192,38403,128,0,38577:0:0:0:0:
128,192,38490,128,0,38577:0:0:0:0:
25,192,38577,128,0,38926:0:0:0:0:
486,192,38577,128,0,38926:0:0:0:0:
332,192,38752,1,0,0:0:0:0:
179,192,38752,1,0,0:0:0:0:
76,192,38926,128,0,39275:0:0:0:0:
435,192,39013,128,0,39275:0:0:0:0:
179,192,39101,128,0,39275:0:0:0:0:
332,192,39188,128,0,39275:0:0:0:0:
25,192,39275,128,0,39624:0:0:0:0:
486,192,39275,128,0,39624:0:0:0:0:
435,192,39624,1,0,0:0:0:0:
384,192,39624,1,0,0:0:0:0:
332,192,39624,1,0,0:0:0:0:
179,192,39624,1,0,0:0:0:0:
128,192,39624,1,0,0:0:0:0:
332,192,39856,1,0,0:0:0:0:
384,192,39856,1,0,0:0:0:0:
384,192,39973,1,0,0:0:0:0:
332,192,39973,1,0,0:0:0:0:
76,192,39973,1,0,0:0:0:0:
128,192,39973,1,0,0:0:0:0:
179,192,39973,1,0,0:0:0:0:
128,192,40205,1,0,0:0:0:0:
179,192,40205,1,0,0:0:0:0:
179,192,40322,1,0,0:0:0:0:
128,192,40322,1,0,0:0:0:0:
332,192,40322,1,0,0:0:0:0:
384,192,40322,1,0,0:0:0:0:
435,192,40322,1,0,0:0:0:0:
76,192,40670,1,0,0:0:0:0:
128,192,40670,1,0,0:0:0:0:
435,192,40670,1,0,0:0:0:0:
25,192,40670,1,0,0:0:0:0:
486,192,40670,1,0,0:0:0:0:
179,192,40787,1,0,0:0:0:0:
230,192,40787,1,0,0:0:0:0:
281,192,40903,1,0,0:0:0:0:
332,192,40903,1,0,0:0:0:0:
384,192,40903,1,0,0:0:0:0:
332,192,41019,1,0,0:0:0:0:
384,192,41019,1,0,0:0:0:0:
281,192,41019,1,0,0:0:0:0:
128,192,41019,1,0,0:0:0:0:
76,192,41019,1,0,0:0:0:0:
179,192,41136,1,0,0:0:0:0:
230,192,41136,1,0,0:0:0:0:
332,192,41252,1,0,0:0:0:0:
281,192,41252,1,0,0:0:0:0:
128,192,41368,1,0,0:0:0:0:
76,192,41368,1,0,0:0:0:0:
25,192,41368,1,0,0:0:0:0:
230,192,41368,1,0,0:0:0:0:
179,192,41368,1,0,0:0:0:0:
486,192,41717,1,0,0:0:0:0:
435,192,41717,1,0,0:0:0:0:
384,192,41717,1,0,0:0:0:0:
332,192,41717,1,0,0:0:0:0:
281,192,41717,1,0,0:0:0:0:
486,192,42066,1,0,0:0:0:0:
435,192,42066,1,0,0:0:0:0:
128,192,42066,1,0,0:0:0:0:
76,192,42066,1,0,0:0:0:0:
332,192,42066,1,0,0:0:0:0:
230,192,42182,1,0,0:0:0:0:
179,192,42182,1,0,0:0:0:0:
384,192,42298,1,0,0:0:0:0:
435,192,42298,1,0,0:0:0:0:
281,192,42298,1,0,0:0:0:0:
332,192,42415,1,0,0:0:0:0:
76,192,42415,1,0,0:0:0:0:
25,192,42415,1,0,0:0:0:0:
128,192,42531,1,0,0:0:0:0:
384,192,42531,1,0,0:0:0:0:
179,192,42647,1,0,0:0:0:0:
435,192,42647,1,0,0:0:0:0:
76,192,42763,1,0,0:0:0:0:
230,192,42763,1,0,0:0:0:0:
332,192,42763,1,0,0:0:0:0:
384,192,42880,1,0,0:0:0:0:
128,192,42880,1,0,0:0:0:0:
435,192,42996,1,0,0:0:0:0:
179,192,42996,1,0,0:0:0:0:
25,192,43112,1,0,0:0:0:0:
230,192,43112,1,0,0:0:0:0:
486,192,43112,1,0,0:0:0:0:
128,192,43229,1,0,0:0:0:0:
435,192,43229,1,0,0:0:0:0:
179,192,43345,1,0,0:0:0:0:
384,192,43345,1,0,0:0:0:0:
332,192,43461,1,0,0:0:0:0:
230,192,43461,1,0,0:0:0:0:
76,192,43461,1,0,0:0:0:0:
128,192,43577,1,0,0:0:0:0:
384,192,43577,1,0,0:0:0:0:
179,192,43694,1,0,0:0:0:0:
435,192,43694,1,0,0:0:0:0:
25,192,43810,1,0,0:0:0:0:
332,192,43810,1,0,0:0:0:0:
384,192,43810,1,0,0:0:0:0:
230,192,43926,1,0,0:0:0:0:
76,192,43926,1,0,0:0:0:0:
281,192,44043,1,0,0:0:0:0:
128,192,44043,1,0,0:0:0:0:
332,192,44159,1,0,0:0:0:0:
179,192,44159,1,0,0:0:0:0:
486,192,44159,1,0,0:0:0:0:
281,192,44275,1,0,0:0:0:0:
128,192,44275,1,0,0:0:0:0:
230,192,44391,1,0,0:0:0:0:
76,192,44391,1,0,0:0:0:0:
435,192,44508,1,0,0:0:0:0:
25,192,44508,1,0,0:0:0:0:
281,192,44508,1,0,0:0:0:0:
384,192,44624,1,0,0:0:0:0:
230,192,44624,1,0,0:0:0:0:
332,192,44740,1,0,0:0:0:0:
179,192,44740,1,0,0:0:0:0:
25,192,44856,1,0,0:0:0:0:
281,192,44856,1,0,0:0:0:0:
486,192,44856,1,0,0:0:0:0:
76,192,44973,1,0,0:0:0:0:
332,192,44973,1,0,0:0:0:0:
128,192,45089,1,0,0:0:0:0:
384,192,45089,1,0,0:0:0:0:
435,192,45205,128,0,46601:0:0:0:0:
179,192,45205,1,0,0:0:0:0:
76,192,45554,128,0,46601:0:0:0:0:
332,192,45554,1,0,0:0:0:0:
486,192,45903,128,0,46601:0:0:0:0:
281,192,45903,1,0,0:0:0:0:
25,192,46252,128,0,46601:0:0:0:0:
230,192,46252,1,0,0:0:0:0:
128,192,46601,1,0,0:0:0:0:
384,192,46601,1,0,0:0:0:0:
179,192,46950,1,0,0:0:0:0:
332,192,46950,1,0,0:0:0:0:
230,192,47298,1,0,0:0:0:0:
281,192,47298,1,0,0:0:0:0:
76,192,47647,1,0,0:0:0:0:
435,192,47647,1,0,0:0:0:0:
179,192,47734,1,0,0:0:0:0:
332,192,47734,1,0,0:0:0:0:
76,192,47822,1,0,0:0:0:0:
435,192,47822,1,0,0:0:0:0:
179,192,47909,1,0,0:0:0:0:
332,192,47909,1,0,0:0:0:0:
230,192,47996,1,0,0:0:0:0:
281,192,47996,1,0,0:0:0:0:
486,192,47996,1,0,0:0:0:0:
25,192,47996,1,0,0:0:0:0:
384,192,48170,1,0,0:0:0:0:
179,192,48170,1,0,0:0:0:0:
76,192,48258,1,0,0:0:0:0:
230,192,48345,1,0,0:0:0:0:
486,192,48345,1,0,0:0:0:0:
25,192,48345,1,0,0:0:0:0:
332,192,48519,1,0,0:0:0:0:
128,192,48519,1,0,0:0:0:0:
435,192,48606,1,0,0:0:0:0:
486,192,48694,1,0,0:0:0:0:
281,192,48694,1,0,0:0:0:0:
25,192,48694,1,0,0:0:0:0:
128,192,48868,1,0,0:0:0:0:
384,192,48868,1,0,0:0:0:0:
230,192,48955,1,0,0:0:0:0:
179,192,49043,1,0,0:0:0:0:
76,192,49043,1,0,0:0:0:0:
332,192,49043,1,0,0:0:0:0:
384,192,49217,1,0,0:0:0:0:
281,192,49304,1,0,0:0:0:0:
332,192,49391,1,0,0:0:0:0:
435,192,49391,1,0,0:0:0:0:
179,192,49391,1,0,0:0:0:0:
384,192,49566,1,0,0:0:0:0:
76,192,49566,1,0,0:0:0:0:
179,192,49653,1,0,0:0:0:0:
230,192,49740,1,0,0:0:0:0:
25,192,49740,1,0,0:0:0:0:
332,192,49740,1,0,0:0:0:0:
435,192,49915,1,0,0:0:0:0:
332,192,50002,1,0,0:0:0:0:
76,192,50089,1,0,0:0:0:0:
281,192,50089,1,0,0:0:0:0:
486,192,50089,1,0,0:0:0:0:
128,192,50133,1,0,0:0:0:0:
179,192,50176,1,0,0:0:0:0:
435,192,50263,1,0,0:0:0:0:
384,192,50307,1,0,0:0:0:0:
332,192,50351,1,0,0:0:0:0:
281,192,50438,1,0,0:0:0:0:
25,192,50438,1,0,0:0:0:0:
486,192,50438,1,0,0:0:0:0:
76,192,50481,1,0,0:0:0:0:
128,192,50525,1,0,0:0:0:0:
435,192,50612,1,0,0:0:0:0:
332,192,50612,1,0,0:0:0:0:
76,192,50700,1,0,0:0:0:0:
281,192,50787,128,0,51136:0:0:0:0:
230,192,50787,1,0,0:0:0:0:
486,192,50787,1,0,0:0:0:0:
384,192,50787,1,0,0:0:0:0:
435,192,50961,1,0,0:0:0:0:
128,192,51136,128,0,51484:0:0:0:0:
384,192,51136,1,0,0:0:0:0:
25,192,51136,1,0,0:0:0:0:
230,192,51310,1,0,0:0:0:0:
435,192,51484,128,0,51833:0:0:0:0:
332,192,51484,1,0,0:0:0:0:
76,192,51484,1,0,0:0:0:0:
179,192,51659,1,0,0:0:0:0:
128,192,51833,1,0,0:0:0:0:
384,192,51833,1,0,0:0:0:0:
486,192,51833,1,0,0:0:0:0:
281,192,52008,1,0,0:0:0:0:
25,192,52008,1,0,0:0:0:0:
435,192,52182,1,0,0:0:0:0:
179,192,52182,1,0,0:0:0:0:
332,192,52182,1,0,0:0:0:0:
384,192,52356,1,0,0:0:0:0:
128,192,52356,1,0,0:0:0:0:
179,192,52531,128,0,52880:0:0:0:0:
76,192,52531,1,0,0:0:0:0:
332,192,52531,1,0,0:0:0:0:
384,192,52705,1,0,0:0:0:0:
332,192,52880,128,0,53229:0:0:0:0:
435,192,52880,1,0,0:0:0:0:
230,192,52880,1,0,0:0:0:0:
128,192,53054,1,0,0:0:0:0:
281,192,53229,1,0,0:0:0:0:
25,192,53229,1,0,0:0:0:0:
179,192,53403,1,0,0:0:0:0:
332,192,53403,1,0,0:0:0:0:
384,192,53577,1,0,0:0:0:0:
486,192,53577,128,0,53926:0:0:0:0:
76,192,53577,1,0,0:0:0:0:
230,192,53752,1,0,0:0:0:0:
128,192,53926,1,0,0:0:0:0:
25,192,53926,1,0,0:0:0:0:
435,192,53926,1,0,0:0:0:0:
179,192,54101,1,0,0:0:0:0:
76,192,54101,1,0,0:0:0:0:
384,192,54275,1,0,0:0:0:0:
281,192,54275,1,0,0:0:0:0:
128,192,54275,1,0,0:0:0:0:
332,192,54450,1,0,0:0:0:0:
435,192,54450,1,0,0:0:0:0:
384,192,54624,1,0,0:0:0:0:
281,192,54624,1,0,0:0:0:0:
25,192,54624,1,0,0:0:0:0:
332,192,54798,1,0,0:0:0:0:
230,192,54798,1,0,0:0:0:0:
25,192,54973,1,0,0:0:0:0:
486,192,54973,1,0,0:0:0:0:
281,192,54973,1,0,0:0:0:0:
384,192,55147,1,0,0:0:0:0:
128,192,55147,1,0,0:0:0:0:
281,192,55322,1,0,0:0:0:0:
230,192,55322,1,0,0:0:0:0:
25,192,55322,1,0,0:0:0:0:
384,192,55496,1,0,0:0:0:0:
128,192,55496,1,0,0:0:0:0:
486,192,55670,128,0,56019:0:0:0:0:
25,192,55670,128,0,56019:0:0:0:0:
281,192,55670,1,0,0:0:0:0:
230,192,55670,1,0,0:0:0:0:
332,192,55845,1,0,0:0:0:0:
179,192,55932,1,0,0:0:0:0:
332,192,56019,128,0,56368:0:0:0:0:
179,192,56368,1,0,0:0:0:0:
76,192,56368,1,0,0:0:0:0:
25,192,56368,1,0,0:0:0:0:
281,192,56455,1,0,0:0:0:0:
384,192,56543,1,0,0:0:0:0:
486,192,56630,1,0,0:0:0:0:
230,192,56717,1,0,0:0:0:0:
128,192,56717,1,0,0:0:0:0:
332,192,56804,1,0,0:0:0:0:
435,192,56891,1,0,0:0:0:0:
179,192,56891,1,0,0:0:0:0:
76,192,56891,1,0,0:0:0:0:
281,192,56979,1,0,0:0:0:0:
384,192,57066,1,0,0:0:0:0:
486,192,57066,1,0,0:0:0:0:
25,192,57066,1,0,0:0:0:0:
230,192,57066,1,0,0:0:0:0:
128,192,57153,1,0,0:0:0:0:
230,192,57240,1,0,0:0:0:0:
332,192,57327,1,0,0:0:0:0:
435,192,57415,1,0,0:0:0:0:
76,192,57415,1,0,0:0:0:0:
179,192,57502,1,0,0:0:0:0:
281,192,57589,1,0,0:0:0:0:
486,192,57589,1,0,0:0:0:0:
128,192,57589,1,0,0:0:0:0:
384,192,57676,1,0,0:0:0:0:
76,192,57763,1,0,0:0:0:0:
25,192,57763,1,0,0:0:0:0:
230,192,57763,1,0,0:0:0:0:
332,192,57851,1,0,0:0:0:0:
486,192,57938,1,0,0:0:0:0:
230,192,58025,1,0,0:0:0:0:
76,192,58025,1,0,0:0:0:0:
25,192,58025,1,0,0:0:0:0:
281,192,58112,1,0,0:0:0:0:
435,192,58200,1,0,0:0:0:0:
25,192,58287,1,0,0:0:0:0:
76,192,58287,1,0,0:0:0:0:
230,192,58287,1,0,0:0:0:0:
332,192,58374,1,0,0:0:0:0:
179,192,58461,1,0,0:0:0:0:
128,192,58461,1,0,0:0:0:0:
435,192,58461,1,0,0:0:0:0:
486,192,58461,1,0,0:0:0:0:
332,192,58548,1,0,0:0:0:0:
230,192,58636,1,0,0:0:0:0:
384,192,58636,1,0,0:0:0:0:
128,192,58723,1,0,0:0:0:0:
76,192,58810,1,0,0:0:0:0:
25,192,58810,1,0,0:0:0:0:
486,192,58810,1,0,0:0:0:0:
384,192,58897,1,0,0:0:0:0:
281,192,58984,1,0,0:0:0:0:
179,192,59072,1,0,0:0:0:0:
230,192,59159,128,0,60380:0:0:0:0:
281,192,59159,128,0,60380:0:0:0:0:
76,192,59159,1,0,0:0:0:0:
25,192,59159,1,0,0:0:0:0:
435,192,59333,1,0,0:0:0:0:
486,192,59333,1,0,0:0:0:0:
128,192,59508,1,0,0:0:0:0:
76,192,59508,1,0,0:0:0:0:
384,192,59682,1,0,0:0:0:0:
435,192,59682,1,0,0:0:0:0:
179,192,59856,1,0,0:0:0:0:
128,192,59856,1,0,0:0:0:0:
332,192,60031,1,0,0:0:0:0:
384,192,60031,1,0,0:0:0:0:
128,192,60205,1,0,0:0:0:0:
76,192,60205,1,0,0:0:0:0:
384,192,60380,1,0,0:0:0:0:
435,192,60380,1,0,0:0:0:0:
25,192,60554,1,0,0:0:0:0:
281,192,60554,1,0,0:0:0:0:
486,192,60554,1,0,0:0:0:0:
76,192,60641,1,0,0:0:0:0:
332,192,60641,1,0,0:0:0:0:
128,192,60729,1,0,0:0:0:0:
384,192,60729,1,0,0:0:0:0:
179,192,60816,1,0,0:0:0:0:
435,192,60816,1,0,0:0:0:0:
230,192,60903,1,0,0:0:0:0:
486,192,60903,1,0,0:0:0:0:
25,192,60903,1,0,0:0:0:0:
179,192,60990,1,0,0:0:0:0:
435,192,60990,1,0,0:0:0:0:
128,192,61077,1,0,0:0:0:0:
384,192,61077,1,0,0:0:0:0:
76,192,61165,1,0,0:0:0:0:
332,192,61165,1,0,0:0:0:0:
25,192,61252,1,0,0:0:0:0:
281,192,61252,1,0,0:0:0:0:
486,192,61252,1,0,0:0:0:0:
435,192,61426,128,0,61950:0:0:0:0:
76,192,61426,128,0,61950:0:0:0:0:
179,192,61601,128,0,61950:0:0:0:0:
332,192,61601,128,0,61950:0:0:0:0:
230,192,61950,1,0,0:0:0:0:
128,192,61950,1,0,0:0:0:0:
25,192,61950,1,0,0:0:0:0:
486,192,61950,1,0,0:0:0:0:
281,192,61950,1,0,0:0:0:0:
384,192,61950,1,0,0:0:0:0:
332,192,62037,1,0,0:0:0:0:
384,192,62124,1,0,0:0:0:0:
179,192,62124,1,0,0:0:0:0:
435,192,62211,1,0,0:0:0:0:
486,192,62298,1,0,0:0:0:0:
281,192,62298,1,0,0:0:0:0:
25,192,62298,1,0,0:0:0:0:
76,192,62298,1,0,0:0:0:0:
179,192,62386,1,0,0:0:0:0:
76,192,62473,1,0,0:0:0:0:
332,192,62473,1,0,0:0:0:0:
384,192,62560,1,0,0:0:0:0:
435,192,62647,1,0,0:0:0:0:
486,192,62647,1,0,0:0:0:0:
281,192,62647,1,0,0:0:0:0:
230,192,62647,1,0,0:0:0:0:
128,192,62734,1,0,0:0:0:0:
25,192,62822,1,0,0:0:0:0:
332,192,62822,1,0,0:0:0:0:
128,192,62909,1,0,0:0:0:0:
230,192,62996,1,0,0:0:0:0:
281,192,62996,1,0,0:0:0:0:
384,192,62996,1,0,0:0:0:0:
486,192,62996,1,0,0:0:0:0:
179,192,63083,1,0,0:0:0:0:
332,192,63170,1,0,0:0:0:0:
435,192,63170,1,0,0:0:0:0:
76,192,63258,1,0,0:0:0:0:
486,192,63345,1,0,0:0:0:0:
384,192,63345,1,0,0:0:0:0:
281,192,63345,1,0,0:0:0:0:
179,192,63345,1,0,0:0:0:0:
76,192,63432,1,0,0:0:0:0:
128,192,63519,1,0,0:0:0:0:
332,192,63519,1,0,0:0:0:0:
179,192,63606,1,0,0:0:0:0:
230,192,63694,1,0,0:0:0:0:
384,192,63694,1,0,0:0:0:0:
435,192,63694,1,0,0:0:0:0:
486,192,63694,1,0,0:0:0:0:
25,192,63781,1,0,0:0:0:0:
128,192,63868,1,0,0:0:0:0:
332,192,63868,1,0,0:0:0:0:
230,192,63955,1,0,0:0:0:0:
486,192,64043,1,0,0:0:0:0:
281,192,64043,1,0,0:0:0:0:
76,192,64043,1,0,0:0:0:0:
179,192,64043,1,0,0:0:0:0:
435,192,64130,1,0,0:0:0:0:
384,192,64217,1,0,0:0:0:0:
128,192,64217,1,0,0:0:0:0:
332,192,64304,1,0,0:0:0:0:
76,192,64391,1,0,0:0:0:0:
25,192,64391,1,0,0:0:0:0:
230,192,64391,1,0,0:0:0:0:
281,192,64391,1,0,0:0:0:0:
486,192,64391,1,0,0:0:0:0:
435,192,64450,1,0,0:0:0:0:
384,192,64508,1,0,0:0:0:0:
332,192,64566,1,0,0:0:0:0:
128,192,64566,1,0,0:0:0:0:
281,192,64624,1,0,0:0:0:0:
230,192,64682,1,0,0:0:0:0:
179,192,64740,1,0,0:0:0:0:
25,192,64740,1,0,0:0:0:0:
486,192,64740,1,0,0:0:0:0:
435,192,64740,1,0,0:0:0:0:
332,192,64827,1,0,0:0:0:0:
435,192,64915,1,0,0:0:0:0:
128,192,64915,1,0,0:0:0:0:
332,192,65002,1,0,0:0:0:0:
435,192,65089,1,0,0:0:0:0:
76,192,65089,1,0,0:0:0:0:
179,192,65089,1,0,0:0:0:0:
230,192,65089,1,0,0:0:0:0:
281,192,65176,1,0,0:0:0:0:
332,192,65263,1,0,0:0:0:0:
128,192,65263,1,0,0:0:0:0:
384,192,65351,1,0,0:0:0:0:
76,192,65438,1,0,0:0:0:0:
25,192,65438,1,0,0:0:0:0:
435,192,65438,1,0,0:0:0:0:
281,192,65438,1,0,0:0:0:0:
230,192,65525,1,0,0:0:0:0:
486,192,65612,1,0,0:0:0:0:
179,192,65612,1,0,0:0:0:0:
128,192,65700,1,0,0:0:0:0:
332,192,65787,1,0,0:0:0:0:
384,192,65787,1,0,0:0:0:0:
76,192,65787,1,0,0:0:0:0:
281,192,65787,1,0,0:0:0:0:
128,192,65845,1,0,0:0:0:0:
179,192,65903,1,0,0:0:0:0:
230,192,65961,1,0,0:0:0:0:
435,192,65961,1,0,0:0:0:0:
281,192,66019,1,0,0:0:0:0:
332,192,66077,1,0,0:0:0:0:
435,192,66136,1,0,0:0:0:0:
486,192,66136,1,0,0:0:0:0:
25,192,66136,1,0,0:0:0:0:
230,192,66136,1,0,0:0:0:0:
76,192,66194,1,0,0:0:0:0:
128,192,66252,1,0,0:0:0:0:
179,192,66310,1,0,0:0:0:0:
384,192,66310,1,0,0:0:0:0:
230,192,66368,1,0,0:0:0:0:
281,192,66426,1,0,0:0:0:0:
486,192,66484,1,0,0:0:0:0:
25,192,66484,1,0,0:0:0:0:
76,192,66484,1,0,0:0:0:0:
179,192,66484,1,0,0:0:0:0:
435,192,66543,1,0,0:0:0:0:
384,192,66601,1,0,0:0:0:0:
332,192,66659,1,0,0:0:0:0:
128,192,66659,1,0,0:0:0:0:
281,192,66717,1,0,0:0:0:0:
230,192,66775,1,0,0:0:0:0:
25,192,66833,1,0,0:0:0:0:
486,192,66833,1,0,0:0:0:0:
435,192,66833,1,0,0:0:0:0:
332,192,66833,1,0,0:0:0:0:
76,192,66891,1,0,0:0:0:0:
128,192,66950,1,0,0:0:0:0:
179,192,67008,1,0,0:0:0:0:
384,192,67008,1,0,0:0:0:0:
230,192,67066,1,0,0:0:0:0:
281,192,67124,1,0,0:0:0:0:
486,192,67182,1,0,0:0:0:0:
76,192,67182,1,0,0:0:0:0:
25,192,67182,1,0,0:0:0:0:
179,192,67182,1,0,0:0:0:0:
435,192,67240,1,0,0:0:0:0:
384,192,67298,1,0,0:0:0:0:
332,192,67356,1,0,0:0:0:0:
128,192,67356,1,0,0:0:0:0:
281,192,67415,1,0,0:0:0:0:
230,192,67473,1,0,0:0:0:0:
179,192,67531,1,0,0:0:0:0:
76,192,67531,1,0,0:0:0:0:
435,192,67531,1,0,0:0:0:0:
486,192,67531,1,0,0:0:0:0:
281,192,67618,1,0,0:0:0:0:
128,192,67705,1,0,0:0:0:0:
332,192,67705,1,0,0:0:0:0:
384,192,67793,1,0,0:0:0:0:
76,192,67880,1,0,0:0:0:0:
25,192,67880,1,0,0:0:0:0:
281,192,67880,1,0,0:0:0:0:
230,192,67880,1,0,0:0:0:0:
486,192,67967,1,0,0:0:0:0:
384,192,68054,1,0,0:0:0:0:
179,192,68054,1,0,0:0:0:0:
281,192,68141,1,0,0:0:0:0:
332,192,68229,1,0,0:0:0:0:
435,192,68229,1,0,0:0:0:0:
230,192,68229,1,0,0:0:0:0:
25,192,68229,1,0,0:0:0:0:
76,192,68316,1,0,0:0:0:0:
128,192,68403,1,0,0:0:0:0:
384,192,68403,1,0,0:0:0:0:
179,192,68490,1,0,0:0:0:0:
486,192,68577,1,0,0:0:0:0:
281,192,68577,1,0,0:0:0:0:
230,192,68577,1,0,0:0:0:0:
25,192,68577,1,0,0:0:0:0:
435,192,68636,1,0,0:0:0:0:
384,192,68694,1,0,0:0:0:0:
332,192,68752,1,0,0:0:0:0:
128,192,68752,1,0,0:0:0:0:
281,192,68810,1,0,0:0:0:0:
230,192,68868,1,0,0:0:0:0:
179,192,68926,1,0,0:0:0:0:
76,192,68926,1,0,0:0:0:0:
25,192,68926,1,0,0:0:0:0:
486,192,68926,1,0,0:0:0:0:
384,192,69013,1,0,0:0:0:0:
281,192,69101,1,0,0:0:0:0:
128,192,69101,1,0,0:0:0:0:
435,192,69188,1,0,0:0:0:0:
332,192,69275,1,0,0:0:0:0:
230,192,69275,1,0,0:0:0:0:
179,192,69275,1,0,0:0:0:0:
25,192,69275,1,0,0:0:0:0:
486,192,69362,1,0,0:0:0:0:
435,192,69450,1,0,0:0:0:0:
128,192,69450,1,0,0:0:0:0:
384,192,69537,1,0,0:0:0:0:
76,192,69624,1,0,0:0:0:0:
281,192,69624,1,0,0:0:0:0:
332,192,69624,1,0,0:0:0:0:
25,192,69624,1,0,0:0:0:0:
128,192,69711,1,0,0:0:0:0:
179,192,69798,1,0,0:0:0:0:
384,192,69798,1,0,0:0:0:0:
230,192,69886,1,0,0:0:0:0:
281,192,69973,1,0,0:0:0:0:
25,192,69973,1,0,0:0:0:0:
435,192,69973,1,0,0:0:0:0:
332,192,69973,1,0,0:0:0:0:
76,192,70031,1,0,0:0:0:0:
128,192,70089,1,0,0:0:0:0:
179,192,70147,1,0,0:0:0:0:
486,192,70147,1,0,0:0:0:0:
435,192,70205,1,0,0:0:0:0:
384,192,70263,1,0,0:0:0:0:
332,192,70322,1,0,0:0:0:0:
281,192,70322,1,0,0:0:0:0:
25,192,70322,1,0,0:0:0:0:
76,192,70322,1,0,0:0:0:0:
128,192,70409,1,0,0:0:0:0:
384,192,70496,1,0,0:0:0:0:
179,192,70496,1,0,0:0:0:0:
128,192,70583,1,0,0:0:0:0:
25,192,70670,1,0,0:0:0:0:
486,192,70670,1,0,0:0:0:0:
435,192,70670,1,0,0:0:0:0:
76,192,70670,1,0,0:0:0:0:
384,192,70758,1,0,0:0:0:0:
332,192,70845,1,0,0:0:0:0:
128,192,70845,1,0,0:0:0:0:
384,192,70932,1,0,0:0:0:0:
435,192,71019,1,0,0:0:0:0:
486,192,71019,1,0,0:0:0:0:
179,192,71019,1,0,0:0:0:0:
230,192,71019,1,0,0:0:0:0:
128,192,71106,1,0,0:0:0:0:
76,192,71194,1,0,0:0:0:0:
384,192,71194,1,0,0:0:0:0:
128,192,71281,1,0,0:0:0:0:
179,192,71368,1,0,0:0:0:0:
230,192,71368,1,0,0:0:0:0:
281,192,71368,1,0,0:0:0:0:
332,192,71368,1,0,0:0:0:0:
384,192,71455,1,0,0:0:0:0:
435,192,71543,1,0,0:0:0:0:
25,192,71543,1,0,0:0:0:0:
486,192,71630,1,0,0:0:0:0:
179,192,71717,1,0,0:0:0:0:
128,192,71717,1,0,0:0:0:0:
76,192,71717,1,0,0:0:0:0:
332,192,71804,1,0,0:0:0:0:
384,192,71804,1,0,0:0:0:0:
435,192,71804,1,0,0:0:0:0:
179,192,71891,1,0,0:0:0:0:
76,192,71891,1,0,0:0:0:0:
128,192,71891,1,0,0:0:0:0:
332,192,71979,1,0,0:0:0:0:
384,192,71979,1,0,0:0:0:0:
435,192,71979,1,0,0:0:0:0:
76,192,72066,1,0,0:0:0:0:
128,192,72066,1,0,0:0:0:0:
179,192,72066,1,0,0:0:0:0:
384,192,72153,1,0,0:0:0:0:
435,192,72153,1,0,0:0:0:0:
332,192,72153,1,0,0:0:0:0:
128,192,72240,1,0,0:0:0:0:
76,192,72240,1,0,0:0:0:0:
25,192,72240,1,0,0:0:0:0:
384,192,72327,1,0,0:0:0:0:
435,192,72327,1,0,0:0:0:0:
486,192,72327,1,0,0:0:0:0:
179,192,72415,1,0,0:0:0:0:
230,192,72415,1,0,0:0:0:0:
281,192,72415,1,0,0:0:0:0:
332,192,72415,1,0,0:0:0:0:
332,192,72589,1,0,0:0:0:0:
384,192,72589,1,0,0:0:0:0:
179,192,72589,1,0,0:0:0:0:
128,192,72589,1,0,0:0:0:0:
281,192,72763,1,0,0:0:0:0:
230,192,72763,1,0,0:0:0:0:
25,192,72763,128,0,73112:0:0:0:0:
486,192,72763,128,0,73112:0:0:0:0:
179,192,72938,128,0,73112:0:0:0:0:
332,192,72938,128,0,73112:0:0:0:0:
230,192,73112,1,0,0:0:0:0:
281,192,73112,1,0,0:0:0:0:
179,192,73200,1,0,0:0:0:0:
128,192,73200,1,0,0:0:0:0:
332,192,73287,1,0,0:0:0:0:
384,192,73287,1,0,0:0:0:0:
281,192,73374,1,0,0:0:0:0:
230,192,73374,1,0,0:0:0:0:
435,192,73461,1,0,0:0:0:0:
486,192,73461,1,0,0:0:0:0:
76,192,73461,1,0,0:0:0:0:
25,192,73461,1,0,0:0:0:0:
332,192,73461,1,0,0:0:0:0:
179,192,73461,1,0,0:0:0:0:
128,192,73548,1,0,0:0:0:0:
384,192,73636,1,0,0:0:0:0:
230,192,73636,1,0,0:0:0:0:
128,192,73723,1,0,0:0:0:0:
76,192,73810,1,0,0:0:0:0:
25,192,73810,1,0,0:0:0:0:
332,192,73810,1,0,0:0:0:0:
435,192,73810,1,0,0:0:0:0:
281,192,73897,1,0,0:0:0:0:
230,192,73984,1,0,0:0:0:0:
486,192,73984,1,0,0:0:0:0:
179,192,74072,1,0,0:0:0:0:
128,192,74159,1,0,0:0:0:0:
76,192,74159,1,0,0:0:0:0:
25,192,74159,1,0,0:0:0:0:
281,192,74159,1,0,0:0:0:0:
332,192,74246,1,0,0:0:0:0:
384,192,74333,1,0,0:0:0:0:
230,192,74333,1,0,0:0:0:0:
435,192,74420,1,0,0:0:0:0:
332,192,74508,1,0,0:0:0:0:
281,192,74508,1,0,0:0:0:0:
128,192,74508,1,0,0:0:0:0:
76,192,74508,1,0,0:0:0:0:
486,192,74595,1,0,0:0:0:0:
384,192,74682,1,0,0:0:0:0:
179,192,74682,1,0,0:0:0:0:
486,192,74769,1,0,0:0:0:0:
128,192,74856,1,0,0:0:0:0:
25,192,74856,1,0,0:0:0:0:
281,192,74856,1,0,0:0:0:0:
332,192,74856,1,0,0:0:0:0:
179,192,74944,1,0,0:0:0:0:
76,192,75031,1,0,0:0:0:0:
384,192,75031,1,0,0:0:0:0:
179,192,75118,1,0,0:0:0:0:
486,192,75205,1,0,0:0:0:0:
435,192,75205,1,0,0:0:0:0:
230,192,75205,1,0,0:0:0:0:
25,192,75205,1,0,0:0:0:0:
384,192,75293,1,0,0:0:0:0:
332,192,75380,1,0,0:0:0:0:
179,192,75380,1,0,0:0:0:0:
281,192,75467,1,0,0:0:0:0:
25,192,75554,1,0,0:0:0:0:
230,192,75554,1,0,0:0:0:0:
486,192,75554,1,0,0:0:0:0:
435,192,75554,1,0,0:0:0:0:
76,192,75612,1,0,0:0:0:0:
128,192,75670,1,0,0:0:0:0:
179,192,75729,1,0,0:0:0:0:
384,192,75729,1,0,0:0:0:0:
230,192,75787,1,0,0:0:0:0:
281,192,75845,1,0,0:0:0:0:
332,192,75903,1,0,0:0:0:0:
435,192,75903,1,0,0:0:0:0:
486,192,75903,1,0,0:0:0:0:
25,192,75903,1,0,0:0:0:0:
128,192,75990,1,0,0:0:0:0:
230,192,76077,1,0,0:0:0:0:
384,192,76077,1,0,0:0:0:0:
128,192,76165,1,0,0:0:0:0:
25,192,76252,1,0,0:0:0:0:
486,192,76252,1,0,0:0:0:0:
435,192,76252,1,0,0:0:0:0:
332,192,76252,1,0,0:0:0:0:
230,192,76339,1,0,0:0:0:0:
76,192,76426,1,0,0:0:0:0:
384,192,76426,1,0,0:0:0:0:
230,192,76513,1,0,0:0:0:0:
281,192,76601,1,0,0:0:0:0:
332,192,76601,1,0,0:0:0:0:
486,192,76601,1,0,0:0:0:0:
179,192,76601,1,0,0:0:0:0:
128,192,76688,1,0,0:0:0:0:
76,192,76775,1,0,0:0:0:0:
384,192,76775,1,0,0:0:0:0:
128,192,76862,1,0,0:0:0:0:
179,192,76950,1,0,0:0:0:0:
25,192,76950,1,0,0:0:0:0:
281,192,76950,1,0,0:0:0:0:
435,192,76950,1,0,0:0:0:0:
384,192,77008,1,0,0:0:0:0:
332,192,77066,1,0,0:0:0:0:
281,192,77124,1,0,0:0:0:0:
76,192,77124,1,0,0:0:0:0:
128,192,77182,1,0,0:0:0:0:
179,192,77240,1,0,0:0:0:0:
230,192,77298,1,0,0:0:0:0:
486,192,77298,1,0,0:0:0:0:
281,192,77298,1,0,0:0:0:0:
25,192,77298,1,0,0:0:0:0:
435,192,77356,1,0,0:0:0:0:
384,192,77415,1,0,0:0:0:0:
332,192,77473,1,0,0:0:0:0:
25,192,77473,1,0,0:0:0:0:
76,192,77531,1,0,0:0:0:0:
128,192,77589,1,0,0:0:0:0:
179,192,77647,1,0,0:0:0:0:
281,192,77647,1,0,0:0:0:0:
486,192,77647,1,0,0:0:0:0:
435,192,77647,1,0,0:0:0:0:
332,192,77705,1,0,0:0:0:0:
384,192,77763,1,0,0:0:0:0:
435,192,77822,1,0,0:0:0:0:
230,192,77822,1,0,0:0:0:0:
179,192,77880,1,0,0:0:0:0:
128,192,77938,1,0,0:0:0:0:
76,192,77996,1,0,0:0:0:0:
332,192,77996,1,0,0:0:0:0:
25,192,77996,1,0,0:0:0:0:
281,192,77996,1,0,0:0:0:0:
384,192,78054,1,0,0:0:0:0:
435,192,78112,1,0,0:0:0:0:
486,192,78170,1,0,0:0:0:0:
179,192,78170,1,0,0:0:0:0:
128,192,78229,1,0,0:0:0:0:
76,192,78287,1,0,0:0:0:0:
25,192,78345,1,0,0:0:0:0:
435,192,78345,1,0,0:0:0:0:
230,192,78345,1,0,0:0:0:0:
486,192,78345,1,0,0:0:0:0:
384,192,78403,1,0,0:0:0:0:
332,192,78461,1,0,0:0:0:0:
281,192,78519,1,0,0:0:0:0:
76,192,78519,1,0,0:0:0:0:
128,192,78577,1,0,0:0:0:0:
179,192,78636,1,0,0:0:0:0:
230,192,78694,1,0,0:0:0:0:
486,192,78694,1,0,0:0:0:0:
435,192,78694,1,0,0:0:0:0:
384,192,78694,1,0,0:0:0:0:
76,192,78781,1,0,0:0:0:0:
179,192,78868,1,0,0:0:0:0:
281,192,78868,1,0,0:0:0:0:
76,192,78955,1,0,0:0:0:0:
179,192,79043,1,0,0:0:0:0:
332,192,79043,1,0,0:0:0:0:
435,192,79043,1,0,0:0:0:0:
486,192,79043,1,0,0:0:0:0:
281,192,79130,1,0,0:0:0:0:
384,192,79217,1,0,0:0:0:0:
128,192,79217,1,0,0:0:0:0:
281,192,79304,1,0,0:0:0:0:
76,192,79391,1,0,0:0:0:0:
25,192,79391,1,0,0:0:0:0:
179,192,79391,1,0,0:0:0:0:
486,192,79391,1,0,0:0:0:0:
435,192,79479,1,0,0:0:0:0:
384,192,79566,1,0,0:0:0:0:
230,192,79566,1,0,0:0:0:0:
332,192,79653,1,0,0:0:0:0:
281,192,79740,1,0,0:0:0:0:
486,192,79740,1,0,0:0:0:0:
25,192,79740,1,0,0:0:0:0:
435,192,79740,1,0,0:0:0:0:
76,192,79798,1,0,0:0:0:0:
128,192,79856,1,0,0:0:0:0:
179,192,79915,1,0,0:0:0:0:
384,192,79915,1,0,0:0:0:0:
230,192,79973,1,0,0:0:0:0:
281,192,80031,1,0,0:0:0:0:
332,192,80089,1,0,0:0:0:0:
435,192,80089,1,0,0:0:0:0:
486,192,80089,1,0,0:0:0:0:
25,192,80089,1,0,0:0:0:0:
179,192,80176,1,0,0:0:0:0:
76,192,80263,1,0,0:0:0:0:
384,192,80263,1,0,0:0:0:0:
179,192,80351,1,0,0:0:0:0:
25,192,80438,1,0,0:0:0:0:
230,192,80438,1,0,0:0:0:0:
281,192,80438,1,0,0:0:0:0:
486,192,80438,1,0,0:0:0:0:
332,192,80525,1,0,0:0:0:0:
435,192,80612,1,0,0:0:0:0:
128,192,80612,1,0,0:0:0:0:
332,192,80700,1,0,0:0:0:0:
435,192,80787,1,0,0:0:0:0:
281,192,80787,1,0,0:0:0:0:
230,192,80787,1,0,0:0:0:0:
25,192,80787,1,0,0:0:0:0:
76,192,80874,1,0,0:0:0:0:
128,192,80961,1,0,0:0:0:0:
384,192,80961,1,0,0:0:0:0:
179,192,81048,1,0,0:0:0:0:
230,192,81136,1,0,0:0:0:0:
281,192,81136,1,0,0:0:0:0:
25,192,81136,1,0,0:0:0:0:
486,192,81136,1,0,0:0:0:0:
435,192,81194,1,0,0:0:0:0:
384,192,81252,1,0,0:0:0:0:
76,192,81310,1,0,0:0:0:0:
179,192,81310,1,0,0:0:0:0:
332,192,81310,1,0,0:0:0:0:
281,192,81368,1,0,0:0:0:0:
230,192,81426,1,0,0:0:0:0:
128,192,81484,1,0,0:0:0:0:
179,192,81484,1,0,0:0:0:0:
435,192,81484,1,0,0:0:0:0:
486,192,81484,1,0,0:0:0:0:
281,192,81572,1,0,0:0:0:0:
25,192,81659,1,0,0:0:0:0:
384,192,81659,1,0,0:0:0:0:
281,192,81746,1,0,0:0:0:0:
179,192,81833,1,0,0:0:0:0:
435,192,81833,1,0,0:0:0:0:
486,192,81833,1,0,0:0:0:0:
76,192,81833,1,0,0:0:0:0:
332,192,81920,1,0,0:0:0:0:
230,192,82008,1,0,0:0:0:0:
128,192,82008,1,0,0:0:0:0:
332,192,82095,1,0,0:0:0:0:
486,192,82182,1,0,0:0:0:0:
384,192,82182,1,0,0:0:0:0:
25,192,82182,1,0,0:0:0:0:
76,192,82182,1,0,0:0:0:0:
179,192,82269,1,0,0:0:0:0:
281,192,82356,1,0,0:0:0:0:
435,192,82356,1,0,0:0:0:0:
384,192,82444,1,0,0:0:0:0:
332,192,82531,1,0,0:0:0:0:
128,192,82531,1,0,0:0:0:0:
25,192,82531,1,0,0:0:0:0:
230,192,82531,1,0,0:0:0:0:
486,192,82618,1,0,0:0:0:0:
76,192,82705,1,0,0:0:0:0:
179,192,82705,1,0,0:0:0:0:
281,192,82793,1,0,0:0:0:0:
128,192,82880,1,0,0:0:0:0:
230,192,82880,1,0,0:0:0:0:
384,192,82880,1,0,0:0:0:0:
435,192,82880,1,0,0:0:0:0:
332,192,82938,1,0,0:0:0:0:
281,192,82996,1,0,0:0:0:0:
486,192,83054,1,0,0:0:0:0:
230,192,83054,1,0,0:0:0:0:
435,192,83112,1,0,0:0:0:0:
384,192,83170,1,0,0:0:0:0:
128,192,83229,1,0,0:0:0:0:
332,192,83229,1,0,0:0:0:0:
76,192,83229,1,0,0:0:0:0:
281,192,83229,1,0,0:0:0:0:
179,192,83287,1,0,0:0:0:0:
230,192,83345,1,0,0:0:0:0:
25,192,83403,1,0,0:0:0:0:
281,192,83403,1,0,0:0:0:0:
76,192,83461,1,0,0:0:0:0:
128,192,83519,1,0,0:0:0:0:
179,192,83577,1,0,0:0:0:0:
230,192,83577,1,0,0:0:0:0:
486,192,83577,1,0,0:0:0:0:
435,192,83577,1,0,0:0:0:0:
281,192,83752,1,0,0:0:0:0:
128,192,83752,1,0,0:0:0:0:
486,192,83926,1,0,0:0:0:0:
179,192,83926,1,0,0:0:0:0:
76,192,83926,1,0,0:0:0:0:
25,192,83926,1,0,0:0:0:0:
281,192,83984,1,0,0:0:0:0:
332,192,84043,1,0,0:0:0:0:
128,192,84101,1,0,0:0:0:0:
230,192,84101,1,0,0:0:0:0:
384,192,84101,1,0,0:0:0:0:
435,192,84159,1,0,0:0:0:0:
486,192,84217,1,0,0:0:0:0:
179,192,84275,1,0,0:0:0:0:
76,192,84275,1,0,0:0:0:0:
25,192,84275,1,0,0:0:0:0:
281,192,84362,1,0,0:0:0:0:
384,192,84450,1,0,0:0:0:0:
486,192,84537,1,0,0:0:0:0:
128,192,84624,1,0,0:0:0:0:
230,192,84624,1,0,0:0:0:0:
332,192,84711,1,0,0:0:0:0:
179,192,84798,1,0,0:0:0:0:
76,192,84798,1,0,0:0:0:0:
435,192,84798,1,0,0:0:0:0:
281,192,84886,1,0,0:0:0:0:
384,192,84973,1,0,0:0:0:0:
486,192,84973,1,0,0:0:0:0:
230,192,84973,1,0,0:0:0:0:
25,192,84973,1,0,0:0:0:0:
128,192,85060,1,0,0:0:0:0:
230,192,85147,1,0,0:0:0:0:
332,192,85234,1,0,0:0:0:0:
435,192,85322,1,0,0:0:0:0:
76,192,85322,1,0,0:0:0:0:
179,192,85409,1,0,0:0:0:0:
281,192,85496,1,0,0:0:0:0:
486,192,85496,1,0,0:0:0:0:
384,192,85583,1,0,0:0:0:0:
230,192,85670,1,0,0:0:0:0:
25,192,85670,1,0,0:0:0:0:
76,192,85670,1,0,0:0:0:0:
281,192,85758,1,0,0:0:0:0:
435,192,85845,1,0,0:0:0:0:
230,192,85932,1,0,0:0:0:0:
76,192,85932,1,0,0:0:0:0:
25,192,85932,1,0,0:0:0:0:
332,192,86019,1,0,0:0:0:0:
486,192,86106,1,0,0:0:0:0:
230,192,86194,1,0,0:0:0:0:
76,192,86194,1,0,0:0:0:0:
25,192,86194,1,0,0:0:0:0:
332,192,86281,1,0,0:0:0:0:
435,192,86368,1,0,0:0:0:0:
486,192,86368,1,0,0:0:0:0:
179,192,86368,1,0,0:0:0:0:
128,192,86368,1,0,0:0:0:0:
332,192,86455,1,0,0:0:0:0:
281,192,86543,1,0,0:0:0:0:
230,192,86543,1,0,0:0:0:0:
128,192,86630,1,0,0:0:0:0:
76,192,86717,1,0,0:0:0:0:
25,192,86717,1,0,0:0:0:0:
486,192,86717,1,0,0:0:0:0:
384,192,86804,1,0,0:0:0:0:
281,192,86891,1,0,0:0:0:0:
179,192,86979,1,0,0:0:0:0:
230,192,87066,1,0,0:0:0:0:
25,192,87066,1,0,0:0:0:0:
486,192,87066,1,0,0:0:0:0:
384,192,87153,1,0,0:0:0:0:
281,192,87240,1,0,0:0:0:0:
179,192,87327,1,0,0:0:0:0:
76,192,87415,1,0,0:0:0:0:
332,192,87415,1,0,0:0:0:0:
179,192,87502,1,0,0:0:0:0:
76,192,87589,1,0,0:0:0:0:
281,192,87589,1,0,0:0:0:0:
486,192,87589,1,0,0:0:0:0:
384,192,87676,1,0,0:0:0:0:
486,192,87763,1,0,0:0:0:0:
281,192,87763,1,0,0:0:0:0:
230,192,87763,1,0,0:0:0:0:
25,192,87763,1,0,0:0:0:0:
128,192,87851,1,0,0:0:0:0:
230,192,87938,1,0,0:0:0:0:
435,192,87938,1,0,0:0:0:0:
332,192,88025,1,0,0:0:0:0:
435,192,88112,1,0,0:0:0:0:
76,192,88112,1,0,0:0:0:0:
179,192,88200,1,0,0:0:0:0:
281,192,88287,1,0,0:0:0:0:
384,192,88287,1,0,0:0:0:0:
128,192,88374,1,0,0:0:0:0:
76,192,88636,1,0,0:0:0:0:
128,192,88636,1,0,0:0:0:0:
179,192,88636,1,0,0:0:0:0:
332,192,88636,1,0,0:0:0:0:
384,192,88636,1,0,0:0:0:0:
435,192,88636,1,0,0:0:0:0:
435,192,88810,1,0,0:0:0:0:
384,192,88810,1,0,0:0:0:0:
332,192,88810,1,0,0:0:0:0:
179,192,88810,1,0,0:0:0:0:
128,192,88810,1,0,0:0:0:0:
76,192,88810,1,0,0:0:0:0:
128,192,88984,1,0,0:0:0:0:
179,192,88984,1,0,0:0:0:0:
230,192,88984,1,0,0:0:0:0:
281,192,88984,1,0,0:0:0:0:
332,192,88984,1,0,0:0:0:0:
384,192,88984,1,0,0:0:0:0:
435,192,89159,128,0,89420:0:0:0:0:
384,192,89159,128,0,89420:0:0:0:0:
332,192,89159,128,0,89420:0:0:0:0:
76,192,89159,128,0,89420:0:0:0:0:
128,192,89159,128,0,89420:0:0:0:0:
179,192,89159,128,0,89420:0:0:0:0:
76,192,89508,1,0,0:0:0:0:
128,192,89508,1,0,0:0:0:0:
179,192,89508,1,0,0:0:0:0:
332,192,89508,1,0,0:0:0:0:
384,192,89508,1,0,0:0:0:0:
435,192,89508,1,0,0:0:0:0:
76,192,89682,128,0,89944:0:0:0:0:
128,192,89682,128,0,89944:0:0:0:0:
179,192,89682,128,0,89944:0:0:0:0:
435,192,89682,128,0,89944:0:0:0:0:
384,192,89682,128,0,89944:0:0:0:0:
332,192,89682,128,0,89944:0:0:0:0:
486,192,90031,1,0,0:0:0:0:
435,192,90031,1,0,0:0:0:0:
384,192,90031,1,0,0:0:0:0:
128,192,90031,1,0,0:0:0:0:
76,192,90031,1,0,0:0:0:0:
25,192,90031,1,0,0:0:0:0:
179,192,90205,128,0,90467:0:0:0:0:
128,192,90205,128,0,90467:0:0:0:0:
230,192,90205,128,0,90467:0:0:0:0:
281,192,90205,128,0,90467:0:0:0:0:
332,192,90205,128,0,90467:0:0:0:0:
384,192,90205,128,0,90467:0:0:0:0:
230,192,90554,1,0,0:0:0:0:
281,192,90554,1,0,0:0:0:0:
76,192,90554,1,0,0:0:0:0:
25,192,90554,1,0,0:0:0:0:
435,192,90554,1,0,0:0:0:0:
486,192,90554,1,0,0:0:0:0:
128,192,90729,1,0,0:0:0:0:
332,192,90816,1,0,0:0:0:0:
179,192,90903,1,0,0:0:0:0:
384,192,90990,1,0,0:0:0:0:
230,192,91077,1,0,0:0:0:0:
435,192,91165,1,0,0:0:0:0:
25,192,91252,5,0,0:0:0:0:
76,192,91252,1,0,0:0:0:0:
179,192,91252,1,0,0:0:0:0:
384,192,91339,1,0,0:0:0:0:
128,192,91426,1,0,0:0:0:0:
281,192,91426,1,0,0:0:0:0:
332,192,91601,1,0,0:0:0:0:
435,192,91601,1,0,0:0:0:0:
486,192,91601,1,0,0:0:0:0:
128,192,91688,1,0,0:0:0:0:
384,192,91775,1,0,0:0:0:0:
230,192,91775,1,0,0:0:0:0:
128,192,91862,1,0,0:0:0:0:
486,192,91950,1,0,0:0:0:0:
281,192,91950,1,0,0:0:0:0:
332,192,91950,1,0,0:0:0:0:
179,192,92037,1,0,0:0:0:0:
76,192,92124,1,0,0:0:0:0:
384,192,92124,1,0,0:0:0:0:
128,192,92298,1,0,0:0:0:0:
486,192,92298,1,0,0:0:0:0:
25,192,92473,1,0,0:0:0:0:
384,192,92473,1,0,0:0:0:0:
435,192,92647,1,0,0:0:0:0:
486,192,92647,1,0,0:0:0:0:
332,192,92647,1,0,0:0:0:0:
230,192,92734,1,0,0:0:0:0:
128,192,92822,1,0,0:0:0:0:
25,192,92822,1,0,0:0:0:0:
230,192,92996,1,0,0:0:0:0:
281,192,92996,1,0,0:0:0:0:
384,192,92996,1,0,0:0:0:0:
128,192,93083,1,0,0:0:0:0:
25,192,93170,1,0,0:0:0:0:
332,192,93170,1,0,0:0:0:0:
179,192,93258,1,0,0:0:0:0:
281,192,93345,1,0,0:0:0:0:
486,192,93345,1,0,0:0:0:0:
384,192,93345,1,0,0:0:0:0:
230,192,93432,1,0,0:0:0:0:
179,192,93519,1,0,0:0:0:0:
76,192,93519,1,0,0:0:0:0:
332,192,93694,1,0,0:0:0:0:
435,192,93694,1,0,0:0:0:0:
230,192,93868,1,0,0:0:0:0:
25,192,93868,1,0,0:0:0:0:
128,192,94043,1,0,0:0:0:0:
179,192,94043,1,0,0:0:0:0:
281,192,94043,1,0,0:0:0:0:
435,192,94130,1,0,0:0:0:0:
230,192,94217,1,0,0:0:0:0:
332,192,94217,1,0,0:0:0:0:
25,192,94391,1,0,0:0:0:0:
76,192,94391,1,0,0:0:0:0:
281,192,94391,1,0,0:0:0:0:
486,192,94479,1,0,0:0:0:0:
128,192,94566,1,0,0:0:0:0:
384,192,94566,1,0,0:0:0:0:
230,192,94653,1,0,0:0:0:0:
435,192,94740,1,0,0:0:0:0:
281,192,94740,1,0,0:0:0:0:
332,192,94740,1,0,0:0:0:0:
179,192,94827,1,0,0:0:0:0:
76,192,94915,1,0,0:0:0:0:
384,192,94915,1,0,0:0:0:0:
179,192,95089,1,0,0:0:0:0:
281,192,95089,1,0,0:0:0:0:
332,192,95089,1,0,0:0:0:0:
230,192,95263,1,0,0:0:0:0:
384,192,95263,1,0,0:0:0:0:
281,192,95438,1,0,0:0:0:0:
332,192,95438,1,0,0:0:0:0:
25,192,95438,1,0,0:0:0:0:
76,192,95554,1,0,0:0:0:0:
179,192,95554,1,0,0:0:0:0:
435,192,95554,1,0,0:0:0:0:
230,192,95670,1,0,0:0:0:0:
332,192,95670,1,0,0:0:0:0:
384,192,95670,1,0,0:0:0:0:
281,192,95787,1,0,0:0:0:0:
128,192,95787,1,0,0:0:0:0:
25,192,95787,1,0,0:0:0:0:
179,192,95903,1,0,0:0:0:0:
435,192,95903,1,0,0:0:0:0:
486,192,95903,1,0,0:0:0:0:
230,192,96019,1,0,0:0:0:0:
76,192,96019,1,0,0:0:0:0:
384,192,96019,1,0,0:0:0:0:
128,192,96136,1,0,0:0:0:0:
281,192,96136,1,0,0:0:0:0:
332,192,96136,1,0,0:0:0:0:
179,192,96252,1,0,0:0:0:0:
230,192,96252,1,0,0:0:0:0:
486,192,96252,1,0,0:0:0:0:
384,192,96368,1,0,0:0:0:0:
76,192,96368,1,0,0:0:0:0:
25,192,96368,1,0,0:0:0:0:
128,192,96484,1,0,0:0:0:0:
230,192,96484,1,0,0:0:0:0:
281,192,96484,1,0,0:0:0:0:
179,192,96601,1,0,0:0:0:0:
384,192,96601,1,0,0:0:0:0:
486,192,96601,1,0,0:0:0:0:
332,192,96717,1,0,0:0:0:0:
281,192,96717,1,0,0:0:0:0:
230,192,96717,1,0,0:0:0:0:
281,192,97008,1,0,0:0:0:0:
230,192,97095,1,0,0:0:0:0:
435,192,97182,128,0,97880:0:0:0:0:
332,192,97269,128,0,97531:0:0:0:0:
76,192,97356,128,0,97618:0:0:0:0:
179,192,97444,128,0,97880:0:0:0:0:
281,192,97531,128,0,97880:0:0:0:0:
25,192,97618,128,0,97880:0:0:0:0:
384,192,97880,128,0,98577:0:0:0:0:
128,192,97880,128,0,99624:0:0:0:0:
486,192,99624,128,0,101019:0:0:0:0:
25,192,100147,128,0,101194:0:0:0:0:
76,192,100322,128,0,101194:0:0:0:0:
128,192,100496,128,0,101194:0:0:0:0:
179,192,100670,128,0,101194:0:0:0:0:
230,192,100845,128,0,101194:0:0:0:0:
281,192,101019,128,0,101194:0:0:0:0:
332,192,101368,1,0,0:0:0:0:
435,192,101368,1,0,0:0:0:0:
179,192,101717,1,0,0:0:0:0:
76,192,101717,1,0,0:0:0:0:
128,192,102066,1,0,0:0:0:0:
384,192,102066,1,0,0:0:0:0:
76,192,102415,128,0,103112:0:0:0:0:
281,192,102415,1,0,0:0:0:0:
486,192,102415,1,0,0:0:0:0:
230,192,102647,1,0,0:0:0:0:
486,192,102763,1,0,0:0:0:0:
281,192,102763,1,0,0:0:0:0:
230,192,102996,1,0,0:0:0:0:
332,192,103112,128,0,103810:0:0:0:0:
435,192,103112,1,0,0:0:0:0:
25,192,103112,1,0,0:0:0:0:
230,192,103345,1,0,0:0:0:0:
179,192,103461,1,0,0:0:0:0:
76,192,103461,1,0,0:0:0:0:
76,192,103694,1,0,0:0:0:0:
179,192,103810,128,0,104508:0:0:0:0:
281,192,103810,1,0,0:0:0:0:
486,192,103810,1,0,0:0:0:0:
384,192,104043,1,0,0:0:0:0:
230,192,104159,1,0,0:0:0:0:
25,192,104159,1,0,0:0:0:0:
76,192,104391,1,0,0:0:0:0:
435,192,104508,128,0,105205:0:0:0:0:
230,192,104508,1,0,0:0:0:0:
332,192,104508,1,0,0:0:0:0:
76,192,104856,1,0,0:0:0:0:
332,192,104856,1,0,0:0:0:0:
230,192,105089,1,0,0:0:0:0:
25,192,105205,128,0,105903:0:0:0:0:
281,192,105205,1,0,0:0:0:0:
486,192,105205,1,0,0:0:0:0:
332,192,105438,1,0,0:0:0:0:
435,192,105554,1,0,0:0:0:0:
179,192,105554,1,0,0:0:0:0:
128,192,105787,1,0,0:0:0:0:
281,192,105903,128,0,106601:0:0:0:0:
230,192,105903,1,0,0:0:0:0:
384,192,105903,1,0,0:0:0:0:
332,192,106136,1,0,0:0:0:0:
179,192,106252,1,0,0:0:0:0:
76,192,106252,1,0,0:0:0:0:
25,192,106484,1,0,0:0:0:0:
179,192,106601,128,0,106950:0:0:0:0:
384,192,106601,1,0,0:0:0:0:
486,192,106601,1,0,0:0:0:0:
332,192,106950,128,0,107298:0:0:0:0:
25,192,106950,1,0,0:0:0:0:
76,192,106993,1,0,0:0:0:0:
128,192,107037,1,0,0:0:0:0:
179,192,107298,128,0,107647:0:0:0:0:
486,192,107298,1,0,0:0:0:0:
435,192,107342,1,0,0:0:0:0:
384,192,107386,1,0,0:0:0:0:
435,192,107647,1,0,0:0:0:0:
332,192,107734,1,0,0:0:0:0:
435,192,107822,1,0,0:0:0:0:
332,192,107909,1,0,0:0:0:0:
486,192,107996,1,0,0:0:0:0:
435,192,107996,1,0,0:0:0:0:
76,192,107996,1,0,0:0:0:0:
25,192,107996,1,0,0:0:0:0:
230,192,107996,1,0,0:0:0:0:
281,192,107996,1,0,0:0:0:0:
179,192,108170,1,0,0:0:0:0:
332,192,108170,1,0,0:0:0:0:
128,192,108345,1,0,0:0:0:0:
76,192,108345,1,0,0:0:0:0:
384,192,108345,1,0,0:0:0:0:
435,192,108345,1,0,0:0:0:0:
179,192,108519,1,0,0:0:0:0:
332,192,108519,1,0,0:0:0:0:
76,192,108694,1,0,0:0:0:0:
25,192,108694,1,0,0:0:0:0:
435,192,108694,1,0,0:0:0:0:
486,192,108694,1,0,0:0:0:0:
179,192,108868,1,0,0:0:0:0:
332,192,108868,1,0,0:0:0:0:
76,192,109043,1,0,0:0:0:0:
230,192,109043,1,0,0:0:0:0:
281,192,109043,1,0,0:0:0:0:
435,192,109043,1,0,0:0:0:0:
179,192,109130,1,0,0:0:0:0:
76,192,109217,1,0,0:0:0:0:
332,192,109217,1,0,0:0:0:0:
179,192,109304,1,0,0:0:0:0:
230,192,109391,1,0,0:0:0:0:
281,192,109391,1,0,0:0:0:0:
25,192,109391,1,0,0:0:0:0:
486,192,109391,1,0,0:0:0:0:
179,192,109566,1,0,0:0:0:0:
332,192,109566,1,0,0:0:0:0:
384,192,109740,1,0,0:0:0:0:
435,192,109740,1,0,0:0:0:0:
128,192,109740,1,0,0:0:0:0:
76,192,109740,1,0,0:0:0:0:
179,192,109915,1,0,0:0:0:0:
332,192,109915,1,0,0:0:0:0:
281,192,110089,1,0,0:0:0:0:
230,192,110089,1,0,0:0:0:0:
128,192,110089,1,0,0:0:0:0:
384,192,110089,1,0,0:0:0:0:
179,192,110263,1,0,0:0:0:0:
332,192,110263,1,0,0:0:0:0:
76,192,110438,1,0,0:0:0:0:
25,192,110438,1,0,0:0:0:0:
435,192,110438,1,0,0:0:0:0:
486,192,110438,1,0,0:0:0:0:
332,192,110525,1,0,0:0:0:0:
435,192,110612,1,0,0:0:0:0:
179,192,110612,1,0,0:0:0:0:
332,192,110700,1,0,0:0:0:0:
76,192,110787,128,0,110961:0:0:0:0:
435,192,110787,128,0,110961:0:0:0:0:
230,192,110787,1,0,0:0:0:0:
281,192,110787,1,0,0:0:0:0:
179,192,110961,1,0,0:0:0:0:
332,192,110961,1,0,0:0:0:0:
128,192,111136,1,0,0:0:0:0:
25,192,111136,1,0,0:0:0:0:
384,192,111136,1,0,0:0:0:0:
486,192,111136,1,0,0:0:0:0:
230,192,111310,1,0,0:0:0:0:
281,192,111310,1,0,0:0:0:0:
179,192,111484,1,0,0:0:0:0:
76,192,111484,128,0,111659:0:0:0:0:
332,192,111484,1,0,0:0:0:0:
435,192,111484,128,0,111659:0:0:0:0:
230,192,111659,1,0,0:0:0:0:
281,192,111659,1,0,0:0:0:0:
76,192,111833,1,0,0:0:0:0:
128,192,111833,1,0,0:0:0:0:
435,192,111833,1,0,0:0:0:0:
384,192,111833,1,0,0:0:0:0:
230,192,111920,1,0,0:0:0:0:
332,192,112008,1,0,0:0:0:0:
128,192,112008,1,0,0:0:0:0:
230,192,112095,1,0,0:0:0:0:
281,192,112182,128,0,112880:0:0:0:0:
486,192,112182,128,0,112880:0:0:0:0:
179,192,112182,128,0,112356:0:0:0:0:
384,192,112182,1,0,0:0:0:0:
76,192,112182,128,0,112356:0:0:0:0:
128,192,112182,128,0,112356:0:0:0:0:
435,192,112356,1,0,0:0:0:0:
332,192,112356,1,0,0:0:0:0:
179,192,112531,128,0,112705:0:0:0:0:
384,192,112531,1,0,0:0:0:0:
76,192,112531,128,0,112705:0:0:0:0:
128,192,112531,128,0,112705:0:0:0:0:
435,192,112705,1,0,0:0:0:0:
332,192,112705,1,0,0:0:0:0:
179,192,112880,128,0,113054:0:0:0:0:
384,192,112880,1,0,0:0:0:0:
76,192,112880,128,0,113054:0:0:0:0:
128,192,112880,128,0,113054:0:0:0:0:
25,192,113229,128,0,113839:0:0:0:0:
76,192,113229,128,0,113839:0:0:0:0:
128,192,113229,128,0,113490:0:0:0:0:
179,192,113229,128,0,113490:0:0:0:0:
230,192,113229,128,0,113490:0:0:0:0:
281,192,113229,128,0,113490:0:0:0:0:
332,192,113229,128,0,113490:0:0:0:0:
384,192,113229,128,0,113490:0:0:0:0:
435,192,113229,128,0,113839:0:0:0:0:
486,192,113229,128,0,113839:0:0:0:0:
128,192,113577,1,0,0:0:0:0:
179,192,113577,1,0,0:0:0:0:
230,192,113577,1,0,0:0:0:0:
281,192,113577,1,0,0:0:0:0:
332,192,113577,1,0,0:0:0:0:
384,192,113577,1,0,0:0:0:0:
384,192,113752,1,0,0:0:0:0:
332,192,113752,1,0,0:0:0:0:
281,192,113752,1,0,0:0:0:0:
230,192,113752,1,0,0:0:0:0:
179,192,113839,1,0,0:0:0:0:
76,192,113926,1,0,0:0:0:0:
25,192,113926,1,0,0:0:0:0:
435,192,113926,1,0,0:0:0:0:
486,192,113926,1,0,0:0:0:0:
179,192,114013,1,0,0:0:0:0:
230,192,114101,1,0,0:0:0:0:
281,192,114101,1,0,0:0:0:0:
332,192,114101,1,0,0:0:0:0:
384,192,114101,1,0,0:0:0:0:
332,192,114275,1,0,0:0:0:0:
384,192,114275,1,0,0:0:0:0:
76,192,114275,1,0,0:0:0:0:
25,192,114275,1,0,0:0:0:0:
179,192,114362,1,0,0:0:0:0:
76,192,114450,1,0,0:0:0:0:
25,192,114450,1,0,0:0:0:0:
435,192,114450,1,0,0:0:0:0:
486,192,114450,1,0,0:0:0:0:
384,192,114624,1,0,0:0:0:0:
281,192,114624,1,0,0:0:0:0:
230,192,114624,1,0,0:0:0:0:
128,192,114624,1,0,0:0:0:0:
76,192,114798,1,0,0:0:0:0:
25,192,114798,1,0,0:0:0:0:
435,192,114798,1,0,0:0:0:0:
486,192,114798,1,0,0:0:0:0:
128,192,114973,1,0,0:0:0:0:
179,192,114973,1,0,0:0:0:0:
332,192,114973,1,0,0:0:0:0:
384,192,114973,1,0,0:0:0:0:
179,192,115147,1,0,0:0:0:0:
128,192,115147,1,0,0:0:0:0:
76,192,115147,1,0,0:0:0:0:
25,192,115147,1,0,0:0:0:0:
435,192,115234,1,0,0:0:0:0:
25,192,115322,1,0,0:0:0:0:
76,192,115322,1,0,0:0:0:0:
281,192,115322,1,0,0:0:0:0:
332,192,115322,1,0,0:0:0:0:
179,192,115409,1,0,0:0:0:0:
230,192,115496,1,0,0:0:0:0:
281,192,115496,1,0,0:0:0:0:
435,192,115496,1,0,0:0:0:0:
486,192,115496,1,0,0:0:0:0:
384,192,115583,1,0,0:0:0:0:
179,192,115670,1,0,0:0:0:0:
128,192,115670,1,0,0:0:0:0:
76,192,115670,1,0,0:0:0:0:
25,192,115670,1,0,0:0:0:0:
332,192,115758,1,0,0:0:0:0:
76,192,115845,1,0,0:0:0:0:
128,192,115845,1,0,0:0:0:0:
179,192,115845,1,0,0:0:0:0:
435,192,115845,128,0,116368:0:0:0:0:
384,192,116019,128,0,116368:0:0:0:0:
25,192,116019,1,0,0:0:0:0:
230,192,116019,1,0,0:0:0:0:
281,192,116019,1,0,0:0:0:0:
332,192,116194,128,0,116368:0:0:0:0:
179,192,116194,1,0,0:0:0:0:
128,192,116194,1,0,0:0:0:0:
76,192,116194,1,0,0:0:0:0:
25,192,116368,1,0,0:0:0:0:
230,192,116368,1,0,0:0:0:0:
281,192,116368,1,0,0:0:0:0:
486,192,116368,1,0,0:0:0:0:
128,192,116543,1,0,0:0:0:0:
76,192,116543,1,0,0:0:0:0:
384,192,116543,1,0,0:0:0:0:
435,192,116543,1,0,0:0:0:0:
281,192,116630,1,0,0:0:0:0:
486,192,116717,1,0,0:0:0:0:
179,192,116717,1,0,0:0:0:0:
25,192,116717,1,0,0:0:0:0:
332,192,116717,1,0,0:0:0:0:
281,192,116804,1,0,0:0:0:0:
76,192,116891,1,0,0:0:0:0:
128,192,116891,1,0,0:0:0:0:
384,192,116891,1,0,0:0:0:0:
435,192,116891,1,0,0:0:0:0:
128,192,117066,1,0,0:0:0:0:
179,192,117066,1,0,0:0:0:0:
332,192,117066,1,0,0:0:0:0:
384,192,117066,1,0,0:0:0:0:
230,192,117153,1,0,0:0:0:0:
384,192,117240,1,0,0:0:0:0:
435,192,117240,1,0,0:0:0:0:
128,192,117240,1,0,0:0:0:0:
76,192,117240,1,0,0:0:0:0:
281,192,117327,1,0,0:0:0:0:
76,192,117415,1,0,0:0:0:0:
25,192,117415,1,0,0:0:0:0:
435,192,117415,1,0,0:0:0:0:
486,192,117415,1,0,0:0:0:0:
384,192,117589,1,0,0:0:0:0:
281,192,117589,1,0,0:0:0:0:
128,192,117589,1,0,0:0:0:0:
230,192,117589,1,0,0:0:0:0:
486,192,117763,1,0,0:0:0:0:
179,192,117763,1,0,0:0:0:0:
76,192,117763,1,0,0:0:0:0:
25,192,117763,1,0,0:0:0:0:
435,192,117822,1,0,0:0:0:0:
384,192,117880,1,0,0:0:0:0:
332,192,117938,1,0,0:0:0:0:
128,192,117938,1,0,0:0:0:0:
179,192,117938,1,0,0:0:0:0:
281,192,117996,1,0,0:0:0:0:
230,192,118054,1,0,0:0:0:0:
25,192,118112,1,0,0:0:0:0:
486,192,118112,1,0,0:0:0:0:
435,192,118112,1,0,0:0:0:0:
332,192,118112,1,0,0:0:0:0:
76,192,118170,1,0,0:0:0:0:
128,192,118229,1,0,0:0:0:0:
179,192,118287,1,0,0:0:0:0:
332,192,118287,1,0,0:0:0:0:
384,192,118287,1,0,0:0:0:0:
230,192,118345,1,0,0:0:0:0:
281,192,118403,1,0,0:0:0:0:
486,192,118461,1,0,0:0:0:0:
76,192,118461,1,0,0:0:0:0:
128,192,118461,1,0,0:0:0:0:
179,192,118461,1,0,0:0:0:0:
435,192,118519,1,0,0:0:0:0:
384,192,118577,1,0,0:0:0:0:
332,192,118636,1,0,0:0:0:0:
25,192,118636,1,0,0:0:0:0:
230,192,118636,1,0,0:0:0:0:
76,192,118694,1,0,0:0:0:0:
128,192,118752,1,0,0:0:0:0:
332,192,118810,128,0,119072:0:0:0:0:
435,192,118810,128,0,119072:0:0:0:0:
435,192,119159,1,0,0:0:0:0:
384,192,119159,1,0,0:0:0:0:
332,192,119159,1,0,0:0:0:0:
179,192,119159,1,0,0:0:0:0:
128,192,119159,1,0,0:0:0:0:
76,192,119159,1,0,0:0:0:0:
179,192,119333,1,0,0:0:0:0:
128,192,119333,1,0,0:0:0:0:
332,192,119333,1,0,0:0:0:0:
384,192,119333,1,0,0:0:0:0:
230,192,119420,1,0,0:0:0:0:
435,192,119508,1,0,0:0:0:0:
486,192,119508,1,0,0:0:0:0:
76,192,119508,1,0,0:0:0:0:
25,192,119508,1,0,0:0:0:0:
332,192,119595,1,0,0:0:0:0:
281,192,119682,1,0,0:0:0:0:
230,192,119682,1,0,0:0:0:0:
179,192,119682,1,0,0:0:0:0:
128,192,119682,1,0,0:0:0:0:
128,192,119856,1,0,0:0:0:0:
179,192,119856,1,0,0:0:0:0:
435,192,119856,1,0,0:0:0:0:
486,192,119856,1,0,0:0:0:0:
332,192,119944,1,0,0:0:0:0:
435,192,120031,1,0,0:0:0:0:
486,192,120031,1,0,0:0:0:0:
76,192,120031,1,0,0:0:0:0:
25,192,120031,1,0,0:0:0:0:
128,192,120205,1,0,0:0:0:0:
230,192,120205,1,0,0:0:0:0:
281,192,120205,1,0,0:0:0:0:
384,192,120205,1,0,0:0:0:0:
76,192,120380,1,0,0:0:0:0:
25,192,120380,1,0,0:0:0:0:
435,192,120380,1,0,0:0:0:0:
486,192,120380,1,0,0:0:0:0:
128,192,120554,1,0,0:0:0:0:
179,192,120554,1,0,0:0:0:0:
332,192,120554,1,0,0:0:0:0:
384,192,120554,1,0,0:0:0:0:
332,192,120729,1,0,0:0:0:0:
384,192,120729,1,0,0:0:0:0:
435,192,120729,1,0,0:0:0:0:
486,192,120729,1,0,0:0:0:0:
76,192,120816,1,0,0:0:0:0:
179,192,120903,1,0,0:0:0:0:
230,192,120903,1,0,0:0:0:0:
435,192,120903,1,0,0:0:0:0:
486,192,120903,1,0,0:0:0:0:
332,192,120990,1,0,0:0:0:0:
281,192,121077,1,0,0:0:0:0:
230,192,121077,1,0,0:0:0:0:
25,192,121077,1,0,0:0:0:0:
76,192,121077,1,0,0:0:0:0:
128,192,121165,1,0,0:0:0:0:
332,192,121252,1,0,0:0:0:0:
384,192,121252,1,0,0:0:0:0:
435,192,121252,1,0,0:0:0:0:
486,192,121252,1,0,0:0:0:0:
179,192,121339,1,0,0:0:0:0:
435,192,121426,1,0,0:0:0:0:
384,192,121426,1,0,0:0:0:0:
332,192,121426,1,0,0:0:0:0:
76,192,121426,128,0,121950:0:0:0:0:
128,192,121601,128,0,121950:0:0:0:0:
230,192,121601,1,0,0:0:0:0:
281,192,121601,1,0,0:0:0:0:
486,192,121601,1,0,0:0:0:0:
179,192,121775,128,0,121950:0:0:0:0:
332,192,121775,1,0,0:0:0:0:
384,192,121775,1,0,0:0:0:0:
435,192,121775,1,0,0:0:0:0:
25,192,121950,1,0,0:0:0:0:
230,192,121950,1,0,0:0:0:0:
281,192,121950,1,0,0:0:0:0:
486,192,121950,1,0,0:0:0:0:
76,192,122124,1,0,0:0:0:0:
128,192,122124,1,0,0:0:0:0:
384,192,122124,1,0,0:0:0:0:
435,192,122124,1,0,0:0:0:0:
230,192,122211,1,0,0:0:0:0:
25,192,122298,1,0,0:0:0:0:
332,192,122298,1,0,0:0:0:0:
486,192,122298,1,0,0:0:0:0:
230,192,122386,1,0,0:0:0:0:
128,192,122473,1,0,0:0:0:0:
76,192,122473,1,0,0:0:0:0:
384,192,122473,1,0,0:0:0:0:
435,192,122473,1,0,0:0:0:0:
128,192,122647,1,0,0:0:0:0:
179,192,122647,1,0,0:0:0:0:
332,192,122647,1,0,0:0:0:0:
384,192,122647,1,0,0:0:0:0:
281,192,122734,1,0,0:0:0:0:
384,192,122822,1,0,0:0:0:0:
435,192,122822,1,0,0:0:0:0:
128,192,122822,1,0,0:0:0:0:
76,192,122822,1,0,0:0:0:0:
230,192,122909,1,0,0:0:0:0:
76,192,122996,1,0,0:0:0:0:
25,192,122996,1,0,0:0:0:0:
435,192,122996,1,0,0:0:0:0:
486,192,122996,1,0,0:0:0:0:
128,192,123170,1,0,0:0:0:0:
230,192,123170,1,0,0:0:0:0:
281,192,123170,1,0,0:0:0:0:
384,192,123170,1,0,0:0:0:0:
25,192,123345,1,0,0:0:0:0:
332,192,123345,1,0,0:0:0:0:
435,192,123345,1,0,0:0:0:0:
486,192,123345,1,0,0:0:0:0:
76,192,123403,1,0,0:0:0:0:
128,192,123461,1,0,0:0:0:0:
179,192,123519,1,0,0:0:0:0:
384,192,123519,1,0,0:0:0:0:
332,192,123519,1,0,0:0:0:0:
230,192,123577,1,0,0:0:0:0:
281,192,123636,1,0,0:0:0:0:
486,192,123694,1,0,0:0:0:0:
25,192,123694,1,0,0:0:0:0:
76,192,123694,1,0,0:0:0:0:
179,192,123694,1,0,0:0:0:0:
435,192,123752,1,0,0:0:0:0:
384,192,123810,1,0,0:0:0:0:
332,192,123868,1,0,0:0:0:0:
179,192,123868,1,0,0:0:0:0:
128,192,123868,1,0,0:0:0:0:
281,192,123926,1,0,0:0:0:0:
230,192,123984,1,0,0:0:0:0:
25,192,124043,1,0,0:0:0:0:
435,192,124043,1,0,0:0:0:0:
384,192,124043,1,0,0:0:0:0:
332,192,124043,1,0,0:0:0:0:
76,192,124101,1,0,0:0:0:0:
128,192,124159,1,0,0:0:0:0:
179,192,124217,1,0,0:0:0:0:
486,192,124217,1,0,0:0:0:0:
281,192,124217,1,0,0:0:0:0:
435,192,124275,1,0,0:0:0:0:
384,192,124333,1,0,0:0:0:0:
332,192,124391,1,0,0:0:0:0:
25,192,124391,1,0,0:0:0:0:
76,192,124391,1,0,0:0:0:0:
128,192,124391,1,0,0:0:0:0:
179,192,124450,1,0,0:0:0:0:
230,192,124508,1,0,0:0:0:0:
281,192,124566,1,0,0:0:0:0:
486,192,124566,1,0,0:0:0:0:
76,192,124566,1,0,0:0:0:0:
435,192,124624,1,0,0:0:0:0:
384,192,124682,1,0,0:0:0:0:
332,192,124740,1,0,0:0:0:0:
25,192,124740,128,0,127182:0:0:0:0:
435,192,124915,1,0,0:0:0:0:
332,192,125002,1,0,0:0:0:0:
435,192,125089,1,0,0:0:0:0:
332,192,125176,1,0,0:0:0:0:
435,192,125263,1,0,0:0:0:0:
281,192,125438,1,0,0:0:0:0:
486,192,125525,1,0,0:0:0:0:
281,192,125612,1,0,0:0:0:0:
76,192,125612,1,0,0:0:0:0:
486,192,125700,1,0,0:0:0:0:
179,192,125700,1,0,0:0:0:0:
281,192,125787,1,0,0:0:0:0:
76,192,125787,1,0,0:0:0:0:
486,192,125874,1,0,0:0:0:0:
281,192,125961,1,0,0:0:0:0:
486,192,126048,1,0,0:0:0:0:
128,192,126136,128,0,127182:0:0:0:0:
230,192,126484,128,0,127182:0:0:0:0:
332,192,126833,128,0,127182:0:0:0:0:
435,192,127356,1,0,0:0:0:0:
332,192,127400,1,0,0:0:0:0:
179,192,127531,1,0,0:0:0:0:
128,192,128229,128,0,128926:0:0:0:0:
332,192,128229,1,0,0:0:0:0:
435,192,128229,1,0,0:0:0:0:
332,192,128461,1,0,0:0:0:0:
332,192,128694,1,0,0:0:0:0:
384,192,128926,128,0,129624:0:0:0:0:
179,192,128926,1,0,0:0:0:0:
76,192,128926,1,0,0:0:0:0:
179,192,129159,1,0,0:0:0:0:
179,192,129391,1,0,0:0:0:0:
76,192,129624,128,0,130322:0:0:0:0:
332,192,129624,1,0,0:0:0:0:
435,192,129624,1,0,0:0:0:0:
332,192,129856,1,0,0:0:0:0:
332,192,130089,1,0,0:0:0:0:
435,192,130322,128,0,131717:0:0:0:0:
25,192,130322,1,0,0:0:0:0:
230,192,130322,1,0,0:0:0:0:
332,192,130322,1,0,0:0:0:0:
128,192,130322,1,0,0:0:0:0:
486,192,130322,1,0,0:0:0:0:
230,192,130554,1,0,0:0:0:0:
25,192,130554,1,0,0:0:0:0:
25,192,130787,1,0,0:0:0:0:
230,192,130787,1,0,0:0:0:0:
281,192,131019,1,0,0:0:0:0:
486,192,131019,1,0,0:0:0:0:
76,192,131019,1,0,0:0:0:0:
179,192,131019,1,0,0:0:0:0:
486,192,131252,1,0,0:0:0:0:
281,192,131252,1,0,0:0:0:0:
281,192,131484,1,0,0:0:0:0:
486,192,131484,1,0,0:0:0:0:
281,192,131717,128,0,133112:0:0:0:0:
384,192,131717,1,0,0:0:0:0:
179,192,131717,1,0,0:0:0:0:
76,192,131717,1,0,0:0:0:0:
179,192,131950,1,0,0:0:0:0:
76,192,131950,1,0,0:0:0:0:
76,192,132182,1,0,0:0:0:0:
179,192,132182,1,0,0:0:0:0:
128,192,132415,1,0,0:0:0:0:
332,192,132415,1,0,0:0:0:0:
435,192,132415,1,0,0:0:0:0:
230,192,132415,1,0,0:0:0:0:
435,192,132647,1,0,0:0:0:0:
332,192,132647,1,0,0:0:0:0:
332,192,132880,1,0,0:0:0:0:
435,192,132880,1,0,0:0:0:0:
25,192,133112,128,0,133345:0:0:0:0:
230,192,133112,1,0,0:0:0:0:
332,192,133112,1,0,0:0:0:0:
486,192,133112,1,0,0:0:0:0:
128,192,133345,128,0,133577:0:0:0:0:
281,192,133345,1,0,0:0:0:0:
384,192,133345,1,0,0:0:0:0:
230,192,133577,128,0,133810:0:0:0:0:
332,192,133577,1,0,0:0:0:0:
435,192,133577,1,0,0:0:0:0:
486,192,133810,128,0,134043:0:0:0:0:
281,192,133810,1,0,0:0:0:0:
179,192,133810,1,0,0:0:0:0:
25,192,133810,1,0,0:0:0:0:
384,192,134043,128,0,134275:0:0:0:0:
230,192,134043,1,0,0:0:0:0:
128,192,134043,1,0,0:0:0:0:
281,192,134275,128,0,134508:0:0:0:0:
179,192,134275,1,0,0:0:0:0:
76,192,134275,1,0,0:0:0:0:
179,192,134508,128,0,134740:0:0:0:0:
384,192,134508,1,0,0:0:0:0:
486,192,134508,1,0,0:0:0:0:
25,192,134508,1,0,0:0:0:0:
332,192,134740,128,0,134973:0:0:0:0:
230,192,134740,1,0,0:0:0:0:
76,192,134740,1,0,0:0:0:0:
179,192,134973,128,0,135205:0:0:0:0:
384,192,134973,1,0,0:0:0:0:
486,192,134973,1,0,0:0:0:0:
25,192,135205,128,0,135438:0:0:0:0:
230,192,135205,1,0,0:0:0:0:
128,192,135205,1,0,0:0:0:0:
435,192,135205,1,0,0:0:0:0:
332,192,135205,1,0,0:0:0:0:
179,192,135438,128,0,135670:0:0:0:0:
281,192,135438,1,0,0:0:0:0:
384,192,135438,1,0,0:0:0:0:
332,192,135670,128,0,135903:0:0:0:0:
230,192,135670,1,0,0:0:0:0:
128,192,135670,1,0,0:0:0:0:
486,192,135903,128,0,137647:0:0:0:0:
179,192,135903,1,0,0:0:0:0:
76,192,135903,1,0,0:0:0:0:
384,192,135903,1,0,0:0:0:0:
179,192,136136,1,0,0:0:0:0:
76,192,136136,1,0,0:0:0:0:
179,192,136368,1,0,0:0:0:0:
76,192,136368,1,0,0:0:0:0:
435,192,136601,1,0,0:0:0:0:
332,192,136601,1,0,0:0:0:0:
128,192,136601,1,0,0:0:0:0:
230,192,136601,1,0,0:0:0:0:
332,192,136833,1,0,0:0:0:0:
435,192,136833,1,0,0:0:0:0:
128,192,136950,1,0,0:0:0:0:
435,192,137066,1,0,0:0:0:0:
332,192,137066,1,0,0:0:0:0:
281,192,137298,1,0,0:0:0:0:
128,192,137298,1,0,0:0:0:0:
25,192,137298,1,0,0:0:0:0:
384,192,137298,1,0,0:0:0:0:
128,192,137531,1,0,0:0:0:0:
281,192,137531,1,0,0:0:0:0:
128,192,137763,1,0,0:0:0:0:
281,192,137763,1,0,0:0:0:0:
486,192,137996,1,0,0:0:0:0:
384,192,137996,1,0,0:0:0:0:
230,192,137996,1,0,0:0:0:0:
25,192,137996,1,0,0:0:0:0:
230,192,138229,1,0,0:0:0:0:
384,192,138229,1,0,0:0:0:0:
384,192,138461,1,0,0:0:0:0:
230,192,138461,1,0,0:0:0:0:
76,192,138694,128,0,138926:0:0:0:0:
486,192,138694,1,0,0:0:0:0:
384,192,138694,1,0,0:0:0:0:
281,192,138694,1,0,0:0:0:0:
128,192,138926,128,0,139159:0:0:0:0:
435,192,138926,1,0,0:0:0:0:
332,192,138926,1,0,0:0:0:0:
179,192,139159,128,0,139391:0:0:0:0:
384,192,139159,1,0,0:0:0:0:
281,192,139159,1,0,0:0:0:0:
435,192,139391,128,0,139624:0:0:0:0:
230,192,139391,1,0,0:0:0:0:
25,192,139391,1,0,0:0:0:0:
128,192,139391,1,0,0:0:0:0:
384,192,139624,128,0,139856:0:0:0:0:
76,192,139624,1,0,0:0:0:0:
179,192,139624,1,0,0:0:0:0:
332,192,139856,128,0,140089:0:0:0:0:
128,192,139856,1,0,0:0:0:0:
230,192,139856,1,0,0:0:0:0:
179,192,140089,128,0,140322:0:0:0:0:
486,192,140089,1,0,0:0:0:0:
384,192,140089,1,0,0:0:0:0:
76,192,140089,1,0,0:0:0:0:
25,192,140322,128,0,140554:0:0:0:0:
230,192,140322,1,0,0:0:0:0:
332,192,140322,1,0,0:0:0:0:
179,192,140554,128,0,140787:0:0:0:0:
384,192,140554,1,0,0:0:0:0:
486,192,140554,1,0,0:0:0:0:
332,192,140787,128,0,141019:0:0:0:0:
128,192,140787,1,0,0:0:0:0:
25,192,140787,1,0,0:0:0:0:
435,192,140787,1,0,0:0:0:0:
486,192,141019,128,0,141252:0:0:0:0:
179,192,141019,1,0,0:0:0:0:
281,192,141019,1,0,0:0:0:0:
384,192,141136,1,0,0:0:0:0:
332,192,141252,128,0,141484:0:0:0:0:
128,192,141252,1,0,0:0:0:0:
25,192,141252,1,0,0:0:0:0:
230,192,141484,128,0,142880:0:0:0:0:
486,192,141484,1,0,0:0:0:0:
384,192,141484,1,0,0:0:0:0:
281,192,141484,1,0,0:0:0:0:
76,192,141484,1,0,0:0:0:0:
179,192,141484,1,0,0:0:0:0:
384,192,141717,1,0,0:0:0:0:
486,192,141717,1,0,0:0:0:0:
384,192,141950,1,0,0:0:0:0:
486,192,141950,1,0,0:0:0:0:
128,192,142182,1,0,0:0:0:0:
25,192,142182,1,0,0:0:0:0:
281,192,142182,1,0,0:0:0:0:
435,192,142182,1,0,0:0:0:0:
128,192,142415,1,0,0:0:0:0:
25,192,142415,1,0,0:0:0:0:
128,192,142647,1,0,0:0:0:0:
25,192,142647,1,0,0:0:0:0:
281,192,142880,128,0,143577:0:0:0:0:
332,192,142880,1,0,0:0:0:0:
435,192,142880,1,0,0:0:0:0:
76,192,142880,1,0,0:0:0:0:
332,192,143112,1,0,0:0:0:0:
435,192,143112,1,0,0:0:0:0:
435,192,143345,1,0,0:0:0:0:
332,192,143345,1,0,0:0:0:0:
25,192,143577,1,0,0:0:0:0:
128,192,143577,1,0,0:0:0:0:
384,192,143577,128,0,143810:0:0:0:0:
230,192,143577,1,0,0:0:0:0:
76,192,143810,1,0,0:0:0:0:
179,192,143810,1,0,0:0:0:0:
435,192,143810,128,0,144043:0:0:0:0:
128,192,144043,1,0,0:0:0:0:
230,192,144043,1,0,0:0:0:0:
486,192,144043,128,0,144275:0:0:0:0:
25,192,144275,128,0,144973:0:0:0:0:
281,192,144275,1,0,0:0:0:0:
435,192,144275,1,0,0:0:0:0:
179,192,144275,1,0,0:0:0:0:
281,192,144508,1,0,0:0:0:0:
435,192,144508,1,0,0:0:0:0:
435,192,144740,1,0,0:0:0:0:
281,192,144740,1,0,0:0:0:0:
384,192,144973,128,0,145205:0:0:0:0:
486,192,144973,1,0,0:0:0:0:
179,192,144973,1,0,0:0:0:0:
76,192,144973,1,0,0:0:0:0:
128,192,145205,128,0,145438:0:0:0:0:
332,192,145205,1,0,0:0:0:0:
435,192,145205,1,0,0:0:0:0:
384,192,145438,128,0,145670:0:0:0:0:
179,192,145438,1,0,0:0:0:0:
76,192,145438,1,0,0:0:0:0:
230,192,145670,128,0,146368:0:0:0:0:
332,192,145670,1,0,0:0:0:0:
435,192,145670,1,0,0:0:0:0:
128,192,145670,1,0,0:0:0:0:
332,192,145903,1,0,0:0:0:0:
435,192,145903,1,0,0:0:0:0:
435,192,146136,1,0,0:0:0:0:
332,192,146136,1,0,0:0:0:0:
179,192,146368,1,0,0:0:0:0:
76,192,146368,1,0,0:0:0:0:
384,192,146368,1,0,0:0:0:0:
486,192,146368,1,0,0:0:0:0:
435,192,146601,128,0,146833:0:0:0:0:
128,192,146601,1,0,0:0:0:0:
230,192,146601,1,0,0:0:0:0:
281,192,146833,128,0,147066:0:0:0:0:
179,192,146833,1,0,0:0:0:0:
76,192,146833,1,0,0:0:0:0:
128,192,147066,128,0,149856:0:0:0:0:
486,192,147066,1,0,0:0:0:0:
230,192,147066,1,0,0:0:0:0:
25,192,147066,1,0,0:0:0:0:
332,192,147066,1,0,0:0:0:0:
435,192,147066,1,0,0:0:0:0:
230,192,147298,1,0,0:0:0:0:
25,192,147298,1,0,0:0:0:0:
25,192,147531,1,0,0:0:0:0:
230,192,147531,1,0,0:0:0:0:
281,192,147763,1,0,0:0:0:0:
486,192,147763,1,0,0:0:0:0:
179,192,147763,1,0,0:0:0:0:
76,192,147763,1,0,0:0:0:0:
281,192,147996,1,0,0:0:0:0:
486,192,147996,1,0,0:0:0:0:
230,192,148112,1,0,0:0:0:0:
281,192,148229,1,0,0:0:0:0:
486,192,148229,1,0,0:0:0:0:
179,192,148461,1,0,0:0:0:0:
76,192,148461,1,0,0:0:0:0:
332,192,148461,1,0,0:0:0:0:
435,192,148461,1,0,0:0:0:0:
179,192,148694,1,0,0:0:0:0:
76,192,148694,1,0,0:0:0:0:
76,192,148926,1,0,0:0:0:0:
179,192,148926,1,0,0:0:0:0:
332,192,149159,1,0,0:0:0:0:
435,192,149159,1,0,0:0:0:0:
230,192,149159,1,0,0:0:0:0:
25,192,149159,1,0,0:0:0:0:
332,192,149391,1,0,0:0:0:0:
435,192,149391,1,0,0:0:0:0:
332,192,149624,1,0,0:0:0:0:
435,192,149624,1,0,0:0:0:0:
230,192,149856,128,0,152647:0:0:0:0:
281,192,149856,128,0,152647:0:0:0:0:
332,192,149856,1,0,0:0:0:0:
435,192,149856,1,0,0:0:0:0:
179,192,149856,1,0,0:0:0:0:
76,192,149856,1,0,0:0:0:0:
128,192,150089,1,0,0:0:0:0:
384,192,150089,1,0,0:0:0:0:
128,192,150322,1,0,0:0:0:0:
384,192,150322,1,0,0:0:0:0:
332,192,150554,1,0,0:0:0:0:
435,192,150554,1,0,0:0:0:0:
486,192,150554,1,0,0:0:0:0:
25,192,150554,1,0,0:0:0:0:
179,192,150787,1,0,0:0:0:0:
76,192,150787,1,0,0:0:0:0:
435,192,150903,1,0,0:0:0:0:
179,192,151019,1,0,0:0:0:0:
76,192,151019,1,0,0:0:0:0:
25,192,151252,128,0,152647:0:0:0:0:
486,192,151252,128,0,152647:0:0:0:0:
332,192,151252,1,0,0:0:0:0:
384,192,151252,1,0,0:0:0:0:
435,192,151252,1,0,0:0:0:0:
332,192,151426,1,0,0:0:0:0:
179,192,151426,1,0,0:0:0:0:
179,192,151601,1,0,0:0:0:0:
128,192,151601,1,0,0:0:0:0:
76,192,151601,1,0,0:0:0:0:
179,192,151775,1,0,0:0:0:0:
332,192,151775,1,0,0:0:0:0:
435,192,151950,1,0,0:0:0:0:
384,192,151950,1,0,0:0:0:0:
128,192,151950,1,0,0:0:0:0:
76,192,151950,1,0,0:0:0:0:
384,192,152124,1,0,0:0:0:0:
332,192,152124,1,0,0:0:0:0:
179,192,152182,1,0,0:0:0:0:
128,192,152182,1,0,0:0:0:0:
332,192,152240,1,0,0:0:0:0:
384,192,152240,1,0,0:0:0:0:
76,192,152298,1,0,0:0:0:0:
128,192,152298,1,0,0:0:0:0:
384,192,152386,1,0,0:0:0:0:
435,192,152386,1,0,0:0:0:0:
179,192,152473,1,0,0:0:0:0:
128,192,152473,1,0,0:0:0:0:
76,192,152473,1,0,0:0:0:0:
76,192,152647,1,0,0:0:0:0:
128,192,152647,1,0,0:0:0:0:
179,192,152647,1,0,0:0:0:0:
332,192,152647,1,0,0:0:0:0:
384,192,152647,1,0,0:0:0:0:
435,192,152647,1,0,0:0:0:0:
281,192,152822,1,0,0:0:0:0:
384,192,152822,1,0,0:0:0:0:
332,192,152996,1,0,0:0:0:0:
435,192,152996,1,0,0:0:0:0:
230,192,152996,1,0,0:0:0:0:
25,192,152996,1,0,0:0:0:0:
384,192,153170,1,0,0:0:0:0:
486,192,153170,1,0,0:0:0:0:
76,192,153345,1,0,0:0:0:0:
179,192,153345,1,0,0:0:0:0:
332,192,153345,1,0,0:0:0:0:
435,192,153345,1,0,0:0:0:0:
128,192,153519,1,0,0:0:0:0:
230,192,153519,1,0,0:0:0:0:
384,192,153606,1,0,0:0:0:0:
486,192,153606,1,0,0:0:0:0:
179,192,153694,1,0,0:0:0:0:
76,192,153694,1,0,0:0:0:0:
128,192,153868,1,0,0:0:0:0:
25,192,153868,1,0,0:0:0:0:
332,192,153868,1,0,0:0:0:0:
281,192,153868,1,0,0:0:0:0:
179,192,154043,1,0,0:0:0:0:
230,192,154043,1,0,0:0:0:0:
435,192,154043,1,0,0:0:0:0:
384,192,154043,1,0,0:0:0:0:
384,192,154217,1,0,0:0:0:0:
332,192,154217,1,0,0:0:0:0:
281,192,154391,5,0,0:0:0:0:
332,192,154391,1,0,0:0:0:0:
128,192,154391,1,0,0:0:0:0:
179,192,154391,1,0,0:0:0:0:
332,192,154566,1,0,0:0:0:0:
384,192,154566,1,0,0:0:0:0:
384,192,154740,1,0,0:0:0:0:
435,192,154740,1,0,0:0:0:0:
76,192,154740,1,0,0:0:0:0:
128,192,154740,1,0,0:0:0:0:
128,192,154915,1,0,0:0:0:0:
179,192,154915,1,0,0:0:0:0:
332,192,155002,1,0,0:0:0:0:
384,192,155002,1,0,0:0:0:0:
179,192,155089,1,0,0:0:0:0:
230,192,155089,1,0,0:0:0:0:
128,192,155263,1,0,0:0:0:0:
179,192,155263,1,0,0:0:0:0:
332,192,155263,1,0,0:0:0:0:
384,192,155263,1,0,0:0:0:0:
486,192,155438,5,0,0:0:0:0:
435,192,155438,1,0,0:0:0:0:
25,192,155438,1,0,0:0:0:0:
230,192,155438,1,0,0:0:0:0:
76,192,155525,1,0,0:0:0:0:
281,192,155525,1,0,0:0:0:0:
128,192,155612,1,0,0:0:0:0:
332,192,155612,1,0,0:0:0:0:
179,192,155700,1,0,0:0:0:0:
384,192,155700,1,0,0:0:0:0:
230,192,155787,1,0,0:0:0:0:
281,192,155787,1,0,0:0:0:0:
435,192,155787,1,0,0:0:0:0:
76,192,155787,1,0,0:0:0:0:
332,192,155874,1,0,0:0:0:0:
128,192,155874,1,0,0:0:0:0:
384,192,155961,1,0,0:0:0:0:
179,192,155961,1,0,0:0:0:0:
435,192,156048,1,0,0:0:0:0:
230,192,156048,1,0,0:0:0:0:
486,192,156136,1,0,0:0:0:0:
281,192,156136,1,0,0:0:0:0:
76,192,156136,1,0,0:0:0:0:
25,192,156136,1,0,0:0:0:0:
230,192,156223,1,0,0:0:0:0:
435,192,156223,1,0,0:0:0:0:
179,192,156310,1,0,0:0:0:0:
384,192,156310,1,0,0:0:0:0:
128,192,156397,1,0,0:0:0:0:
332,192,156397,1,0,0:0:0:0:
76,192,156397,1,0,0:0:0:0:
281,192,156397,1,0,0:0:0:0:
435,192,156484,1,0,0:0:0:0:
230,192,156484,1,0,0:0:0:0:
179,192,156572,1,0,0:0:0:0:
384,192,156572,1,0,0:0:0:0:
128,192,156659,1,0,0:0:0:0:
332,192,156659,1,0,0:0:0:0:
76,192,156659,1,0,0:0:0:0:
281,192,156659,1,0,0:0:0:0:
179,192,156746,1,0,0:0:0:0:
435,192,156746,1,0,0:0:0:0:
230,192,156833,128,0,157531:0:0:0:0:
25,192,156833,128,0,157531:0:0:0:0:
384,192,156833,1,0,0:0:0:0:
384,192,157008,1,0,0:0:0:0:
281,192,157182,128,0,157531:0:0:0:0:
486,192,157182,128,0,157531:0:0:0:0:
128,192,157182,1,0,0:0:0:0:
128,192,157356,1,0,0:0:0:0:
179,192,157531,128,0,157880:0:0:0:0:
332,192,157531,128,0,157880:0:0:0:0:
281,192,157705,1,0,0:0:0:0:
230,192,157793,1,0,0:0:0:0:
281,192,157880,1,0,0:0:0:0:
76,192,157880,128,0,158229:0:0:0:0:
435,192,157880,128,0,158229:0:0:0:0:
179,192,158054,128,0,158229:0:0:0:0:
332,192,158054,128,0,158229:0:0:0:0:
230,192,158229,1,0,0:0:0:0:
25,192,158229,1,0,0:0:0:0:
486,192,158229,1,0,0:0:0:0:
281,192,158229,1,0,0:0:0:0:
128,192,158229,1,0,0:0:0:0:
384,192,158229,1,0,0:0:0:0:
179,192,158316,1,0,0:0:0:0:
76,192,158403,1,0,0:0:0:0:
435,192,158403,1,0,0:0:0:0:
179,192,158490,1,0,0:0:0:0:
281,192,158577,1,0,0:0:0:0:
384,192,158577,1,0,0:0:0:0:
486,192,158577,1,0,0:0:0:0:
179,192,158665,1,0,0:0:0:0:
76,192,158752,1,0,0:0:0:0:
435,192,158752,1,0,0:0:0:0:
179,192,158839,1,0,0:0:0:0:
486,192,158926,1,0,0:0:0:0:
25,192,158926,1,0,0:0:0:0:
435,192,159013,1,0,0:0:0:0:
384,192,159101,1,0,0:0:0:0:
230,192,159101,1,0,0:0:0:0:
332,192,159188,1,0,0:0:0:0:
281,192,159275,1,0,0:0:0:0:
25,192,159275,1,0,0:0:0:0:
179,192,159275,1,0,0:0:0:0:
76,192,159362,1,0,0:0:0:0:
128,192,159450,1,0,0:0:0:0:
486,192,159450,1,0,0:0:0:0:
179,192,159537,1,0,0:0:0:0:
230,192,159624,1,0,0:0:0:0:
25,192,159624,1,0,0:0:0:0:
332,192,159711,1,0,0:0:0:0:
435,192,159798,1,0,0:0:0:0:
76,192,159798,1,0,0:0:0:0:
332,192,159886,1,0,0:0:0:0:
230,192,159973,1,0,0:0:0:0:
128,192,159973,1,0,0:0:0:0:
25,192,159973,1,0,0:0:0:0:
332,192,160060,1,0,0:0:0:0:
435,192,160147,1,0,0:0:0:0:
76,192,160147,1,0,0:0:0:0:
332,192,160234,1,0,0:0:0:0:
230,192,160322,1,0,0:0:0:0:
281,192,160322,1,0,0:0:0:0:
179,192,160409,1,0,0:0:0:0:
128,192,160496,1,0,0:0:0:0:
384,192,160496,1,0,0:0:0:0:
76,192,160583,1,0,0:0:0:0:
25,192,160670,1,0,0:0:0:0:
281,192,160670,1,0,0:0:0:0:
486,192,160670,1,0,0:0:0:0:
332,192,160758,1,0,0:0:0:0:
384,192,160845,1,0,0:0:0:0:
128,192,160845,1,0,0:0:0:0:
435,192,160932,1,0,0:0:0:0:
486,192,161019,1,0,0:0:0:0:
76,192,161019,1,0,0:0:0:0:
128,192,161106,1,0,0:0:0:0:
179,192,161194,1,0,0:0:0:0:
384,192,161194,1,0,0:0:0:0:
128,192,161281,1,0,0:0:0:0:
76,192,161368,1,0,0:0:0:0:
281,192,161368,1,0,0:0:0:0:
486,192,161368,1,0,0:0:0:0:
128,192,161455,1,0,0:0:0:0:
179,192,161543,1,0,0:0:0:0:
384,192,161543,1,0,0:0:0:0:
128,192,161630,1,0,0:0:0:0:
76,192,161717,1,0,0:0:0:0:
435,192,161717,1,0,0:0:0:0:
384,192,161804,1,0,0:0:0:0:
332,192,161891,1,0,0:0:0:0:
179,192,161891,1,0,0:0:0:0:
281,192,161979,1,0,0:0:0:0:
76,192,162066,1,0,0:0:0:0:
486,192,162066,1,0,0:0:0:0:
230,192,162066,1,0,0:0:0:0:
128,192,162153,1,0,0:0:0:0:
179,192,162240,1,0,0:0:0:0:
332,192,162240,1,0,0:0:0:0:
230,192,162327,1,0,0:0:0:0:
25,192,162415,1,0,0:0:0:0:
435,192,162415,1,0,0:0:0:0:
384,192,162502,1,0,0:0:0:0:
332,192,162589,1,0,0:0:0:0:
128,192,162589,1,0,0:0:0:0:
384,192,162676,1,0,0:0:0:0:
435,192,162763,1,0,0:0:0:0:
230,192,162763,1,0,0:0:0:0:
25,192,162763,1,0,0:0:0:0:
384,192,162851,1,0,0:0:0:0:
332,192,162938,1,0,0:0:0:0:
128,192,162938,1,0,0:0:0:0:
384,192,163025,1,0,0:0:0:0:
435,192,163112,1,0,0:0:0:0:
230,192,163112,1,0,0:0:0:0:
179,192,163200,1,0,0:0:0:0:
128,192,163287,1,0,0:0:0:0:
332,192,163287,1,0,0:0:0:0:
76,192,163374,1,0,0:0:0:0:
25,192,163461,1,0,0:0:0:0:
486,192,163461,1,0,0:0:0:0:
281,192,163461,1,0,0:0:0:0:
435,192,163548,1,0,0:0:0:0:
384,192,163636,1,0,0:0:0:0:
179,192,163636,1,0,0:0:0:0:
332,192,163723,1,0,0:0:0:0:
281,192,163810,1,0,0:0:0:0:
230,192,163810,1,0,0:0:0:0:
76,192,163810,1,0,0:0:0:0:
25,192,163810,1,0,0:0:0:0:
435,192,163897,1,0,0:0:0:0:
332,192,163984,1,0,0:0:0:0:
128,192,163984,1,0,0:0:0:0:
435,192,164072,1,0,0:0:0:0:
332,192,164159,1,0,0:0:0:0:
76,192,164159,1,0,0:0:0:0:
230,192,164159,1,0,0:0:0:0:
179,192,164246,1,0,0:0:0:0:
76,192,164333,1,0,0:0:0:0:
384,192,164333,1,0,0:0:0:0:
179,192,164420,1,0,0:0:0:0:
230,192,164508,1,0,0:0:0:0:
281,192,164508,1,0,0:0:0:0:
486,192,164508,1,0,0:0:0:0:
435,192,164508,1,0,0:0:0:0:
332,192,164595,1,0,0:0:0:0:
230,192,164682,1,0,0:0:0:0:
128,192,164682,1,0,0:0:0:0:
332,192,164769,1,0,0:0:0:0:
435,192,164856,1,0,0:0:0:0:
76,192,164856,1,0,0:0:0:0:
25,192,164856,1,0,0:0:0:0:
179,192,164944,1,0,0:0:0:0:
281,192,165031,1,0,0:0:0:0:
384,192,165031,1,0,0:0:0:0:
179,192,165118,1,0,0:0:0:0:
76,192,165205,1,0,0:0:0:0:
25,192,165205,1,0,0:0:0:0:
435,192,165205,1,0,0:0:0:0:
486,192,165205,1,0,0:0:0:0:
332,192,165293,1,0,0:0:0:0:
179,192,165380,1,0,0:0:0:0:
128,192,165380,1,0,0:0:0:0:
281,192,165467,1,0,0:0:0:0:
76,192,165554,1,0,0:0:0:0:
25,192,165554,1,0,0:0:0:0:
384,192,165554,1,0,0:0:0:0:
281,192,165641,1,0,0:0:0:0:
179,192,165729,1,0,0:0:0:0:
230,192,165729,1,0,0:0:0:0:
435,192,165729,1,0,0:0:0:0:
486,192,165729,1,0,0:0:0:0:
332,192,165816,1,0,0:0:0:0:
486,192,165903,1,0,0:0:0:0:
25,192,165903,1,0,0:0:0:0:
281,192,165903,1,0,0:0:0:0:
230,192,165903,1,0,0:0:0:0:
179,192,165990,1,0,0:0:0:0:
76,192,166077,1,0,0:0:0:0:
384,192,166077,1,0,0:0:0:0:
179,192,166165,1,0,0:0:0:0:
281,192,166252,1,0,0:0:0:0:
76,192,166252,1,0,0:0:0:0:
486,192,166252,1,0,0:0:0:0:
384,192,166339,1,0,0:0:0:0:
230,192,166426,1,0,0:0:0:0:
25,192,166426,1,0,0:0:0:0:
281,192,166513,1,0,0:0:0:0:
128,192,166601,1,0,0:0:0:0:
76,192,166601,1,0,0:0:0:0:
384,192,166601,1,0,0:0:0:0:
435,192,166601,1,0,0:0:0:0:
230,192,166688,1,0,0:0:0:0:
179,192,166775,1,0,0:0:0:0:
332,192,166775,1,0,0:0:0:0:
384,192,166775,1,0,0:0:0:0:
281,192,166862,1,0,0:0:0:0:
128,192,166950,1,0,0:0:0:0:
76,192,166950,1,0,0:0:0:0:
384,192,166950,1,0,0:0:0:0:
435,192,166950,1,0,0:0:0:0:
230,192,167037,1,0,0:0:0:0:
76,192,167124,1,0,0:0:0:0:
25,192,167124,1,0,0:0:0:0:
332,192,167124,1,0,0:0:0:0:
230,192,167211,1,0,0:0:0:0:
332,192,167298,1,0,0:0:0:0:
384,192,167298,1,0,0:0:0:0:
435,192,167298,1,0,0:0:0:0:
486,192,167298,1,0,0:0:0:0:
128,192,167386,1,0,0:0:0:0:
179,192,167386,1,0,0:0:0:0:
230,192,167473,1,0,0:0:0:0:
281,192,167473,1,0,0:0:0:0:
332,192,167560,1,0,0:0:0:0:
384,192,167560,1,0,0:0:0:0:
179,192,167647,1,0,0:0:0:0:
128,192,167647,1,0,0:0:0:0:
76,192,167647,1,0,0:0:0:0:
25,192,167647,1,0,0:0:0:0:
332,192,167734,1,0,0:0:0:0:
384,192,167734,1,0,0:0:0:0:
281,192,167822,1,0,0:0:0:0:
230,192,167822,1,0,0:0:0:0:
179,192,167909,1,0,0:0:0:0:
128,192,167909,1,0,0:0:0:0:
384,192,167996,1,0,0:0:0:0:
332,192,167996,1,0,0:0:0:0:
435,192,167996,1,0,0:0:0:0:
332,192,168170,1,0,0:0:0:0:
384,192,168170,1,0,0:0:0:0:
435,192,168170,1,0,0:0:0:0:
179,192,168258,1,0,0:0:0:0:
128,192,168258,1,0,0:0:0:0:
76,192,168258,1,0,0:0:0:0:
332,192,168345,1,0,0:0:0:0:
384,192,168345,1,0,0:0:0:0:
435,192,168345,1,0,0:0:0:0:
128,192,168432,1,0,0:0:0:0:
76,192,168432,1,0,0:0:0:0:
179,192,168432,1,0,0:0:0:0:
384,192,168519,1,0,0:0:0:0:
435,192,168519,1,0,0:0:0:0:
486,192,168519,1,0,0:0:0:0:
128,192,168606,1,0,0:0:0:0:
76,192,168606,1,0,0:0:0:0:
25,192,168606,1,0,0:0:0:0:
179,192,168694,1,0,0:0:0:0:
230,192,168694,1,0,0:0:0:0:
281,192,168694,1,0,0:0:0:0:
332,192,168694,1,0,0:0:0:0:
230,192,168868,1,0,0:0:0:0:
281,192,168868,1,0,0:0:0:0:
25,192,169043,128,0,169391:0:0:0:0:
486,192,169043,128,0,169391:0:0:0:0:
179,192,169217,128,0,169391:0:0:0:0:
332,192,169217,128,0,169391:0:0:0:0:
76,192,169391,1,0,0:0:0:0:
128,192,169391,1,0,0:0:0:0:
281,192,169479,1,0,0:0:0:0:
230,192,169479,1,0,0:0:0:0:
384,192,169566,1,0,0:0:0:0:
435,192,169566,1,0,0:0:0:0:
332,192,169653,1,0,0:0:0:0:
179,192,169653,1,0,0:0:0:0:
25,192,169740,5,0,0:0:0:0:
486,192,169740,1,0,0:0:0:0:
435,192,169740,1,0,0:0:0:0:
76,192,169740,1,0,0:0:0:0:
281,192,169740,1,0,0:0:0:0:
230,192,169740,1,0,0:0:0:0:
384,192,169827,1,0,0:0:0:0:
179,192,169915,1,0,0:0:0:0:
332,192,169915,1,0,0:0:0:0:
128,192,170002,1,0,0:0:0:0:
76,192,170089,1,0,0:0:0:0:
25,192,170089,1,0,0:0:0:0:
230,192,170089,1,0,0:0:0:0:
281,192,170089,1,0,0:0:0:0:
384,192,170176,1,0,0:0:0:0:
486,192,170263,1,0,0:0:0:0:
179,192,170263,1,0,0:0:0:0:
384,192,170351,1,0,0:0:0:0:
281,192,170438,1,0,0:0:0:0:
230,192,170438,1,0,0:0:0:0:
128,192,170438,1,0,0:0:0:0:
25,192,170438,1,0,0:0:0:0:
332,192,170525,1,0,0:0:0:0:
179,192,170612,1,0,0:0:0:0:
76,192,170612,1,0,0:0:0:0:
435,192,170700,1,0,0:0:0:0:
25,192,170787,1,0,0:0:0:0:
128,192,170787,1,0,0:0:0:0:
230,192,170787,1,0,0:0:0:0:
332,192,170787,1,0,0:0:0:0:
435,192,170874,1,0,0:0:0:0:
384,192,170961,1,0,0:0:0:0:
179,192,170961,1,0,0:0:0:0:
332,192,171048,1,0,0:0:0:0:
281,192,171136,1,0,0:0:0:0:
128,192,171136,1,0,0:0:0:0:
76,192,171136,1,0,0:0:0:0:
25,192,171136,1,0,0:0:0:0:
486,192,171223,1,0,0:0:0:0:
384,192,171310,1,0,0:0:0:0:
179,192,171310,1,0,0:0:0:0:
281,192,171397,1,0,0:0:0:0:
25,192,171484,1,0,0:0:0:0:
230,192,171484,1,0,0:0:0:0:
435,192,171484,1,0,0:0:0:0:
332,192,171484,1,0,0:0:0:0:
76,192,171572,1,0,0:0:0:0:
128,192,171659,1,0,0:0:0:0:
384,192,171659,1,0,0:0:0:0:
179,192,171746,1,0,0:0:0:0:
435,192,171833,1,0,0:0:0:0:
486,192,171833,1,0,0:0:0:0:
281,192,171833,1,0,0:0:0:0:
230,192,171833,1,0,0:0:0:0:
25,192,171833,1,0,0:0:0:0:
76,192,171891,1,0,0:0:0:0:
128,192,171950,1,0,0:0:0:0:
179,192,172008,1,0,0:0:0:0:
384,192,172008,1,0,0:0:0:0:
230,192,172066,1,0,0:0:0:0:
281,192,172124,1,0,0:0:0:0:
332,192,172182,1,0,0:0:0:0:
486,192,172182,1,0,0:0:0:0:
25,192,172182,1,0,0:0:0:0:
76,192,172182,1,0,0:0:0:0:
179,192,172269,1,0,0:0:0:0:
76,192,172356,1,0,0:0:0:0:
384,192,172356,1,0,0:0:0:0:
179,192,172444,1,0,0:0:0:0:
76,192,172531,1,0,0:0:0:0:
435,192,172531,1,0,0:0:0:0:
332,192,172531,1,0,0:0:0:0:
281,192,172531,1,0,0:0:0:0:
230,192,172618,1,0,0:0:0:0:
179,192,172705,1,0,0:0:0:0:
384,192,172705,1,0,0:0:0:0:
128,192,172793,1,0,0:0:0:0:
435,192,172880,1,0,0:0:0:0:
486,192,172880,1,0,0:0:0:0:
76,192,172880,1,0,0:0:0:0:
230,192,172880,1,0,0:0:0:0:
281,192,172967,1,0,0:0:0:0:
25,192,173054,1,0,0:0:0:0:
332,192,173054,1,0,0:0:0:0:
384,192,173141,1,0,0:0:0:0:
179,192,173229,1,0,0:0:0:0:
128,192,173229,1,0,0:0:0:0:
435,192,173229,1,0,0:0:0:0:
230,192,173229,1,0,0:0:0:0:
384,192,173287,1,0,0:0:0:0:
332,192,173345,1,0,0:0:0:0:
281,192,173403,1,0,0:0:0:0:
76,192,173403,1,0,0:0:0:0:
230,192,173461,1,0,0:0:0:0:
179,192,173519,1,0,0:0:0:0:
76,192,173577,1,0,0:0:0:0:
25,192,173577,1,0,0:0:0:0:
486,192,173577,1,0,0:0:0:0:
281,192,173577,1,0,0:0:0:0:
435,192,173636,1,0,0:0:0:0:
384,192,173694,1,0,0:0:0:0:
332,192,173752,1,0,0:0:0:0:
128,192,173752,1,0,0:0:0:0:
281,192,173810,1,0,0:0:0:0:
230,192,173868,1,0,0:0:0:0:
25,192,173926,1,0,0:0:0:0:
486,192,173926,1,0,0:0:0:0:
435,192,173926,1,0,0:0:0:0:
332,192,173926,1,0,0:0:0:0:
76,192,173984,1,0,0:0:0:0:
128,192,174043,1,0,0:0:0:0:
179,192,174101,1,0,0:0:0:0:
384,192,174101,1,0,0:0:0:0:
230,192,174159,1,0,0:0:0:0:
281,192,174217,1,0,0:0:0:0:
486,192,174275,1,0,0:0:0:0:
25,192,174275,1,0,0:0:0:0:
76,192,174275,1,0,0:0:0:0:
179,192,174275,1,0,0:0:0:0:
435,192,174333,1,0,0:0:0:0:
384,192,174391,1,0,0:0:0:0:
332,192,174450,1,0,0:0:0:0:
128,192,174450,1,0,0:0:0:0:
281,192,174508,1,0,0:0:0:0:
230,192,174566,1,0,0:0:0:0:
25,192,174624,1,0,0:0:0:0:
435,192,174624,1,0,0:0:0:0:
486,192,174624,1,0,0:0:0:0:
332,192,174624,1,0,0:0:0:0:
76,192,174682,1,0,0:0:0:0:
128,192,174740,1,0,0:0:0:0:
179,192,174798,1,0,0:0:0:0:
384,192,174798,1,0,0:0:0:0:
230,192,174856,1,0,0:0:0:0:
281,192,174915,1,0,0:0:0:0:
332,192,174973,1,0,0:0:0:0:
435,192,174973,1,0,0:0:0:0:
76,192,174973,1,0,0:0:0:0:
25,192,174973,1,0,0:0:0:0:
230,192,175060,1,0,0:0:0:0:
384,192,175147,1,0,0:0:0:0:
179,192,175147,1,0,0:0:0:0:
128,192,175234,1,0,0:0:0:0:
435,192,175322,1,0,0:0:0:0:
486,192,175322,1,0,0:0:0:0:
230,192,175322,1,0,0:0:0:0:
281,192,175322,1,0,0:0:0:0:
25,192,175409,1,0,0:0:0:0:
128,192,175496,1,0,0:0:0:0:
332,192,175496,1,0,0:0:0:0:
230,192,175583,1,0,0:0:0:0:
179,192,175670,1,0,0:0:0:0:
76,192,175670,1,0,0:0:0:0:
281,192,175670,1,0,0:0:0:0:
486,192,175670,1,0,0:0:0:0:
435,192,175758,1,0,0:0:0:0:
384,192,175845,1,0,0:0:0:0:
128,192,175845,1,0,0:0:0:0:
332,192,175932,1,0,0:0:0:0:
25,192,176019,1,0,0:0:0:0:
230,192,176019,1,0,0:0:0:0:
281,192,176019,1,0,0:0:0:0:
486,192,176019,1,0,0:0:0:0:
76,192,176077,1,0,0:0:0:0:
128,192,176136,1,0,0:0:0:0:
179,192,176194,1,0,0:0:0:0:
384,192,176194,1,0,0:0:0:0:
230,192,176252,1,0,0:0:0:0:
281,192,176310,1,0,0:0:0:0:
332,192,176368,1,0,0:0:0:0:
435,192,176368,1,0,0:0:0:0:
486,192,176368,1,0,0:0:0:0:
25,192,176368,1,0,0:0:0:0:
128,192,176455,1,0,0:0:0:0:
230,192,176543,1,0,0:0:0:0:
384,192,176543,1,0,0:0:0:0:
76,192,176630,1,0,0:0:0:0:
179,192,176717,1,0,0:0:0:0:
281,192,176717,1,0,0:0:0:0:
332,192,176717,1,0,0:0:0:0:
486,192,176717,1,0,0:0:0:0:
25,192,176804,1,0,0:0:0:0:
76,192,176891,1,0,0:0:0:0:
384,192,176891,1,0,0:0:0:0:
128,192,176979,1,0,0:0:0:0:
435,192,177066,1,0,0:0:0:0:
230,192,177066,1,0,0:0:0:0:
179,192,177066,1,0,0:0:0:0:
486,192,177066,1,0,0:0:0:0:
384,192,177153,1,0,0:0:0:0:
332,192,177240,1,0,0:0:0:0:
128,192,177240,1,0,0:0:0:0:
281,192,177327,1,0,0:0:0:0:
230,192,177415,1,0,0:0:0:0:
486,192,177415,1,0,0:0:0:0:
76,192,177415,1,0,0:0:0:0:
179,192,177415,1,0,0:0:0:0:
435,192,177473,1,0,0:0:0:0:
384,192,177531,1,0,0:0:0:0:
332,192,177589,1,0,0:0:0:0:
25,192,177589,1,0,0:0:0:0:
76,192,177647,1,0,0:0:0:0:
128,192,177705,1,0,0:0:0:0:
179,192,177763,1,0,0:0:0:0:
230,192,177763,1,0,0:0:0:0:
486,192,177763,1,0,0:0:0:0:
435,192,177763,1,0,0:0:0:0:
384,192,177851,1,0,0:0:0:0:
128,192,177938,1,0,0:0:0:0:
332,192,177938,1,0,0:0:0:0:
384,192,178025,1,0,0:0:0:0:
486,192,178112,1,0,0:0:0:0:
25,192,178112,1,0,0:0:0:0:
76,192,178112,1,0,0:0:0:0:
435,192,178112,1,0,0:0:0:0:
128,192,178200,1,0,0:0:0:0:
230,192,178287,1,0,0:0:0:0:
384,192,178287,1,0,0:0:0:0:
128,192,178374,1,0,0:0:0:0:
76,192,178461,1,0,0:0:0:0:
25,192,178461,1,0,0:0:0:0:
332,192,178461,1,0,0:0:0:0:
281,192,178461,1,0,0:0:0:0:
384,192,178548,1,0,0:0:0:0:
486,192,178636,1,0,0:0:0:0:
128,192,178636,1,0,0:0:0:0:
384,192,178723,1,0,0:0:0:0:
332,192,178810,1,0,0:0:0:0:
281,192,178810,1,0,0:0:0:0:
230,192,178810,1,0,0:0:0:0:
179,192,178810,1,0,0:0:0:0:
128,192,178897,1,0,0:0:0:0:
25,192,178984,1,0,0:0:0:0:
384,192,178984,1,0,0:0:0:0:
128,192,179072,1,0,0:0:0:0:
486,192,179159,1,0,0:0:0:0:
230,192,179159,1,0,0:0:0:0:
281,192,179159,1,0,0:0:0:0:
435,192,179159,1,0,0:0:0:0:
384,192,179217,1,0,0:0:0:0:
332,192,179275,1,0,0:0:0:0:
281,192,179333,1,0,0:0:0:0:
76,192,179333,1,0,0:0:0:0:
230,192,179391,1,0,0:0:0:0:
179,192,179450,1,0,0:0:0:0:
128,192,179508,1,0,0:0:0:0:
435,192,179508,1,0,0:0:0:0:
384,192,179508,1,0,0:0:0:0:
332,192,179508,1,0,0:0:0:0:
76,192,179566,1,0,0:0:0:0:
25,192,179624,1,0,0:0:0:0:
486,192,179682,1,0,0:0:0:0:
179,192,179682,1,0,0:0:0:0:
435,192,179740,1,0,0:0:0:0:
384,192,179798,1,0,0:0:0:0:
332,192,179856,1,0,0:0:0:0:
281,192,179856,1,0,0:0:0:0:
128,192,179856,1,0,0:0:0:0:
76,192,179856,1,0,0:0:0:0:
230,192,180031,1,0,0:0:0:0:
384,192,180031,1,0,0:0:0:0:
179,192,180205,1,0,0:0:0:0:
76,192,180205,1,0,0:0:0:0:
25,192,180205,1,0,0:0:0:0:
486,192,180205,1,0,0:0:0:0:
435,192,180263,1,0,0:0:0:0:
384,192,180322,1,0,0:0:0:0:
128,192,180380,1,0,0:0:0:0:
332,192,180380,1,0,0:0:0:0:
281,192,180438,1,0,0:0:0:0:
230,192,180496,1,0,0:0:0:0:
25,192,180554,1,0,0:0:0:0:
76,192,180554,1,0,0:0:0:0:
179,192,180554,1,0,0:0:0:0:
281,192,180641,1,0,0:0:0:0:
384,192,180729,1,0,0:0:0:0:
486,192,180816,1,0,0:0:0:0:
230,192,180903,1,0,0:0:0:0:
128,192,180903,1,0,0:0:0:0:
332,192,180990,1,0,0:0:0:0:
435,192,181077,1,0,0:0:0:0:
179,192,181077,1,0,0:0:0:0:
76,192,181077,1,0,0:0:0:0:
281,192,181165,1,0,0:0:0:0:
486,192,181252,1,0,0:0:0:0:
384,192,181252,1,0,0:0:0:0:
25,192,181252,1,0,0:0:0:0:
230,192,181252,1,0,0:0:0:0:
128,192,181339,1,0,0:0:0:0:
230,192,181426,1,0,0:0:0:0:
332,192,181513,1,0,0:0:0:0:
76,192,181601,1,0,0:0:0:0:
435,192,181601,1,0,0:0:0:0:
179,192,181688,1,0,0:0:0:0:
486,192,181775,1,0,0:0:0:0:
281,192,181775,1,0,0:0:0:0:
384,192,181862,1,0,0:0:0:0:
76,192,181950,1,0,0:0:0:0:
230,192,181950,1,0,0:0:0:0:
25,192,181950,1,0,0:0:0:0:
332,192,182037,1,0,0:0:0:0:
486,192,182124,1,0,0:0:0:0:
230,192,182211,1,0,0:0:0:0:
25,192,182211,1,0,0:0:0:0:
76,192,182211,1,0,0:0:0:0:
281,192,182298,1,0,0:0:0:0:
435,192,182386,1,0,0:0:0:0:
25,192,182473,1,0,0:0:0:0:
230,192,182473,1,0,0:0:0:0:
76,192,182473,1,0,0:0:0:0:
332,192,182560,1,0,0:0:0:0:
128,192,182647,1,0,0:0:0:0:
435,192,182647,1,0,0:0:0:0:
179,192,182647,1,0,0:0:0:0:
486,192,182647,1,0,0:0:0:0:
332,192,182734,1,0,0:0:0:0:
230,192,182822,1,0,0:0:0:0:
281,192,182822,1,0,0:0:0:0:
128,192,182909,1,0,0:0:0:0:
25,192,182996,1,0,0:0:0:0:
435,192,182996,1,0,0:0:0:0:
76,192,182996,1,0,0:0:0:0:
332,192,183083,1,0,0:0:0:0:
230,192,183170,1,0,0:0:0:0:
128,192,183258,1,0,0:0:0:0:
230,192,183345,1,0,0:0:0:0:
486,192,183345,1,0,0:0:0:0:
25,192,183345,1,0,0:0:0:0:
384,192,183432,1,0,0:0:0:0:
281,192,183519,1,0,0:0:0:0:
179,192,183606,1,0,0:0:0:0:
76,192,183694,1,0,0:0:0:0:
332,192,183694,1,0,0:0:0:0:
179,192,183781,1,0,0:0:0:0:
281,192,183868,1,0,0:0:0:0:
76,192,183868,1,0,0:0:0:0:
486,192,183868,1,0,0:0:0:0:
384,192,183955,1,0,0:0:0:0:
25,192,184043,1,0,0:0:0:0:
281,192,184043,1,0,0:0:0:0:
230,192,184043,1,0,0:0:0:0:
486,192,184043,1,0,0:0:0:0:
128,192,184130,1,0,0:0:0:0:
230,192,184217,1,0,0:0:0:0:
435,192,184217,1,0,0:0:0:0:
332,192,184304,1,0,0:0:0:0:
435,192,184391,1,0,0:0:0:0:
179,192,184391,1,0,0:0:0:0:
332,192,184479,1,0,0:0:0:0:
230,192,184566,1,0,0:0:0:0:
486,192,184566,1,0,0:0:0:0:
128,192,184653,1,0,0:0:0:0:
76,192,184740,1,0,0:0:0:0:
25,192,184740,1,0,0:0:0:0:
384,192,184740,1,0,0:0:0:0:
230,192,184827,1,0,0:0:0:0:
332,192,184915,1,0,0:0:0:0:
76,192,185002,1,0,0:0:0:0:
25,192,185002,1,0,0:0:0:0:
435,192,185002,1,0,0:0:0:0:
179,192,185089,1,0,0:0:0:0:
281,192,185176,1,0,0:0:0:0:
76,192,185263,1,0,0:0:0:0:
25,192,185263,1,0,0:0:0:0:
384,192,185263,1,0,0:0:0:0:
486,192,185351,1,0,0:0:0:0:
332,192,185438,1,0,0:0:0:0:
281,192,185438,1,0,0:0:0:0:
230,192,185438,1,0,0:0:0:0:
179,192,185438,1,0,0:0:0:0:
435,192,185525,1,0,0:0:0:0:
332,192,185612,1,0,0:0:0:0:
76,192,185612,1,0,0:0:0:0:
179,192,185700,1,0,0:0:0:0:
435,192,185787,1,0,0:0:0:0:
76,192,185787,1,0,0:0:0:0:
332,192,185874,1,0,0:0:0:0:
435,192,185961,1,0,0:0:0:0:
179,192,185961,1,0,0:0:0:0:
76,192,186048,1,0,0:0:0:0:
332,192,186136,1,0,0:0:0:0:
435,192,186136,1,0,0:0:0:0:
486,192,186136,1,0,0:0:0:0:
230,192,186223,1,0,0:0:0:0:
128,192,186310,1,0,0:0:0:0:
25,192,186397,1,0,0:0:0:0:
384,192,186484,1,0,0:0:0:0:
281,192,186484,1,0,0:0:0:0:
179,192,186572,1,0,0:0:0:0:
435,192,186659,1,0,0:0:0:0:
332,192,186659,1,0,0:0:0:0:
76,192,186659,1,0,0:0:0:0:
230,192,186746,1,0,0:0:0:0:
486,192,186833,1,0,0:0:0:0:
281,192,186833,1,0,0:0:0:0:
25,192,186833,1,0,0:0:0:0:
128,192,186833,1,0,0:0:0:0:
384,192,186920,1,0,0:0:0:0:
281,192,187008,1,0,0:0:0:0:
179,192,187095,1,0,0:0:0:0:
76,192,187182,1,0,0:0:0:0:
435,192,187182,1,0,0:0:0:0:
332,192,187269,1,0,0:0:0:0:
230,192,187356,1,0,0:0:0:0:
25,192,187356,1,0,0:0:0:0:
128,192,187444,1,0,0:0:0:0:
486,192,187531,1,0,0:0:0:0:
281,192,187531,1,0,0:0:0:0:
435,192,187531,1,0,0:0:0:0:
179,192,187618,1,0,0:0:0:0:
76,192,187705,1,0,0:0:0:0:
435,192,187793,1,0,0:0:0:0:
486,192,187793,1,0,0:0:0:0:
281,192,187793,1,0,0:0:0:0:
230,192,187880,1,0,0:0:0:0:
128,192,187967,1,0,0:0:0:0:
435,192,188054,1,0,0:0:0:0:
281,192,188054,1,0,0:0:0:0:
486,192,188054,1,0,0:0:0:0:
179,192,188141,1,0,0:0:0:0:
332,192,188229,1,0,0:0:0:0:
25,192,188229,1,0,0:0:0:0:
384,192,188229,1,0,0:0:0:0:
76,192,188229,1,0,0:0:0:0:
179,192,188316,1,0,0:0:0:0:
230,192,188403,1,0,0:0:0:0:
281,192,188403,1,0,0:0:0:0:
384,192,188490,1,0,0:0:0:0:
435,192,188577,1,0,0:0:0:0:
25,192,188577,1,0,0:0:0:0:
486,192,188577,1,0,0:0:0:0:
128,192,188665,1,0,0:0:0:0:
230,192,188752,1,0,0:0:0:0:
332,192,188839,1,0,0:0:0:0:
25,192,188926,1,0,0:0:0:0:
486,192,188926,1,0,0:0:0:0:
281,192,188926,1,0,0:0:0:0:
128,192,189013,1,0,0:0:0:0:
230,192,189101,1,0,0:0:0:0:
332,192,189188,1,0,0:0:0:0:
179,192,189275,1,0,0:0:0:0:
435,192,189275,1,0,0:0:0:0:
332,192,189362,1,0,0:0:0:0:
25,192,189450,1,0,0:0:0:0:
435,192,189450,1,0,0:0:0:0:
230,192,189450,1,0,0:0:0:0:
128,192,189537,1,0,0:0:0:0:
281,192,189624,1,0,0:0:0:0:
25,192,189624,1,0,0:0:0:0:
486,192,189624,1,0,0:0:0:0:
230,192,189624,1,0,0:0:0:0:
384,192,189711,1,0,0:0:0:0:
76,192,189798,1,0,0:0:0:0:
281,192,189798,1,0,0:0:0:0:
179,192,189886,1,0,0:0:0:0:
332,192,189973,1,0,0:0:0:0:
76,192,189973,1,0,0:0:0:0:
435,192,190060,1,0,0:0:0:0:
128,192,190147,1,0,0:0:0:0:
230,192,190147,1,0,0:0:0:0:
384,192,190234,1,0,0:0:0:0:
76,192,190496,128,0,191281:0:0:0:0:
128,192,190496,128,0,190758:0:0:0:0:
435,192,190670,128,0,191455:0:0:0:0:
384,192,190670,128,0,190932:0:0:0:0:
179,192,190845,128,0,191804:0:0:0:0:
128,192,190845,128,0,191281:0:0:0:0:
384,192,191019,128,0,191455:0:0:0:0:
332,192,191019,128,0,191979:0:0:0:0:
128,192,191368,128,0,191804:0:0:0:0:
76,192,191368,128,0,192327:0:0:0:0:
384,192,191543,128,0,191979:0:0:0:0:
435,192,191543,128,0,192415:0:0:0:0:
128,192,191891,128,0,192327:0:0:0:0:
179,192,191891,128,0,192327:0:0:0:0:
384,192,192066,128,0,192415:0:0:0:0:
332,192,192066,128,0,192415:0:0:0:0:
76,192,192415,128,0,192589:0:0:0:0:
179,192,192415,128,0,192589:0:0:0:0:
128,192,192415,128,0,192589:0:0:0:0:
435,192,192589,1,0,0:0:0:0:
332,192,192676,1,0,0:0:0:0:
76,192,192763,1,0,0:0:0:0:
179,192,192851,1,0,0:0:0:0:
281,192,192938,1,0,0:0:0:0:
384,192,193025,1,0,0:0:0:0:
