osu file format v14

[General]
AudioFilename: audio.ogg
AudioLeadIn: 0
PreviewTime:44485
Countdown: 0
SampleSet: Soft
StackLeniency: 0.3
Mode: 0
LetterboxInBreaks: 0
WidescreenStoryboard: 1

[Editor]
DistanceSpacing: 1.3
BeatDivisor: 4
GridSize: 4
TimelineZoom: 1.7

[Metadata]
Title:Sayonara kara Hajimaru Monogatari (TV Size)
TitleUnicode:サヨナラから始まる物語 (TV Size)
Artist:Hoshimi Production
ArtistUnicode:星見プロダクション
Creator:Mahiru Shiina
Version:Murada-'s Hard
Source:IDOLY PRIDE
Tags:アイドリープライド Japanese video game Anime j pop jpop j-pop female vocals vocalists SMXX-00533 MusicRay'n 大石昌良 Oishi Masayoshi 岸田勇気 Kishida Yuki 長瀬琴乃 Nagase Kotono 橘美來 Tachibana Mirai 川咲さくら Kawasaki Sakura 菅野真衣 Kanno Mai 一ノ瀬怜 Ichinose Rei 結城萌子 Moeko 伊吹渚 Ibuki Nagisa 夏目ここな Natsume Kokona 佐伯遙子 Saeki Haruko 佐々木奈緒 Sasaki Nao 白石沙季 Shiraishi Saki 宮沢小春 Miyazawa Koharu 白石千紗 Chisa 高尾奏音 Takao Kanon 成宮すず Narumiya Suzu 相川奏多 Aikawa Kanata 早坂芽衣 Hayasaka Mei 日向もか Hinata Moka 兵藤雫 Hyodo Shizuku 首藤志奈 Shuto Yukina A story that begins with goodbye SEApodEErman ItsCactus KPMY Murada-
BeatmapID:3758113
BeatmapSetID:1823978

[Difficulty]
HPDrainRate:5
CircleSize:3.5
OverallDifficulty:6.5
ApproachRate:7.5
SliderMultiplier:1.44
SliderTickRate:1

[Events]
//Background and Video events
0,0,"bg.jpg",0,0
Video,245,"video.mp4"
//Break Periods
//Storyboard Layer 0 (Background)
//Storyboard Layer 1 (Fail)
//Storyboard Layer 2 (Pass)
//Storyboard Layer 3 (Foreground)
//Storyboard Layer 4 (Overlay)
//Storyboard Sound Samples

[TimingPoints]
1028,337.078651685393,4,2,4,60,1,0
1028,-125,4,2,4,60,0,0
1702,-125,4,2,5,60,0,0
2376,-125,4,2,3,60,0,0
2713,-125,4,2,2,60,0,0
3724,-125,4,2,4,60,0,0
4061,-125,4,2,2,60,0,0
5072,-125,4,2,4,60,0,0
5410,-125,4,2,4,70,0,0
5747,-125,4,2,4,80,0,0
6421,-90.9090909090909,4,2,3,80,0,0
6505,-90.9090909090909,4,2,2,80,0,0
9117,-90.9090909090909,4,2,3,80,0,0
9202,-90.9090909090909,4,2,2,80,0,0
10466,-90.9090909090909,4,2,3,80,0,0
10550,-90.9090909090909,4,2,2,80,0,0
11140,-90.9090909090909,4,2,4,80,0,0
11224,-90.9090909090909,4,2,2,80,0,0
11814,-111.111111111111,4,2,3,70,0,0
11898,-111.111111111111,4,2,2,70,0,0
19904,-100,4,2,3,75,0,0
19988,-100,4,2,2,75,0,0
21589,-100,4,2,4,75,0,0
21758,-100,4,2,2,75,0,0
22601,-111.111111111111,4,2,3,70,0,0
22685,-111.111111111111,4,2,2,70,0,0
30690,-100,4,2,3,75,0,0
30775,-100,4,2,2,75,0,0
32039,-100,4,2,4,75,0,0
32123,-100,4,2,2,75,0,0
33387,-111.111111111111,4,2,3,65,0,0
33471,-111.111111111111,4,2,2,65,0,0
36084,-111.111111111111,4,2,4,65,0,0
36168,-111.111111111111,4,2,2,65,0,0
38780,-100,4,2,3,75,0,0
38865,-100,4,2,2,75,0,0
39286,-100,4,2,4,75,0,0
39370,-100,4,2,2,75,0,0
39623,-100,4,2,11,60,0,0
39960,-100,4,2,2,75,0,0
40129,-100,4,2,3,75,0,0
40213,-100,4,2,2,75,0,0
40634,-100,4,2,4,75,0,0
40719,-100,4,2,2,75,0,0
40971,-100,4,2,11,60,0,0
41308,-100,4,2,2,75,0,0
41477,-100,4,2,3,60,0,0
41814,-100,4,2,2,60,0,0
42151,-100,4,2,2,65,0,0
42488,-100,4,2,2,70,0,0
42825,-100,4,2,4,75,0,0
42909,-100,4,2,2,75,0,0
43499,-100,4,2,2,80,0,0
44174,-100,4,2,12,60,0,0
45016,-100,4,2,2,60,0,0
45437,-100,4,2,2,5,0,0
45522,-83.3333333333333,4,2,2,85,0,1
48219,-83.3333333333333,4,2,3,85,0,1
48303,-83.3333333333333,4,2,2,85,0,1
49398,-83.3333333333333,4,2,4,85,0,1
49483,-83.3333333333333,4,2,2,85,0,1
50915,-83.3333333333333,4,2,3,85,0,1
51252,-83.3333333333333,4,2,2,85,0,1
51421,-83.3333333333333,4,2,4,85,0,1
51505,-83.3333333333333,4,2,2,85,0,1
52263,-83.3333333333333,4,2,3,85,0,1
52348,-83.3333333333333,4,2,2,85,0,1
52769,-83.3333333333333,4,2,4,85,0,1
52853,-83.3333333333333,4,2,2,85,0,1
53612,-83.3333333333333,4,2,3,85,0,1
53696,-83.3333333333333,4,2,2,85,0,1
54117,-83.3333333333333,4,2,4,85,0,1
54202,-83.3333333333333,4,2,2,85,0,1
54960,-83.3333333333333,4,2,3,85,0,1
55129,-83.3333333333333,4,2,2,85,0,1
59005,-83.3333333333333,4,2,3,85,0,1
59089,-83.3333333333333,4,2,2,85,0,1
60185,-83.3333333333333,4,2,4,85,0,1
60269,-83.3333333333333,4,2,2,85,0,1
61702,-83.3333333333333,4,2,3,85,0,1
61786,-83.3333333333333,4,2,2,85,0,1
62207,-83.3333333333333,4,2,4,85,0,1
62292,-83.3333333333333,4,2,2,85,0,1
63050,-83.3333333333333,4,2,3,85,0,1
63134,-83.3333333333333,4,2,2,85,0,1
63556,-83.3333333333333,4,2,4,85,0,1
63640,-83.3333333333333,4,2,2,85,0,1
64398,-83.3333333333333,4,2,3,85,0,1
64483,-83.3333333333333,4,2,2,85,0,1
65747,-83.3333333333333,4,2,3,85,0,1
65831,-83.3333333333333,4,2,2,85,0,1
67095,-83.3333333333333,4,2,3,80,0,0
67601,-83.3333333333333,4,2,2,80,0,0
67769,-100,4,2,4,80,0,0
67853,-100,4,2,2,80,0,0
69792,-100,4,2,3,80,0,0
69876,-100,4,2,2,80,0,0
72488,-83.3333333333333,4,2,4,90,0,1
72572,-83.3333333333333,4,2,2,90,0,1
75185,-83.3333333333333,4,2,3,85,0,1
75269,-83.3333333333333,4,2,2,85,0,1
75522,-83.3333333333333,4,2,2,60,0,1
75859,-83.3333333333333,4,2,2,70,0,1
76196,-83.3333333333333,4,2,2,80,0,1
76533,-83.3333333333333,4,2,3,90,0,1
76617,-83.3333333333333,4,2,2,90,0,1
77881,-90.9090909090909,4,2,4,85,0,0
77966,-90.9090909090909,4,2,2,85,0,0
80578,-90.9090909090909,4,2,3,85,0,0
80662,-90.9090909090909,4,2,2,85,0,0
81084,-90.9090909090909,4,2,4,85,0,0
81168,-90.9090909090909,4,2,2,85,0,0
81926,-90.9090909090909,4,2,3,85,0,0
82011,-90.9090909090909,4,2,2,85,0,0
82432,-90.9090909090909,4,2,4,85,0,0
82516,-90.9090909090909,4,2,2,85,0,0
84454,-90.9090909090909,4,2,2,80,0,0
89005,-90.9090909090909,4,2,1,10,0,0

[Colours]
Combo1 : 193,137,146
Combo2 : 232,197,174
Combo3 : 201,126,111
Combo4 : 249,241,206

[HitObjects]
17,86,1028,6,0,B|-13:146|17:207|47:177|77:237|47:298,2,230.4,4|2|4,3:2|2:0|3:2,2:0:0:0:
184,42,2713,6,0,L|188:3,2,38.4,8|8|8,2:0|2:0|2:0,2:0:0:0:
230,76,3050,6,0,L|234:114,2,38.4,8|8|8,2:3|2:3|2:3,2:0:0:0:
277,42,3387,6,0,L|281:3,2,38.4,4|4|4,2:3|2:3|2:3,2:0:0:0:
323,76,3724,5,4,3:2:0:0:
482,143,4061,1,8,2:0:0:0:
482,143,4145,1,8,2:0:0:0:
482,143,4230,2,0,L|485:171,1,28.8,8|8,2:0|2:0,2:0:0:0:
460,207,4398,2,0,P|433:195|405:200,1,57.6,8|8,2:3|2:3,2:0:0:0:
358,273,4735,2,0,P|331:284|303:279,1,57.6,4|4,2:3|3:0,2:0:0:0:
229,234,5072,5,4,3:2:0:0:
115,365,5410,2,0,L|87:362,3,28.8,8|8|8|8,2:3|2:3|2:3|2:3,2:0:0:0:
43,355,5747,5,8,2:0:0:0:
8,276,5915,1,8,2:0:0:0:
230,95,6421,6,0,B|194:139|194:139|229:234,1,158.4,6|10,3:2|2:0,2:0:0:0:
193,324,6926,1,0,2:0:0:0:
193,324,7095,2,0,P|230:336|267:324,1,79.2,2|0,3:2|3:2,2:0:0:0:
355,372,7432,1,10,2:0:0:0:
355,372,7601,1,0,2:0:0:0:
423,306,7769,6,0,L|413:227,1,79.2,2|0,3:2|2:0,2:0:0:0:
493,173,8106,1,10,2:0:0:0:
493,173,8275,2,0,L|512:15,1,158.4,0|0,2:0|3:2,2:0:0:0:
418,6,8780,2,0,L|378:10,3,39.6,10|8|8|8,2:0|2:0|2:0|2:0,2:0:0:0:
350,49,9117,6,0,P|279:76|217:32,1,158.4,4|8,3:2|2:0,2:0:0:0:
122,22,9623,2,0,L|132:101,1,79.2,0|8,3:0|2:0,2:0:0:0:
48,146,9960,2,0,L|38:225,1,79.2,0|8,3:0|2:0,2:0:0:0:
12,316,10297,6,0,B|53:336|95:316|74:295|115:274|157:295,1,158.4,0|8,3:0|2:0,2:0:0:0:
241,354,10803,2,0,L|251:275,1,79.2,8|8,2:0|3:0,2:0:0:0:
289,185,11140,2,0,P|251:172|214:184,2,79.2,4|8|8,3:2|2:0|2:0,2:0:0:0:
382,152,11645,1,4,3:0:0:0:
382,152,11730,1,0,3:0:0:0:
382,152,11814,6,0,L|366:23,2,129.6,6|10|2,3:2|2:0|2:0,2:0:0:0:
472,182,12657,1,0,3:0:0:0:
472,182,12825,2,0,P|464:213|464:245,1,64.8000000000001,10|0,2:0|2:0,2:0:0:0:
419,325,13162,6,0,P|363:294|302:310,1,129.6,2|10,3:2|2:0,2:0:0:0:
216,337,13668,2,0,P|160:367|99:351,1,129.6,0|0,3:2|3:2,2:0:0:0:
150,275,14174,2,0,P|149:242|157:211,1,64.8000000000001,10|0,2:0|2:0,2:0:0:0:
116,130,14511,6,0,P|60:99|-1:115,2,129.6,2|10|2,3:2|2:0|2:0,2:0:0:0:
207,111,15353,1,0,3:0:0:0:
207,111,15522,2,0,P|208:78|200:47,1,64.8000000000001,10|0,2:0|2:0,2:0:0:0:
289,30,15859,6,0,P|345:0|406:16,1,129.6,2|10,3:2|2:0,2:0:0:0:
413,106,16365,2,0,P|401:169|397:234,1,129.6,0|0,3:2|3:2,2:0:0:0:
470,288,16870,2,0,P|478:319|478:351,1,64.8000000000001,10|0,2:0|2:0,2:0:0:0:
392,379,17207,6,0,P|336:348|275:364,1,129.6,2|10,3:2|2:0,2:0:0:0:
152,230,17881,2,0,P|143:260|120:283,1,64.8000000000001,2|0,2:0|3:0,2:0:0:0:
62,353,18219,2,0,P|39:330|31:299,1,64.8000000000001,10|0,2:0|2:0,2:0:0:0:
0,214,18556,2,0,P|31:205|62:214,1,64.8000000000001,2|0,3:2|3:2,2:0:0:0:
121,144,18893,6,0,L|104:14,2,129.6,10|2|10,2:0|2:0|2:0,2:0:0:0:
152,230,19735,1,0,3:0:0:0:
210,160,19904,6,0,P|244:151|279:159,1,72,4|0,3:2|2:0,2:0:0:0:
338,86,20241,2,0,P|362:112|373:146,1,72,10|0,2:0|3:0,2:0:0:0:
466,159,20578,2,0,P|455:193|431:219,1,72,10|0,2:0|3:0,2:0:0:0:
466,306,20915,1,10,2:0:0:0:
390,361,21084,1,8,2:0:0:0:
390,361,21168,1,8,2:0:0:0:
390,361,21252,6,0,P|355:369|320:361,1,72,0|0,3:2|3:0,2:0:0:0:
236,319,21589,1,12,2:0:0:0:
236,319,21758,2,0,L|244:247,1,72,0|0,2:0|3:0,2:0:0:0:
279,159,22095,1,8,2:0:0:0:
279,159,22179,1,8,2:0:0:0:
279,159,22263,2,0,L|274:123,3,36,8|8|8|8,2:0|2:0|2:0|2:0,2:0:0:0:
298,83,22601,6,0,L|427:99,2,129.6,6|10|2,3:2|2:0|2:0,2:0:0:0:
234,19,23443,1,0,3:0:0:0:
234,19,23612,2,0,L|169:26,1,64.8000000000001,10|0,2:0|2:0,2:0:0:0:
94,77,23949,6,0,P|106:140|110:205,1,129.6,2|10,3:2|2:0,2:0:0:0:
28,244,24454,2,0,P|16:307|12:372,1,129.6,0|0,3:2|3:2,2:0:0:0:
102,362,24960,2,0,P|131:349|163:354,1,64.8000000000001,10|0,2:0|3:0,2:0:0:0:
224,287,25297,6,0,L|208:158,2,129.6,2|10|2,3:2|2:0|2:0,2:0:0:0:
292,355,26140,1,0,3:0:0:0:
292,355,26308,2,0,P|321:367|353:362,1,64.8000000000001,10|0,2:0|2:0,2:0:0:0:
423,305,26645,6,0,P|422:272|430:241,1,64.8000000000001,2|0,3:2|3:2,2:0:0:0:
501,183,26983,1,10,2:0:0:0:
501,183,27151,2,0,P|497:118|485:54,1,129.6,0|0,3:2|3:2,2:0:0:0:
407,7,27657,2,0,P|377:19|345:14,1,64.8000000000001,10|0,2:0|3:0,2:0:0:0:
275,71,27994,6,0,P|219:41|158:57,1,129.6,2|10,3:2|2:0,2:0:0:0:
0,145,28668,2,0,L|64:137,1,64.8000000000001,2|0,2:0|3:0,2:0:0:0:
75,227,29005,2,0,L|10:234,1,64.8000000000001,10|0,2:0|2:0,2:0:0:0:
22,324,29342,2,0,L|86:316,1,64.8000000000001,2|0,3:2|3:2,2:0:0:0:
176,304,29679,6,0,L|160:175,2,129.6,10|2|10,2:0|2:0|2:0,2:0:0:0:
230,376,30522,1,0,3:0:0:0:
310,329,30690,6,0,P|344:321|379:329,1,72,12|0,2:0|2:0,2:0:0:0:
468,363,31027,2,0,P|475:328|467:293,1,72,10|0,2:0|3:0,2:0:0:0:
392,235,31365,2,0,P|384:200|392:165,1,72,10|0,2:0|3:0,2:0:0:0:
483,140,31702,1,10,2:0:0:0:
503,48,31870,1,0,3:0:0:0:
414,0,32039,6,0,P|379:7|344:0,1,72,12|0,2:0|3:0,2:0:0:0:
250,6,32376,1,8,2:0:0:0:
202,86,32544,2,0,L|166:90,2,36,0|0|8,3:0|3:0|2:0,2:0:0:0:
279,148,32881,1,8,2:3:0:0:
279,148,33050,2,0,L|270:219,1,72,4|4,2:3|3:0,2:0:0:0:
337,281,33387,6,0,P|281:311|220:295,1,129.6,4|0,3:2|2:0,2:0:0:0:
169,370,33893,2,0,P|113:340|52:356,1,129.6,8|0,2:0|3:0,2:0:0:0:
4,282,34398,1,8,2:0:0:0:
4,282,34567,2,0,P|3:249|11:218,1,64.8000000000001,0|0,2:0|3:0,2:0:0:0:
99,241,34904,2,0,P|100:208|92:177,1,64.8000000000001,0|0,3:0|2:0,2:0:0:0:
146,105,35241,1,8,2:0:0:0:
146,105,35410,2,0,P|175:92|207:97,1,64.8000000000001,0|8,2:0|2:3,2:0:0:0:
243,69,35662,1,8,2:3:0:0:
243,69,35747,2,0,P|272:82|304:77,1,64.8000000000001,4|4,2:3|3:0,2:0:0:0:
395,81,36084,6,0,P|394:48|402:17,1,64.8000000000001,4|0,3:2|2:0,2:0:0:0:
496,15,36421,1,0,2:0:0:0:
496,15,36589,2,0,P|508:78|512:143,1,129.6,8|0,2:0|3:0,2:0:0:0:
446,206,37095,1,8,2:0:0:0:
446,206,37263,2,0,P|437:237|437:269,1,64.8000000000001,0|0,2:0|3:0,2:0:0:0:
394,350,37601,2,0,P|423:363|455:358,2,64.8000000000001,0|8|0,3:0|2:0|2:0,2:0:0:0:
318,300,38106,1,0,3:0:0:0:
258,368,38275,1,8,2:0:0:0:
258,368,38359,1,8,2:0:0:0:
258,368,38443,2,0,L|225:364,3,32.4,8|8|8|8,2:0|2:0|2:0|2:0,2:0:0:0:
195,327,38780,6,0,L|87:340,1,108,4|0,3:2|3:0,2:0:0:0:
42,351,39117,1,8,2:0:0:0:
41,257,39286,2,0,P|1:200|26:136,1,144,4|12,3:2|2:0,2:0:0:0:
10,44,39792,1,12,2:0:0:0:
107,25,39960,1,0,3:0:0:0:
107,25,40044,1,0,3:0:0:0:
107,25,40129,6,0,P|152:-1|203:12,1,108,4|0,3:2|3:0,2:0:0:0:
249,22,40466,1,8,2:0:0:0:
273,112,40634,2,0,L|255:254,1,144,4|12,3:2|2:0,2:0:0:0:
195,327,41140,1,12,2:0:0:0:
285,377,41308,1,0,3:0:0:0:
285,377,41393,1,0,3:0:0:0:
285,377,41477,5,4,3:2:0:0:
450,288,41814,2,0,L|441:216,1,72,0|0,3:0|3:0,2:0:0:0:
504,147,42151,2,0,L|512:75,1,72,8|8,2:0|2:0,2:0:0:0:
450,5,42488,1,8,2:0:0:0:
450,5,42657,1,8,2:0:0:0:
381,68,42825,6,0,L|345:72,3,36,12|8|8|8,2:0|2:0|2:0|2:0,2:0:0:0:
309,41,43162,2,0,L|273:45,3,36,8|8|8|8,2:0|2:0|2:0|2:0,2:0:0:0:
245,83,43499,6,0,L|240:119,3,36,8|8|8|8,2:0|2:0|2:0|2:0,2:0:0:0:
205,151,43836,1,8,2:0:0:0:
203,160,43921,1,8,2:0:0:0:
202,169,44005,1,8,2:0:0:0:
201,178,44089,1,8,2:0:0:0:
200,187,44174,5,4,3:2:0:0:
139,35,45016,5,0,3:0:0:0:
139,35,45185,2,0,P|88:49|42:23,1,108,10|0,2:0|2:0,2:0:0:0:
28,7,45522,6,0,B|17:90|17:90|8:97|8:97|0:174,1,172.8,6|10,3:2|2:0,2:0:0:0:
60,264,46027,1,0,2:0:0:0:
60,264,46196,2,0,L|72:349,1,86.4,2|0,3:2|3:2,2:0:0:0:
173,334,46533,2,0,L|160:248,1,86.4,10|0,2:0|2:0,2:0:0:0:
262,225,46870,6,0,P|302:213|343:225,1,86.4,2|0,3:2|2:0,2:0:0:0:
407,309,47207,2,0,P|447:320|488:308,1,86.4,10|0,2:0|2:0,2:0:0:0:
448,213,47544,1,2,3:2:0:0:
448,213,47713,1,0,3:2:0:0:
512,132,47881,2,0,L|499:46,1,86.4,10|0,2:0|2:0,2:0:0:0:
399,20,48219,6,0,B|353:-2|308:20|331:42|285:65|240:42,1,172.8,6|10,3:2|2:0,2:0:0:0:
145,2,48724,2,0,P|133:42|145:83,1,86.4,0|2,2:0|3:2,2:0:0:0:
67,153,49061,2,0,P|78:193|66:234,1,86.4,0|10,3:0|2:0,2:0:0:0:
0,314,49398,6,0,B|44:350|44:350|154:314,1,172.8,4|0,3:2|3:2,2:0:0:0:
250,273,49904,2,0,P|261:313|249:354,1,86.4,10|0,2:0|2:0,2:0:0:0:
350,384,50241,2,0,P|379:353|420:343,1,86.4,2|0,3:2|3:2,2:0:0:0:
397,242,50578,2,0,P|355:231|326:201,1,86.4,10|0,2:0|2:0,2:0:0:0:
411,141,50915,6,0,P|441:73|368:66,1,172.8,6|10,3:2|2:0,2:0:0:0:
274,111,51421,2,0,B|206:102|206:102|167:122|167:122|106:114,1,172.8,4|0,3:2|3:0,2:0:0:0:
4,102,51926,1,10,2:0:0:0:
110,279,52263,6,0,P|79:346|152:353,1,172.8,6|8,3:2|2:0,2:0:0:0:
214,270,52769,2,0,B|259:247|304:270|281:292|327:315|372:292,1,172.8,4|0,3:2|3:0,2:0:0:0:
467,331,53275,2,0,P|479:291|469:250,1,86.4,10|4,2:0|2:3,2:0:0:0:
384,186,53612,6,0,P|413:155|455:144,1,86.4,6|0,3:2|3:0,2:0:0:0:
455,40,53949,1,10,2:0:0:0:
455,40,54117,2,0,P|413:30|383:0,1,86.4,4|0,3:2|2:0,2:0:0:0:
293,53,54454,2,0,P|305:93|294:134,1,86.4,0|10,3:0|2:0,2:0:0:0:
198,159,54792,1,8,2:0:0:0:
198,159,54876,1,8,2:0:0:0:
198,159,54960,5,6,3:2:0:0:
214,270,55129,1,8,2:0:0:0:
214,270,55213,1,8,2:0:0:0:
214,270,55297,2,0,L|219:312,3,43.2,0|8|8|8,3:0|2:0|2:0|2:0,2:0:0:0:
196,360,55634,2,0,L|153:354,3,43.2,8|8|8|8,2:3|2:3|2:0|2:0,2:0:0:0:
113,320,55971,2,0,L|70:325,3,43.2,4|4|4|4,2:3|2:3|2:3|2:3,2:0:0:0:
32,361,56308,6,0,P|34:274|52:190,1,172.8,6|10,3:2|2:0,2:0:0:0:
11,100,56814,1,0,2:0:0:0:
11,100,56983,2,0,P|9:56|0:14,1,86.4,2|0,3:2|3:2,2:0:0:0:
104,1,57320,2,0,P|105:44|114:86,1,86.4,10|0,2:0|2:0,2:0:0:0:
214,112,57657,6,0,P|254:100|295:110,1,86.4,2|0,3:2|2:0,2:0:0:0:
351,22,57994,2,0,P|391:34|432:24,1,86.4,10|0,2:0|2:0,2:0:0:0:
512,99,58331,1,2,3:2:0:0:
512,99,58499,1,0,3:2:0:0:
442,176,58668,2,0,L|455:262,1,86.4,10|0,2:0|2:0,2:0:0:0:
478,362,59005,6,0,B|433:385|388:362|411:340|365:317|320:340,1,172.8,6|10,3:2|2:0,2:0:0:0:
224,384,59511,2,0,P|212:344|222:303,1,86.4,0|2,2:0|3:2,2:0:0:0:
137,242,59848,2,0,P|97:254|56:244,1,86.4,0|10,3:0|2:0,2:0:0:0:
10,149,60185,6,0,P|91:124|174:145,1,172.8,4|0,3:2|3:2,2:0:0:0:
270,184,60690,2,0,P|272:140|281:98,1,86.4,10|0,2:0|3:0,2:0:0:0:
341,14,61027,2,0,L|384:9,3,43.2,2|0|8|8,3:2|3:0|2:0|2:0,2:0:0:0:
425,42,61365,2,0,L|468:47,3,43.2,10|8|8|8,2:0|2:0|2:0|2:0,2:0:0:0:
512,20,61702,6,0,P|492:104|490:190,1,172.8,6|10,3:2|2:0,2:0:0:0:
460,289,62207,2,0,P|389:244|309:271,1,172.8,4|0,3:2|3:0,2:0:0:0:
237,346,62713,1,10,2:0:0:0:
237,346,62881,1,8,2:3:0:0:
139,310,63050,6,0,P|141:223|160:139,1,172.8,6|8,3:2|2:0,2:0:0:0:
77,78,63556,2,0,P|147:33|227:60,1,172.8,4|0,3:2|3:0,2:0:0:0:
311,0,64061,1,10,2:0:0:0:
398,74,64230,1,4,2:3:0:0:
398,74,64314,1,4,2:3:0:0:
398,74,64398,6,0,L|385:160,1,86.4,6|0,3:2|3:0,2:0:0:0:
475,210,64735,2,0,L|488:296,1,86.4,10|0,2:0|3:0,2:0:0:0:
409,363,65072,2,0,P|370:346|328:351,1,86.4,10|0,2:0|3:0,2:0:0:0:
243,288,65410,2,0,P|204:304|162:299,1,86.4,10|0,2:0|3:0,2:0:0:0:
59,319,65747,6,0,B|36:274|59:229|81:252|104:206|81:161,1,172.8,14|10,2:0|2:0,2:0:0:0:
7,95,66252,1,0,3:0:0:0:
7,95,66421,2,0,P|9:51|18:9,1,86.4,8|8,2:0|2:0,2:0:0:0:
110,55,66758,1,8,2:0:0:0:
200,5,66926,1,8,2:0:0:0:
256,88,67095,5,4,3:2:0:0:
102,324,67601,1,0,3:0:0:0:
102,324,67769,2,0,P|55:298|5:312,2,108,14|0|0,2:0|2:0|3:0,2:0:0:0:
184,369,68443,6,0,P|216:356|252:360,1,72,2|8,2:0|2:0,2:0:0:0:
313,289,68780,1,2,2:0:0:0:
313,289,68949,2,0,P|345:301|381:297,1,72,0|10,3:0|2:0,2:0:0:0:
464,252,69286,2,0,P|476:285|472:321,2,72,0|2|8,3:0|2:0|3:0,2:0:0:0:
421,174,69792,5,4,3:2:0:0:
421,174,69960,1,0,2:0:0:0:
482,103,70129,2,0,P|481:67|473:32,1,72,2|0,2:0|3:0,2:0:0:0:
380,41,70466,1,10,2:0:0:0:
380,41,70634,2,0,P|323:1|259:26,1,144,0|0,2:0|3:0,2:0:0:0:
186,85,71140,5,2,2:0:0:0:
186,85,71308,2,0,P|178:120|178:155,2,72,8|2|0,2:0|2:0|3:0,2:0:0:0:
116,22,71814,2,0,P|84:34|48:30,1,72,10|0,2:0|3:0,2:0:0:0:
0,110,72151,2,0,L|5:146,3,36,10|8|8|8,2:0|2:0|2:0|2:0,2:0:0:0:
46,177,72488,6,0,P|26:261|24:347,1,172.8,6|10,3:2|2:0,2:0:0:0:
126,365,72994,2,0,P|164:348|206:353,1,86.4,0|10,3:0|2:0,2:0:0:0:
293,294,73331,1,0,3:0:0:0:
370,362,73499,1,10,2:0:0:0:
460,306,73668,1,0,3:0:0:0:
460,306,73752,1,0,3:0:0:0:
460,306,73836,6,0,P|505:236|478:156,1,172.8,10|10,2:0|2:0,2:0:0:0:
383,115,74342,2,0,P|385:71|394:29,1,86.4,0|10,3:0|2:0,2:0:0:0:
290,20,74679,1,0,3:0:0:0:
290,20,74848,2,0,P|288:63|279:105,1,86.4,10|0,2:0|3:0,2:0:0:0:
301,206,75185,6,0,B|256:229|211:206|234:184|188:161|143:184,1,172.8,4|0,3:2|3:2,2:0:0:0:
114,90,75690,1,0,3:2:0:0:
114,90,75859,2,0,P|112:46|104:4,1,86.4,8|8,2:0|2:0,2:0:0:0:
0,13,76196,2,0,P|1:56|9:98,1,86.4,8|8,2:0|2:0,2:0:0:0:
37,198,76533,6,0,L|24:284,1,86.4,4|8,3:2|2:0,2:0:0:0:
15,337,76786,1,8,2:0:0:0:
15,337,76870,1,8,2:0:0:0:
113,370,77039,1,8,2:0:0:0:
181,292,77207,2,0,L|224:286,3,43.2,8|8|8|8,3:2|2:0|2:0|2:0,2:0:0:0:
256,327,77544,2,0,L|299:332,3,43.2,8|8|8|8,2:0|2:0|2:0|2:0,2:0:0:0:
332,297,77881,6,0,P|359:226|315:164,1,158.4,6|10,3:2|2:0,2:0:0:0:
229,120,78387,1,0,2:0:0:0:
229,120,78556,2,0,L|239:41,1,79.2,2|0,3:2|3:0,2:0:0:0:
330,6,78893,1,10,2:0:0:0:
330,6,79061,1,0,2:0:0:0:
410,56,79230,6,0,P|445:39|483:46,1,79.2,2|0,3:2|3:0,2:0:0:0:
457,141,79567,1,10,2:0:0:0:
457,141,79735,2,0,P|474:218|476:297,1,158.4,0|0,2:0|3:0,2:0:0:0:
415,370,80241,2,0,L|375:366,3,39.6,10|8|8|8,2:0|2:0|2:0|2:0,2:0:0:0:
345,328,80578,6,0,L|227:342,1,118.8,6|0,3:2|3:0,2:0:0:0:
179,347,80915,1,10,2:0:0:0:
84,357,81084,2,0,B|64:316|84:274|105:295|126:254|105:212,1,158.4,4|0,3:2|3:0,2:0:0:0:
37,144,81589,2,0,P|37:104|46:65,1,79.2,10|8,2:0|3:0,2:0:0:0:
138,44,81926,6,0,P|173:27|211:34,1,79.2,4|0,3:2|3:0,2:0:0:0:
251,69,82179,1,0,3:0:0:0:
251,69,82263,1,8,2:0:0:0:
334,23,82432,2,0,P|396:66|467:38,1,158.4,4|0,3:2|3:0,2:0:0:0:
512,122,82938,2,0,L|508:162,3,39.6,8|8|8|4,2:0|3:0|3:0|3:0,2:0:0:0:
466,185,83275,6,0,L|476:264,1,79.2,10|0,2:0|3:0,2:0:0:0:
492,357,83612,1,0,3:2:0:0:
399,334,83780,6,0,P|364:317|326:324,1,79.2,10|0,2:0|3:0,2:0:0:0:
233,347,84117,1,0,3:0:0:0:
171,275,84286,1,10,2:0:0:0:
256,192,84454,5,4,3:2:0:0:
256,192,84539,12,0,89005,2:0:0:0:
