osu file format v14

[General]
AudioFilename: audio.ogg
AudioLeadIn: 0
PreviewTime:44485
Countdown: 0
SampleSet: Soft
StackLeniency: 0.7
Mode: 0
LetterboxInBreaks: 0
WidescreenStoryboard: 1

[Editor]
Bookmarks: 89000
DistanceSpacing: 0.5
BeatDivisor: 4
GridSize: 4
TimelineZoom: 2.2

[Metadata]
Title:Sayonara kara Hajimaru Monogatari (TV Size)
TitleUnicode:サヨナラから始まる物語 (TV Size)
Artist:Hoshimi Production
ArtistUnicode:星見プロダクション
Creator:Mahiru Shiina
Version:Insane
Source:IDOLY PRIDE
Tags:アイドリープライド Japanese video game Anime j pop jpop j-pop female vocals vocalists SMXX-00533 MusicRay'n 大石昌良 Oishi Masayoshi 岸田勇気 Kishida Yuki 長瀬琴乃 Nagase Kotono 橘美來 Tachibana Mirai 川咲さくら Kawasaki Sakura 菅野真衣 Kanno Mai 一ノ瀬怜 Ichinose Rei 結城萌子 Moeko 伊吹渚 Ibuki Nagisa 夏目ここな Natsume Kokona 佐伯遙子 Saeki Haruko 佐々木奈緒 Sasaki Nao 白石沙季 Shiraishi Saki 宮沢小春 Miyazawa Koharu 白石千紗 Chisa 高尾奏音 Takao Kanon 成宮すず Narumiya Suzu 相川奏多 Aikawa Kanata 早坂芽衣 Hayasaka Mei 日向もか Hinata Moka 兵藤雫 Hyodo Shizuku 首藤志奈 Shuto Yukina A story that begins with goodbye SEApodEErman ItsCactus KPMY Murada-
BeatmapID:3742876
BeatmapSetID:1823978

[Difficulty]
HPDrainRate:5.5
CircleSize:3.8
OverallDifficulty:8
ApproachRate:9
SliderMultiplier:1.7
SliderTickRate:1

[Events]
//Background and Video events
0,0,"bg.jpg",0,0
Video,245,"video.mp4"
//Break Periods
//Storyboard Layer 0 (Background)
//Storyboard Layer 1 (Fail)
//Storyboard Layer 2 (Pass)
//Storyboard Layer 3 (Foreground)
//Storyboard Layer 4 (Overlay)
//Storyboard Sound Samples

[TimingPoints]
1028,337.078651685393,4,2,4,60,1,0
1028,-153.846153846153,4,2,4,60,0,0
1702,-153.846153846153,4,2,5,60,0,0
2376,-153.846153846153,4,2,3,60,0,0
2713,-133.333333333333,4,2,2,60,0,0
3724,-133.333333333333,4,2,4,60,0,0
4061,-133.333333333333,4,2,2,60,0,0
5072,-133.333333333333,4,2,4,60,0,0
5410,-133.333333333333,4,2,4,70,0,0
5747,-133.333333333333,4,2,4,80,0,0
6421,-95.2380952380952,4,2,3,80,0,0
6505,-95.2380952380952,4,2,2,80,0,0
9117,-95.2380952380952,4,2,3,80,0,0
9202,-95.2380952380952,4,2,2,80,0,0
10466,-95.2380952380952,4,2,3,80,0,0
10634,-95.2380952380952,4,2,2,80,0,0
11140,-95.2380952380952,4,2,4,80,0,0
11308,-95.2380952380952,4,2,2,80,0,0
11814,-117.64705882353,4,2,3,70,0,0
11898,-117.64705882353,4,2,2,70,0,0
19904,-95.2380952380956,4,2,3,75,0,0
19988,-95.2380952380956,4,2,2,75,0,0
21589,-95.2380952380956,4,2,4,75,0,0
21758,-95.2380952380956,4,2,2,75,0,0
22601,-105.263157894737,4,2,3,70,0,0
22685,-105.263157894737,4,2,2,70,0,0
30690,-95.2380952380954,4,2,3,75,0,0
30775,-95.2380952380954,4,2,2,75,0,0
32039,-95.2380952380954,4,2,4,75,0,0
32123,-95.2380952380954,4,2,2,75,0,0
33387,-117.647058823529,4,2,3,65,0,0
33471,-117.647058823529,4,2,2,65,0,0
36084,-105.263157894737,4,2,4,65,0,0
36168,-105.263157894737,4,2,2,65,0,0
38780,-95.2380952380954,4,2,3,75,0,0
38865,-95.2380952380954,4,2,2,75,0,0
39286,-95.2380952380954,4,2,4,75,0,0
39370,-95.2380952380954,4,2,2,75,0,0
39623,-95.2380952380954,4,2,11,60,0,0
39960,-95.2380952380954,4,2,2,75,0,0
40129,-95.2380952380954,4,2,3,75,0,0
40213,-95.2380952380954,4,2,2,75,0,0
40634,-95.2380952380954,4,2,4,75,0,0
40719,-95.2380952380954,4,2,2,75,0,0
40971,-95.2380952380954,4,2,11,60,0,0
41308,-95.2380952380954,4,2,2,75,0,0
41477,-95.2380952380954,4,2,3,60,0,0
41561,-95.2380952380954,4,2,2,60,0,0
41814,-86.9565217391304,4,2,2,60,0,0
42151,-86.9565217391304,4,2,2,65,0,0
42488,-86.9565217391304,4,2,2,70,0,0
42825,-86.9565217391304,4,2,4,75,0,0
42909,-86.9565217391304,4,2,2,75,0,0
43499,-86.9565217391304,4,2,2,80,0,0
44174,-86.9565217391304,4,2,12,60,0,0
45016,-86.9565217391304,4,2,2,60,0,0
45185,-117.647058823529,4,2,2,60,0,0
45522,-83.3333333333333,4,2,2,85,0,1
48219,-83.3333333333333,4,2,3,85,0,1
48303,-83.3333333333333,4,2,2,85,0,1
49398,-83.3333333333333,4,2,4,85,0,1
49483,-83.3333333333333,4,2,2,85,0,1
50915,-83.3333333333333,4,2,3,85,0,1
51252,-83.3333333333333,4,2,2,85,0,1
51421,-83.3333333333333,4,2,4,85,0,1
51505,-83.3333333333333,4,2,2,85,0,1
52263,-83.3333333333333,4,2,3,85,0,1
52348,-83.3333333333333,4,2,2,85,0,1
52769,-83.3333333333333,4,2,4,85,0,1
52853,-83.3333333333333,4,2,2,85,0,1
53612,-83.3333333333333,4,2,3,85,0,1
53696,-83.3333333333333,4,2,2,85,0,1
54117,-83.3333333333333,4,2,4,85,0,1
54202,-83.3333333333333,4,2,2,85,0,1
54960,-83.3333333333333,4,2,3,85,0,1
55044,-83.3333333333333,4,2,2,85,0,1
59005,-83.3333333333333,4,2,3,85,0,1
59089,-83.3333333333333,4,2,2,85,0,1
60185,-83.3333333333333,4,2,4,85,0,1
60269,-83.3333333333333,4,2,2,85,0,1
61702,-83.3333333333333,4,2,3,85,0,1
61786,-83.3333333333333,4,2,2,85,0,1
62207,-83.3333333333333,4,2,4,85,0,1
62292,-83.3333333333333,4,2,2,85,0,1
63050,-83.3333333333333,4,2,3,85,0,1
63134,-83.3333333333333,4,2,2,85,0,1
63556,-83.3333333333333,4,2,4,85,0,1
63640,-83.3333333333333,4,2,2,85,0,1
64398,-83.3333333333333,4,2,3,85,0,1
64483,-83.3333333333333,4,2,2,85,0,1
65747,-83.3333333333333,4,2,3,85,0,1
65831,-83.3333333333333,4,2,2,85,0,1
67095,-105.263157894737,4,2,3,80,0,0
67179,-105.263157894737,4,2,2,80,0,0
67769,-105.263157894737,4,2,4,80,0,0
67853,-105.263157894737,4,2,2,80,0,0
69792,-105.263157894737,4,2,3,80,0,0
69876,-105.263157894737,4,2,2,80,0,0
72488,-80,4,2,4,90,0,0
72572,-80,4,2,2,90,0,1
75100,-80,4,2,2,5,0,1
75185,-80,4,2,3,85,0,1
75522,-80,4,2,2,60,0,1
75859,-80,4,2,2,70,0,1
76196,-80,4,2,2,80,0,1
76533,-80,4,2,3,90,0,1
76617,-80,4,2,2,90,0,1
77881,-80,4,2,4,85,0,0
77966,-80,4,2,2,85,0,0
78639,-80,4,2,2,5,0,0
78724,-80,4,2,2,85,0,0
80578,-86.9565217391304,4,2,3,85,0,0
80662,-86.9565217391304,4,2,2,85,0,0
81084,-86.9565217391304,4,2,4,85,0,0
81168,-86.9565217391304,4,2,2,85,0,0
81926,-86.9565217391304,4,2,3,85,0,0
82011,-86.9565217391304,4,2,2,85,0,0
82432,-86.9565217391304,4,2,4,85,0,0
82516,-86.9565217391304,4,2,2,85,0,0
84454,-86.9565217391304,4,2,2,80,0,0
89005,-86.9565217391304,4,2,1,10,0,0

[Colours]
Combo1 : 193,137,146
Combo2 : 232,197,174
Combo3 : 201,126,111
Combo4 : 249,241,206

[HitObjects]
64,280,1028,6,0,B|124:260|167:298|167:298|210:336|270:316,1,220.999989883423,4|2,3:2|2:0,2:0:0:0:
356,292,2376,1,4,3:2:0:0:
288,192,2713,6,0,L|297:247,2,42.5000016212464,8|8|8,2:0|2:0|2:0,2:0:0:0:
224,128,3050,2,0,L|171:108,2,42.5000016212464,8|8|8,2:3|2:3|2:3,2:0:0:0:
311,104,3387,2,0,L|353:68,2,42.5000016212464,4|4|0,2:3|2:3|2:0,2:0:0:0:
208,212,3724,6,0,L|145:200,1,63.7500024318696,4|0,3:2|2:0,2:0:0:0:
24,120,4061,1,8,2:0:0:0:
24,120,4145,1,8,2:0:0:0:
24,120,4230,1,8,2:0:0:0:
24,120,4314,1,8,2:0:0:0:
24,120,4398,2,0,L|86:108,1,63.7500024318696,8|8,2:3|2:3,2:0:0:0:
196,96,4735,1,4,2:3:0:0:
128,32,4904,1,4,3:0:0:0:
56,200,5072,6,0,L|69:278,1,63.7500024318696,4|0,3:2|3:0,2:0:0:0:
176,320,5410,1,8,2:3:0:0:
167,329,5494,1,8,2:3:0:0:
159,339,5578,1,8,2:3:0:0:
150,348,5662,1,8,2:3:0:0:
140,360,5747,5,8,2:0:0:0:
212,204,5915,1,8,2:0:0:0:
408,140,6421,6,0,B|441:178|441:178|418:308,1,178.499994552612,6|10,3:2|2:0,2:0:0:0:
340,368,6926,1,0,2:0:0:0:
284,248,7095,2,0,P|336:236|356:208,1,89.2499972763062,2|0,3:2|3:2,2:0:0:0:
212,204,7432,2,0,P|196:255|210:286,1,89.2499972763062,10|0,2:0|2:0,2:0:0:0:
288,164,7769,5,2,3:2:0:0:
116,148,7938,1,0,2:0:0:0:
196,28,8106,2,0,L|211:118,1,89.2499972763062,10|0,2:0|2:0,2:0:0:0:
96,48,8443,1,2,3:2:0:0:
296,68,8612,1,0,3:2:0:0:
317,71,8696,1,0,3:2:0:0:
339,75,8780,1,10,2:0:0:0:
361,79,8865,1,8,2:0:0:0:
383,83,8949,2,0,L|438:92,1,44.6249986381531,8|8,2:0|2:0,2:0:0:0:
480,172,9117,6,0,L|464:259,1,89.2499972763062,4|0,3:2|3:0,2:0:0:0:
307,331,9454,1,8,2:0:0:0:
352,200,9623,1,0,3:0:0:0:
395,347,9792,2,0,L|307:331,1,89.2499972763062,8|0,2:0|3:0,2:0:0:0:
132,296,10129,2,0,L|220:312,1,89.2499972763062,8|0,2:0|3:0,2:0:0:0:
232,208,10466,5,4,3:2:0:0:
76,236,10634,2,0,P|43:278|46:312,1,89.2499972763062,8|8,2:0|2:0,2:0:0:0:
152,172,10971,1,8,3:0:0:0:
52,124,11140,1,4,3:2:0:0:
208,36,11308,2,0,L|224:124,1,89.2499972763062,8|8,2:0|2:0,2:0:0:0:
108,40,11645,1,4,3:0:0:0:
300,40,11814,6,0,L|394:56,1,72.2500013780594,6|0,3:2|2:0,2:0:0:0:
456,176,12151,2,0,B|489:167|489:167|518:103|451:57,1,144.500002756119,10|2,2:0|2:0,2:0:0:0:
364,156,12825,2,0,L|379:242,1,72.2500013780594,10|0,2:0|2:0,2:0:0:0:
240,316,13162,6,0,L|318:302,1,72.2500013780594,2|0,3:2|3:2,2:0:0:0:
232,223,13499,1,10,2:0:0:0:
156,276,13668,2,0,L|128:351,1,72.2500013780594,0|2,3:2|2:0,2:0:0:0:
232,223,14005,2,0,L|180:161,1,72.2500013780594,0|10,3:2|2:0,2:0:0:0:
81,238,14342,1,0,2:0:0:0:
119,86,14511,6,0,L|105:159,1,72.2500013780594,2|0,3:2|2:0,2:0:0:0:
211,73,14848,2,0,B|240:51|240:51|361:73,1,144.500002756119,10|2,2:0|2:0,2:0:0:0:
488,40,15522,1,10,2:0:0:0:
488,40,15690,1,0,2:0:0:0:
464,184,15859,6,0,L|448:274,1,72.2500013780594,2|0,3:2|3:2,2:0:0:0:
436,352,16196,1,10,2:0:0:0:
308,260,16365,2,0,P|344:260|371:285,1,72.2500013780594,0|2,3:2|2:0,2:0:0:0:
240,360,16702,2,0,L|330:344,1,72.2500013780594,0|10,3:2|2:0,2:0:0:0:
224,248,17039,1,0,2:0:0:0:
148,364,17207,6,0,L|132:277,1,72.2500013780594,2|0,3:2|2:0,2:0:0:0:
60,340,17544,1,10,2:0:0:0:
48,172,17881,2,0,P|79:154|115:162,1,72.2500013780594,2|0,2:0|3:0,2:0:0:0:
256,156,18219,2,0,P|220:149|189:169,1,72.2500013780594,10|0,2:0|2:0,2:0:0:0:
28,76,18556,5,2,3:2:0:0:
28,76,18724,1,0,3:2:0:0:
128,0,18893,2,0,L|114:78,1,72.2500013780594,10|0,2:0|3:2,2:0:0:0:
256,156,19230,2,0,L|243:84,1,72.2500013780594,2|0,2:0|3:2,2:0:0:0:
416,64,19567,1,10,2:0:0:0:
316,24,19735,1,0,3:0:0:0:
388,232,19904,6,0,L|406:129,1,89.2499972763062,4|0,3:2|2:0,2:0:0:0:
324,296,20241,2,0,L|305:398,1,89.2499972763062,10|0,2:0|3:0,2:0:0:0:
432,324,20578,1,10,2:0:0:0:
262,189,20747,1,0,3:0:0:0:
307,383,20915,1,10,2:0:0:0:
152,344,21084,1,8,2:0:0:0:
152,344,21168,1,8,2:0:0:0:
152,344,21252,6,0,L|254:325,1,89.2499972763062,0|0,3:2|3:0,2:0:0:0:
64,356,21589,1,12,2:0:0:0:
180,232,21758,1,0,2:0:0:0:
28,188,21926,1,0,3:0:0:0:
71,33,22095,5,8,2:0:0:0:
88,36,22179,1,8,2:0:0:0:
105,39,22263,1,8,2:0:0:0:
123,42,22348,1,8,2:0:0:0:
140,45,22432,1,8,2:0:0:0:
158,48,22516,1,8,2:0:0:0:
175,51,22601,6,0,B|245:63|245:63|263:77|263:77|334:89,2,161.499995687485,6|10|2,3:2|2:0|2:0,2:0:0:0:
200,160,23443,1,0,3:0:0:0:
308,8,23612,1,10,2:0:0:0:
308,8,23780,1,0,2:0:0:0:
316,172,23949,6,0,L|301:251,1,80.7499978437424,2|0,3:2|3:2,2:0:0:0:
284,336,24286,1,10,2:0:0:0:
392,244,24454,2,0,L|377:323,1,80.7499978437424,0|2,3:2|2:0,2:0:0:0:
480,296,24792,1,0,3:2:0:0:
480,152,24960,2,0,P|441:144|407:164,1,80.7499978437424,10|0,2:0|3:0,2:0:0:0:
484,40,25297,1,2,3:2:0:0:
316,168,25634,6,0,B|272:153|240:181|240:181|209:208|165:194,1,161.499995687485,10|2,2:0|2:0,2:0:0:0:
64,184,26140,1,0,3:0:0:0:
64,184,26308,1,10,2:0:0:0:
188,116,26477,1,0,2:0:0:0:
82,80,26645,5,2,3:2:0:0:
120,265,26814,1,0,3:2:0:0:
188,116,26983,1,10,2:0:0:0:
206,261,27151,2,0,P|212:299|192:333,1,80.7499978437424,0|2,3:2|2:0,2:0:0:0:
104,380,27488,1,0,3:2:0:0:
300,352,27657,2,0,L|392:333,1,80.7499978437424,10|0,2:0|3:0,2:0:0:0:
409,330,27910,1,0,3:0:0:0:
409,330,27994,6,0,B|421:260|421:260|435:242|435:242|447:171,1,161.499995687485,2|10,3:2|2:0,2:0:0:0:
448,32,28668,2,0,P|477:58|484:97,1,80.7499978437424,2|0,2:0|3:0,2:0:0:0:
364,165,29005,2,0,P|372:126|402:100,1,80.7499978437424,10|0,2:0|2:0,2:0:0:0:
292,48,29342,6,0,L|132:76,1,161.499995687485,2|10,3:2|2:0,2:0:0:0:
36,36,29848,1,0,3:2:0:0:
40,208,30016,2,0,L|55:129,1,80.7499978437424,2|0,2:0|3:2,2:0:0:0:
148,192,30353,2,0,L|163:271,1,80.7499978437424,10|0,2:0|3:0,2:0:0:0:
64,376,30690,6,0,P|32:359|20:304,1,89.2499972763062,12|0,2:0|2:0,2:0:0:0:
208,344,31027,2,0,L|318:324,1,89.2499972763062,10|0,2:0|3:0,2:0:0:0:
295,328,31280,1,0,3:0:0:0:
295,328,31365,1,10,2:0:0:0:
480,264,31533,1,0,3:0:0:0:
404,380,31702,1,10,2:0:0:0:
284,244,31870,1,0,3:0:0:0:
396,168,32039,6,0,L|377:274,1,89.2499972763062,12|0,2:0|3:0,2:0:0:0:
292,156,32376,1,8,2:0:0:0:
500,152,32544,1,0,3:0:0:0:
500,152,32629,1,0,3:0:0:0:
500,152,32713,1,8,2:0:0:0:
380,255,32881,1,8,2:3:0:0:
411,80,33050,2,0,L|394:174,1,89.2499972763062,4|4,2:3|3:0,2:0:0:0:
264,56,33387,6,0,L|342:42,1,72.2500013780594,4|0,3:2|2:0,2:0:0:0:
292,156,33724,1,0,2:0:0:0:
196,112,33893,2,0,B|169:142|169:142|188:246,1,144.500002756119,8|0,2:0|3:0,2:0:0:0:
200,344,34398,1,8,2:0:0:0:
72,268,34567,2,0,P|95:294|130:298,1,72.2500013780594,0|0,2:0|3:0,2:0:0:0:
272,240,34904,5,0,3:0:0:0:
356,348,35072,1,0,2:0:0:0:
482,229,35241,1,8,2:0:0:0:
356,348,35578,5,8,2:3:0:0:
356,348,35662,1,8,2:3:0:0:
356,348,35747,1,4,2:3:0:0:
372,168,35915,1,4,3:0:0:0:
460,384,36084,6,0,L|473:305,1,80.7499978437424,4|0,3:2|2:0,2:0:0:0:
356,348,36421,1,0,2:0:0:0:
260,240,36589,2,0,B|222:249|222:249|177:310|250:362,1,161.499995687485,8|0,2:0|3:0,2:0:0:0:
360,252,37095,1,8,2:0:0:0:
240,156,37263,1,0,2:0:0:0:
374,172,37432,6,0,L|357:267,1,80.7499978437424,0|0,3:0|3:0,2:0:0:0:
505,153,37769,1,8,2:0:0:0:
416,56,37938,2,0,L|336:42,1,80.7499978437424,0|0,2:0|3:0,2:0:0:0:
244,124,38275,5,8,2:0:0:0:
244,124,38359,1,8,2:0:0:0:
244,124,38443,1,8,2:0:0:0:
244,124,38527,1,8,2:0:0:0:
244,124,38612,2,0,L|287:116,1,40.3749989218712,8|8,2:0|2:0,2:0:0:0:
132,48,38780,6,0,L|154:174,1,89.2499972763062,4|0,3:2|3:0,2:0:0:0:
156,168,39033,1,0,3:0:0:0:
156,168,39117,1,8,2:0:0:0:
12,288,39286,2,0,B|24:211|24:211|39:192|39:192|52:117,1,178.499994552612,4|12,3:2|2:0,2:0:0:0:
112,264,39792,1,12,2:0:0:0:
112,264,39960,1,0,3:0:0:0:
12,368,40129,6,0,L|138:346,1,89.2499972763062,4|0,3:2|3:0,2:0:0:0:
132,352,40381,1,0,3:0:0:0:
132,352,40466,1,8,2:0:0:0:
264,216,40634,2,0,B|297:253|297:253|273:381,1,178.499994552612,4|12,3:2|2:0,2:0:0:0:
196,280,41140,1,12,2:0:0:0:
356,184,41308,1,0,3:0:0:0:
356,184,41393,1,0,3:0:0:0:
356,184,41477,6,0,L|462:165,1,89.2499972763062,4|0,3:2|2:0,2:0:0:0:
500,312,41814,2,0,L|393:293,1,97.7500018644333,0|0,3:0|3:0,2:0:0:0:
292,276,42151,1,8,2:0:0:0:
378,103,42320,1,8,2:0:0:0:
236,198,42488,1,8,2:0:0:0:
356,184,42657,1,8,2:0:0:0:
248,40,42825,6,0,L|256:87,3,48.8750009322167,12|8|8|8,2:0|2:0|2:0|2:0,2:0:0:0:
167,54,43162,2,0,L|176:103,3,48.8750009322167,8|8|8|8,2:0|2:0|2:0|2:0,2:0:0:0:
88,172,43499,5,8,2:0:0:0:
82,153,43584,1,8,2:0:0:0:
77,135,43668,1,8,2:0:0:0:
73,118,43752,1,8,2:0:0:0:
68,100,43836,1,8,2:0:0:0:
64,82,43921,1,8,2:0:0:0:
58,65,44005,1,8,2:0:0:0:
54,47,44089,1,8,2:0:0:0:
49,29,44174,5,4,3:2:0:0:
32,252,45016,5,0,3:0:0:0:
176,316,45185,2,0,L|105:328,1,72.2500013780594,10|0,2:0|2:0,2:0:0:0:
168,216,45522,6,0,L|278:235,1,101.999996887207,6|0,3:2|2:0,2:0:0:0:
320,384,45859,2,0,B|334:293|334:293|351:271|351:271|367:182,1,203.999993774414,10|2,2:0|3:2,2:0:0:0:
472,296,46365,1,0,3:2:0:0:
448,152,46533,2,0,P|416:113|367:104,1,101.999996887207,10|0,2:0|2:0,2:0:0:0:
180,208,46870,6,0,L|286:189,1,101.999996887207,2|0,3:2|2:0,2:0:0:0:
268,104,47207,2,0,L|167:121,1,101.999996887207,10|0,2:0|2:0,2:0:0:0:
24,56,47544,1,2,3:2:0:0:
76,208,47713,1,0,3:2:0:0:
152,40,47881,2,0,L|252:22,1,101.999996887207,10|0,2:0|2:0,2:0:0:0:
468,48,48219,6,0,L|449:150,1,101.999996887207,6|0,3:2|2:0,2:0:0:0:
433,241,48556,1,10,2:0:0:0:
320,104,48724,2,0,L|338:206,1,101.999996887207,0|2,2:0|3:2,2:0:0:0:
360,316,49061,1,0,3:0:0:0:
360,316,49230,1,10,2:0:0:0:
236,244,49398,6,0,B|178:223|138:259|138:259|97:294|41:277,1,203.999993774414,4|0,3:2|3:2,2:0:0:0:
23,147,49904,2,0,P|69:157|76:204,1,101.999996887207,10|0,2:0|2:0,2:0:0:0:
153,300,50241,1,2,3:2:0:0:
153,300,50410,1,0,3:2:0:0:
236,244,50578,2,0,P|235:194|202:156,1,101.999996887207,10|0,2:0|2:0,2:0:0:0:
112,39,50915,6,0,L|212:56,1,101.999996887207,6|0,3:2|2:0,2:0:0:0:
356,216,51252,1,10,2:0:0:0:
398,110,51421,2,0,B|307:124|307:124|285:141|285:141|196:157,1,203.999993774414,4|0,3:2|3:0,2:0:0:0:
236,244,51926,1,10,2:0:0:0:
112,164,52095,1,8,2:3:0:0:
76,352,52263,6,0,L|99:226,1,101.999996887207,6|0,3:2|3:0,2:0:0:0:
152,48,52601,1,8,2:0:0:0:
30,81,52769,2,0,B|56:131|56:131|202:155,1,203.999993774414,4|0,3:2|3:0,2:0:0:0:
368,168,53275,1,10,2:0:0:0:
280,56,53443,1,4,2:3:0:0:
480,104,53612,6,0,L|461:210,1,101.999996887207,6|0,3:2|3:0,2:0:0:0:
376,72,53949,1,10,2:0:0:0:
385,268,54117,2,0,L|368:168,1,101.999996887207,4|0,3:2|2:0,2:0:0:0:
408,364,54454,1,0,3:0:0:0:
408,364,54623,1,10,2:0:0:0:
260,264,54792,1,8,2:0:0:0:
260,264,54876,1,8,2:0:0:0:
260,264,54960,6,0,L|177:278,1,50.9999984436036,6|0,3:2|2:0,2:0:0:0:
72,340,55129,1,8,2:0:0:0:
72,340,55213,1,8,2:0:0:0:
72,340,55297,6,0,L|154:354,3,50.9999984436036,0|8|8|8,3:0|2:0|2:0|2:0,2:0:0:0:
148,224,55634,6,0,L|94:288,3,50.9999984436036,8|8|8|8,2:3|2:3|2:0|2:0,2:0:0:0:
36,216,55971,1,4,2:3:0:0:
40,190,56056,1,4,2:3:0:0:
44,165,56140,1,4,2:3:0:0:
49,140,56224,1,4,2:3:0:0:
53,115,56308,6,0,L|71:8,1,101.999996887207,6|0,3:2|2:0,2:0:0:0:
244,80,56645,2,0,B|186:59|146:95|146:95|105:130|49:113,1,203.999993774414,10|2,2:0|3:2,2:0:0:0:
164,1,57151,1,0,3:2:0:0:
204,160,57320,2,0,L|221:260,1,101.999996887207,10|0,2:0|2:0,2:0:0:0:
396,248,57657,6,0,L|300:213,1,101.999996887207,2|0,3:2|2:0,2:0:0:0:
223,370,57994,2,0,L|301:304,1,101.999996887207,10|0,2:0|2:0,2:0:0:0:
481,208,58331,1,2,3:2:0:0:
399,332,58499,1,0,3:2:0:0:
300,213,58668,2,0,L|317:112,1,101.999996887207,10|0,2:0|2:0,2:0:0:0:
415,3,59005,6,0,B|389:53|389:53|243:77,1,203.999993774414,6|10,3:2|2:0,2:0:0:0:
144,220,59511,2,0,P|206:205|230:171,1,101.999996887207,0|2,2:0|3:2,2:0:0:0:
159,108,59848,1,0,3:0:0:0:
159,108,60016,1,10,2:0:0:0:
40,176,60185,6,0,L|77:388,1,203.999993774414,4|0,3:2|3:2,2:0:0:0:
268,312,60690,2,0,L|157:292,1,101.999996887207,10|0,2:0|3:0,2:0:0:0:
167,294,60943,1,0,3:0:0:0:
167,294,61027,1,2,3:2:0:0:
284,216,61196,1,8,2:0:0:0:
284,216,61280,1,8,2:0:0:0:
284,216,61365,2,0,L|394:196,1,101.999996887207,10|8,2:0|2:0,2:0:0:0:
468,240,61617,1,8,2:0:0:0:
468,240,61702,6,0,L|488:130,1,101.999996887207,6|0,3:2|3:0,2:0:0:0:
392,16,62039,1,10,2:0:0:0:
288,88,62207,2,0,L|488:52,1,203.999993774414,4|0,3:2|3:0,2:0:0:0:
384,200,62713,1,10,2:0:0:0:
208,132,62881,1,8,2:3:0:0:
208,132,62966,1,8,2:3:0:0:
208,132,63050,6,0,P|193:84|212:37,1,101.999996887207,6|0,3:2|3:0,2:0:0:0:
284,196,63387,1,8,2:0:0:0:
108,96,63556,2,0,B|122:178|122:178|139:200|139:200|153:291,1,203.999993774414,4|0,3:2|3:0,2:0:0:0:
40,252,64061,1,10,2:0:0:0:
124,376,64230,1,4,2:3:0:0:
124,376,64314,1,4,2:3:0:0:
124,376,64398,6,0,L|250:353,1,101.999996887207,6|0,3:2|3:0,2:0:0:0:
392,276,64735,2,0,L|265:253,1,101.999996887207,10|0,2:0|3:0,2:0:0:0:
195,247,65072,5,10,2:0:0:0:
356,184,65241,1,0,3:0:0:0:
320,348,65410,1,10,2:0:0:0:
499,299,65578,1,0,3:0:0:0:
408,380,65747,6,0,L|429:257,1,101.999996887207,14|0,2:0|3:0,2:0:0:0:
460,92,66084,2,0,L|438:214,1,101.999996887207,10|0,2:0|3:0,2:0:0:0:
237,283,66421,5,8,2:0:0:0:
188,184,66589,1,8,2:0:0:0:
288,138,66758,1,8,2:0:0:0:
334,236,66926,1,8,2:0:0:0:
188,184,67095,6,0,B|143:167|112:195|112:195|80:222|36:209,1,161.499995687485,4|2,3:2|2:0,2:0:0:0:
164,264,67601,1,0,3:0:0:0:
104,92,67769,6,0,L|187:78,1,80.7499978437424,14|0,2:0|2:0,2:0:0:0:
183,79,68022,1,0,2:0:0:0:
183,79,68106,1,2,2:0:0:0:
288,32,68275,1,0,3:0:0:0:
344,180,68443,6,0,L|359:89,1,80.7499978437424,2|8,2:0|2:0,2:0:0:0:
464,52,68780,1,2,2:0:0:0:
464,52,68949,2,0,L|478:131,1,80.7499978437424,0|10,3:0|2:0,2:0:0:0:
440,276,69286,1,0,3:0:0:0:
440,276,69454,2,0,L|426:197,1,80.7499978437424,2|8,2:0|3:0,2:0:0:0:
368,352,69792,6,0,L|443:379,1,80.7499978437424,4|0,3:2|2:0,2:0:0:0:
352,264,70129,1,2,2:0:0:0:
352,264,70297,1,0,3:0:0:0:
208,348,70466,2,0,L|294:332,1,80.7499978437424,10|0,2:0|2:0,2:0:0:0:
240,248,70803,1,2,2:0:0:0:
115,343,70971,2,0,L|141:266,1,80.7499978437424,0|2,3:0|2:0,2:0:0:0:
184,152,71308,5,8,2:0:0:0:
32,232,71477,1,2,2:0:0:0:
76,96,71645,2,0,L|102:173,1,80.7499978437424,0|10,3:0|2:0,2:0:0:0:
141,267,71983,1,0,3:0:0:0:
261,171,72151,1,10,2:0:0:0:
255,190,72235,1,8,2:0:0:0:
250,209,72320,1,8,2:0:0:0:
245,229,72404,1,8,2:0:0:0:
240,248,72488,6,0,L|346:265,1,106.25,6|0,3:2|3:0,2:0:0:0:
483,164,72825,2,0,L|376:181,1,106.25,10|0,2:0|3:0,2:0:0:0:
456,260,73162,1,10,2:0:0:0:
350,95,73331,1,0,3:0:0:0:
344,264,73499,2,0,L|327:369,1,106.25,10|0,2:0|3:0,2:0:0:0:
240,360,73752,1,0,3:0:0:0:
240,360,73836,6,0,L|126:340,1,106.25,10|0,2:0|3:0,2:0:0:0:
152,160,74174,2,0,L|191:268,1,106.25,10|0,2:0|3:0,2:0:0:0:
99,269,74511,1,10,2:0:0:0:
249,186,74679,1,0,3:0:0:0:
119,62,74848,2,0,P|23:146|49:185,1,159.375,10|0,2:0|3:0,2:0:0:0:
99,269,75185,1,4,3:2:0:0:
249,186,75522,5,0,3:2:0:0:
229,38,75690,1,0,3:2:0:0:
188,259,75859,5,8,2:0:0:0:
360,83,76027,1,8,2:0:0:0:
131,126,76196,5,8,2:0:0:0:
338,247,76365,1,8,2:0:0:0:
465,64,76533,6,0,L|350:85,1,106.25,4|8,3:2|2:0,2:0:0:0:
360,83,76786,1,8,2:0:0:0:
360,83,76870,1,8,2:0:0:0:
249,186,77039,1,8,2:0:0:0:
176,48,77207,5,8,3:2:0:0:
149,44,77292,1,8,2:0:0:0:
123,39,77376,1,8,2:0:0:0:
97,35,77460,1,8,2:0:0:0:
71,30,77544,2,0,L|81:90,1,53.125,8|8,2:0|2:0,2:0:0:0:
30,216,77713,5,8,2:0:0:0:
30,216,77797,1,8,2:0:0:0:
30,216,77881,2,0,L|136:198,1,106.25,6|0,3:2|3:0,2:0:0:0:
333,164,78219,1,10,2:0:0:0:
267,46,78387,2,0,B|226:86|226:86|255:233,1,159.375,0|0,2:0|2:0,2:0:0:0:
259,225,78724,1,0,3:0:0:0:
361,361,78893,2,0,L|382:242,1,106.25,10|0,2:0|2:0,2:0:0:0:
446,67,79230,6,0,L|425:186,1,106.25,2|0,3:2|3:0,2:0:0:0:
459,289,79567,1,10,2:0:0:0:
259,225,79735,2,0,P|212:221|208:165,1,106.25,0|2,2:0|3:2,2:0:0:0:
260,44,80072,5,0,3:0:0:0:
234,50,80157,1,0,3:0:0:0:
208,57,80241,1,10,2:0:0:0:
183,64,80325,1,8,2:0:0:0:
157,71,80410,2,0,L|91:88,1,53.125,8|8,2:0|2:0,2:0:0:0:
48,235,80578,6,0,P|94:225|122:186,1,97.7500018644333,6|0,3:2|3:0,2:0:0:0:
122,185,80831,1,0,3:0:0:0:
122,185,80915,1,10,2:0:0:0:
212,304,81084,2,0,L|7:340,1,195.500003728867,4|0,3:2|3:0,2:0:0:0:
220,212,81589,2,0,L|340:240,1,97.7500018644333,10|8,2:0|3:0,2:0:0:0:
488,328,81926,6,0,L|392:351,1,97.7500018644333,4|0,3:2|3:0,2:0:0:0:
360,364,82179,1,0,3:0:0:0:
360,364,82263,1,8,2:0:0:0:
396,132,82432,2,0,P|464:140|432:264,1,195.500003728867,4|0,3:2|3:0,2:0:0:0:
256,192,82938,5,8,2:0:0:0:
250,210,83022,1,8,3:0:0:0:
245,229,83106,1,8,3:0:0:0:
240,248,83190,1,4,3:0:0:0:
234,272,83275,5,10,2:0:0:0:
48,248,83443,1,0,3:0:0:0:
192,352,83612,1,0,3:2:0:0:
160,160,83780,5,10,2:0:0:0:
68,344,83949,1,0,3:0:0:0:
234,272,84117,1,0,3:0:0:0:
52,168,84286,1,10,2:0:0:0:
256,192,84454,5,4,3:2:0:0:
256,192,84539,12,0,89005,2:0:0:0:
