osu file format v14

[General]
AudioFilename: audio.ogg
AudioLeadIn: 0
PreviewTime: 44485
Countdown: 0
SampleSet: Soft
StackLeniency: 0.3
Mode: 0
LetterboxInBreaks: 0
WidescreenStoryboard: 0

[Editor]
Bookmarks: 89000
DistanceSpacing: 0.5
BeatDivisor: 4
GridSize: 4
TimelineZoom: 5.399997

[Metadata]
Title:Sayonara kara Hajimaru Monogatari (TV Size)
TitleUnicode:サヨナラから始まる物語 (TV Size)
Artist:Hoshimi Production
ArtistUnicode:星見プロダクション
Creator:Mahiru Shiina
Version:Destiny
Source:IDOLY PRIDE
Tags:アイドリープライド Japanese video game Anime j pop jpop j-pop female vocals vocalists SMXX-00533 MusicRay'n 大石昌良 Oishi Masayoshi 岸田勇気 Kishida Yuki 長瀬琴乃 Nagase Kotono 橘美來 Tachibana Mirai 川咲さくら Kawasaki Sakura 菅野真衣 Kanno Mai 一ノ瀬怜 Ichinose Rei 結城萌子 Moeko 伊吹渚 Ibuki Nagisa 夏目ここな Natsume Kokona 佐伯遙子 Saeki Haruko 佐々木奈緒 Sasaki Nao 白石沙季 Shiraishi Saki 宮沢小春 Miyazawa Koharu 白石千紗 Chisa 高尾奏音 Takao Kanon 成宮すず Narumiya Suzu 相川奏多 Aikawa Kanata 早坂芽衣 Hayasaka Mei 日向もか Hinata Moka 兵藤雫 Hyodo Shizuku 首藤志奈 Shuto Yukina A story that begins with goodbye SEApodEErman ItsCactus KPMY Murada-
BeatmapID:3742665
BeatmapSetID:1823978

[Difficulty]
HPDrainRate:6
CircleSize:4
OverallDifficulty:8.5
ApproachRate:9.2
SliderMultiplier:1.8
SliderTickRate:1

[Events]
//Background and Video events
0,0,"bg.jpg",0,0
Video,245,"video.mp4"
//Break Periods
//Storyboard Layer 0 (Background)
//Storyboard Layer 1 (Fail)
//Storyboard Layer 2 (Pass)
//Storyboard Layer 3 (Foreground)
//Storyboard Layer 4 (Overlay)
//Storyboard Sound Samples

[TimingPoints]
1028,337.078651685393,4,2,4,60,1,0
1028,-153.846153846153,4,2,4,60,0,0
1702,-153.846153846153,4,2,5,60,0,0
2376,-153.846153846153,4,2,3,60,0,0
2713,-133.333333333333,4,2,2,60,0,0
3724,-133.333333333333,4,2,4,60,0,0
4061,-133.333333333333,4,2,2,60,0,0
5072,-133.333333333333,4,2,4,60,0,0
5410,-133.333333333333,4,2,4,70,0,0
5747,-133.333333333333,4,2,4,80,0,0
6084,-133.333333333333,4,2,4,60,0,0
6421,-95.2380952380952,4,2,3,80,0,0
6505,-95.2380952380952,4,2,2,80,0,0
9117,-95.2380952380952,4,2,3,80,0,0
9286,-95.2380952380952,4,2,2,80,0,0
10466,-95.2380952380952,4,2,3,80,0,0
10634,-95.2380952380952,4,2,2,80,0,0
11140,-95.2380952380952,4,2,4,80,0,0
11308,-95.2380952380952,4,2,2,80,0,0
11814,-117.64705882353,4,2,3,70,0,0
11898,-117.64705882353,4,2,2,70,0,0
19904,-95.2380952380956,4,2,3,75,0,0
19988,-95.2380952380956,4,2,2,75,0,0
20156,-95.2380952380956,4,2,2,5,0,0
20241,-95.2380952380956,4,2,2,75,0,0
21589,-95.2380952380956,4,2,4,75,0,0
21758,-95.2380952380956,4,2,2,75,0,0
22601,-105.263157894737,4,2,3,70,0,0
22685,-105.263157894737,4,2,2,70,0,0
30690,-95.2380952380954,4,2,3,75,0,0
30775,-95.2380952380954,4,2,2,75,0,0
32039,-95.2380952380954,4,2,4,75,0,0
32207,-95.2380952380954,4,2,2,75,0,0
33387,-117.647058823529,4,2,3,65,0,0
33471,-117.647058823529,4,2,2,65,0,0
36084,-117.647058823529,4,2,4,65,0,0
36252,-117.647058823529,4,2,2,65,0,0
36589,-105.263157894737,4,2,2,65,0,0
38780,-95.2380952380954,4,2,3,75,0,0
38865,-95.2380952380954,4,2,2,75,0,0
39286,-95.2380952380954,4,2,4,75,0,0
39370,-95.2380952380954,4,2,2,75,0,0
39623,-95.2380952380954,4,2,11,60,0,0
39960,-95.2380952380954,4,2,2,75,0,0
40129,-95.2380952380954,4,2,3,75,0,0
40297,-95.2380952380954,4,2,2,75,0,0
40634,-95.2380952380954,4,2,4,75,0,0
40719,-95.2380952380954,4,2,2,75,0,0
40971,-95.2380952380954,4,2,11,60,0,0
41308,-95.2380952380954,4,2,2,75,0,0
41477,-95.2380952380954,4,2,3,60,0,0
41814,-95.2380952380954,4,2,2,60,0,0
42151,-95.2380952380954,4,2,2,65,0,0
42488,-95.2380952380954,4,2,2,70,0,0
42825,-86.9565217391304,4,2,4,75,0,0
42909,-86.9565217391304,4,2,2,75,0,0
43499,-86.9565217391304,4,2,2,80,0,0
44174,-86.9565217391304,4,2,12,60,0,0
44511,-285.714285714286,4,2,2,45,0,0
45016,-285.714285714286,4,2,2,60,0,0
45522,-83.3333333333333,4,2,2,85,0,1
48219,-83.3333333333333,4,2,3,85,0,1
48303,-83.3333333333333,4,2,2,85,0,1
49398,-83.3333333333333,4,2,4,85,0,1
49483,-83.3333333333333,4,2,2,85,0,1
50915,-83.3333333333333,4,2,3,85,0,1
51252,-83.3333333333333,4,2,2,85,0,1
51421,-83.3333333333333,4,2,4,85,0,1
51505,-83.3333333333333,4,2,2,85,0,1
52263,-83.3333333333333,4,2,3,85,0,1
52348,-83.3333333333333,4,2,2,85,0,1
52769,-83.3333333333333,4,2,4,85,0,1
52853,-83.3333333333333,4,2,2,85,0,1
53612,-83.3333333333333,4,2,3,85,0,1
53780,-83.3333333333333,4,2,2,85,0,1
54117,-83.3333333333333,4,2,4,85,0,1
54202,-83.3333333333333,4,2,2,85,0,1
54960,-83.3333333333333,4,2,3,85,0,1
55129,-83.3333333333333,4,2,2,85,0,1
55803,-100,4,2,2,85,0,1
56140,-125,4,2,2,85,0,1
56308,-83.3333333333333,4,2,2,85,0,1
59005,-83.3333333333333,4,2,3,85,0,1
59089,-83.3333333333333,4,2,2,85,0,1
60185,-83.3333333333333,4,2,4,85,0,1
60269,-83.3333333333333,4,2,2,85,0,1
61702,-83.3333333333333,4,2,3,85,0,1
61786,-83.3333333333333,4,2,2,85,0,1
62207,-83.3333333333333,4,2,4,85,0,1
62292,-83.3333333333333,4,2,2,85,0,1
63050,-83.3333333333333,4,2,3,85,0,1
63134,-83.3333333333333,4,2,2,85,0,1
63556,-83.3333333333333,4,2,4,85,0,1
63640,-83.3333333333333,4,2,2,85,0,1
64398,-83.3333333333333,4,2,3,85,0,1
64567,-83.3333333333333,4,2,2,85,0,1
65747,-83.3333333333333,4,2,3,85,0,1
65915,-83.3333333333333,4,2,2,85,0,1
67095,-105.263157894737,4,2,3,80,0,0
67179,-105.263157894737,4,2,2,80,0,0
67769,-105.263157894737,4,2,4,80,0,0
67853,-105.263157894737,4,2,2,80,0,0
69792,-105.263157894737,4,2,3,80,0,0
69876,-105.263157894737,4,2,2,80,0,0
72488,-105.263157894737,4,2,4,90,0,1
72657,-105.263157894737,4,2,2,90,0,1
75185,-80,4,2,3,85,0,1
75269,-80,4,2,2,85,0,1
75522,-80,4,2,2,60,0,1
75859,-80,4,2,2,70,0,1
76196,-80,4,2,2,80,0,1
76533,-80,4,2,3,90,0,1
76702,-80,4,2,2,90,0,1
77881,-80,4,2,4,85,0,0
78050,-80,4,2,2,85,0,0
80578,-86.9565217391304,4,2,3,85,0,0
80662,-86.9565217391304,4,2,2,85,0,0
81084,-86.9565217391304,4,2,4,85,0,0
81168,-86.9565217391304,4,2,2,85,0,0
81926,-86.9565217391304,4,2,3,85,0,0
82011,-86.9565217391304,4,2,2,85,0,0
82432,-86.9565217391304,4,2,4,85,0,0
82516,-86.9565217391304,4,2,2,85,0,0
84454,-232.558139534884,4,2,2,80,0,0
85297,-232.558139534884,4,2,1,70,0,0
85971,-232.558139534884,4,2,2,60,0,0
86645,-232.558139534884,4,2,1,50,0,0
87320,-232.558139534884,4,2,2,40,0,0
87994,-232.558139534884,4,2,1,30,0,0
88668,-232.558139534884,4,2,2,20,0,0
89004,-232.558139534884,4,2,1,10,0,0

[Colours]
Combo1 : 193,137,146
Combo2 : 232,197,174
Combo3 : 201,126,111
Combo4 : 249,241,206

[HitObjects]
32,40,1028,6,0,P|73:149|91:264,1,233.999989288331,4|2,3:2|2:0,2:0:0:0:
107,345,2376,5,4,3:2:0:0:
107,345,2713,6,0,P|145:332|167:299,2,45.0000017166138,8|8|8,2:0|2:0|2:0,2:0:0:0:
223,200,3050,2,0,P|213:222|213:244,2,45.0000017166138,8|8|8,2:3|2:3|2:3,2:0:0:0:
247,341,3387,1,4,2:3:0:0:
280,351,3499,1,4,2:3:0:0:
316,347,3612,1,4,2:3:0:0:
349,331,3724,6,0,L|363:241,1,67.5000025749208,4|0,3:2|2:0,2:0:0:0:
509,238,4061,1,8,2:0:0:0:
509,238,4145,1,8,2:0:0:0:
509,238,4230,1,8,2:0:0:0:
509,238,4314,1,8,2:0:0:0:
509,238,4398,2,0,P|484:251|447:248,1,67.5000025749208,8|8,2:3|2:3,2:0:0:0:
380,148,4735,1,4,2:3:0:0:
380,148,4904,1,4,3:0:0:0:
306,250,5072,6,0,L|366:239,3,33.7500012874604,4|0|0|0,3:2|3:0|3:0|3:0,2:0:0:0:
420,53,5410,1,8,2:3:0:0:
395,57,5494,1,8,2:3:0:0:
370,61,5578,1,8,2:3:0:0:
345,66,5662,1,8,2:3:0:0:
320,70,5747,5,8,2:0:0:0:
227,250,5915,2,0,L|191:244,1,33.7500012874604,8|0,2:0|2:0,2:0:0:0:
65,129,6084,6,0,L|72:172,3,33.7500012874604,2|2|2|2,2:0|2:0|2:0|2:0,2:0:0:0:
86,172,6421,6,0,P|179:151|282:137,1,188.999994232178,6|10,3:2|2:0,2:0:0:0:
187,36,6926,2,0,P|154:68|161:113,1,94.499997116089,0|2,2:0|3:2,2:0:0:0:
238,224,7263,1,0,3:2:0:0:
320,70,7432,2,0,P|357:118|349:171,1,94.499997116089,10|0,2:0|2:0,2:0:0:0:
251,362,7769,5,2,3:2:0:0:
480,252,7938,1,0,2:0:0:0:
238,224,8106,1,10,2:0:0:0:
367,370,8275,2,0,L|387:253,1,94.499997116089,0|2,2:0|3:2,2:0:0:0:
141,309,8612,1,0,3:2:0:0:
141,309,8696,1,0,3:2:0:0:
141,309,8780,6,0,L|200:298,1,47.2499985580445,10|8,2:0|2:0,2:0:0:0:
259,140,8949,2,0,L|199:129,1,47.2499985580445,8|8,2:0|2:0,2:0:0:0:
13,90,9117,5,4,3:2:0:0:
52,288,9286,1,0,3:0:0:0:
259,140,9454,1,8,2:0:0:0:
99,35,9623,1,0,3:0:0:0:
22,202,9792,5,8,2:0:0:0:
248,47,9960,1,0,3:0:0:0:
188,288,10129,1,8,2:0:0:0:
109,126,10297,1,0,3:0:0:0:
304,212,10466,5,4,3:2:0:0:
95,286,10634,1,8,2:0:0:0:
277,384,10803,2,0,L|163:363,1,94.499997116089,8|8,2:0|3:0,2:0:0:0:
304,212,11140,5,4,3:2:0:0:
366,345,11308,1,8,2:0:0:0:
262,298,11477,1,8,2:0:0:0:
445,256,11645,1,4,3:0:0:0:
445,256,11730,1,0,3:0:0:0:
445,256,11814,6,0,L|461:356,1,76.5000014591217,6|0,3:2|2:0,2:0:0:0:
436,151,12151,2,0,P|362:182|366:271,1,153.000002918243,10|2,2:0|2:0,2:0:0:0:
191,154,12657,1,0,3:0:0:0:
191,154,12825,2,0,L|280:137,1,76.5000014591217,10|0,2:0|2:0,2:0:0:0:
198,50,13162,6,0,L|122:35,1,76.5000014591217,2|0,3:2|3:2,2:0:0:0:
100,156,13499,1,10,2:0:0:0:
17,28,13668,2,0,L|31:103,1,76.5000014591217,0|2,3:2|2:0,2:0:0:0:
37,252,14005,1,0,3:2:0:0:
37,252,14174,2,0,L|112:237,1,76.5000014591217,10|0,2:0|2:0,2:0:0:0:
267,189,14511,6,0,B|302:167|337:196|337:196|373:224|408:203,1,153.000002918243,2|10,3:2|2:0,2:0:0:0:
367,44,15185,2,0,L|381:122,1,76.5000014591217,2|0,2:0|3:0,2:0:0:0:
512,156,15522,1,10,2:0:0:0:
466,53,15690,1,0,2:0:0:0:
409,203,15859,6,0,L|424:289,1,76.5000014591217,2|0,3:2|3:2,2:0:0:0:
444,378,16196,1,10,2:0:0:0:
295,232,16365,2,0,P|328:248|340:283,1,76.5000014591217,0|2,3:2|2:0,2:0:0:0:
267,377,16702,1,0,3:2:0:0:
267,377,16870,2,0,L|357:362,1,76.5000014591217,10|0,2:0|2:0,2:0:0:0:
198,261,17207,6,0,B|172:227|172:227|192:117,1,153.000002918243,2|10,3:2|2:0,2:0:0:0:
56,135,17881,2,0,P|93:129|117:85,1,76.5000014591217,2|0,2:0|3:0,2:0:0:0:
282,49,18219,2,0,L|187:31,1,76.5000014591217,10|0,2:0|2:0,2:0:0:0:
115,99,18556,5,2,3:2:0:0:
154,188,18724,1,0,3:2:0:0:
26,289,18893,2,0,P|47:258|83:247,1,76.5000014591217,10|0,2:0|3:2,2:0:0:0:
176,376,19230,2,0,P|138:373|111:347,1,76.5000014591217,2|0,2:0|3:2,2:0:0:0:
268,273,19567,2,0,L|179:293,1,76.5000014591217,10|0,2:0|3:0,2:0:0:0:
302,150,19904,6,0,P|361:180|356:247,1,141.749995674133,4|0,3:2|2:0,2:0:0:0:
348,330,20241,1,10,2:0:0:0:
220,168,20410,1,0,3:0:0:0:
446,147,20578,1,10,2:0:0:0:
268,273,20747,1,0,3:0:0:0:
147,96,20915,5,10,2:0:0:0:
342,53,21084,1,8,2:0:0:0:
342,53,21168,1,8,2:0:0:0:
342,53,21252,1,0,3:2:0:0:
220,168,21421,1,0,3:0:0:0:
92,10,21589,1,12,2:0:0:0:
29,203,21758,2,0,L|135:180,1,94.499997116089,0|0,2:0|3:0,2:0:0:0:
193,85,22095,6,0,L|106:104,1,47.2499985580445,8|8,2:0|2:0,2:0:0:0:
84,270,22263,1,8,2:0:0:0:
77,306,22348,1,8,2:0:0:0:
94,339,22432,1,8,2:0:0:0:
130,354,22516,1,8,2:0:0:0:
167,347,22601,6,0,L|257:331,1,85.4999977169037,6|0,3:2|2:0,2:0:0:0:
406,191,22938,2,0,B|371:211|335:206|335:206|307:228|307:228|271:222|236:243,1,170.999995433807,10|2,2:0|2:0,2:0:0:0:
148,94,23443,1,0,3:0:0:0:
266,152,23612,1,10,2:0:0:0:
168,266,23780,1,0,2:0:0:0:
59,105,23949,6,0,P|74:152|110:177,1,85.4999977169037,2|0,3:2|3:2,2:0:0:0:
252,149,24286,1,10,2:0:0:0:
168,266,24454,2,0,L|66:284,1,85.4999977169037,0|2,3:2|2:0,2:0:0:0:
244,343,24792,2,0,L|328:358,1,85.4999977169037,0|10,3:2|2:0,2:0:0:0:
433,279,25129,1,0,3:0:0:0:
433,279,25213,1,0,3:0:0:0:
433,279,25297,1,2,3:2:0:0:
381,51,25634,5,10,2:0:0:0:
335,217,25803,1,0,2:0:0:0:
510,158,25971,2,0,L|496:244,1,85.4999977169037,2|0,2:0|3:0,2:0:0:0:
390,148,26308,1,10,2:0:0:0:
473,57,26477,1,0,2:0:0:0:
309,61,26645,5,2,3:2:0:0:
390,148,26814,1,0,3:2:0:0:
296,235,26983,1,10,2:0:0:0:
213,136,27151,2,0,P|161:154|158:202,1,85.4999977169037,0|2,3:2|2:0,2:0:0:0:
89,39,27488,1,0,3:2:0:0:
44,176,27657,2,0,L|65:288,1,85.4999977169037,10|0,2:0|3:0,2:0:0:0:
67,290,27910,1,0,3:0:0:0:
67,290,27994,6,0,B|111:271|148:297|148:297|185:323|229:304,1,170.999995433807,2|10,3:2|2:0,2:0:0:0:
240,168,28668,2,0,P|196:216|208:248,1,85.4999977169037,2|0,2:0|3:0,2:0:0:0:
352,184,29005,2,0,L|335:89,1,85.4999977169037,10|0,2:0|2:0,2:0:0:0:
240,168,29342,5,2,3:2:0:0:
276,16,29511,1,0,3:2:0:0:
444,40,29679,2,0,L|424:123,1,85.4999977169037,10|0,2:0|3:2,2:0:0:0:
371,267,30016,2,0,L|351:183,1,85.4999977169037,2|0,2:0|3:2,2:0:0:0:
190,334,30353,1,10,2:0:0:0:
337,344,30522,1,0,3:0:0:0:
198,158,30690,6,0,B|166:199|166:199|190:336,1,188.999994232178,12|10,2:0|2:0,2:0:0:0:
278,249,31196,1,0,3:0:0:0:
278,249,31280,1,0,3:0:0:0:
278,249,31365,5,10,2:0:0:0:
45,190,31533,1,0,3:0:0:0:
118,357,31702,1,10,2:0:0:0:
282,160,31870,1,0,3:0:0:0:
51,56,32039,5,12,2:0:0:0:
175,251,32207,1,0,3:0:0:0:
240,48,32376,1,8,2:0:0:0:
90,262,32544,1,0,3:0:0:0:
90,262,32629,1,0,3:0:0:0:
90,262,32713,5,8,2:0:0:0:
68,58,32881,1,8,2:3:0:0:
171,165,33050,1,4,2:3:0:0:
240,48,33219,1,4,3:0:0:0:
396,216,33387,6,0,P|432:187|432:147,1,76.5000014591217,4|0,3:2|2:0,2:0:0:0:
405,78,33724,1,0,2:0:0:0:
276,132,33893,2,0,L|358:146,1,76.5000014591217,8|0,2:0|2:0,2:0:0:0:
503,234,34230,1,0,3:0:0:0:
503,234,34398,1,8,2:0:0:0:
436,305,34567,2,0,L|345:289,1,76.5000014591217,0|0,2:0|3:0,2:0:0:0:
258,370,34904,5,0,3:0:0:0:
258,370,35072,1,0,2:0:0:0:
98,318,35241,2,0,P|119:287|155:278,1,76.5000014591217,8|0,2:0|2:0,2:0:0:0:
260,272,35578,1,8,2:3:0:0:
260,272,35662,1,8,2:3:0:0:
260,272,35747,1,4,2:3:0:0:
166,357,35915,1,4,3:0:0:0:
51,218,36084,5,4,3:2:0:0:
51,218,36252,1,0,2:0:0:0:
155,278,36421,1,0,2:0:0:0:
186,141,36589,2,0,L|101:127,1,85.4999977169037,8|0,2:0|2:0,2:0:0:0:
291,46,36926,5,0,3:0:0:0:
161,47,37095,1,8,2:0:0:0:
278,140,37263,2,0,P|309:154|382:139,1,85.4999977169037,0|0,2:0|3:0,2:0:0:0:
502,145,37601,5,0,3:0:0:0:
414,23,37769,1,8,2:0:0:0:
345,235,37938,2,0,L|362:136,1,85.4999977169037,0|0,2:0|3:0,2:0:0:0:
491,303,38275,5,8,2:0:0:0:
458,292,38359,1,8,2:0:0:0:
423,295,38443,1,8,2:0:0:0:
395,312,38527,1,8,2:0:0:0:
365,328,38612,1,8,2:0:0:0:
331,331,38696,1,8,2:0:0:0:
292,320,38780,6,0,L|189:301,1,94.499997116089,4|0,3:2|3:0,2:0:0:0:
176,320,39033,1,0,3:0:0:0:
176,320,39117,1,8,2:0:0:0:
16,204,39286,2,0,L|34:306,1,94.499997116089,4|0,3:2|2:0,2:0:0:0:
192,220,39623,5,12,2:0:0:0:
28,92,39792,1,12,2:0:0:0:
208,32,39960,1,0,3:0:0:0:
208,32,40044,1,0,3:0:0:0:
208,32,40129,5,4,3:2:0:0:
104,216,40297,1,0,3:0:0:0:
104,216,40381,1,0,3:0:0:0:
104,216,40466,5,8,2:0:0:0:
312,140,40634,2,0,L|188:120,1,94.499997116089,4|0,3:2|2:0,2:0:0:0:
344,32,40971,5,12,2:0:0:0:
496,200,41140,2,0,L|477:93,1,94.499997116089,12|0,2:0|3:0,2:0:0:0:
468,72,41393,1,0,3:0:0:0:
468,72,41477,5,4,3:2:0:0:
468,72,41814,5,0,3:0:0:0:
336,224,41983,1,0,3:0:0:0:
504,272,42151,1,8,2:0:0:0:
352,52,42320,1,8,2:0:0:0:
264,276,42488,1,8,2:0:0:0:
468,72,42657,1,8,2:0:0:0:
504,272,42825,6,0,L|435:284,3,51.7500009870529,12|8|8|8,2:0|2:0|2:0|2:0,2:0:0:0:
321,345,43162,2,0,L|271:355,3,51.7500009870529,8|8|8|8,2:0|2:0|2:0|2:0,2:0:0:0:
258,197,43499,5,8,2:0:0:0:
207,194,43584,1,8,2:0:0:0:
162,220,43668,1,8,2:0:0:0:
138,265,43752,1,8,2:0:0:0:
114,310,43836,1,8,2:0:0:0:
70,335,43921,1,8,2:0:0:0:
19,334,44005,2,0,L|30:273,1,51.7500009870529,8|8,2:0|2:0,2:0:0:0:
53,158,44174,5,4,3:2:0:0:
250,46,44511,6,0,L|260:108,2,62.9999980773926,2|2|10,2:0|2:0|2:0,2:0:0:0:
483,206,45522,6,0,B|428:182|380:215|380:215|333:248|279:224,1,215.999993408203,6|10,3:2|2:0,2:0:0:0:
54,159,46027,1,0,2:0:0:0:
181,317,46196,1,2,3:2:0:0:
267,142,46365,1,0,3:2:0:0:
111,270,46533,2,0,P|97:324|132:380,1,107.999996704102,10|0,2:0|2:0,2:0:0:0:
321,362,46870,6,0,P|352:315|339:251,1,107.999996704102,2|0,3:2|2:0,2:0:0:0:
185,152,47207,2,0,P|209:202|271:223,1,107.999996704102,10|0,2:0|2:0,2:0:0:0:
461,113,47544,1,2,3:2:0:0:
347,265,47713,1,0,3:2:0:0:
214,53,47881,2,0,L|325:75,1,107.999996704102,10|0,2:0|2:0,2:0:0:0:
395,338,48219,6,0,P|483:293|455:197,1,215.999993408203,6|10,3:2|2:0,2:0:0:0:
240,282,48724,2,0,L|365:262,1,107.999996704102,0|2,2:0|3:2,2:0:0:0:
307,123,49061,1,0,3:0:0:0:
136,202,49230,1,10,2:0:0:0:
229,11,49398,6,0,B|278:54|278:54|246:201,1,215.999993408203,4|0,3:2|3:2,2:0:0:0:
126,351,49904,2,0,P|73:333|70:249,1,107.999996704102,10|0,2:0|2:0,2:0:0:0:
225,301,50241,1,2,3:2:0:0:
183,132,50410,1,0,3:2:0:0:
324,250,50578,2,0,L|345:366,1,107.999996704102,10|0,2:0|2:0,2:0:0:0:
484,88,50915,6,0,L|463:204,1,107.999996704102,6|0,3:2|2:0,2:0:0:0:
436,345,51252,1,10,2:0:0:0:
311,169,51421,2,0,P|200:183|93:209,1,215.999993408203,4|0,3:2|3:0,2:0:0:0:
1,63,51926,1,10,2:0:0:0:
22,222,52095,1,8,2:3:0:0:
137,107,52263,6,0,P|190:101|248:87,1,107.999996704102,6|0,3:2|3:0,2:0:0:0:
442,39,52601,1,8,2:0:0:0:
373,246,52769,2,0,P|348:136|336:27,1,215.999993408203,4|0,3:2|3:0,2:0:0:0:
459,144,53275,1,10,2:0:0:0:
260,188,53443,1,4,2:3:0:0:
305,371,53612,5,6,3:2:0:0:
349,141,53780,1,0,3:0:0:0:
463,328,53949,1,10,2:0:0:0:
261,275,54117,2,0,B|202:260|161:301|161:301|120:342|63:328,1,215.999993408203,4|0,3:2|3:0,2:0:0:0:
32,199,54623,1,10,2:0:0:0:
233,365,54792,1,8,2:0:0:0:
233,365,54876,1,8,2:0:0:0:
233,365,54960,5,6,3:2:0:0:
183,131,55129,1,8,2:0:0:0:
183,131,55213,1,8,2:0:0:0:
183,131,55297,1,0,3:0:0:0:
147,125,55381,1,8,2:0:0:0:
113,106,55466,2,0,P|91:72|102:32,1,53.9999983520508,8|8,2:0|2:0,2:0:0:0:
284,179,55634,5,8,2:3:0:0:
291,200,55719,1,8,2:3:0:0:
292,225,55803,2,0,P|280:247|256:267,1,45,8|8,2:0|2:0,2:0:0:0:
260,42,55971,5,4,2:3:0:0:
271,28,56056,1,4,2:3:0:0:
287,18,56140,2,0,P|310:17|346:26,1,36,4|4,2:3|2:3,2:0:0:0:
483,118,56308,6,0,B|441:139|402:134|402:134|369:165|369:165|322:161|284:180,1,215.999993408203,6|10,3:2|2:0,2:0:0:0:
495,42,56814,1,0,2:0:0:0:
461,260,56983,1,2,3:2:0:0:
374,160,57151,1,0,3:2:0:0:
342,326,57320,2,0,L|467:344,1,107.999996704102,10|0,2:0|2:0,2:0:0:0:
221,244,57657,6,0,L|200:360,1,107.999996704102,2|0,3:2|2:0,2:0:0:0:
22,211,57994,2,0,P|71:226|84:276,1,107.999996704102,10|0,2:0|2:0,2:0:0:0:
94,364,58331,1,2,3:2:0:0:
221,244,58499,1,0,3:2:0:0:
108,147,58668,2,0,L|218:126,1,107.999996704102,10|0,2:0|2:0,2:0:0:0:
355,29,59005,6,0,B|396:82|396:82|364:256,1,215.999993408203,6|10,3:2|2:0,2:0:0:0:
197,86,59511,2,0,L|321:109,1,107.999996704102,0|2,2:0|3:2,2:0:0:0:
465,221,59848,1,0,3:0:0:0:
398,113,60016,1,10,2:0:0:0:
324,298,60185,6,0,B|265:283|224:324|224:324|183:365|126:351,1,215.999993408203,4|0,3:2|3:2,2:0:0:0:
68,212,60690,2,0,P|121:213|146:263,1,107.999996704102,10|0,2:0|3:0,2:0:0:0:
146,256,60943,1,0,3:0:0:0:
146,256,61027,1,2,3:2:0:0:
63,101,61196,5,8,2:0:0:0:
89,96,61280,1,8,2:0:0:0:
116,91,61365,1,10,2:0:0:0:
142,86,61449,1,8,2:0:0:0:
169,82,61533,1,8,2:0:0:0:
195,77,61617,1,8,2:0:0:0:
227,74,61702,6,0,P|280:103|291:146,1,107.999996704102,6|0,3:2|3:0,2:0:0:0:
390,224,62039,1,10,2:0:0:0:
484,71,62207,2,0,L|359:90,1,107.999996704102,4|0,3:2|2:0,2:0:0:0:
300,237,62544,1,0,3:0:0:0:
392,316,62713,1,10,2:0:0:0:
202,354,62881,1,8,2:3:0:0:
202,354,62966,1,8,2:3:0:0:
202,354,63050,6,0,L|328:331,1,107.999996704102,6|0,3:2|3:0,2:0:0:0:
220,212,63387,1,8,2:0:0:0:
45,371,63556,2,0,P|98:342|109:299,1,107.999996704102,4|0,3:2|2:0,2:0:0:0:
109,165,63893,1,0,3:0:0:0:
17,247,64061,5,10,2:0:0:0:
198,112,64230,1,4,2:3:0:0:
198,112,64314,1,4,2:3:0:0:
198,112,64398,5,6,3:2:0:0:
17,24,64567,1,0,3:0:0:0:
144,233,64735,1,10,2:0:0:0:
310,46,64904,1,0,3:0:0:0:
285,325,65072,5,10,2:0:0:0:
198,112,65241,1,0,3:0:0:0:
181,349,65410,1,10,2:0:0:0:
382,167,65578,1,0,3:0:0:0:
379,356,65747,5,14,2:0:0:0:
209,186,65915,1,0,3:0:0:0:
447,52,66084,1,10,2:0:0:0:
450,285,66252,1,0,3:0:0:0:
240,40,66421,5,8,2:0:0:0:
508,116,66589,1,8,2:0:0:0:
287,268,66758,1,8,2:0:0:0:
369,61,66926,1,8,2:0:0:0:
380,321,67095,6,0,P|296:303|211:298,1,170.999995433807,4|2,3:2|2:0,2:0:0:0:
128,332,67601,1,0,3:0:0:0:
220,129,67769,6,0,L|204:219,1,85.4999977169037,14|0,2:0|2:0,2:0:0:0:
205,213,68022,1,0,2:0:0:0:
205,213,68106,1,2,2:0:0:0:
71,249,68275,1,0,3:0:0:0:
40,82,68443,6,0,L|57:177,1,85.4999977169037,2|8,2:0|2:0,2:0:0:0:
155,50,68780,1,2,2:0:0:0:
220,129,68949,2,0,L|114:147,1,85.4999977169037,0|10,3:0|2:0,2:0:0:0:
303,213,69286,1,0,3:0:0:0:
330,66,69454,2,0,L|224:47,1,85.4999977169037,2|8,2:0|3:0,2:0:0:0:
438,141,69792,6,0,P|454:97|434:65,1,85.4999977169037,4|0,3:2|2:0,2:0:0:0:
353,144,70129,1,2,2:0:0:0:
480,243,70297,1,0,3:0:0:0:
376,319,70466,2,0,L|393:220,1,85.4999977169037,10|0,2:0|2:0,2:0:0:0:
476,360,70803,1,2,2:0:0:0:
295,292,70971,2,0,P|257:320|258:357,1,85.4999977169037,0|2,3:0|2:0,2:0:0:0:
89,239,71308,5,8,2:0:0:0:
143,356,71477,1,2,2:0:0:0:
197,164,71645,2,0,L|211:248,1,85.4999977169037,0|10,3:0|2:0,2:0:0:0:
61,321,71983,1,0,3:0:0:0:
31,122,72151,1,10,2:0:0:0:
62,115,72235,1,8,2:0:0:0:
93,109,72320,1,8,2:0:0:0:
125,103,72404,1,8,2:0:0:0:
156,97,72488,5,6,3:2:0:0:
319,249,72657,1,0,3:0:0:0:
382,31,72825,1,10,2:0:0:0:
197,164,72994,1,0,3:0:0:0:
413,288,73162,5,10,2:0:0:0:
292,69,73331,1,0,3:0:0:0:
242,316,73499,1,10,2:0:0:0:
447,141,73668,1,0,3:0:0:0:
447,141,73752,1,0,3:0:0:0:
447,141,73836,5,10,2:0:0:0:
202,243,74005,1,0,3:0:0:0:
174,42,74174,1,10,2:0:0:0:
319,249,74342,1,0,3:0:0:0:
116,368,74511,5,10,2:0:0:0:
275,167,74679,1,0,3:0:0:0:
378,366,74848,1,10,2:0:0:0:
123,275,75016,1,0,3:0:0:0:
319,71,75185,6,0,B|274:93|233:87|233:87|198:120|198:120|148:116|108:136,1,225,4|0,3:2|3:2,2:0:0:0:
35,235,75690,1,0,3:2:0:0:
200,331,75859,1,8,2:0:0:0:
306,161,76027,1,8,2:0:0:0:
94,108,76196,5,8,2:0:0:0:
308,288,76365,1,8,2:0:0:0:
392,40,76533,1,4,3:2:0:0:
176,224,76702,1,8,2:0:0:0:
176,224,76786,1,8,2:0:0:0:
176,224,76870,1,8,2:0:0:0:
241,12,77039,1,8,2:0:0:0:
402,177,77207,5,8,3:2:0:0:
384,218,77292,1,8,2:0:0:0:
349,245,77376,1,8,2:0:0:0:
304,251,77460,1,8,2:0:0:0:
262,235,77544,5,8,2:0:0:0:
220,218,77629,1,8,2:0:0:0:
176,224,77713,1,8,2:0:0:0:
140,252,77797,1,8,2:0:0:0:
123,293,77881,5,6,3:2:0:0:
293,365,78050,1,0,3:0:0:0:
262,235,78219,1,10,2:0:0:0:
55,337,78387,2,0,P|96:373|151:370,1,112.5,0|2,2:0|3:2,2:0:0:0:
114,175,78724,5,0,3:0:0:0:
123,293,78893,1,10,2:0:0:0:
30,235,79061,1,0,2:0:0:0:
164,85,79230,5,2,3:2:0:0:
39,139,79398,1,0,3:0:0:0:
180,225,79567,1,10,2:0:0:0:
261,103,79735,2,0,P|311:107|339:162,1,112.5,0|2,2:0|3:2,2:0:0:0:
495,250,80072,5,0,3:0:0:0:
512,291,80157,1,0,3:0:0:0:
492,325,80241,1,10,2:0:0:0:
458,331,80325,1,8,2:0:0:0:
433,317,80410,1,8,2:0:0:0:
424,296,80494,1,8,2:0:0:0:
426,282,80578,6,0,L|316:295,1,103.500001974106,6|0,3:2|3:0,2:0:0:0:
316,321,80831,1,0,3:0:0:0:
316,321,80915,1,10,2:0:0:0:
220,167,81084,6,0,B|174:216|174:216|222:372,1,207.000003948212,4|0,3:2|3:0,2:0:0:0:
331,218,81589,1,10,2:0:0:0:
103,320,81758,1,8,3:0:0:0:
8,158,81926,6,0,P|60:157|83:205,1,103.500001974106,4|0,3:2|3:0,2:0:0:0:
93,226,82179,1,0,3:0:0:0:
93,226,82263,1,8,2:0:0:0:
309,31,82432,6,0,B|271:52|230:44|230:44|198:74|198:74|154:70|118:87,1,207.000003948212,4|0,3:2|3:0,2:0:0:0:
251,256,82938,1,8,2:0:0:0:
256,225,83022,1,8,3:0:0:0:
261,194,83106,1,8,3:0:0:0:
267,164,83190,1,4,3:0:0:0:
272,133,83275,5,10,2:0:0:0:
488,256,83443,1,0,3:0:0:0:
235,340,83612,1,0,3:2:0:0:
351,92,83780,5,10,2:0:0:0:
161,270,83949,1,0,3:0:0:0:
370,244,84117,1,0,3:0:0:0:
198,65,84286,1,10,2:0:0:0:
119,337,84454,6,1,B|184:236|184:236|304:260|304:260|226:172|226:172|296:83|296:83|180:119|180:119|113:28|113:28|115:146|115:146|9:188|9:188|119:208|119:208,1,1044.90001594391,4|0,3:2|2:0,2:0:0:0:
