osu file format v14

[General]
AudioFilename: audio.mp3
AudioLeadIn: 0
PreviewTime:44831
Countdown: 0
SampleSet: Drum
StackLeniency: 0.7
Mode: 3
LetterboxInBreaks: 0
WidescreenStoryboard: 0
SpecialStyle: 0

[Editor]
Bookmarks: 1348,6741,12134,22921,33707,39100,45842,56628,67415,78201
DistanceSpacing: 0.4
BeatDivisor: 4
GridSize: 32
TimelineZoom: 3.200005

[Metadata]
Title:Sayonara kara Hajimaru Monogatari (TV Size)
TitleUnicode:サヨナラから始まる物語 (TV Size)
Artist:Hoshimi Production
ArtistUnicode:星見プロダクション
Creator:Drum-Hitnormal
Version:Heartbeat
Source:アイドリープライド
Tags:SMXX-00533 MusicRay'n 大石昌良 Oishi Masayoshi 岸田勇気 Kishida Yuki ML-ysg IDOLY PRIDE Japanese video game Anime dudehacker j pop jpop j-pop 長瀬琴乃 Nagase Kotono 橘美來 Tachibana Mirai 川咲さくら Kawasaki Sakura 菅野真衣 Kanno Mai 一ノ瀬怜 Ichinose Rei 結城萌子 Moeko 伊吹渚 Ibuki Nagisa 夏目ここな Natsume Kokona 佐伯遙子 Saeki Haruko 佐々木奈緒 Sasaki Nao 白石沙季 Shiraishi Saki 宮沢小春 Miyazawa Koharu 白石千紗 Chisa 高尾奏音 Takao Kanon 成宮すず Narumiya Suzu 相川奏多 Aikawa Kanata 早坂芽衣 Hayasaka Mei 日向もか Hinata Moka 兵藤雫 Hyodo Shizuku 首藤志奈 Shuto Yukina
BeatmapID:2934799
BeatmapSetID:1425185

[Difficulty]
HPDrainRate:8
CircleSize:4
OverallDifficulty:8
ApproachRate:5
SliderMultiplier:1.4
SliderTickRate:1

[Events]
//Background and Video events
0,0,"bg.jpg",0,0
Video,570,"sayonara.mp4"
//Break Periods
//Storyboard Layer 0 (Background)
//Storyboard Layer 1 (Fail)
//Storyboard Layer 2 (Pass)
//Storyboard Layer 3 (Foreground)
//Storyboard Layer 4 (Overlay)
//Storyboard Sound Samples
Sample,7415,0,"Hat Open.wav",50

[TimingPoints]
1348,337.078651685393,4,3,1,50,1,0
45842,-100,4,3,1,50,0,1
67415,-100,4,3,1,50,0,0

[HitObjects]
64,192,1348,5,2,0:0:0:0:
320,192,1348,128,4,2527:0:0:0:0:
448,192,1348,128,0,2527:0:0:0:0:
192,192,2022,1,0,0:0:0:50:Hat Open.wav
64,192,2696,128,2,3370:0:0:0:0:
320,192,2696,1,4,0:0:0:0:
448,192,2696,1,0,0:0:0:0:
448,192,3033,1,8,0:0:0:0:
320,192,3145,1,8,0:0:0:0:
192,192,3258,1,8,0:0:0:0:
448,192,3370,128,0,4044:0:0:0:50:Tom1.wav
320,192,3482,1,0,0:0:0:50:Tom1.wav
192,192,3595,1,0,0:0:0:50:Tom2.wav
64,192,3707,1,0,0:0:0:50:Tom2.wav
320,192,3819,1,0,0:0:0:50:Tom3.wav
192,192,3932,1,0,0:0:0:50:Tom3.wav
64,192,4044,1,4,0:0:0:0:
320,192,4044,128,2,4718:0:0:0:0:
64,192,4381,1,8,0:0:0:0:
448,192,4465,1,8,0:0:0:0:
192,192,4550,1,8,0:0:0:0:
448,192,4634,1,8,0:0:0:0:
64,192,4718,1,8,0:0:0:0:
192,192,4718,128,0,5392:0:0:0:0:
320,192,4887,1,0,0:0:0:50:Tom1.wav
448,192,5055,1,2,0:0:0:0:
320,192,5224,1,2,0:0:0:0:
64,192,5392,128,8,6067:0:0:0:0:
320,192,5392,1,4,0:0:0:0:
448,192,5392,1,0,0:0:0:0:
192,192,5561,1,0,0:0:0:15:drum-hitclap.wav
320,192,5645,1,0,0:0:0:20:drum-hitclap.wav
448,192,5730,1,0,0:0:0:25:drum-hitclap.wav
192,192,5814,1,0,0:0:0:30:drum-hitclap.wav
320,192,5898,1,0,0:0:0:35:drum-hitclap.wav
448,192,5982,1,0,0:0:0:40:drum-hitclap.wav
192,192,6067,1,8,0:0:0:0:
320,192,6067,1,0,0:0:0:0:
64,192,6235,1,2,0:0:0:0:
192,192,6235,1,0,0:0:0:50:Hat Open.wav
320,192,6319,1,0,0:0:0:0:
448,192,6404,1,0,0:0:0:0:
64,192,6488,1,0,0:0:0:0:
192,192,6572,1,0,0:0:0:0:
320,192,6656,1,0,0:0:0:0:
192,192,6741,1,4,0:0:0:0:
448,192,6741,128,0,7078:0:0:0:0:
64,192,6741,1,2,0:0:0:0:
64,192,7078,1,8,0:0:0:0:
320,192,7078,128,0,7246:0:0:0:50:Hat Open.wav
192,192,7246,128,0,7752:0:0:0:0:
448,192,7415,1,2,0:0:0:0:
448,192,7583,1,2,0:0:0:0:
64,192,7752,1,8,0:0:0:0:
320,192,7752,128,0,7921:0:0:0:50:Hat Open.wav
64,192,7921,128,0,8089:0:0:0:0:
320,192,8089,1,2,0:0:0:0:
448,192,8089,128,0,8258:0:0:0:50:Hat Open.wav
192,192,8258,128,0,8426:0:0:0:0:
320,192,8426,128,8,8595:0:0:0:0:
448,192,8426,1,0,0:0:0:50:Hat Open.wav
64,192,8595,128,0,8932:0:0:0:0:
192,192,8763,1,2,0:0:0:0:
448,192,8763,1,0,0:0:0:50:Hat Open.wav
448,192,8932,128,2,9016:0:0:0:0:
320,192,9016,128,0,9100:0:0:0:0:
64,192,9100,128,8,9185:0:0:0:0:
192,192,9100,128,0,9185:0:0:0:50:Hat Open.wav
448,192,9185,128,0,9269:0:0:0:0:
64,192,9269,128,8,9353:0:0:0:0:
320,192,9269,128,0,9353:0:0:0:0:
192,192,9353,128,8,9437:0:0:0:0:
320,192,9437,1,4,0:0:0:0:
448,192,9437,1,2,0:0:0:0:
64,192,9606,1,2,0:0:0:0:
192,192,9606,1,0,0:0:0:0:
320,192,9774,1,0,0:0:0:50:Hat Open.wav
448,192,9774,1,0,0:0:0:0:
64,192,9774,1,8,0:0:0:0:
192,192,9943,1,2,0:0:0:0:
320,192,9943,1,0,0:0:0:0:
64,192,10112,1,8,0:0:0:0:
192,192,10112,1,0,0:0:0:50:Hat Open.wav
448,192,10112,1,0,0:0:0:0:
64,192,10280,1,2,0:0:0:0:
320,192,10280,1,0,0:0:0:0:
192,192,10449,1,8,0:0:0:0:
320,192,10449,1,0,0:0:0:50:Hat Open.wav
448,192,10449,1,0,0:0:0:0:
64,192,10617,1,2,0:0:0:0:
192,192,10617,1,0,0:0:0:0:
64,192,10786,1,2,0:0:0:0:
448,192,10786,1,0,0:0:0:0:
192,192,10954,1,8,0:0:0:0:
320,192,10954,128,4,11039:0:0:0:0:
448,192,10954,128,0,11039:0:0:0:0:
192,192,11123,1,8,0:0:0:0:
320,192,11123,128,4,11207:0:0:0:0:
448,192,11123,128,0,11207:0:0:0:0:
64,192,11291,1,2,0:0:0:0:
448,192,11291,1,0,0:0:0:0:
320,192,11460,1,2,0:0:0:0:
448,192,11460,1,0,0:0:0:0:
64,192,11628,128,8,11713:0:0:0:0:
192,192,11628,128,4,11713:0:0:0:0:
320,192,11628,1,0,0:0:0:0:
320,192,11797,1,0,0:0:0:0:
64,192,11797,128,8,11881:0:0:0:0:
192,192,11797,128,0,11881:0:0:0:0:
192,192,11965,1,0,0:0:0:50:Tom3.wav
320,192,12050,1,0,0:0:0:50:Tom3.wav
64,192,12134,1,2,0:0:0:0:
192,192,12134,1,4,0:0:0:0:
448,192,12134,128,0,12471:0:0:0:0:
64,192,12471,1,8,0:0:0:0:
192,192,12471,1,0,0:0:0:40:Hat Close.wav
320,192,12471,1,0,0:0:0:0:
192,192,12808,1,0,0:0:0:40:Hat Close.wav
64,192,12977,1,2,0:0:0:0:
320,192,12977,1,0,0:0:0:0:
448,192,13145,1,0,0:0:0:0:
64,192,13145,1,8,0:0:0:0:
192,192,13145,1,0,0:0:0:40:Hat Close.wav
320,192,13314,1,0,0:0:0:0:
192,192,13482,1,2,0:0:0:0:
448,192,13482,1,0,0:0:0:40:Hat Close.wav
64,192,13651,1,2,0:0:0:0:
448,192,13651,1,0,0:0:0:0:
64,192,13819,1,8,0:0:0:0:
192,192,13819,1,0,0:0:0:40:Hat Close.wav
320,192,13819,1,0,0:0:0:0:
320,192,13988,1,2,0:0:0:0:
448,192,13988,1,0,0:0:0:0:
192,192,14156,1,0,0:0:0:40:Hat Close.wav
64,192,14325,1,2,0:0:0:0:
320,192,14325,1,0,0:0:0:0:
192,192,14494,1,8,0:0:0:0:
320,192,14494,1,0,0:0:0:40:Hat Close.wav
448,192,14494,1,0,0:0:0:0:
64,192,14662,1,0,0:0:0:0:
192,192,14831,1,2,0:0:0:0:
448,192,14831,1,0,0:0:0:40:Hat Close.wav
320,192,14999,1,0,0:0:0:0:
64,192,15168,1,8,0:0:0:0:
192,192,15168,1,0,0:0:0:40:Hat Close.wav
448,192,15168,1,0,0:0:0:0:
320,192,15336,1,0,0:0:0:0:
192,192,15505,1,0,0:0:0:40:Hat Close.wav
320,192,15673,1,2,0:0:0:0:
448,192,15673,1,0,0:0:0:0:
64,192,15842,1,8,0:0:0:0:
192,192,15842,1,0,0:0:0:40:Hat Close.wav
448,192,15842,1,0,0:0:0:0:
320,192,16010,1,0,0:0:0:0:
64,192,16179,1,2,0:0:0:0:
192,192,16179,1,0,0:0:0:40:Hat Close.wav
192,192,16347,1,2,0:0:0:0:
448,192,16347,1,0,0:0:0:0:
64,192,16516,1,8,0:0:0:0:
320,192,16516,1,0,0:0:0:40:Hat Close.wav
448,192,16516,1,0,0:0:0:0:
192,192,16685,1,2,0:0:0:0:
320,192,16685,1,0,0:0:0:0:
64,192,16853,1,0,0:0:0:40:Hat Close.wav
320,192,17022,1,2,0:0:0:0:
448,192,17022,1,0,0:0:0:0:
64,192,17190,1,8,0:0:0:0:
192,192,17190,1,0,0:0:0:40:Hat Close.wav
448,192,17190,1,0,0:0:0:0:
320,192,17359,1,0,0:0:0:0:
64,192,17527,1,2,0:0:0:0:
448,192,17527,1,0,0:0:0:40:Hat Close.wav
192,192,17696,1,0,0:0:0:0:
64,192,17864,1,8,0:0:0:0:
192,192,17864,1,0,0:0:0:40:Hat Close.wav
448,192,17864,1,0,0:0:0:0:
320,192,18033,1,0,0:0:0:0:
64,192,18201,1,0,0:0:0:40:Hat Close.wav
192,192,18370,1,2,0:0:0:0:
448,192,18370,1,0,0:0:0:0:
64,192,18539,1,8,0:0:0:0:
320,192,18539,1,0,0:0:0:40:Hat Close.wav
448,192,18539,1,0,0:0:0:0:
192,192,18707,1,0,0:0:0:0:
64,192,18876,1,2,0:0:0:0:
448,192,18876,1,0,0:0:0:40:Hat Close.wav
64,192,19044,1,2,0:0:0:0:
320,192,19044,1,0,0:0:0:0:
192,192,19213,1,8,0:0:0:0:
320,192,19213,1,0,0:0:0:40:Hat Close.wav
448,192,19213,1,0,0:0:0:0:
64,192,19381,1,2,0:0:0:0:
192,192,19381,1,0,0:0:0:0:
320,192,19550,1,0,0:0:0:40:Hat Close.wav
192,192,19718,1,2,0:0:0:0:
448,192,19718,1,0,0:0:0:0:
64,192,19887,1,8,0:0:0:0:
320,192,19887,1,0,0:0:0:40:Hat Close.wav
448,192,19887,1,0,0:0:0:0:
192,192,20055,1,0,0:0:0:0:
448,192,20224,1,0,0:0:0:0:
64,192,20224,1,2,0:0:0:0:
192,192,20224,1,4,0:0:0:0:
320,192,20392,1,0,0:0:0:0:
64,192,20561,1,8,0:0:0:0:
320,192,20561,1,0,0:0:0:50:Hat Open.wav
448,192,20561,1,0,0:0:0:0:
192,192,20730,1,2,0:0:0:0:
448,192,20730,1,0,0:0:0:0:
64,192,20898,1,8,0:0:0:0:
192,192,20898,1,0,0:0:0:50:Hat Open.wav
320,192,20898,1,0,0:0:0:0:
320,192,21067,1,2,0:0:0:0:
448,192,21067,1,0,0:0:0:0:
64,192,21235,1,8,0:0:0:0:
192,192,21235,1,0,0:0:0:50:Hat Open.wav
448,192,21235,1,0,0:0:0:0:
64,192,21404,1,8,0:0:0:0:
192,192,21488,1,8,0:0:0:0:
320,192,21572,1,2,0:0:0:0:
448,192,21572,1,0,0:0:0:50:Hat Open.wav
192,192,21741,1,2,0:0:0:0:
320,192,21741,1,0,0:0:0:0:
64,192,21909,1,8,0:0:0:0:
192,192,21909,1,4,0:0:0:0:
448,192,21909,1,0,0:0:0:0:
320,192,22078,1,0,0:0:0:0:
64,192,22246,1,2,0:0:0:0:
320,192,22246,1,0,0:0:0:50:Hat Open.wav
448,192,22246,1,0,0:0:0:0:
64,192,22415,1,8,0:0:0:0:
192,192,22415,1,0,0:0:0:0:
320,192,22499,1,8,0:0:0:0:
448,192,22499,1,0,0:0:0:0:
64,192,22583,1,8,0:0:0:0:
192,192,22583,1,0,0:0:0:0:
320,192,22668,1,8,0:0:0:0:
448,192,22668,1,0,0:0:0:0:
64,192,22752,1,8,0:0:0:0:
192,192,22752,1,0,0:0:0:0:
320,192,22836,1,8,0:0:0:0:
64,192,22921,1,4,0:0:0:0:
192,192,22921,1,2,0:0:0:0:
448,192,22921,128,0,23258:0:0:0:0:
64,192,23258,1,8,0:0:0:0:
192,192,23258,1,0,0:0:0:40:Hat Close.wav
320,192,23258,1,0,0:0:0:0:
192,192,23595,1,0,0:0:0:40:Hat Close.wav
64,192,23763,1,2,0:0:0:0:
320,192,23763,1,0,0:0:0:0:
192,192,23932,1,0,0:0:0:40:Hat Close.wav
448,192,23932,1,0,0:0:0:0:
64,192,23932,1,8,0:0:0:0:
320,192,24100,1,0,0:0:0:0:
192,192,24269,1,2,0:0:0:0:
448,192,24269,1,0,0:0:0:40:Hat Close.wav
64,192,24437,1,2,0:0:0:0:
448,192,24437,1,0,0:0:0:0:
64,192,24606,1,8,0:0:0:0:
192,192,24606,1,0,0:0:0:40:Hat Close.wav
320,192,24606,1,0,0:0:0:0:
320,192,24774,1,2,0:0:0:0:
448,192,24774,1,0,0:0:0:0:
192,192,24943,1,0,0:0:0:40:Hat Close.wav
64,192,25112,1,2,0:0:0:0:
320,192,25112,1,0,0:0:0:0:
320,192,25280,1,0,0:0:0:40:Hat Close.wav
448,192,25280,1,0,0:0:0:0:
192,192,25280,1,8,0:0:0:0:
64,192,25449,1,0,0:0:0:0:
192,192,25617,1,2,0:0:0:0:
448,192,25617,1,0,0:0:0:40:Hat Close.wav
320,192,25786,1,0,0:0:0:0:
64,192,25954,1,8,0:0:0:0:
192,192,25954,1,0,0:0:0:40:Hat Close.wav
448,192,25954,1,0,0:0:0:0:
320,192,26123,1,0,0:0:0:0:
192,192,26291,1,0,0:0:0:40:Hat Close.wav
320,192,26460,1,2,0:0:0:0:
448,192,26460,1,0,0:0:0:0:
448,192,26628,1,0,0:0:0:0:
64,192,26628,1,8,0:0:0:0:
192,192,26628,1,0,0:0:0:40:Hat Close.wav
320,192,26797,1,0,0:0:0:0:
64,192,26965,1,2,0:0:0:0:
192,192,26965,1,0,0:0:0:40:Hat Close.wav
192,192,27134,1,2,0:0:0:0:
448,192,27134,1,0,0:0:0:0:
64,192,27303,1,8,0:0:0:0:
320,192,27303,1,0,0:0:0:40:Hat Close.wav
448,192,27303,1,0,0:0:0:0:
192,192,27471,1,2,0:0:0:0:
320,192,27471,1,0,0:0:0:0:
64,192,27640,1,0,0:0:0:40:Hat Close.wav
320,192,27808,1,2,0:0:0:0:
448,192,27808,1,0,0:0:0:0:
448,192,27977,1,0,0:0:0:0:
64,192,27977,1,8,0:0:0:0:
192,192,27977,1,0,0:0:0:40:Hat Close.wav
320,192,28145,1,0,0:0:0:40:Hat Close.wav
192,192,28230,1,0,0:0:0:40:Hat Close.wav
64,192,28314,1,2,0:0:0:0:
448,192,28314,1,0,0:0:0:40:Hat Close.wav
192,192,28482,1,0,0:0:0:0:
64,192,28651,1,8,0:0:0:0:
192,192,28651,1,0,0:0:0:40:Hat Close.wav
448,192,28651,1,0,0:0:0:0:
320,192,28819,1,0,0:0:0:0:
64,192,28988,1,0,0:0:0:40:Hat Close.wav
192,192,29156,1,2,0:0:0:0:
448,192,29156,1,0,0:0:0:0:
64,192,29325,1,8,0:0:0:0:
320,192,29325,1,0,0:0:0:40:Hat Close.wav
448,192,29325,1,0,0:0:0:0:
192,192,29494,1,0,0:0:0:0:
64,192,29662,1,2,0:0:0:0:
448,192,29662,1,0,0:0:0:40:Hat Close.wav
64,192,29831,1,2,0:0:0:0:
320,192,29831,1,0,0:0:0:0:
192,192,29999,1,8,0:0:0:0:
320,192,29999,1,0,0:0:0:40:Hat Close.wav
448,192,29999,1,0,0:0:0:0:
64,192,30168,1,2,0:0:0:0:
192,192,30168,1,0,0:0:0:0:
320,192,30336,1,0,0:0:0:40:Hat Close.wav
192,192,30505,1,2,0:0:0:0:
448,192,30505,1,0,0:0:0:0:
64,192,30673,1,8,0:0:0:0:
320,192,30673,1,0,0:0:0:40:Hat Close.wav
448,192,30673,1,0,0:0:0:0:
192,192,30842,1,2,0:0:0:0:
320,192,30842,1,0,0:0:0:0:
64,192,31010,1,4,0:0:0:0:
192,192,31010,1,8,0:0:0:0:
448,192,31010,1,0,0:0:0:0:
320,192,31179,1,0,0:0:0:0:
64,192,31347,1,8,0:0:0:0:
320,192,31347,1,0,0:0:0:50:Hat Open.wav
448,192,31347,1,0,0:0:0:0:
64,192,31516,1,2,0:0:0:0:
192,192,31516,1,0,0:0:0:0:
320,192,31600,1,2,0:0:0:0:
448,192,31600,1,0,0:0:0:0:
64,192,31685,1,8,0:0:0:0:
192,192,31685,1,0,0:0:0:50:Hat Open.wav
320,192,31853,1,2,0:0:0:0:
448,192,31853,1,0,0:0:0:0:
64,192,32022,1,8,0:0:0:0:
192,192,32022,1,0,0:0:0:50:Hat Open.wav
448,192,32022,1,0,0:0:0:0:
192,192,32190,1,2,0:0:0:0:
320,192,32190,1,0,0:0:0:0:
64,192,32359,1,8,0:0:0:0:
320,192,32359,1,4,0:0:0:0:
448,192,32359,1,0,0:0:0:0:
192,192,32527,1,2,0:0:0:0:
320,192,32527,1,0,0:0:0:0:
64,192,32696,1,8,0:0:0:0:
192,192,32696,1,0,0:0:0:50:Hat Open.wav
448,192,32696,1,0,0:0:0:0:
320,192,32864,1,2,0:0:0:0:
64,192,32949,1,8,0:0:0:0:
192,192,32949,1,0,0:0:0:0:
320,192,33033,1,8,0:0:0:0:
448,192,33033,1,0,0:0:0:0:
192,192,33201,1,0,0:0:0:50:Tom1.wav
448,192,33201,1,0,0:0:0:0:
192,192,33370,1,0,0:0:0:50:Tom2.wav
320,192,33370,1,0,0:0:0:0:
64,192,33539,1,0,0:0:0:50:Tom3.wav
320,192,33539,1,0,0:0:0:0:
64,192,33707,1,4,0:0:0:0:
192,192,33707,1,2,0:0:0:0:
448,192,33707,128,0,33876:0:0:0:0:
320,192,33876,128,0,34044:0:0:0:0:
64,192,34044,128,0,34213:0:0:0:40:Hat Close.wav
192,192,34213,128,8,34381:0:0:0:0:
448,192,34213,1,0,0:0:0:0:
320,192,34381,1,0,0:0:0:40:Hat Close.wav
192,192,34550,1,2,0:0:0:0:
448,192,34550,128,0,34718:0:0:0:0:
64,192,34718,128,8,34887:0:0:0:0:
320,192,34718,1,0,0:0:0:40:Hat Close.wav
320,192,34887,128,0,35055:0:0:0:0:
64,192,35055,1,2,0:0:0:0:
448,192,35055,1,0,0:0:0:0:
192,192,35224,128,2,35392:0:0:0:0:
448,192,35224,1,0,0:0:0:0:
320,192,35392,128,0,35561:0:0:0:0:
192,192,35561,1,8,0:0:0:0:
448,192,35561,128,0,35730:0:0:0:0:
64,192,35730,128,0,35814:0:0:0:40:Hat Close.wav
192,192,35898,128,0,35982:0:0:0:50:Tom2.wav
320,192,35982,128,0,36067:0:0:0:0:
448,192,36067,128,0,36151:0:0:0:50:Tom2.wav
320,192,36235,128,0,36319:0:0:0:50:Tom3.wav
64,192,36404,1,4,0:0:0:0:
192,192,36404,1,2,0:0:0:0:
448,192,36404,128,0,36572:0:0:0:0:
320,192,36572,128,0,36741:0:0:0:0:
64,192,36741,128,0,36909:0:0:0:40:Hat Close.wav
192,192,36909,128,8,37078:0:0:0:0:
448,192,36909,1,0,0:0:0:0:
320,192,37078,1,0,0:0:0:40:Hat Close.wav
192,192,37246,1,2,0:0:0:0:
448,192,37246,128,0,37415:0:0:0:0:
64,192,37415,128,8,37583:0:0:0:0:
320,192,37415,1,0,0:0:0:40:Hat Close.wav
320,192,37583,128,0,37752:0:0:0:0:
64,192,37752,1,2,0:0:0:0:
448,192,37752,1,0,0:0:0:50:Hat Open.wav
192,192,37921,128,2,38089:0:0:0:0:
448,192,37921,1,0,0:0:0:0:
64,192,38089,1,8,0:0:0:0:
320,192,38089,128,0,38426:0:0:0:50:Hat Open.wav
448,192,38258,128,0,38426:0:0:0:0:
64,192,38426,128,2,38763:0:0:0:0:
192,192,38426,1,0,0:0:0:50:Hat Open.wav
320,192,38595,1,8,0:0:0:0:
192,192,38679,1,8,0:0:0:0:
448,192,38763,128,8,39100:0:0:0:0:
320,192,38847,1,8,0:0:0:0:
192,192,38932,1,8,0:0:0:0:
64,192,39016,1,8,0:0:0:0:
192,192,39100,1,4,0:0:0:0:
320,192,39100,1,2,0:0:0:0:
64,192,39353,1,8,0:0:0:0:
192,192,39353,1,0,0:0:0:0:
320,192,39437,1,8,0:0:0:0:
448,192,39437,1,0,0:0:0:0:
64,192,39606,1,2,0:0:0:0:
192,192,39606,1,4,0:0:0:0:
448,192,39606,128,0,39943:0:0:0:0:
64,192,39943,1,2,0:0:0:0:
192,192,39943,1,0,0:0:0:40:Clap.wav
320,192,40112,1,8,0:0:0:0:
448,192,40112,1,0,0:0:0:40:Clap.wav
192,192,40280,1,0,0:0:0:50:Tom3.wav
320,192,40364,1,0,0:0:0:50:Tom3.wav
64,192,40449,1,2,0:0:0:0:
192,192,40449,1,4,0:0:0:0:
448,192,40449,1,0,0:0:0:0:
64,192,40617,1,0,0:0:0:0:
192,192,40701,1,8,0:0:0:0:
320,192,40786,1,8,0:0:0:0:
448,192,40786,1,0,0:0:0:0:
64,192,40954,128,2,41291:0:0:0:0:
192,192,40954,1,4,0:0:0:0:
448,192,40954,1,0,0:0:0:0:
192,192,41291,1,2,0:0:0:0:
320,192,41291,1,0,0:0:0:40:Clap.wav
64,192,41460,1,8,0:0:0:0:
320,192,41460,1,0,0:0:0:50:Hat Open.wav
448,192,41460,1,0,0:0:0:40:Clap.wav
192,192,41628,1,2,0:0:0:0:
320,192,41713,1,2,0:0:0:0:
64,192,41797,1,8,0:0:0:0:
192,192,41797,1,4,0:0:0:0:
448,192,41797,128,0,42134:0:0:0:0:
64,192,42134,1,8,0:0:0:20:drum-hitclap.wav
192,192,42134,1,0,0:0:0:50:Tom3.wav
64,192,42303,1,8,0:0:0:20:drum-hitclap.wav
192,192,42303,1,0,0:0:0:50:Tom3.wav
320,192,42471,1,8,0:0:0:30:drum-hitclap.wav
448,192,42471,1,0,0:0:0:50:Tom3.wav
320,192,42640,1,8,0:0:0:30:drum-hitclap.wav
448,192,42640,1,0,0:0:0:50:Tom3.wav
64,192,42808,1,8,0:0:0:30:drum-hitclap.wav
192,192,42808,1,0,0:0:0:50:Tom3.wav
64,192,42977,1,8,0:0:0:30:drum-hitclap.wav
192,192,42977,1,0,0:0:0:50:Tom3.wav
64,192,43145,1,8,0:0:0:0:
448,192,43145,1,0,0:0:0:50:Hat Open.wav
192,192,43314,1,8,0:0:0:20:drum-hitclap.wav
320,192,43398,1,8,0:0:0:20:drum-hitclap.wav
64,192,43482,1,8,0:0:0:30:drum-hitclap.wav
448,192,43482,1,0,0:0:0:0:
192,192,43567,1,8,0:0:0:30:drum-hitclap.wav
320,192,43651,1,8,0:0:0:30:drum-hitclap.wav
192,192,43735,1,8,0:0:0:30:drum-hitclap.wav
320,192,43819,1,8,0:0:0:40:drum-hitclap.wav
448,192,43819,1,0,0:0:0:0:
64,192,43904,1,8,0:0:0:40:drum-hitclap.wav
192,192,43904,1,0,0:0:0:0:
320,192,43988,1,8,0:0:0:40:drum-hitclap.wav
448,192,43988,1,0,0:0:0:0:
64,192,44072,1,8,0:0:0:40:drum-hitclap.wav
192,192,44072,1,0,0:0:0:0:
320,192,44156,1,8,0:0:0:0:
448,192,44156,1,0,0:0:0:0:
64,192,44241,1,8,0:0:0:0:
192,192,44241,1,0,0:0:0:0:
320,192,44325,1,8,0:0:0:0:
448,192,44325,1,0,0:0:0:0:
192,192,44409,1,8,0:0:0:0:
448,192,44494,1,0,0:0:0:0:
64,192,44494,1,2,0:0:0:0:
320,192,44494,1,0,0:0:0:0:
64,192,44831,128,0,45168:0:0:0:0:
192,192,45168,128,0,45505:0:0:0:0:
320,192,45336,128,0,45505:0:0:0:0:
64,192,45505,1,8,0:0:0:0:
448,192,45505,1,0,0:0:0:50:Tom3.wav
64,192,45842,1,4,0:0:0:0:
192,192,45842,128,2,46179:0:0:0:0:
320,192,45842,1,0,0:0:0:0:
448,192,45842,1,0,0:0:0:0:
64,192,46179,1,8,0:0:0:0:
320,192,46179,1,0,0:0:0:50:Hat Open.wav
448,192,46179,1,0,0:0:0:0:
192,192,46347,1,0,0:0:0:0:
64,192,46516,1,2,0:0:0:0:
448,192,46516,1,0,0:0:0:50:Hat Open.wav
320,192,46685,1,2,0:0:0:0:
448,192,46685,1,0,0:0:0:0:
64,192,46853,1,8,0:0:0:0:
192,192,46853,1,0,0:0:0:50:Hat Open.wav
320,192,46853,1,0,0:0:0:0:
192,192,47022,1,0,0:0:0:0:
64,192,47190,1,2,0:0:0:0:
448,192,47190,1,0,0:0:0:50:Hat Open.wav
320,192,47359,1,0,0:0:0:0:
192,192,47527,1,8,0:0:0:0:
320,192,47527,1,0,0:0:0:50:Hat Open.wav
448,192,47527,1,0,0:0:0:0:
192,192,47696,1,0,0:0:0:0:
64,192,47864,1,2,0:0:0:0:
448,192,47864,1,0,0:0:0:50:Hat Open.wav
192,192,48033,1,2,0:0:0:0:
448,192,48033,1,0,0:0:0:0:
320,192,48201,1,0,0:0:0:0:
64,192,48201,1,8,0:0:0:0:
192,192,48201,1,0,0:0:0:50:Hat Open.wav
320,192,48370,1,0,0:0:0:0:
64,192,48539,1,2,0:0:0:0:
192,192,48539,1,0,0:0:0:50:Hat Open.wav
448,192,48539,1,0,0:0:0:0:
192,192,48707,1,0,0:0:0:0:
64,192,48876,1,8,0:0:0:0:
320,192,48876,1,0,0:0:0:50:Hat Open.wav
448,192,48876,1,0,0:0:0:0:
320,192,49044,1,0,0:0:0:0:
64,192,49213,1,2,0:0:0:0:
192,192,49213,1,0,0:0:0:50:Hat Open.wav
192,192,49381,1,2,0:0:0:0:
448,192,49381,1,0,0:0:0:0:
64,192,49550,1,8,0:0:0:0:
320,192,49550,1,0,0:0:0:50:Hat Open.wav
448,192,49550,1,0,0:0:0:0:
192,192,49718,1,2,0:0:0:0:
320,192,49718,1,0,0:0:0:0:
64,192,49887,1,0,0:0:0:50:Hat Open.wav
320,192,50055,1,2,0:0:0:0:
448,192,50055,1,0,0:0:0:0:
64,192,50224,1,8,0:0:0:0:
192,192,50224,1,0,0:0:0:50:Hat Open.wav
448,192,50224,1,0,0:0:0:0:
192,192,50392,1,0,0:0:0:0:
64,192,50561,1,2,0:0:0:0:
320,192,50561,1,0,0:0:0:50:Hat Open.wav
320,192,50730,1,2,0:0:0:0:
448,192,50730,1,0,0:0:0:0:
448,192,50898,1,0,0:0:0:0:
64,192,50898,1,8,0:0:0:0:
192,192,50898,1,0,0:0:0:50:Hat Open.wav
320,192,51067,1,0,0:0:0:0:
64,192,51235,1,2,0:0:0:0:
192,192,51235,1,4,0:0:0:0:
320,192,51235,128,0,51572:0:0:0:0:
64,192,51572,1,8,0:0:0:0:
192,192,51572,1,0,0:0:0:0:
448,192,51572,1,0,0:0:0:0:
64,192,51741,128,4,52078:0:0:0:0:
320,192,51741,1,2,0:0:0:0:
448,192,51741,1,0,0:0:0:0:
320,192,52078,1,2,0:0:0:0:
448,192,52078,1,0,0:0:0:0:
448,192,52246,1,0,0:0:0:0:
64,192,52246,1,8,0:0:0:0:
192,192,52246,1,0,0:0:0:50:Hat Open.wav
192,192,52415,1,0,0:0:0:0:
64,192,52583,1,2,0:0:0:0:
320,192,52583,1,4,0:0:0:0:
448,192,52583,1,0,0:0:0:0:
192,192,52752,1,2,0:0:0:0:
320,192,52752,1,0,0:0:0:0:
64,192,52921,1,8,0:0:0:0:
192,192,52921,1,0,0:0:0:0:
448,192,52921,1,0,0:0:0:0:
64,192,53089,1,2,0:0:0:0:
320,192,53089,128,4,53426:0:0:0:0:
448,192,53089,1,0,0:0:0:0:
64,192,53426,1,2,0:0:0:0:
192,192,53426,1,0,0:0:0:0:
64,192,53595,1,8,0:0:0:0:
320,192,53595,1,0,0:0:0:50:Hat Open.wav
448,192,53595,1,0,0:0:0:0:
320,192,53763,1,0,0:0:0:0:
64,192,53932,1,2,0:0:0:0:
192,192,53932,1,4,0:0:0:0:
448,192,53932,1,0,0:0:0:0:
192,192,54100,1,2,0:0:0:0:
320,192,54100,1,0,0:0:0:0:
64,192,54269,1,0,0:0:0:50:Hat Open.wav
320,192,54269,1,0,0:0:0:0:
64,192,54437,128,8,54774:0:0:0:0:
192,192,54437,1,4,0:0:0:0:
448,192,54437,1,0,0:0:0:0:
192,192,54774,1,2,0:0:0:0:
320,192,54774,1,0,0:0:0:0:
64,192,54943,1,8,0:0:0:0:
320,192,54943,1,0,0:0:0:50:Hat Open.wav
448,192,54943,1,0,0:0:0:0:
192,192,55112,1,8,0:0:0:0:
320,192,55196,1,8,0:0:0:0:
64,192,55280,1,2,0:0:0:0:
192,192,55280,1,0,0:0:0:50:Hat Open.wav
448,192,55280,1,0,0:0:0:0:
320,192,55449,1,8,0:0:0:0:
448,192,55449,1,0,0:0:0:0:
64,192,55533,1,8,0:0:0:0:
192,192,55533,1,0,0:0:0:0:
320,192,55617,1,8,0:0:0:0:
448,192,55617,1,0,0:0:0:0:
64,192,55701,1,8,0:0:0:0:
192,192,55701,1,0,0:0:0:0:
320,192,55786,1,0,0:0:0:50:Tom3.wav
448,192,55870,1,0,0:0:0:50:Tom1.wav
64,192,55954,1,0,0:0:0:50:Tom3.wav
192,192,56039,1,0,0:0:0:50:Tom2.wav
320,192,56123,1,8,0:0:0:0:
448,192,56123,1,0,0:0:0:0:
64,192,56207,1,8,0:0:0:0:
192,192,56207,1,0,0:0:0:0:
448,192,56291,1,0,0:0:0:50:Tom3.wav
320,192,56376,1,0,0:0:0:50:Tom1.wav
192,192,56460,1,0,0:0:0:50:Tom2.wav
320,192,56544,1,0,0:0:0:50:Tom3.wav
64,192,56628,128,4,56965:0:0:0:0:
192,192,56628,1,2,0:0:0:0:
448,192,56628,1,0,0:0:0:0:
192,192,56965,1,8,0:0:0:0:
320,192,56965,1,0,0:0:0:50:Hat Open.wav
448,192,56965,1,0,0:0:0:0:
448,192,57134,1,0,0:0:0:0:
64,192,57303,1,2,0:0:0:0:
320,192,57303,1,0,0:0:0:50:Hat Open.wav
192,192,57471,1,2,0:0:0:0:
320,192,57471,1,0,0:0:0:0:
64,192,57640,1,8,0:0:0:0:
192,192,57640,1,0,0:0:0:50:Hat Open.wav
448,192,57640,1,0,0:0:0:0:
320,192,57808,1,0,0:0:0:0:
64,192,57977,1,2,0:0:0:0:
448,192,57977,1,0,0:0:0:50:Hat Open.wav
192,192,58145,1,0,0:0:0:0:
448,192,58314,1,0,0:0:0:0:
192,192,58314,1,8,0:0:0:0:
320,192,58314,1,0,0:0:0:50:Hat Open.wav
448,192,58482,1,0,0:0:0:0:
64,192,58651,1,2,0:0:0:0:
320,192,58651,1,0,0:0:0:50:Hat Open.wav
192,192,58819,1,2,0:0:0:0:
320,192,58819,1,0,0:0:0:0:
64,192,58988,1,8,0:0:0:0:
192,192,58988,1,0,0:0:0:50:Hat Open.wav
448,192,58988,1,0,0:0:0:0:
320,192,59156,1,0,0:0:0:0:
64,192,59325,1,2,0:0:0:0:
320,192,59325,1,0,0:0:0:50:Hat Open.wav
192,192,59494,1,0,0:0:0:0:
64,192,59662,1,8,0:0:0:0:
192,192,59662,1,0,0:0:0:50:Hat Open.wav
448,192,59662,1,0,0:0:0:0:
320,192,59831,1,0,0:0:0:0:
64,192,59999,1,2,0:0:0:0:
320,192,59999,1,0,0:0:0:50:Hat Open.wav
64,192,60168,1,2,0:0:0:0:
192,192,60168,1,0,0:0:0:0:
192,192,60336,1,8,0:0:0:0:
320,192,60336,1,0,0:0:0:50:Hat Open.wav
448,192,60336,1,0,0:0:0:0:
64,192,60505,1,2,0:0:0:0:
448,192,60505,1,0,0:0:0:0:
320,192,60673,1,0,0:0:0:50:Hat Open.wav
64,192,60842,1,2,0:0:0:0:
192,192,60842,1,0,0:0:0:0:
64,192,61010,1,8,0:0:0:0:
320,192,61010,1,0,0:0:0:50:Hat Open.wav
448,192,61010,1,0,0:0:0:0:
192,192,61179,1,0,0:0:0:0:
192,192,61347,1,2,0:0:0:0:
448,192,61347,1,0,0:0:0:50:Hat Open.wav
320,192,61516,1,2,0:0:0:0:
448,192,61516,1,0,0:0:0:0:
64,192,61685,1,8,0:0:0:0:
192,192,61685,1,0,0:0:0:50:Hat Open.wav
320,192,61685,1,0,0:0:0:0:
64,192,61853,1,8,0:0:0:0:
448,192,61853,1,0,0:0:0:0:
192,192,61937,1,8,0:0:0:0:
64,192,62022,1,4,0:0:0:0:
320,192,62022,1,2,0:0:0:0:
448,192,62022,1,0,0:0:0:0:
320,192,62274,1,8,0:0:0:0:
448,192,62274,1,0,0:0:0:0:
64,192,62359,1,8,0:0:0:0:
192,192,62359,1,0,0:0:0:0:
64,192,62527,128,2,62864:0:0:0:0:
320,192,62527,1,4,0:0:0:0:
448,192,62527,1,0,0:0:0:0:
192,192,62864,1,2,0:0:0:0:
320,192,62864,1,0,0:0:0:0:
64,192,63033,1,8,0:0:0:0:
192,192,63033,1,0,0:0:0:50:Hat Open.wav
448,192,63033,1,0,0:0:0:0:
320,192,63201,1,8,0:0:0:0:
448,192,63201,1,0,0:0:0:0:
192,192,63286,1,8,0:0:0:0:
64,192,63370,1,4,0:0:0:0:
320,192,63370,1,2,0:0:0:0:
448,192,63370,1,0,0:0:0:0:
192,192,63539,1,2,0:0:0:0:
320,192,63539,1,0,0:0:0:0:
64,192,63707,1,8,0:0:0:0:
192,192,63707,1,0,0:0:0:0:
448,192,63707,1,0,0:0:0:0:
64,192,63876,1,2,0:0:0:0:
320,192,63876,1,4,0:0:0:0:
448,192,63876,128,0,64213:0:0:0:0:
64,192,64213,1,2,0:0:0:0:
192,192,64213,1,0,0:0:0:0:
64,192,64381,1,8,0:0:0:0:
320,192,64381,1,0,0:0:0:50:Hat Open.wav
448,192,64381,1,0,0:0:0:0:
192,192,64550,1,2,0:0:0:0:
320,192,64550,1,0,0:0:0:0:
64,192,64718,1,4,0:0:0:0:
192,192,64718,1,8,0:0:0:0:
448,192,64718,1,0,0:0:0:0:
320,192,64887,1,2,0:0:0:0:
448,192,64887,1,0,0:0:0:0:
64,192,65055,1,8,0:0:0:0:
192,192,65055,1,0,0:0:0:50:Hat Open.wav
320,192,65055,1,0,0:0:0:0:
192,192,65224,1,2,0:0:0:0:
448,192,65224,1,0,0:0:0:0:
64,192,65392,1,8,0:0:0:0:
320,192,65392,1,0,0:0:0:50:Hat Open.wav
448,192,65392,1,0,0:0:0:0:
192,192,65561,1,2,0:0:0:0:
320,192,65561,1,0,0:0:0:0:
64,192,65730,1,8,0:0:0:0:
192,192,65730,1,0,0:0:0:50:Hat Open.wav
448,192,65730,1,0,0:0:0:0:
320,192,65898,1,2,0:0:0:0:
448,192,65898,1,0,0:0:0:0:
64,192,66067,1,8,0:0:0:0:
192,192,66067,1,4,0:0:0:0:
320,192,66067,1,0,0:0:0:0:
64,192,66235,1,2,0:0:0:0:
192,192,66235,1,0,0:0:0:0:
64,192,66404,1,8,0:0:0:0:
320,192,66404,1,0,0:0:0:50:Hat Open.wav
448,192,66404,1,0,0:0:0:0:
64,192,66572,1,8,0:0:0:0:
320,192,66572,1,0,0:0:0:50:Hat Open.wav
448,192,66572,1,0,0:0:0:0:
192,192,66741,1,2,0:0:0:0:
448,192,66741,1,0,0:0:0:0:
64,192,66909,1,0,0:0:0:50:Tom1.wav
320,192,66909,1,0,0:0:0:0:
64,192,67078,1,0,0:0:0:50:Tom2.wav
448,192,67078,1,0,0:0:0:0:
192,192,67246,1,0,0:0:0:50:Tom3.wav
448,192,67246,1,0,0:0:0:0:
64,192,67415,1,4,0:0:0:0:
192,192,67415,1,2,0:0:0:0:
320,192,67415,1,0,0:0:0:0:
320,192,67752,1,0,0:0:0:0:
64,192,67921,1,2,0:0:0:0:
192,192,67921,1,0,0:0:0:0:
448,192,68089,1,0,0:0:0:0:
64,192,68089,1,8,0:0:0:0:
320,192,68089,1,0,0:0:0:0:
192,192,68342,1,0,0:0:0:0:
320,192,68342,1,0,0:0:0:0:
64,192,68595,1,2,0:0:0:0:
192,192,68595,1,0,0:0:0:0:
64,192,68763,1,0,0:0:0:0:
448,192,68763,1,0,0:0:0:0:
192,192,68932,1,8,0:0:0:0:
320,192,68932,1,0,0:0:0:0:
448,192,68932,1,0,0:0:0:0:
64,192,69100,1,0,0:0:0:0:
192,192,69100,1,0,0:0:0:0:
64,192,69269,1,2,0:0:0:0:
448,192,69269,1,0,0:0:0:0:
192,192,69437,1,8,0:0:0:0:
320,192,69437,1,0,0:0:0:0:
448,192,69437,1,0,0:0:0:0:
64,192,69606,1,2,0:0:0:0:
320,192,69606,1,0,0:0:0:0:
64,192,69774,1,0,0:0:0:0:
192,192,69774,1,0,0:0:0:0:
320,192,69943,1,2,0:0:0:0:
448,192,69943,1,0,0:0:0:0:
64,192,70112,1,2,0:0:0:0:
192,192,70112,1,4,0:0:0:0:
448,192,70112,1,0,0:0:0:0:
320,192,70280,1,0,0:0:0:0:
192,192,70449,1,0,0:0:0:0:
64,192,70617,1,2,0:0:0:0:
320,192,70617,1,0,0:0:0:0:
448,192,70786,1,0,0:0:0:0:
192,192,70786,1,8,0:0:0:0:
320,192,70786,1,0,0:0:0:0:
192,192,70954,1,0,0:0:0:0:
320,192,71123,1,0,0:0:0:0:
64,192,71291,1,2,0:0:0:0:
448,192,71291,1,0,0:0:0:0:
192,192,71460,1,0,0:0:0:0:
320,192,71460,1,0,0:0:0:0:
64,192,71628,1,8,0:0:0:0:
192,192,71628,1,0,0:0:0:0:
448,192,71628,1,0,0:0:0:0:
320,192,71797,1,0,0:0:0:0:
64,192,71965,1,2,0:0:0:0:
320,192,71965,1,0,0:0:0:0:
64,192,72134,1,8,0:0:0:0:
192,192,72134,1,0,0:0:0:0:
448,192,72134,1,0,0:0:0:0:
320,192,72303,1,2,0:0:0:0:
448,192,72303,1,0,0:0:0:0:
64,192,72471,1,8,0:0:0:0:
192,192,72471,1,4,0:0:0:0:
320,192,72471,1,0,0:0:0:0:
64,192,72640,1,8,0:0:0:0:
448,192,72640,1,0,0:0:0:0:
192,192,72724,1,8,0:0:0:0:
64,192,72808,1,2,0:0:0:0:
320,192,72808,1,4,0:0:0:0:
448,192,72808,1,0,0:0:0:0:
192,192,72977,1,2,0:0:0:0:
320,192,72977,1,0,0:0:0:0:
192,192,73145,1,0,0:0:0:50:Hat Open.wav
448,192,73145,1,0,0:0:0:0:
64,192,73145,1,8,0:0:0:0:
64,192,73314,1,2,0:0:0:0:
320,192,73314,1,0,0:0:0:0:
192,192,73482,1,8,0:0:0:0:
320,192,73482,1,0,0:0:0:50:Hat Open.wav
448,192,73482,1,0,0:0:0:0:
64,192,73651,1,2,0:0:0:0:
448,192,73651,1,0,0:0:0:0:
64,192,73819,1,8,0:0:0:0:
192,192,73819,1,0,0:0:0:50:Hat Open.wav
320,192,73819,1,0,0:0:0:0:
192,192,73988,1,2,0:0:0:0:
448,192,73988,1,0,0:0:0:0:
64,192,74156,1,8,0:0:0:0:
320,192,74156,1,0,0:0:0:50:Hat Open.wav
448,192,74156,1,0,0:0:0:0:
192,192,74325,1,2,0:0:0:0:
320,192,74325,1,0,0:0:0:0:
64,192,74494,1,8,0:0:0:0:
192,192,74494,1,0,0:0:0:50:Hat Open.wav
448,192,74494,1,0,0:0:0:0:
64,192,74662,1,2,0:0:0:0:
320,192,74662,1,0,0:0:0:0:
192,192,74831,1,8,0:0:0:0:
320,192,74831,1,0,0:0:0:50:Hat Open.wav
448,192,74831,1,0,0:0:0:0:
64,192,74999,1,2,0:0:0:0:
448,192,74999,1,0,0:0:0:0:
320,192,75168,1,0,0:0:0:0:
64,192,75168,1,8,0:0:0:0:
192,192,75168,1,0,0:0:0:50:Hat Open.wav
192,192,75336,1,2,0:0:0:0:
448,192,75336,1,0,0:0:0:0:
64,192,75505,128,4,75842:0:0:0:0:
320,192,75505,1,8,0:0:0:0:
448,192,75505,1,0,0:0:0:0:
320,192,75842,1,8,0:0:0:20:drum-hitclap.wav
448,192,75842,1,0,0:0:0:50:Tom3.wav
320,192,76010,1,8,0:0:0:20:drum-hitclap.wav
448,192,76010,1,0,0:0:0:50:Tom3.wav
64,192,76179,1,8,0:0:0:30:drum-hitclap.wav
192,192,76179,1,0,0:0:0:50:Tom3.wav
64,192,76347,1,8,0:0:0:30:drum-hitclap.wav
192,192,76347,1,0,0:0:0:50:Tom3.wav
320,192,76516,1,8,0:0:0:40:drum-hitclap.wav
448,192,76516,1,0,0:0:0:50:Tom3.wav
320,192,76685,1,8,0:0:0:40:drum-hitclap.wav
448,192,76685,1,0,0:0:0:50:Tom3.wav
64,192,76853,1,2,0:0:0:0:
192,192,76853,1,4,0:0:0:0:
448,192,76853,1,0,0:0:0:0:
320,192,77022,1,8,0:0:0:0:
192,192,77106,1,8,0:0:0:0:
64,192,77190,1,8,0:0:0:0:
448,192,77190,1,2,0:0:0:0:
320,192,77274,1,8,0:0:0:0:
192,192,77359,1,8,0:0:0:0:
64,192,77443,1,8,0:0:0:0:
320,192,77527,1,8,0:0:0:0:
448,192,77527,1,2,0:0:0:0:
64,192,77612,1,8,0:0:0:0:
192,192,77612,1,0,0:0:0:0:
320,192,77696,1,8,0:0:0:0:
448,192,77696,1,0,0:0:0:0:
64,192,77780,1,8,0:0:0:0:
192,192,77780,1,0,0:0:0:0:
320,192,77864,1,8,0:0:0:0:
448,192,77864,1,2,0:0:0:0:
64,192,77949,1,8,0:0:0:0:
192,192,77949,1,0,0:0:0:0:
320,192,78033,1,8,0:0:0:0:
448,192,78033,1,0,0:0:0:0:
192,192,78117,1,8,0:0:0:0:
64,192,78201,128,4,78539:0:0:0:0:
320,192,78201,1,2,0:0:0:0:
448,192,78201,1,0,0:0:0:0:
192,192,78370,1,2,0:0:0:0:
448,192,78370,1,0,0:0:0:0:
192,192,78539,1,8,0:0:0:0:
320,192,78539,1,0,0:0:0:50:Hat Open.wav
320,192,78707,1,0,0:0:0:0:
192,192,78876,128,2,79213:0:0:0:0:
448,192,78876,1,0,0:0:0:50:Hat Open.wav
320,192,79044,1,2,0:0:0:0:
448,192,79044,1,0,0:0:0:0:
64,192,79213,1,8,0:0:0:0:
320,192,79213,128,0,79381:0:0:0:50:Hat Open.wav
64,192,79381,128,0,79550:0:0:0:0:
320,192,79550,1,2,0:0:0:0:
448,192,79550,128,0,79718:0:0:0:50:Hat Open.wav
64,192,79718,1,2,0:0:0:0:
192,192,79718,128,0,79887:0:0:0:0:
320,192,79887,128,8,80055:0:0:0:0:
448,192,79887,1,0,0:0:0:50:Hat Open.wav
64,192,80055,128,0,80392:0:0:0:0:
192,192,80224,1,2,0:0:0:0:
448,192,80224,1,0,0:0:0:50:Hat Open.wav
448,192,80392,128,2,80477:0:0:0:0:
320,192,80477,128,0,80561:0:0:0:0:
64,192,80561,128,8,80645:0:0:0:0:
192,192,80561,128,0,80645:0:0:0:50:Hat Open.wav
448,192,80645,128,0,80730:0:0:0:0:
64,192,80730,128,8,80814:0:0:0:0:
192,192,80730,128,0,80814:0:0:0:0:
320,192,80814,128,8,80898:0:0:0:0:
64,192,80898,128,4,81151:0:0:0:0:
192,192,80898,128,2,81151:0:0:0:0:
448,192,80898,1,0,0:0:0:0:
320,192,81151,1,8,0:0:0:0:
448,192,81151,1,0,0:0:0:0:
64,192,81235,1,8,0:0:0:0:
192,192,81235,1,0,0:0:0:0:
64,192,81404,128,4,81656:0:0:0:0:
320,192,81404,128,2,81656:0:0:0:0:
448,192,81404,128,0,81656:0:0:0:0:
320,192,81741,1,2,0:0:0:0:
448,192,81741,1,0,0:0:0:0:
64,192,81909,1,8,0:0:0:0:
192,192,81909,1,0,0:0:0:50:Hat Open.wav
448,192,81909,1,0,0:0:0:0:
192,192,82078,1,2,0:0:0:0:
320,192,82078,1,0,0:0:0:0:
64,192,82246,1,8,0:0:0:0:
320,192,82246,1,4,0:0:0:0:
448,192,82246,1,0,0:0:0:0:
64,192,82415,1,0,0:0:0:50:Tom2.wav
192,192,82415,1,0,0:0:0:0:
192,192,82583,1,0,0:0:0:50:Tom3.wav
320,192,82583,1,0,0:0:0:0:
64,192,82752,1,4,0:0:0:0:
320,192,82752,128,2,83005:0:0:0:0:
448,192,82752,128,0,83005:0:0:0:0:
320,192,83089,1,2,0:0:0:0:
448,192,83089,1,0,0:0:0:0:
64,192,83258,128,8,83510:0:0:0:0:
192,192,83258,128,0,83510:0:0:0:0:
320,192,83595,128,8,83763:0:0:0:0:
448,192,83595,128,0,83763:0:0:0:50:Tom3.wav
64,192,83763,1,2,0:0:0:0:
192,192,83763,1,0,0:0:0:0:
64,192,83932,1,2,0:0:0:0:
192,192,83932,1,0,0:0:0:0:
320,192,84100,128,8,84269:0:0:0:0:
448,192,84100,128,0,84269:0:0:0:50:Tom3.wav
64,192,84269,1,2,0:0:0:0:
192,192,84269,1,0,0:0:0:0:
64,192,84437,1,2,0:0:0:0:
192,192,84437,1,0,0:0:0:0:
64,192,84606,1,8,0:0:0:0:
192,192,84606,1,0,0:0:0:0:
448,192,84606,1,0,0:0:0:0:
64,192,84774,128,2,89325:0:0:0:0:
320,192,84774,1,4,0:0:0:0:
448,192,84774,128,0,89494:0:0:0:0:
320,192,89325,128,0,89409:0:0:0:0:
192,192,89367,128,0,89451:0:0:0:0:
64,192,89409,128,0,89494:0:0:0:0:
320,192,89494,128,0,89662:0:0:0:0:
