osu file format v14

[General]
AudioFilename: suisei.ogg
AudioLeadIn: 0
PreviewTime: 86252
Countdown: 0
SampleSet: Normal
StackLeniency: 0.7
Mode: 1
LetterboxInBreaks: 0
WidescreenStoryboard: 0

[Editor]
Bookmarks: 34221,42792,59935,68507,101720,110291,143505,152076,218505,227076,235647
DistanceSpacing: 0.7
BeatDivisor: 6
GridSize: 8
TimelineZoom: 2

[Metadata]
Title:Saga Jihen
TitleUnicode:佐賀事変
Artist:Hoshimachi Suisei with Hololive Fantasy
ArtistUnicode:星街すいせい with ホロライブファンタジー
Creator:Faputa
Version:Hololive Jihen
Source:ゾンビランドサガ
Tags:Zombieland Zombie Land ベストアルバム Best Album フランシュシュ Franchouchou Cover Production ホロライブプロダクション 三期生 3rd Generation 兎田ぺこら Usada Pekora 潤羽るしあ Uruha Rushia 白銀ノエル Shirogane Noel 不知火フレア Shiranui Flare 宝鐘マリン Houshou Marine Anime Japanese JPop J-Pop Jazz
BeatmapID:2627290
BeatmapSetID:1264028

[Difficulty]
HPDrainRate:6
CircleSize:2
OverallDifficulty:6
ApproachRate:10
SliderMultiplier:1.4
SliderTickRate:3

[Events]
//Background and Video events
0,0,"Saga.jpg",0,38
//Break Periods
//Storyboard Layer 0 (Background)
//Storyboard Layer 1 (Fail)
//Storyboard Layer 2 (Pass)
//Storyboard Layer 3 (Foreground)
//Storyboard Layer 4 (Overlay)
//Storyboard Sound Samples

[TimingPoints]
1319,674.915635545557,4,1,0,20,1,0
1319,-66.6666666666667,4,1,0,20,0,0
25091,535.714285714286,4,1,0,80,1,8
25091,-66.6666666666667,4,1,0,80,0,0
25626,535.714285714286,4,1,0,80,1,0
25626,-66.6666666666667,4,1,0,80,0,0
34108,-66.6666666666667,4,1,0,90,0,0
42679,-66.6666666666667,4,1,0,70,0,0
58751,-66.6666666666667,4,1,0,80,0,0
59867,-66.6666666666667,4,1,0,90,0,0
68393,-66.6666666666667,4,1,0,70,0,0
85627,535.714285714286,4,1,0,70,1,8
85627,-66.6666666666667,4,1,0,70,0,0
86698,535.714285714286,4,1,0,70,1,0
86698,-66.6666666666667,4,1,0,70,0,0
86831,-66.6666666666667,4,1,0,95,0,0
86965,-64.5161290322581,4,1,0,95,0,1
101698,-64.5161290322581,4,1,0,95,0,0
101876,-66.6666666666667,4,1,0,90,0,0
110180,-66.6666666666667,4,1,0,60,0,0
116965,-66.6666666666667,4,1,0,70,0,0
127412,535.714285714286,4,1,0,70,1,8
127412,-66.6666666666667,4,1,0,70,0,0
128483,535.714285714286,4,1,0,70,1,0
128483,-66.6666666666667,4,1,0,70,0,0
128616,-66.6666666666667,4,1,0,95,0,0
128750,-64.5161290322581,4,1,0,95,0,1
143483,-64.5161290322581,4,1,0,95,0,0
143661,-66.6666666666667,4,1,0,90,0,0
151875,-71.4285714285714,4,1,0,60,0,0
159375,-70.9219858156028,4,1,0,70,0,0
159643,-70.4225352112676,4,1,0,70,0,0
159911,-69.9300699300699,4,1,0,70,0,0
160447,-69.4444444444444,4,1,0,70,0,0
160804,-68.9655172413793,4,1,0,70,0,0
162634,-66.6666666666667,4,1,0,70,0,0
165045,-68.9655172413793,4,1,0,70,0,0
166920,-66.6666666666667,4,1,0,70,0,0
169286,-68.9655172413793,4,1,0,70,0,0
171206,-66.6666666666667,4,1,0,70,0,0
173616,-68.9655172413793,4,1,0,40,0,0
177634,-68.4931506849315,4,1,0,90,0,0
178036,-68.0272108843537,4,1,0,90,0,0
178483,-67.5675675675676,4,1,0,90,0,0
178929,-67.1140939597315,4,1,0,90,0,0
179108,-66.6666666666667,4,1,0,90,0,0
179777,-74.0740740740741,4,1,0,60,0,0
190536,-73.5294117647059,4,1,0,70,0,0
190804,-72.992700729927,4,1,0,70,0,0
191072,-72.463768115942,4,1,0,70,0,0
191340,-71.9424460431655,4,1,0,70,0,0
191608,-71.4285714285714,4,1,0,70,0,0
191965,-70.9219858156028,4,1,0,70,0,0
192032,-70.4225352112676,4,1,0,70,0,0
192099,-69.9300699300699,4,1,0,70,0,0
192166,-69.4444444444444,4,1,0,70,0,0
192233,-68.9655172413793,4,1,0,70,0,0
192634,-68.4931506849315,4,1,0,80,0,0
193036,-68.0272108843537,4,1,0,80,0,0
193572,-67.5675675675676,4,1,0,80,0,0
194108,-67.1140939597315,4,1,0,80,0,0
194554,-66.6666666666667,4,1,0,80,0,0
197188,-66.6666666666667,4,1,0,95,0,0
197322,-64.5161290322581,4,1,0,95,0,1
216340,-64.5161290322581,4,1,0,95,0,0
216608,-66.6666666666667,4,1,0,90,0,0

[HitObjects]
256,192,25269,5,0,0:0:0:0:
256,192,25358,1,8,0:0:0:0:
256,192,25626,1,4,0:0:0:0:
256,192,25893,1,8,0:0:0:0:
256,192,26161,1,0,0:0:0:0:
256,192,26340,1,8,0:0:0:0:
256,192,26608,1,0,0:0:0:0:
256,192,26697,1,8,0:0:0:0:
256,192,26876,1,0,0:0:0:0:
256,192,26965,1,0,0:0:0:0:
256,192,27143,1,8,0:0:0:0:
256,192,27411,1,0,0:0:0:0:
256,192,27501,1,8,0:0:0:0:
256,192,27768,1,0,0:0:0:0:
256,192,28036,1,8,0:0:0:0:
256,192,28304,1,0,0:0:0:0:
256,192,28483,1,8,0:0:0:0:
256,192,28751,1,0,0:0:0:0:
256,192,28840,1,8,0:0:0:0:
256,192,29018,1,0,0:0:0:0:
256,192,29108,1,0,0:0:0:0:
256,192,29286,1,8,0:0:0:0:
256,192,29554,1,0,0:0:0:0:
256,192,29643,1,8,0:0:0:0:
256,192,29911,1,0,0:0:0:0:
256,192,30179,1,8,0:0:0:0:
256,192,30447,1,0,0:0:0:0:
256,192,30626,1,8,0:0:0:0:
256,192,30893,1,0,0:0:0:0:
256,192,30983,1,8,0:0:0:0:
256,192,31340,1,8,0:0:0:0:
256,192,31429,1,8,0:0:0:0:
256,192,31518,1,0,0:0:0:0:
256,192,31608,1,0,0:0:0:0:
256,192,31697,1,0,0:0:0:0:
256,192,31786,1,8,0:0:0:0:
256,192,31876,1,0,0:0:0:0:
256,192,31965,1,0,0:0:0:0:
256,192,32054,1,12,0:0:0:0:
256,192,32501,1,4,0:0:0:0:
256,192,32858,1,12,0:0:0:0:
256,192,33304,1,12,0:0:0:0:
256,192,33661,1,4,0:0:0:0:
256,192,33929,1,4,0:0:0:0:
256,192,34197,1,12,0:0:0:0:
256,192,34465,1,0,0:0:0:0:
256,192,34643,1,8,0:0:0:0:
256,192,34733,1,0,0:0:0:0:
256,192,34911,1,0,0:0:0:0:
256,192,35001,1,8,0:0:0:0:
256,192,35268,1,8,0:0:0:0:
256,192,35536,1,0,0:0:0:0:
256,192,35715,1,8,0:0:0:0:
256,192,35804,1,0,0:0:0:0:
256,192,35983,1,8,0:0:0:0:
256,192,36072,1,8,0:0:0:0:
256,192,36251,1,8,0:0:0:0:
256,192,36340,1,0,0:0:0:0:
256,192,36518,1,0,0:0:0:0:
256,192,36608,1,8,0:0:0:0:
256,192,36786,1,8,0:0:0:0:
256,192,36876,1,0,0:0:0:0:
256,192,37054,1,0,0:0:0:0:
256,192,37143,1,8,0:0:0:0:
256,192,37322,1,8,0:0:0:0:
256,192,37411,1,0,0:0:0:0:
256,192,37590,1,0,0:0:0:0:
256,192,37679,1,8,0:0:0:0:
256,192,37858,1,8,0:0:0:0:
256,192,37947,1,8,0:0:0:0:
256,192,38126,1,0,0:0:0:0:
256,192,38215,1,8,0:0:0:0:
256,192,38483,1,12,0:0:0:0:
256,192,38751,1,0,0:0:0:0:
256,192,38929,1,8,0:0:0:0:
256,192,39018,1,0,0:0:0:0:
256,192,39197,1,0,0:0:0:0:
256,192,39286,1,8,0:0:0:0:
256,192,39554,1,8,0:0:0:0:
256,192,39822,1,0,0:0:0:0:
256,192,40001,1,8,0:0:0:0:
256,192,40268,1,8,0:0:0:0:
256,192,40358,1,8,0:0:0:0:
256,192,40536,1,0,0:0:0:0:
256,192,40626,1,8,0:0:0:0:
256,192,40804,1,8,0:0:0:0:
256,192,40893,1,0,0:0:0:0:
256,192,41072,1,0,0:0:0:0:
256,192,41161,1,8,0:0:0:0:
256,192,41340,1,8,0:0:0:0:
256,192,41429,1,0,0:0:0:0:
256,192,41608,1,0,0:0:0:0:
256,192,41697,1,8,0:0:0:0:
256,192,41876,1,8,0:0:0:0:
256,192,41965,1,0,0:0:0:0:
256,192,42143,1,0,0:0:0:0:
256,192,42233,1,0,0:0:0:0:
256,192,42411,1,8,0:0:0:0:
256,192,42501,1,8,0:0:0:0:
256,192,42768,1,4,0:0:0:0:
256,192,42947,1,8,0:0:0:0:
256,192,43036,1,8,0:0:0:0:
256,192,43215,1,0,0:0:0:0:
256,192,43304,1,8,0:0:0:0:
256,192,43483,1,0,0:0:0:0:
256,192,43572,1,0,0:0:0:0:
256,192,43751,1,8,0:0:0:0:
256,192,43840,1,8,0:0:0:0:
256,192,44018,1,0,0:0:0:0:
256,192,44286,1,8,0:0:0:0:
256,192,44643,1,8,0:0:0:0:
256,192,44911,1,0,0:0:0:0:
256,192,45090,1,0,0:0:0:0:
256,192,45179,1,8,0:0:0:0:
256,192,45358,1,8,0:0:0:0:
256,192,45447,1,0,0:0:0:0:
256,192,45626,1,8,0:0:0:0:
256,192,45715,1,8,0:0:0:0:
256,192,45893,1,0,0:0:0:0:
256,192,45983,1,8,0:0:0:0:
256,192,46161,1,0,0:0:0:0:
256,192,46429,1,8,0:0:0:0:
256,192,46786,1,8,0:0:0:0:
256,192,47054,1,0,0:0:0:0:
256,192,47233,1,8,0:0:0:0:
256,192,47322,1,8,0:0:0:0:
256,192,47501,1,0,0:0:0:0:
256,192,47590,1,0,0:0:0:0:
256,192,47768,1,8,0:0:0:0:
256,192,47858,1,0,0:0:0:0:
256,192,48036,1,0,0:0:0:0:
256,192,48126,1,8,0:0:0:0:
256,192,48304,1,8,0:0:0:0:
256,192,48572,1,0,0:0:0:0:
256,192,48840,1,0,0:0:0:0:
256,192,48929,1,8,0:0:0:0:
256,192,49197,1,0,0:0:0:0:
256,192,49465,1,8,0:0:0:0:
256,192,49733,1,0,0:0:0:0:
256,192,49911,1,8,0:0:0:0:
256,192,50001,1,0,0:0:0:0:
256,192,50268,1,8,0:0:0:0:
256,192,50536,1,0,0:0:0:0:
256,192,50715,1,8,0:0:0:0:
256,192,50804,1,0,0:0:0:0:
256,192,50983,1,8,0:0:0:0:
256,192,51072,1,8,0:0:0:0:
256,192,51340,1,4,0:0:0:0:
256,192,51608,1,8,0:0:0:0:
256,192,51876,1,0,0:0:0:0:
256,192,52054,1,0,0:0:0:0:
256,192,52143,1,8,0:0:0:0:
256,192,52322,1,8,0:0:0:0:
256,192,52411,1,0,0:0:0:0:
256,192,52590,1,0,0:0:0:0:
256,192,52679,1,0,0:0:0:0:
256,192,52858,1,8,0:0:0:0:
256,192,53126,1,0,0:0:0:0:
256,192,53215,1,8,0:0:0:0:
256,192,53483,1,0,0:0:0:0:
256,192,53751,1,0,0:0:0:0:
256,192,54018,1,8,0:0:0:0:
256,192,54197,1,0,0:0:0:0:
256,192,54286,1,0,0:0:0:0:
256,192,54554,1,8,0:0:0:0:
256,192,54822,1,8,0:0:0:0:
256,192,55001,1,0,0:0:0:0:
256,192,55090,1,8,0:0:0:0:
256,192,55268,1,8,0:0:0:0:
256,192,55358,1,8,0:0:0:0:
256,192,55626,1,0,0:0:0:0:
256,192,55893,1,8,0:0:0:0:
256,192,56161,1,0,0:0:0:0:
256,192,56340,1,0,0:0:0:0:
256,192,56429,1,8,0:0:0:0:
256,192,56608,1,8,0:0:0:0:
256,192,56697,1,0,0:0:0:0:
256,192,56876,1,8,0:0:0:0:
256,192,57143,1,0,0:0:0:0:
256,192,57411,1,0,0:0:0:0:
256,192,57501,1,8,0:0:0:0:
256,192,57679,1,0,0:0:0:0:
256,192,57768,1,0,0:0:0:0:
256,192,58036,1,0,0:0:0:0:
256,192,58304,1,8,0:0:0:0:
256,192,58483,1,0,0:0:0:0:
256,192,58572,1,8,0:0:0:0:
256,192,58840,1,0,0:0:0:0:
256,192,59018,1,8,0:0:0:0:
256,192,59108,1,8,0:0:0:0:
256,192,59286,1,8,0:0:0:0:
256,192,59376,1,0,0:0:0:0:
256,192,59554,1,8,0:0:0:0:
256,192,59643,1,8,0:0:0:0:
256,192,59822,1,0,0:0:0:0:
256,192,59911,1,12,0:0:0:0:
256,192,60179,1,0,0:0:0:0:
256,192,60358,1,8,0:0:0:0:
256,192,60447,1,0,0:0:0:0:
256,192,60626,1,0,0:0:0:0:
256,192,60715,1,8,0:0:0:0:
256,192,60983,1,8,0:0:0:0:
256,192,61251,1,0,0:0:0:0:
256,192,61429,1,8,0:0:0:0:
256,192,61518,1,0,0:0:0:0:
256,192,61697,1,8,0:0:0:0:
256,192,61786,1,8,0:0:0:0:
256,192,61965,1,0,0:0:0:0:
256,192,62054,1,8,0:0:0:0:
256,192,62233,1,8,0:0:0:0:
256,192,62322,1,0,0:0:0:0:
256,192,62501,1,0,0:0:0:0:
256,192,62590,1,8,0:0:0:0:
256,192,62768,1,8,0:0:0:0:
256,192,62858,1,0,0:0:0:0:
256,192,63036,1,0,0:0:0:0:
256,192,63126,1,8,0:0:0:0:
256,192,63304,1,0,0:0:0:0:
256,192,63393,1,0,0:0:0:0:
256,192,63572,1,8,0:0:0:0:
256,192,63661,1,8,0:0:0:0:
256,192,63840,1,0,0:0:0:0:
256,192,63929,1,8,0:0:0:0:
256,192,64197,1,8,0:0:0:0:
256,192,64465,1,0,0:0:0:0:
256,192,64643,1,8,0:0:0:0:
256,192,64733,1,0,0:0:0:0:
256,192,64911,1,0,0:0:0:0:
256,192,65001,1,8,0:0:0:0:
256,192,65268,1,8,0:0:0:0:
256,192,65536,1,0,0:0:0:0:
256,192,65715,1,8,0:0:0:0:
256,192,65983,1,8,0:0:0:0:
256,192,66072,1,8,0:0:0:0:
256,192,66251,1,0,0:0:0:0:
256,192,66340,1,8,0:0:0:0:
256,192,66518,1,8,0:0:0:0:
256,192,66608,1,0,0:0:0:0:
256,192,66786,1,0,0:0:0:0:
256,192,66876,1,8,0:0:0:0:
256,192,67054,1,8,0:0:0:0:
256,192,67143,1,0,0:0:0:0:
256,192,67322,1,0,0:0:0:0:
256,192,67411,1,8,0:0:0:0:
256,192,67590,1,8,0:0:0:0:
256,192,67679,1,0,0:0:0:0:
256,192,67858,1,8,0:0:0:0:
256,192,67947,1,8,0:0:0:0:
256,192,68126,1,0,0:0:0:0:
256,192,68215,1,8,0:0:0:0:
256,192,68483,1,4,0:0:0:0:
256,192,68661,1,8,0:0:0:0:
256,192,68751,1,0,0:0:0:0:
256,192,69018,1,8,0:0:0:0:
256,192,69197,1,0,0:0:0:0:
256,192,69286,1,8,0:0:0:0:
256,192,69465,1,8,0:0:0:0:
256,192,69554,1,0,0:0:0:0:
256,192,69733,1,0,0:0:0:0:
256,192,70001,1,8,0:0:0:0:
256,192,70358,1,8,0:0:0:0:
256,192,70626,1,0,0:0:0:0:
256,192,70804,1,0,0:0:0:0:
256,192,70893,1,8,0:0:0:0:
256,192,71072,1,8,0:0:0:0:
256,192,71161,1,0,0:0:0:0:
256,192,71340,1,8,0:0:0:0:
256,192,71429,1,8,0:0:0:0:
256,192,71608,1,0,0:0:0:0:
256,192,71697,1,8,0:0:0:0:
256,192,71876,1,0,0:0:0:0:
256,192,72143,1,8,0:0:0:0:
256,192,72501,1,8,0:0:0:0:
256,192,72768,1,0,0:0:0:0:
256,192,72947,1,8,0:0:0:0:
256,192,73036,1,8,0:0:0:0:
256,192,73215,1,8,0:0:0:0:
256,192,73304,1,0,0:0:0:0:
256,192,73483,1,0,0:0:0:0:
256,192,73572,1,8,0:0:0:0:
256,192,73751,1,8,0:0:0:0:
256,192,73840,1,8,0:0:0:0:
256,192,74018,1,0,0:0:0:0:
256,192,74286,1,8,0:0:0:0:
256,192,74554,1,0,0:0:0:0:
256,192,74643,1,8,0:0:0:0:
256,192,74911,1,0,0:0:0:0:
256,192,75179,1,8,0:0:0:0:
256,192,75447,1,0,0:0:0:0:
256,192,75626,1,8,0:0:0:0:
256,192,75715,1,8,0:0:0:0:
256,192,75983,1,0,0:0:0:0:
256,192,76161,1,12,0:0:0:0:
256,192,76429,1,12,0:0:0:0:
256,192,76697,1,8,0:0:0:0:
256,192,76786,1,4,0:0:0:0:
256,192,77054,1,12,0:0:0:0:
256,192,77322,1,8,0:0:0:0:
256,192,77590,1,0,0:0:0:0:
256,192,77768,1,8,0:0:0:0:
256,192,77858,1,0,0:0:0:0:
256,192,78126,1,12,0:0:0:0:
256,192,78661,1,4,0:0:0:0:
256,192,78840,1,0,0:0:0:0:
256,192,78929,1,8,0:0:0:0:
256,192,79108,1,8,0:0:0:0:
256,192,79197,1,0,0:0:0:0:
256,192,79465,1,8,0:0:0:0:
256,192,79733,1,8,0:0:0:0:
256,192,79911,1,0,0:0:0:0:
256,192,80001,1,8,0:0:0:0:
256,192,80179,1,0,0:0:0:0:
256,192,80268,1,8,0:0:0:0:
256,192,80447,1,0,0:0:0:0:
256,192,80715,1,8,0:0:0:0:
256,192,80983,1,0,0:0:0:0:
256,192,81072,1,8,0:0:0:0:
256,192,81251,1,8,0:0:0:0:
256,192,81340,1,0,0:0:0:0:
256,192,81608,1,8,0:0:0:0:
256,192,81876,1,0,0:0:0:0:
256,192,82054,1,8,0:0:0:0:
256,192,82143,1,0,0:0:0:0:
256,192,82411,1,12,0:0:0:0:
256,192,82590,1,0,0:0:0:0:
256,192,82858,1,8,0:0:0:0:
256,192,82947,1,8,0:0:0:0:
256,192,83036,1,0,0:0:0:0:
256,192,83126,1,0,0:0:0:0:
256,192,83215,1,8,0:0:0:0:
256,192,83304,1,0,0:0:0:0:
256,192,83393,1,0,0:0:0:0:
256,192,83483,1,12,0:0:0:0:
256,192,85536,1,0,0:0:0:0:
256,192,85627,1,8,0:0:0:0:
256,192,85805,1,0,0:0:0:0:
256,192,86073,1,0,0:0:0:0:
256,192,86162,1,8,0:0:0:0:
256,192,86252,1,8,0:0:0:0:
256,192,86341,1,8,0:0:0:0:
256,192,86430,1,0,0:0:0:0:
256,192,86519,1,8,0:0:0:0:
256,192,86609,1,8,0:0:0:0:
256,192,86698,1,0,0:0:0:0:
256,192,86965,1,12,0:0:0:0:
256,192,87144,1,8,0:0:0:0:
256,192,87233,1,0,0:0:0:0:
256,192,87323,1,0,0:0:0:0:
256,192,87412,1,0,0:0:0:0:
256,192,87501,1,8,0:0:0:0:
256,192,87680,1,8,0:0:0:0:
256,192,87769,1,0,0:0:0:0:
256,192,87948,1,0,0:0:0:0:
256,192,88037,1,8,0:0:0:0:
256,192,88215,1,8,0:0:0:0:
256,192,88483,1,0,0:0:0:0:
256,192,88573,1,8,0:0:0:0:
256,192,88751,1,0,0:0:0:0:
256,192,88840,1,0,0:0:0:0:
256,192,89019,1,0,0:0:0:0:
256,192,89108,1,8,0:0:0:0:
256,192,89287,1,0,0:0:0:0:
256,192,89376,1,0,0:0:0:0:
256,192,89555,1,0,0:0:0:0:
256,192,89644,1,8,0:0:0:0:
256,192,89823,1,0,0:0:0:0:
256,192,89912,1,0,0:0:0:0:
256,192,90090,1,0,0:0:0:0:
256,192,90180,1,8,0:0:0:0:
256,192,90358,1,0,0:0:0:0:
256,192,90626,1,0,0:0:0:0:
256,192,90715,1,8,0:0:0:0:
256,192,90894,1,8,0:0:0:0:
256,192,90983,1,4,0:0:0:0:
256,192,91162,1,0,0:0:0:0:
256,192,91251,1,8,0:0:0:0:
256,192,91340,1,0,0:0:0:0:
256,192,91430,1,0,0:0:0:0:
256,192,91519,1,8,0:0:0:0:
256,192,91698,1,0,0:0:0:0:
256,192,91787,1,8,0:0:0:0:
256,192,91965,1,8,0:0:0:0:
256,192,92055,1,0,0:0:0:0:
256,192,92233,1,0,0:0:0:0:
256,192,92323,1,8,0:0:0:0:
256,192,92501,1,8,0:0:0:0:
256,192,92769,1,0,0:0:0:0:
256,192,92858,1,8,0:0:0:0:
256,192,93037,1,8,0:0:0:0:
256,192,93126,1,8,0:0:0:0:
256,192,93305,1,0,0:0:0:0:
256,192,93394,1,8,0:0:0:0:
256,192,93573,1,8,0:0:0:0:
256,192,93662,1,8,0:0:0:0:
256,192,93840,1,0,0:0:0:0:
256,192,93930,1,8,0:0:0:0:
256,192,94108,1,8,0:0:0:0:
256,192,94198,1,8,0:0:0:0:
256,192,94376,1,0,0:0:0:0:
256,192,94465,1,8,0:0:0:0:
256,192,94644,1,4,0:0:0:0:
256,192,94912,1,12,0:0:0:0:
256,192,95180,1,12,0:0:0:0:
256,192,95448,1,0,0:0:0:0:
256,192,95537,1,8,0:0:0:0:
256,192,95715,1,8,0:0:0:0:
256,192,95805,1,0,0:0:0:0:
256,192,95983,1,8,0:0:0:0:
256,192,96073,1,8,0:0:0:0:
256,192,96251,1,0,0:0:0:0:
256,192,96340,1,8,0:0:0:0:
256,192,96430,1,0,0:0:0:0:
256,192,96519,1,0,0:0:0:0:
256,192,96608,1,8,0:0:0:0:
256,192,96787,1,8,0:0:0:0:
256,192,97055,1,0,0:0:0:0:
256,192,97144,1,8,0:0:0:0:
256,192,97323,1,8,0:0:0:0:
256,192,97590,1,0,0:0:0:0:
256,192,97680,1,8,0:0:0:0:
256,192,97858,1,0,0:0:0:0:
256,192,97948,1,8,0:0:0:0:
256,192,98126,1,8,0:0:0:0:
256,192,98215,1,0,0:0:0:0:
256,192,98305,1,0,0:0:0:0:
256,192,98394,1,0,0:0:0:0:
256,192,98483,1,8,0:0:0:0:
256,192,98662,1,8,0:0:0:0:
256,192,98751,1,0,0:0:0:0:
256,192,98930,1,8,0:0:0:0:
256,192,99198,1,0,0:0:0:0:
256,192,99287,1,8,0:0:0:0:
256,192,99465,1,8,0:0:0:0:
256,192,99555,1,4,0:0:0:0:
256,192,99733,1,8,0:0:0:0:
256,192,99823,1,8,0:0:0:0:
256,192,100001,1,0,0:0:0:0:
256,192,100090,1,8,0:0:0:0:
256,192,100269,1,8,0:0:0:0:
256,192,100358,1,8,0:0:0:0:
256,192,100537,1,8,0:0:0:0:
256,192,100626,1,0,0:0:0:0:
256,192,100805,1,0,0:0:0:0:
256,192,100894,1,8,0:0:0:0:
256,192,101073,1,8,0:0:0:0:
256,192,101162,1,8,0:0:0:0:
256,192,101251,1,0,0:0:0:0:
256,192,101340,1,0,0:0:0:0:
256,192,101430,1,8,0:0:0:0:
256,192,101519,1,0,0:0:0:0:
256,192,101608,1,0,0:0:0:0:
256,192,101698,1,12,0:0:0:0:
256,192,101965,1,0,0:0:0:0:
256,192,102144,1,8,0:0:0:0:
256,192,102233,1,0,0:0:0:0:
256,192,102412,1,0,0:0:0:0:
256,192,102501,1,8,0:0:0:0:
256,192,102769,1,8,0:0:0:0:
256,192,103037,1,0,0:0:0:0:
256,192,103215,1,8,0:0:0:0:
256,192,103305,1,0,0:0:0:0:
256,192,103483,1,8,0:0:0:0:
256,192,103573,1,8,0:0:0:0:
256,192,103751,1,8,0:0:0:0:
256,192,103840,1,4,0:0:0:0:
256,192,104019,1,8,0:0:0:0:
256,192,104108,1,8,0:0:0:0:
256,192,104287,1,0,0:0:0:0:
256,192,104376,1,0,0:0:0:0:
256,192,104555,1,8,0:0:0:0:
256,192,104644,1,8,0:0:0:0:
256,192,104823,1,0,0:0:0:0:
256,192,104912,1,0,0:0:0:0:
256,192,105090,1,8,0:0:0:0:
256,192,105180,1,8,0:0:0:0:
256,192,105358,1,0,0:0:0:0:
256,192,105448,1,8,0:0:0:0:
256,192,105626,1,0,0:0:0:0:
256,192,105715,1,8,0:0:0:0:
256,192,105983,1,8,0:0:0:0:
256,192,106251,1,0,0:0:0:0:
256,192,106430,1,8,0:0:0:0:
256,192,106519,1,0,0:0:0:0:
256,192,106698,1,0,0:0:0:0:
256,192,106787,1,8,0:0:0:0:
256,192,107055,1,8,0:0:0:0:
256,192,107323,1,0,0:0:0:0:
256,192,107501,1,8,0:0:0:0:
256,192,107769,1,0,0:0:0:0:
256,192,107858,1,8,0:0:0:0:
256,192,108037,1,0,0:0:0:0:
256,192,108126,1,8,0:0:0:0:
256,192,108305,1,0,0:0:0:0:
256,192,108394,1,0,0:0:0:0:
256,192,108573,1,8,0:0:0:0:
256,192,108662,1,8,0:0:0:0:
256,192,108840,1,0,0:0:0:0:
256,192,108930,1,0,0:0:0:0:
256,192,109108,1,8,0:0:0:0:
256,192,109198,1,8,0:0:0:0:
256,192,109376,1,0,0:0:0:0:
256,192,109465,1,0,0:0:0:0:
256,192,109644,1,8,0:0:0:0:
256,192,109733,1,0,0:0:0:0:
256,192,109912,1,8,0:0:0:0:
256,192,110001,1,0,0:0:0:0:
256,192,110269,1,4,0:0:0:0:
256,192,110805,1,8,0:0:0:0:
256,192,111340,1,8,0:0:0:0:
256,192,111787,1,8,0:0:0:0:
256,192,112055,1,0,0:0:0:0:
256,192,112144,1,8,0:0:0:0:
256,192,112412,1,0,0:0:0:0:
256,192,112590,1,8,0:0:0:0:
256,192,112858,1,0,0:0:0:0:
256,192,112948,1,8,0:0:0:0:
256,192,113483,1,8,0:0:0:0:
256,192,113662,1,8,0:0:0:0:
256,192,113751,1,0,0:0:0:0:
256,192,113930,1,0,0:0:0:0:
256,192,114019,1,8,0:0:0:0:
256,192,114198,1,0,0:0:0:0:
256,192,114287,1,8,0:0:0:0:
256,192,114555,1,0,0:0:0:0:
256,192,114823,1,8,0:0:0:0:
256,192,114912,1,0,0:0:0:0:
256,192,115001,1,0,0:0:0:0:
256,192,115090,1,8,0:0:0:0:
256,192,115358,1,8,0:0:0:0:
256,192,115448,1,8,0:0:0:0:
256,192,115537,1,8,0:0:0:0:
256,192,115626,1,0,0:0:0:0:
256,192,115805,1,0,0:0:0:0:
256,192,115894,1,8,0:0:0:0:
256,192,116073,1,8,0:0:0:0:
256,192,116162,1,0,0:0:0:0:
256,192,116340,1,0,0:0:0:0:
256,192,116430,1,0,0:0:0:0:
256,192,116698,1,8,0:0:0:0:
256,192,117144,1,12,0:0:0:0:
256,192,117501,1,4,0:0:0:0:
256,192,117769,1,8,0:0:0:0:
256,192,117948,1,8,0:0:0:0:
256,192,118215,1,0,0:0:0:0:
256,192,118305,1,8,0:0:0:0:
256,192,118394,1,8,0:0:0:0:
256,192,118483,1,8,0:0:0:0:
256,192,118573,1,0,0:0:0:0:
256,192,118662,1,8,0:0:0:0:
256,192,118751,1,8,0:0:0:0:
256,192,118840,1,0,0:0:0:0:
256,192,119912,1,4,0:0:0:0:
256,192,120448,1,4,0:0:0:0:
256,192,120983,1,12,0:0:0:0:
256,192,121251,1,8,0:0:0:0:
256,192,121430,1,0,0:0:0:0:
256,192,121519,1,8,0:0:0:0:
256,192,121698,1,8,0:0:0:0:
256,192,121787,1,0,0:0:0:0:
256,192,121965,1,0,0:0:0:0:
256,192,122055,1,8,0:0:0:0:
256,192,122233,1,0,0:0:0:0:
256,192,122323,1,0,0:0:0:0:
256,192,122501,1,8,0:0:0:0:
256,192,122769,1,0,0:0:0:0:
256,192,122858,1,8,0:0:0:0:
256,192,123037,1,0,0:0:0:0:
256,192,123126,1,0,0:0:0:0:
256,192,124198,1,12,0:0:0:0:
256,192,124376,1,0,0:0:0:0:
256,192,124644,1,8,0:0:0:0:
256,192,124733,1,8,0:0:0:0:
256,192,124823,1,0,0:0:0:0:
256,192,124912,1,0,0:0:0:0:
256,192,125001,1,8,0:0:0:0:
256,192,125090,1,0,0:0:0:0:
256,192,125180,1,0,0:0:0:0:
256,192,125269,1,12,0:0:0:0:
256,192,126340,1,0,0:0:0:0:
256,192,126787,1,0,0:0:0:0:
256,192,126876,1,0,0:0:0:0:
256,192,127144,1,0,0:0:0:0:
256,192,127412,1,8,0:0:0:0:
256,192,127679,1,8,0:0:0:0:
256,192,127858,1,0,0:0:0:0:
256,192,127947,1,8,0:0:0:0:
256,192,128037,1,8,0:0:0:0:
256,192,128126,1,8,0:0:0:0:
256,192,128215,1,0,0:0:0:0:
256,192,128304,1,8,0:0:0:0:
256,192,128394,1,8,0:0:0:0:
256,192,128483,1,0,0:0:0:0:
256,192,128750,1,12,0:0:0:0:
256,192,128929,1,0,0:0:0:0:
256,192,129018,1,8,0:0:0:0:
256,192,129108,1,8,0:0:0:0:
256,192,129197,1,0,0:0:0:0:
256,192,129286,1,8,0:0:0:0:
256,192,129465,1,8,0:0:0:0:
256,192,129554,1,0,0:0:0:0:
256,192,129733,1,0,0:0:0:0:
256,192,130000,1,8,0:0:0:0:
256,192,130268,1,0,0:0:0:0:
256,192,130358,1,8,0:0:0:0:
256,192,130536,1,8,0:0:0:0:
256,192,130625,1,8,0:0:0:0:
256,192,130804,1,0,0:0:0:0:
256,192,130893,1,8,0:0:0:0:
256,192,131072,1,8,0:0:0:0:
256,192,131161,1,8,0:0:0:0:
256,192,131340,1,0,0:0:0:0:
256,192,131429,1,8,0:0:0:0:
256,192,131608,1,8,0:0:0:0:
256,192,131697,1,8,0:0:0:0:
256,192,131875,1,0,0:0:0:0:
256,192,131965,1,8,0:0:0:0:
256,192,132143,1,8,0:0:0:0:
256,192,132233,1,8,0:0:0:0:
256,192,132411,1,0,0:0:0:0:
256,192,132500,1,8,0:0:0:0:
256,192,132679,1,8,0:0:0:0:
256,192,132768,1,4,0:0:0:0:
256,192,132947,1,0,0:0:0:0:
256,192,133036,1,8,0:0:0:0:
256,192,133125,1,8,0:0:0:0:
256,192,133215,1,8,0:0:0:0:
256,192,133304,1,0,0:0:0:0:
256,192,133483,1,0,0:0:0:0:
256,192,133572,1,8,0:0:0:0:
256,192,133750,1,0,0:0:0:0:
256,192,133840,1,8,0:0:0:0:
256,192,134018,1,0,0:0:0:0:
256,192,134286,1,8,0:0:0:0:
256,192,134554,1,8,0:0:0:0:
256,192,134643,1,0,0:0:0:0:
256,192,134822,1,0,0:0:0:0:
256,192,134911,1,0,0:0:0:0:
256,192,135090,1,8,0:0:0:0:
256,192,135179,1,0,0:0:0:0:
256,192,135358,1,0,0:0:0:0:
256,192,135447,1,0,0:0:0:0:
256,192,135625,1,8,0:0:0:0:
256,192,135715,1,0,0:0:0:0:
256,192,135893,1,0,0:0:0:0:
256,192,135983,1,0,0:0:0:0:
256,192,136161,1,8,0:0:0:0:
256,192,136250,1,0,0:0:0:0:
256,192,136429,1,4,0:0:0:0:
256,192,136697,1,12,0:0:0:0:
256,192,136965,1,12,0:0:0:0:
256,192,137233,1,0,0:0:0:0:
256,192,137322,1,8,0:0:0:0:
256,192,137590,1,8,0:0:0:0:
256,192,137768,1,0,0:0:0:0:
256,192,137858,1,8,0:0:0:0:
256,192,138036,1,8,0:0:0:0:
256,192,138125,1,0,0:0:0:0:
256,192,138215,1,0,0:0:0:0:
256,192,138304,1,8,0:0:0:0:
256,192,138393,1,8,0:0:0:0:
256,192,138572,1,8,0:0:0:0:
256,192,138840,1,0,0:0:0:0:
256,192,138929,1,8,0:0:0:0:
256,192,139108,1,8,0:0:0:0:
256,192,139197,1,0,0:0:0:0:
256,192,139375,1,8,0:0:0:0:
256,192,139465,1,8,0:0:0:0:
256,192,139643,1,8,0:0:0:0:
256,192,139733,1,8,0:0:0:0:
256,192,139911,1,0,0:0:0:0:
256,192,140000,1,8,0:0:0:0:
256,192,140179,1,0,0:0:0:0:
256,192,140268,1,8,0:0:0:0:
256,192,140358,1,8,0:0:0:0:
256,192,140447,1,0,0:0:0:0:
256,192,140536,1,0,0:0:0:0:
256,192,140715,1,8,0:0:0:0:
256,192,140983,1,0,0:0:0:0:
256,192,141072,1,0,0:0:0:0:
256,192,141250,1,8,0:0:0:0:
256,192,141340,1,4,0:0:0:0:
256,192,141518,1,0,0:0:0:0:
256,192,141608,1,0,0:0:0:0:
256,192,141786,1,8,0:0:0:0:
256,192,141875,1,0,0:0:0:0:
256,192,142054,1,0,0:0:0:0:
256,192,142143,1,8,0:0:0:0:
256,192,142322,1,0,0:0:0:0:
256,192,142411,1,8,0:0:0:0:
256,192,142679,1,4,0:0:0:0:
256,192,142947,1,8,0:0:0:0:
256,192,143036,1,0,0:0:0:0:
256,192,143125,1,0,0:0:0:0:
256,192,143215,1,8,0:0:0:0:
256,192,143304,1,0,0:0:0:0:
256,192,143393,1,0,0:0:0:0:
256,192,143483,1,12,0:0:0:0:
256,192,143750,1,0,0:0:0:0:
256,192,143929,1,8,0:0:0:0:
256,192,144018,1,0,0:0:0:0:
256,192,144197,1,0,0:0:0:0:
256,192,144286,1,8,0:0:0:0:
256,192,144554,1,8,0:0:0:0:
256,192,144822,1,0,0:0:0:0:
256,192,145000,1,8,0:0:0:0:
256,192,145090,1,0,0:0:0:0:
256,192,145268,1,8,0:0:0:0:
256,192,145358,1,8,0:0:0:0:
256,192,145536,1,8,0:0:0:0:
256,192,145625,1,0,0:0:0:0:
256,192,145804,1,8,0:0:0:0:
256,192,145893,1,8,0:0:0:0:
256,192,146072,1,0,0:0:0:0:
256,192,146161,1,0,0:0:0:0:
256,192,146340,1,8,0:0:0:0:
256,192,146429,1,8,0:0:0:0:
256,192,146608,1,0,0:0:0:0:
256,192,146697,1,0,0:0:0:0:
256,192,146875,1,8,0:0:0:0:
256,192,146965,1,8,0:0:0:0:
256,192,147143,1,0,0:0:0:0:
256,192,147233,1,8,0:0:0:0:
256,192,147411,1,0,0:0:0:0:
256,192,147500,1,8,0:0:0:0:
256,192,147768,1,12,0:0:0:0:
256,192,148036,1,0,0:0:0:0:
256,192,148215,1,8,0:0:0:0:
256,192,148304,1,0,0:0:0:0:
256,192,148483,1,0,0:0:0:0:
256,192,148572,1,8,0:0:0:0:
256,192,148840,1,8,0:0:0:0:
256,192,149108,1,0,0:0:0:0:
256,192,149286,1,8,0:0:0:0:
256,192,149554,1,0,0:0:0:0:
256,192,149643,1,8,0:0:0:0:
256,192,149822,1,0,0:0:0:0:
256,192,149911,1,12,0:0:0:0:
256,192,150090,1,0,0:0:0:0:
256,192,150179,1,0,0:0:0:0:
256,192,150358,1,8,0:0:0:0:
256,192,150447,1,8,0:0:0:0:
256,192,150625,1,0,0:0:0:0:
256,192,150715,1,0,0:0:0:0:
256,192,150893,1,8,0:0:0:0:
256,192,150983,1,8,0:0:0:0:
256,192,151161,1,0,0:0:0:0:
256,192,151250,1,0,0:0:0:0:
256,192,151429,1,8,0:0:0:0:
256,192,151518,1,8,0:0:0:0:
256,192,152054,1,4,0:0:0:0:
256,192,152322,1,8,0:0:0:0:
256,192,152590,1,0,0:0:0:0:
256,192,152768,1,8,0:0:0:0:
256,192,153125,1,8,0:0:0:0:
256,192,153393,1,0,0:0:0:0:
256,192,153572,1,8,0:0:0:0:
256,192,153661,1,0,0:0:0:0:
256,192,153840,1,0,0:0:0:0:
256,192,153929,1,8,0:0:0:0:
256,192,154197,1,0,0:0:0:0:
256,192,154465,1,8,0:0:0:0:
256,192,154733,1,0,0:0:0:0:
256,192,154911,1,8,0:0:0:0:
256,192,155268,1,8,0:0:0:0:
256,192,155536,1,0,0:0:0:0:
256,192,155715,1,8,0:0:0:0:
256,192,155804,1,0,0:0:0:0:
256,192,155983,1,0,0:0:0:0:
256,192,156072,1,8,0:0:0:0:
256,192,156340,1,4,0:0:0:0:
256,192,156608,1,8,0:0:0:0:
256,192,156875,1,0,0:0:0:0:
256,192,157054,1,8,0:0:0:0:
256,192,157322,1,0,0:0:0:0:
256,192,157411,1,8,0:0:0:0:
256,192,157590,1,0,0:0:0:0:
256,192,157679,1,0,0:0:0:0:
256,192,157858,1,8,0:0:0:0:
256,192,158125,1,0,0:0:0:0:
256,192,158215,1,8,0:0:0:0:
256,192,158483,1,0,0:0:0:0:
256,192,158750,1,8,0:0:0:0:
256,192,159018,1,0,0:0:0:0:
256,192,159197,1,8,0:0:0:0:
256,192,159465,1,8,0:0:0:0:
256,192,159554,1,8,0:0:0:0:
256,192,159733,1,8,0:0:0:0:
256,192,160000,1,8,0:0:0:0:
256,192,160090,1,0,0:0:0:0:
256,192,160179,1,0,0:0:0:0:
256,192,160268,1,8,0:0:0:0:
256,192,160358,1,8,0:0:0:0:
256,192,160536,1,8,0:0:0:0:
256,192,160625,1,0,0:0:0:0:
256,192,160893,1,8,0:0:0:0:
256,192,161161,1,0,0:0:0:0:
256,192,161340,1,8,0:0:0:0:
256,192,161429,1,0,0:0:0:0:
256,192,161608,1,0,0:0:0:0:
256,192,161697,1,8,0:0:0:0:
256,192,161875,1,8,0:0:0:0:
256,192,162143,1,8,0:0:0:0:
256,192,162411,1,0,0:0:0:0:
256,192,162500,1,8,0:0:0:0:
256,192,162768,1,4,0:0:0:0:
256,192,163036,1,0,0:0:0:0:
256,192,163304,1,8,0:0:0:0:
256,192,163483,1,0,0:0:0:0:
256,192,163572,1,8,0:0:0:0:
256,192,163750,1,8,0:0:0:0:
256,192,163840,1,0,0:0:0:0:
256,192,164018,1,0,0:0:0:0:
256,192,164108,1,0,0:0:0:0:
256,192,164286,1,8,0:0:0:0:
256,192,164375,1,0,0:0:0:0:
256,192,164554,1,0,0:0:0:0:
256,192,164643,1,0,0:0:0:0:
256,192,164911,1,12,0:0:0:0:
256,192,165179,1,8,0:0:0:0:
256,192,165358,1,0,0:0:0:0:
256,192,165447,1,8,0:0:0:0:
256,192,165625,1,8,0:0:0:0:
256,192,165715,1,8,0:0:0:0:
256,192,165893,1,0,0:0:0:0:
256,192,165983,1,8,0:0:0:0:
256,192,166161,1,0,0:0:0:0:
256,192,166429,1,8,0:0:0:0:
256,192,166697,1,8,0:0:0:0:
256,192,166786,1,8,0:0:0:0:
256,192,167054,1,4,0:0:0:0:
256,192,167322,1,0,0:0:0:0:
256,192,167411,1,0,0:0:0:0:
256,192,167500,1,0,0:0:0:0:
256,192,167590,1,8,0:0:0:0:
256,192,167858,1,0,0:0:0:0:
256,192,167947,1,0,0:0:0:0:
256,192,168036,1,0,0:0:0:0:
256,192,168125,1,8,0:0:0:0:
256,192,168304,1,8,0:0:0:0:
256,192,168393,1,0,0:0:0:0:
256,192,168572,1,8,0:0:0:0:
256,192,168840,1,8,0:0:0:0:
256,192,168929,1,0,0:0:0:0:
256,192,169197,1,12,0:0:0:0:
256,192,169375,1,0,0:0:0:0:
256,192,169465,1,8,0:0:0:0:
256,192,169733,1,8,0:0:0:0:
256,192,169911,1,8,0:0:0:0:
256,192,170000,1,0,0:0:0:0:
256,192,170179,1,0,0:0:0:0:
256,192,170268,1,8,0:0:0:0:
256,192,170447,1,0,0:0:0:0:
256,192,170536,1,0,0:0:0:0:
256,192,170715,1,8,0:0:0:0:
256,192,170983,1,8,0:0:0:0:
256,192,171072,1,8,0:0:0:0:
256,192,171340,1,4,0:0:0:0:
256,192,171518,1,0,0:0:0:0:
256,192,171608,1,0,0:0:0:0:
256,192,171697,1,0,0:0:0:0:
256,192,171786,1,0,0:0:0:0:
256,192,171875,1,8,0:0:0:0:
256,192,172054,1,0,0:0:0:0:
256,192,172143,1,0,0:0:0:0:
256,192,172322,1,0,0:0:0:0:
256,192,172411,1,8,0:0:0:0:
256,192,172590,1,0,0:0:0:0:
256,192,172858,1,8,0:0:0:0:
256,192,172947,1,0,0:0:0:0:
256,192,173393,1,0,0:0:0:0:
256,192,173483,1,8,0:0:0:0:
245,189,176697,2,0,L|288:189,9,33.8333343658448
291,192,177768,1,8,0:0:0:0:
291,192,178304,1,4,0:0:0:0:
291,192,178572,1,8,0:0:0:0:
291,192,178661,1,8,0:0:0:0:
291,192,178750,1,8,0:0:0:0:
291,192,178840,1,0,0:0:0:0:
291,192,179018,1,12,0:0:0:0:
291,192,179286,1,12,0:0:0:0:
291,192,179911,1,0,0:0:0:0:
291,192,180090,1,8,0:0:0:0:
291,192,180358,1,0,0:0:0:0:
291,192,180447,1,8,0:0:0:0:
291,192,180715,1,0,0:0:0:0:
291,192,180893,1,0,0:0:0:0:
291,192,180983,1,8,0:0:0:0:
291,192,181250,1,0,0:0:0:0:
291,192,181429,1,8,0:0:0:0:
291,192,181697,1,0,0:0:0:0:
291,192,181786,1,8,0:0:0:0:
291,192,181965,1,0,0:0:0:0:
291,192,182054,1,8,0:0:0:0:
291,192,182322,1,8,0:0:0:0:
291,192,182500,1,0,0:0:0:0:
291,192,182590,1,8,0:0:0:0:
291,192,182768,1,0,0:0:0:0:
291,192,182858,1,0,0:0:0:0:
291,192,183036,1,0,0:0:0:0:
291,192,183125,1,8,0:0:0:0:
291,192,183304,1,8,0:0:0:0:
291,192,183393,1,0,0:0:0:0:
291,192,183572,1,8,0:0:0:0:
291,192,183661,1,8,0:0:0:0:
291,192,183840,1,0,0:0:0:0:
291,192,184197,1,0,0:0:0:0:
291,192,184375,1,8,0:0:0:0:
291,192,184465,1,8,0:0:0:0:
291,192,184733,1,0,0:0:0:0:
291,192,184911,1,0,0:0:0:0:
291,192,185000,1,8,0:0:0:0:
291,192,185268,1,0,0:0:0:0:
291,192,185447,1,0,0:0:0:0:
291,192,185670,1,8,0:0:0:0:
291,192,185983,1,0,0:0:0:0:
291,192,186072,1,0,0:0:0:0:
291,192,186340,1,4,0:0:0:0:
291,192,186608,1,8,0:0:0:0:
291,192,186786,1,0,0:0:0:0:
291,192,186875,1,0,0:0:0:0:
291,192,187054,1,8,0:0:0:0:
291,192,187143,1,8,0:0:0:0:
291,192,187322,1,0,0:0:0:0:
291,192,187411,1,0,0:0:0:0:
291,192,187590,1,8,0:0:0:0:
291,192,187679,1,0,0:0:0:0:
291,192,187858,1,8,0:0:0:0:
291,192,188125,1,8,0:0:0:0:
291,192,188215,1,0,0:0:0:0:
291,192,188483,1,8,0:0:0:0:
291,192,188661,1,0,0:0:0:0:
291,192,188750,1,8,0:0:0:0:
291,192,188929,1,8,0:0:0:0:
291,192,189018,1,0,0:0:0:0:
291,192,189197,1,0,0:0:0:0:
291,192,189286,1,8,0:0:0:0:
291,192,189465,1,8,0:0:0:0:
291,192,189554,1,8,0:0:0:0:
291,192,189733,1,0,0:0:0:0:
291,192,189822,1,0,0:0:0:0:
291,192,190000,1,8,0:0:0:0:
291,192,190268,1,8,0:0:0:0:
291,192,190358,1,0,0:0:0:0:
291,192,190625,1,4,0:0:0:0:
291,192,190893,1,0,0:0:0:0:
291,192,191161,1,8,0:0:0:0:
291,192,191429,1,8,0:0:0:0:
291,192,191697,1,0,0:0:0:0:
291,192,191965,1,8,0:0:0:0:
291,192,192032,1,8,0:0:0:0:
291,192,192099,1,0,0:0:0:0:
291,192,192166,1,0,0:0:0:0:
291,192,192233,1,8,0:0:0:0:
291,192,192768,1,12,0:0:0:0:
291,192,193151,1,0,0:0:0:0:
291,192,193227,1,0,0:0:0:0:
291,192,193304,1,8,0:0:0:0:
291,192,193687,1,0,0:0:0:0:
291,192,193763,1,8,0:0:0:0:
291,192,193840,1,8,0:0:0:0:
291,192,194222,1,8,0:0:0:0:
291,192,194299,1,8,0:0:0:0:
291,192,194375,1,8,0:0:0:0:
291,192,194643,1,0,0:0:0:0:
291,192,194733,1,0,0:0:0:0:
291,192,194822,1,0,0:0:0:0:
291,192,194911,1,8,0:0:0:0:
291,192,195090,1,0,0:0:0:0:
291,192,195268,1,8,0:0:0:0:
291,192,195447,1,8,0:0:0:0:
291,192,195625,1,8,0:0:0:0:
291,192,195804,1,4,0:0:0:0:
291,192,196518,1,0,0:0:0:0:
256,192,197054,1,0,0:0:0:0:
256,192,197322,1,12,0:0:0:0:
256,192,197500,1,0,0:0:0:0:
256,192,197590,1,8,0:0:0:0:
256,192,197679,1,8,0:0:0:0:
256,192,197768,1,0,0:0:0:0:
256,192,197858,1,8,0:0:0:0:
256,192,198036,1,8,0:0:0:0:
256,192,198125,1,0,0:0:0:0:
256,192,198304,1,0,0:0:0:0:
256,192,198393,1,8,0:0:0:0:
256,192,198572,1,8,0:0:0:0:
256,192,198840,1,0,0:0:0:0:
256,192,198929,1,8,0:0:0:0:
256,192,199108,1,0,0:0:0:0:
256,192,199197,1,0,0:0:0:0:
256,192,199375,1,0,0:0:0:0:
256,192,199465,1,12,0:0:0:0:
256,192,199643,1,8,0:0:0:0:
256,192,199733,1,0,0:0:0:0:
256,192,199822,1,0,0:0:0:0:
256,192,199911,1,0,0:0:0:0:
256,192,200000,1,8,0:0:0:0:
256,192,200179,1,8,0:0:0:0:
256,192,200268,1,8,0:0:0:0:
256,192,200447,1,0,0:0:0:0:
256,192,200536,1,8,0:0:0:0:
256,192,200715,1,8,0:0:0:0:
256,192,200804,1,8,0:0:0:0:
256,192,200983,1,0,0:0:0:0:
256,192,201072,1,8,0:0:0:0:
256,192,201250,1,8,0:0:0:0:
256,192,201340,1,4,0:0:0:0:
256,192,201518,1,0,0:0:0:0:
256,192,201608,1,8,0:0:0:0:
256,192,201697,1,8,0:0:0:0:
256,192,201786,1,0,0:0:0:0:
256,192,201875,1,8,0:0:0:0:
256,192,202054,1,0,0:0:0:0:
256,192,202143,1,8,0:0:0:0:
256,192,202322,1,8,0:0:0:0:
256,192,202411,1,8,0:0:0:0:
256,192,202590,1,8,0:0:0:0:
256,192,202679,1,0,0:0:0:0:
256,192,202858,1,8,0:0:0:0:
256,192,203125,1,8,0:0:0:0:
256,192,203215,1,0,0:0:0:0:
256,192,203393,1,0,0:0:0:0:
256,192,203483,1,0,0:0:0:0:
256,192,203661,1,8,0:0:0:0:
256,192,203750,1,4,0:0:0:0:
256,192,203929,1,0,0:0:0:0:
256,192,204018,1,8,0:0:0:0:
256,192,204108,1,8,0:0:0:0:
256,192,204197,1,8,0:0:0:0:
256,192,204286,1,0,0:0:0:0:
256,192,204465,1,0,0:0:0:0:
256,192,204554,1,8,0:0:0:0:
256,192,204733,1,8,0:0:0:0:
256,192,204822,1,0,0:0:0:0:
256,192,204911,1,0,0:0:0:0:
256,192,205000,1,8,0:0:0:0:
256,192,205090,1,0,0:0:0:0:
256,192,205179,1,0,0:0:0:0:
256,192,205268,1,12,0:0:0:0:
256,192,205536,1,12,0:0:0:0:
256,192,205804,1,0,0:0:0:0:
256,192,205893,1,8,0:0:0:0:
256,192,206072,1,8,0:0:0:0:
256,192,206161,1,8,0:0:0:0:
256,192,206340,1,0,0:0:0:0:
256,192,206429,1,8,0:0:0:0:
256,192,206608,1,8,0:0:0:0:
256,192,206697,1,8,0:0:0:0:
256,192,206786,1,0,0:0:0:0:
256,192,206875,1,0,0:0:0:0:
256,192,206965,1,8,0:0:0:0:
256,192,207143,1,8,0:0:0:0:
256,192,207411,1,0,0:0:0:0:
256,192,207500,1,8,0:0:0:0:
256,192,207679,1,8,0:0:0:0:
256,192,207768,1,0,0:0:0:0:
256,192,207947,1,8,0:0:0:0:
256,192,208036,1,4,0:0:0:0:
256,192,208215,1,8,0:0:0:0:
256,192,208304,1,8,0:0:0:0:
256,192,208483,1,0,0:0:0:0:
256,192,208572,1,8,0:0:0:0:
256,192,208661,1,0,0:0:0:0:
256,192,208750,1,0,0:0:0:0:
256,192,208840,1,8,0:0:0:0:
256,192,209018,1,0,0:0:0:0:
256,192,209108,1,0,0:0:0:0:
256,192,209286,1,8,0:0:0:0:
256,192,209554,1,0,0:0:0:0:
256,192,209643,1,0,0:0:0:0:
256,192,209822,1,8,0:0:0:0:
256,192,209911,1,0,0:0:0:0:
256,192,210090,1,0,0:0:0:0:
256,192,210179,1,12,0:0:0:0:
256,192,210358,1,8,0:0:0:0:
256,192,210447,1,8,0:0:0:0:
256,192,210536,1,0,0:0:0:0:
256,192,210625,1,0,0:0:0:0:
256,192,210715,1,8,0:0:0:0:
256,192,210893,1,8,0:0:0:0:
256,192,210983,1,8,0:0:0:0:
256,192,211250,1,8,0:0:0:0:
256,192,211429,1,0,0:0:0:0:
256,192,211518,1,8,0:0:0:0:
256,192,211697,1,8,0:0:0:0:
256,192,211786,1,0,0:0:0:0:
256,192,211965,1,0,0:0:0:0:
256,192,212054,1,0,0:0:0:0:
256,192,212233,1,0,0:0:0:0:
256,192,212322,1,12,0:0:0:0:
256,192,212500,1,0,0:0:0:0:
256,192,212590,1,8,0:0:0:0:
256,192,212679,1,8,0:0:0:0:
256,192,212768,1,8,0:0:0:0:
256,192,212858,1,0,0:0:0:0:
256,192,213036,1,0,0:0:0:0:
256,192,213125,1,8,0:0:0:0:
256,192,213304,1,8,0:0:0:0:
256,192,213393,1,4,0:0:0:0:
256,192,213572,1,8,0:0:0:0:
256,192,213661,1,0,0:0:0:0:
256,192,213750,1,0,0:0:0:0:
256,192,213840,1,0,0:0:0:0:
256,192,213929,1,8,0:0:0:0:
256,192,214018,1,8,0:0:0:0:
256,192,214108,1,8,0:0:0:0:
256,192,214197,1,4,0:0:0:0:
256,192,214733,1,12,0:0:0:0:
256,192,215268,1,12,0:0:0:0:
256,192,215715,1,8,0:0:0:0:
256,192,215804,1,8,0:0:0:0:
256,192,215893,1,0,0:0:0:0:
256,192,215983,1,0,0:0:0:0:
256,192,216072,1,8,0:0:0:0:
256,192,216161,1,0,0:0:0:0:
256,192,216250,1,0,0:0:0:0:
256,192,216340,1,8,0:0:0:0:
256,192,218215,1,0,0:0:0:0:
256,192,218483,1,12,0:0:0:0:
256,192,218750,1,0,0:0:0:0:
256,192,218929,1,8,0:0:0:0:
256,192,219018,1,0,0:0:0:0:
256,192,219197,1,0,0:0:0:0:
256,192,219286,1,8,0:0:0:0:
256,192,219554,1,8,0:0:0:0:
256,192,219822,1,0,0:0:0:0:
256,192,220000,1,8,0:0:0:0:
256,192,220090,1,0,0:0:0:0:
256,192,220268,1,8,0:0:0:0:
256,192,220358,1,8,0:0:0:0:
256,192,220536,1,0,0:0:0:0:
256,192,220625,1,12,0:0:0:0:
256,192,220804,1,0,0:0:0:0:
256,192,220893,1,8,0:0:0:0:
256,192,221072,1,8,0:0:0:0:
256,192,221161,1,0,0:0:0:0:
256,192,221340,1,0,0:0:0:0:
256,192,221429,1,8,0:0:0:0:
256,192,221608,1,8,0:0:0:0:
256,192,221697,1,0,0:0:0:0:
256,192,221875,1,0,0:0:0:0:
256,192,221965,1,8,0:0:0:0:
256,192,222143,1,8,0:0:0:0:
256,192,222233,1,8,0:0:0:0:
256,192,222411,1,0,0:0:0:0:
256,192,222500,1,8,0:0:0:0:
256,192,222768,1,8,0:0:0:0:
256,192,223036,1,0,0:0:0:0:
256,192,223215,1,8,0:0:0:0:
256,192,223304,1,0,0:0:0:0:
256,192,223483,1,0,0:0:0:0:
256,192,223572,1,8,0:0:0:0:
256,192,223840,1,8,0:0:0:0:
256,192,224108,1,0,0:0:0:0:
256,192,224286,1,8,0:0:0:0:
256,192,224554,1,8,0:0:0:0:
256,192,224643,1,8,0:0:0:0:
256,192,224822,1,0,0:0:0:0:
256,192,224911,1,8,0:0:0:0:
256,192,225090,1,8,0:0:0:0:
256,192,225179,1,0,0:0:0:0:
256,192,225358,1,0,0:0:0:0:
256,192,225447,1,8,0:0:0:0:
256,192,225625,1,8,0:0:0:0:
256,192,225715,1,0,0:0:0:0:
256,192,225893,1,0,0:0:0:0:
256,192,225983,1,8,0:0:0:0:
256,192,226161,1,8,0:0:0:0:
256,192,226250,1,0,0:0:0:0:
256,192,226429,1,8,0:0:0:0:
256,192,226518,1,8,0:0:0:0:
256,192,226608,1,0,0:0:0:0:
256,192,226697,1,0,0:0:0:0:
256,192,226786,1,8,0:0:0:0:
256,192,226875,1,0,0:0:0:0:
256,192,226965,1,0,0:0:0:0:
256,192,227054,1,12,0:0:0:0:
256,192,227322,1,8,0:0:0:0:
256,192,227590,1,0,0:0:0:0:
256,192,227768,1,0,0:0:0:0:
256,192,227858,1,8,0:0:0:0:
256,192,228036,1,8,0:0:0:0:
256,192,228125,1,0,0:0:0:0:
256,192,228304,1,8,0:0:0:0:
256,192,228393,1,8,0:0:0:0:
256,192,228572,1,0,0:0:0:0:
256,192,228840,1,0,0:0:0:0:
256,192,228929,1,8,0:0:0:0:
256,192,229108,1,8,0:0:0:0:
256,192,229197,1,8,0:0:0:0:
256,192,229375,1,0,0:0:0:0:
256,192,229465,1,8,0:0:0:0:
256,192,229643,1,8,0:0:0:0:
256,192,229733,1,8,0:0:0:0:
256,192,229911,1,0,0:0:0:0:
256,192,230000,1,8,0:0:0:0:
256,192,230179,1,8,0:0:0:0:
256,192,230268,1,8,0:0:0:0:
256,192,230447,1,0,0:0:0:0:
256,192,230536,1,8,0:0:0:0:
256,192,230715,1,8,0:0:0:0:
256,192,230804,1,8,0:0:0:0:
256,192,230983,1,0,0:0:0:0:
256,192,231072,1,8,0:0:0:0:
256,192,231161,1,0,0:0:0:0:
256,192,231250,1,0,0:0:0:0:
256,192,231340,1,8,0:0:0:0:
256,192,231518,1,12,0:0:0:0:
256,192,231786,1,0,0:0:0:0:
256,192,231875,1,8,0:0:0:0:
256,192,232054,1,8,0:0:0:0:
256,192,232143,1,8,0:0:0:0:
256,192,232322,1,0,0:0:0:0:
256,192,232411,1,8,0:0:0:0:
256,192,232590,1,0,0:0:0:0:
256,192,232679,1,8,0:0:0:0:
256,192,232858,1,8,0:0:0:0:
256,192,232947,1,8,0:0:0:0:
256,192,233036,1,0,0:0:0:0:
256,192,233125,1,0,0:0:0:0:
256,192,233215,1,8,0:0:0:0:
256,192,233304,1,0,0:0:0:0:
256,192,233393,1,0,0:0:0:0:
256,192,233483,1,8,0:0:0:0:
256,192,233661,1,0,0:0:0:0:
256,192,233750,1,0,0:0:0:0:
256,192,233929,1,8,0:0:0:0:
256,192,234018,1,8,0:0:0:0:
256,192,234197,1,0,0:0:0:0:
256,192,234286,1,0,0:0:0:0:
256,192,234465,1,8,0:0:0:0:
256,192,234554,1,8,0:0:0:0:
256,192,234733,1,0,0:0:0:0:
256,192,234822,1,0,0:0:0:0:
256,192,235000,1,8,0:0:0:0:
256,192,235090,1,8,0:0:0:0:
256,192,235358,1,12,0:0:0:0:
