osu file format v14

[General]
AudioFilename: audio.mp3
AudioLeadIn: 0
PreviewTime: 86300
Countdown: 0
SampleSet: Soft
StackLeniency: 0.3
Mode: 0
LetterboxInBreaks: 0
WidescreenStoryboard: 1

[Editor]
Bookmarks: 1166,25675,51389,86746,101746,118888,128531,143531,160673,162816,164959,167102,169245,171388,173531,177816,186388,197102,205673,218531,235406,235941
DistanceSpacing: 1.3
BeatDivisor: 6
GridSize: 8
TimelineZoom: 3.079999

[Metadata]
Title:Saga Jihen
TitleUnicode:佐賀事変
Artist:Hoshimachi Suisei with Hololive Fantasy
ArtistUnicode:星街すいせい with ホロライブファンタジー
Creator:Amateurre
Version:newteurre's Extra
Source:ゾンビランドサガ
Tags:Zombieland Zombie Land Saga ベストアルバム Best Album フランシュシュ Franchouchou Hosimati Hoshimati Hosimachi 三期生 3rd Generation 兎田ぺこら Usada Pekora 潤羽るしあ Uruha Rushia 白銀ノエル Shirogane Noel Danchou 不知火フレア Shiranui Flare 宝鐘マリン Houshou Marine Senchou Cover Production Full Version Idol ホロライブ Anime Japanese JPop J-Pop Jazz Rock Swing Mir LeCandy Shizuku- Kazato Asa Shikibe Mayu newton- Deppyforce Asagi Mocaotic
BeatmapID:2898443
BeatmapSetID:1399793

[Difficulty]
HPDrainRate:5
CircleSize:3.8
OverallDifficulty:8.8
ApproachRate:9.4
SliderMultiplier:2.22
SliderTickRate:1

[Events]
//Background and Video events
0,0,"chikiran.jpg",0,0
Video,0,"Saga Jihen.mp4"
//Break Periods
2,152102,159062
//Storyboard Layer 0 (Background)
//Storyboard Layer 1 (Fail)
//Storyboard Layer 2 (Pass)
//Storyboard Layer 3 (Foreground)
//Storyboard Layer 4 (Overlay)
//Storyboard Sound Samples

[TimingPoints]
1166,535.714285714286,4,2,1,45,1,0
1255,655.737704918033,4,2,1,45,1,0
1364,535.714285714286,4,2,1,45,1,0
4082,500,4,2,1,45,1,0
4582,480,4,2,1,45,1,0
5142,491.803278688525,4,2,1,45,1,0
6699,491.803278688525,4,2,1,45,1,0
6780,402.684563758389,4,2,1,45,1,0
6981,413.793103448276,4,2,1,45,1,0
7601,454.545454545455,4,2,1,45,1,0
7828,461.538461538462,4,2,1,45,1,0
10674,487.80487804878,4,2,1,45,1,0
11080,517.241379310345,4,2,1,45,1,0
11424,500,4,2,1,45,1,0
11840,476.190476190476,4,2,1,65,1,0
12316,495.867768595041,4,2,1,45,1,0
12977,487.80487804878,4,2,1,85,1,0
14440,461.538461538462,4,2,1,95,1,0
14593,444.444444444444,4,2,1,45,1,0
14741,444.444444444444,4,2,1,45,1,0
15259,618.556701030928,4,2,1,45,1,0
15362,714.285714285714,4,2,1,45,1,0
15719,689.655172413793,4,2,1,45,1,0
16753,530.973451327434,4,2,1,45,1,0
16841,425.531914893617,4,2,1,45,1,0
17408,425.531914893617,4,2,1,45,1,0
18684,441.176470588235,4,2,1,45,1,0
19125,441.176470588235,4,2,1,45,1,0
19492,458.015267175573,4,2,1,45,1,0
19873,458.015267175573,4,2,1,45,1,0
20254,465.116279069767,4,2,1,45,1,0
22191,487.80487804878,4,2,1,45,1,0
22841,496.894409937888,4,2,1,45,1,0
23586,465.116279069767,4,2,1,45,1,0
24748,465.116279069767,4,2,1,50,1,0
25290,606.060606060606,4,2,1,50,1,0
25391,568.181818181818,4,2,1,50,1,0
25675,267.857142857143,4,2,1,50,1,0
25675,-125,4,2,1,50,0,0
32103,-250,4,2,1,50,0,0
32907,-250,4,2,1,60,0,0
34246,-100,4,2,1,60,0,0
44692,-83.3333333333333,4,2,1,60,0,0
44960,-100,4,2,1,60,0,0
46835,-83.3333333333333,4,2,1,60,0,0
47103,-100,4,2,1,60,0,0
76210,-83.3333333333333,4,2,1,60,0,0
77103,-100,4,2,1,60,0,0
85853,-200,4,2,1,60,0,0
86746,267.857142857143,4,2,1,85,1,0
86746,-333.333333333333,4,2,1,85,0,0
87013,-71.4285714285714,4,2,1,85,0,0
91031,-333.333333333333,4,2,1,85,0,0
91298,-71.4285714285714,4,2,1,85,0,0
101746,-100,4,2,1,60,0,0
116478,-250,4,2,1,60,0,0
116746,-166.666666666667,4,2,1,60,0,0
117549,-111.111111111111,4,2,1,60,0,0
117817,-166.666666666667,4,2,1,60,0,0
118888,-500,4,2,1,60,0,0
119960,-166.666666666667,4,2,1,60,0,0
121031,-83.3333333333333,4,2,1,60,0,0
123174,-500,4,2,1,60,0,0
124246,-100,4,2,1,60,0,0
125853,-100,4,2,1,45,0,0
126388,-200,4,2,1,20,0,0
127460,-200,4,2,1,45,0,0
127996,-200,4,2,1,55,0,0
128531,267.857142857143,4,2,1,85,1,0
128531,-333.333333333333,4,2,1,85,0,0
128798,-71.4285714285714,4,2,1,85,0,0
132816,-333.333333333333,4,2,1,85,0,0
133083,-71.4285714285714,4,2,1,85,0,0
143531,-100,4,2,1,60,0,0
150138,-100,4,2,1,50,0,0
159602,-100,4,2,1,70,0,0
160673,-166.666666666667,4,2,1,70,0,0
162816,-83.3333333333333,4,2,1,85,0,0
164959,-166.666666666667,4,2,1,75,0,0
167102,-83.3333333333333,4,2,1,85,0,0
169245,-166.666666666667,4,2,1,75,0,0
171388,-83.3333333333333,4,2,1,75,0,0
173798,-83.3333333333333,4,2,1,40,0,0
176745,-83.3333333333333,4,2,1,45,0,0
177816,-250,4,2,1,85,0,0
178352,-83.3333333333333,4,2,1,85,0,0
179066,-71.4285714285714,4,2,1,85,0,0
179334,-142.857142857143,4,2,1,85,0,0
179691,-142.857142857143,4,2,1,35,0,0
181566,-100,4,2,1,35,0,0
182102,-100,4,2,1,50,0,0
183173,-142.857142857143,4,2,1,50,0,0
183888,-250.000000000001,4,2,1,50,0,0
184245,-142.857142857143,4,2,1,50,0,0
186388,-142.857142857143,4,2,1,60,0,0
192013,-142.857142857143,4,2,1,70,0,0
192816,-83.3333333333333,4,2,1,70,0,0
193352,-100,4,2,1,70,0,0
193888,-125,4,2,1,70,0,0
194423,-250,4,2,1,70,0,0
194959,-83.3333333333333,4,2,1,70,0,0
197102,-333.333333333333,4,2,1,70,0,0
197369,-71.4285714285714,4,2,1,70,0,0
201388,-333.333333333333,4,2,1,70,0,0
201655,-71.4285714285714,4,2,1,70,0,0
214245,-125,4,2,1,70,0,0
214781,-166.666666666667,4,2,1,70,0,0
215852,-100,4,2,1,70,0,0
218531,-100,4,2,1,60,0,0
227102,-83.3333333333333,4,2,1,70,0,0
233798,-83.3333333333333,4,2,1,45,0,0
235406,-83.3333333333333,4,2,1,85,0,0
235673,-83.3333333333333,4,2,1,5,0,0

[Colours]
Combo1 : 255,211,168
Combo2 : 168,211,255
Combo3 : 255,168,168
Combo4 : 168,255,168

[HitObjects]
73,166,25675,6,0,P|129:162|164:206,1,118.4,4|0,1:2|0:0,0:0:0:0:
206,102,25942,2,0,B|190:190|190:190|276:205,1,177.6,4|0,0:3|0:2,0:2:0:0:
419,78,26389,5,4,0:3:0:0:
346,29,26478,2,0,P|300:63|304:120,1,118.4,4|0,0:3|0:2,0:2:0:0:
386,160,26746,2,0,P|453:212|448:297,1,177.6,4|0,0:3|0:2,0:2:0:0:
276,360,27192,5,4,0:3:0:0:
320,351,27282,2,0,B|285:301|285:301|237:335,1,118.4,4|0,0:3|0:2,0:2:0:0:
158,308,27550,2,0,B|110:341|110:341|75:292,1,118.4,4|0,0:3|0:2,0:2:0:0:
78,157,27817,6,0,B|105:147|105:147|131:160|144:190|133:224,1,118.4,4|0,0:3|0:0,0:0:0:0:
219,164,28085,2,0,B|270:148|318:175|278:198|325:224|384:208,1,177.6,4|0,0:3|0:2,0:2:0:0:
406,0,28532,5,4,0:3:0:0:
455,73,28621,2,0,P|420:118|363:114,1,118.4,4|0,0:3|0:2,0:2:0:0:
317,16,28889,2,0,P|231:10|180:78,1,177.6,4|0,0:3|0:2,0:2:0:0:
10,16,29336,5,4,0:3:0:0:
83,62,29425,2,0,P|93:101|99:182,1,118.4,4|0,0:3|0:2,0:2:0:0:
29,303,29692,2,0,B|80:318|128:291|88:268|135:242|194:258,1,177.6,4|4,0:3|0:3,0:2:0:0:
189,257,30228,6,0,P|240:324|325:319,1,177.6,4|0,0:3|0:2,0:2:0:0:
474,297,30675,5,4,0:3:0:0:
465,341,30765,2,0,B|415:306|415:306|449:258,1,118.4,4|0,0:3|0:2,0:2:0:0:
387,144,31032,2,0,L|375:210,5,59.2,4|0|0|0|0|4,0:3|0:0|0:0|0:0|0:0|0:3,0:2:0:0:
347,217,31567,5,4,0:3:0:0:
299,213,31657,1,0,0:2:0:0:
252,176,31746,1,2,3:2:0:0:
240,106,31835,1,2,3:2:0:0:
291,40,31925,1,2,0:2:0:0:
384,49,32014,1,2,0:2:0:0:
431,144,32103,6,2,L|414:238,1,88.8,6|0,0:3|0:0,0:1:0:0:
444,243,32505,2,0,L|427:337,1,88.8
310,193,32907,6,2,L|327:287,1,88.8,2|0,0:2|0:0,0:1:0:0:
297,292,33309,2,0,L|314:386,1,88.8
205,222,33710,6,2,L|196:269,1,44.4,2|0,0:2|0:0,0:1:0:0:
211,271,33978,2,2,L|202:318,1,44.4,2|0,0:2|0:0,0:1:0:0:
125,365,34246,6,2,P|83:308|13:317,1,148,4|0,3:2|0:0,0:1:0:0:
110,244,34514,2,0,P|83:309|13:317,1,148,4|2,1:3|0:1,0:0:0:0:
25,217,34782,1,0,3:2:0:0:
203,314,34960,1,4,0:3:0:0:
260,248,35050,2,0,B|293:235|293:235|330:259|339:298|316:332,1,148,2|0,1:1|0:2,0:0:0:0:
406,378,35317,6,2,P|345:345|359:277,1,148,4|0,3:3|0:0,0:1:0:0:
442,261,35585,1,0,1:2:0:0:
355,113,35764,1,4,0:3:0:0:
417,171,35853,2,2,B|490:183|490:183|503:112,1,148,4|0,3:3|0:2,0:1:0:0:
404,5,36121,6,0,B|356:-7|318:13|350:31|312:53|270:40,1,148,6|0,1:3|0:2,0:0:0:0:
225,115,36389,2,0,P|239:47|179:15,1,148,4|0,3:3|0:2,0:2:0:0:
389,15,36657,6,0,B|341:2|303:23|335:41|297:63|255:50,1,148,6|0,1:3|0:2,0:0:0:0:
211,125,36925,2,0,P|225:57|164:24,1,148,0|4,3:2|0:3,0:2:0:0:
374,25,37192,6,0,B|326:12|288:33|320:51|282:73|240:60,1,148,2|0,1:3|0:2,0:0:0:0:
196,135,37460,2,0,P|210:67|149:34,1,148,4|0,3:3|0:2,0:2:0:0:
359,35,37728,6,0,B|311:22|273:43|305:61|267:83|225:70,1,148,2|4,1:3|0:3,0:0:0:0:
181,145,37996,2,0,P|195:77|134:44,1,148,4|0,3:3|0:2,0:2:0:0:
11,181,38264,2,2,B|-1:147|-1:147|22:111|61:102|95:124,1,148,4|0,1:3|0:2,0:1:0:0:
189,234,38532,6,2,P|128:266|142:334,1,148,4|0,3:2|0:0,0:1:0:0:
79,244,38800,2,0,P|144:265|142:334,1,148,4|2,1:3|0:1,0:0:0:0:
37,327,39067,1,0,3:2:0:0:
244,310,39246,1,4,0:3:0:0:
301,376,39336,2,0,B|334:388|334:388|371:365|380:326|357:291,1,148,2|0,1:1|0:2,0:0:0:0:
356,185,39603,6,2,P|342:253|403:286,1,148,4|0,3:3|0:0,0:1:0:0:
472,234,39871,1,0,1:2:0:0:
509,93,40050,1,4,0:3:0:0:
447,151,40139,2,2,B|373:163|373:163|360:92,1,148,4|0,3:3|0:2,0:1:0:0:
288,9,40407,6,0,B|292:58|265:91|252:56|224:90|229:134,1,148,6|0,1:3|0:2,0:0:0:0:
134,114,40675,2,0,B|208:101|208:101|221:173,1,148,4|0,3:3|0:2,0:2:0:0:
279,21,40942,6,0,B|283:70|256:103|243:68|215:102|220:146,1,148,6|0,1:3|0:2,0:0:0:0:
125,126,41210,2,0,B|198:113|198:113|211:184,1,148,0|4,3:2|0:3,0:2:0:0:
269,32,41478,6,0,B|273:81|246:114|233:79|205:113|210:157,1,148,2|0,1:3|0:2,0:0:0:0:
115,137,41746,2,0,B|188:124|188:124|201:195,1,148,4|0,3:3|0:2,0:2:0:0:
259,43,42014,6,0,B|263:92|236:125|223:90|195:124|200:168,1,148,2|4,1:3|0:3,0:0:0:0:
105,148,42282,2,0,B|178:135|178:135|191:206,1,148,4|4,3:3|0:3,0:2:0:0:
161,321,42550,6,0,B|127:333|127:333|91:310|82:271|104:236,1,148,0|0,1:2|0:2,0:2:0:0:
290,174,42817,1,4,3:2:0:0:
290,174,42996,1,0,0:2:0:0:
335,250,43085,6,0,P|403:264|436:203,1,148,4|0,0:3|0:2,0:2:0:0:
377,134,43353,1,0,3:2:0:0:
246,255,43532,1,4,0:3:0:0:
246,255,43621,2,0,B|259:329|259:329|187:342,1,148,0|0,0:2|0:2,0:0:0:0:
23,347,43889,6,0,B|42:239|42:239|153:258,1,222,4|0,3:3|0:0,0:2:0:0:
234,117,44335,1,4,0:3:0:0:
234,117,44425,2,0,B|186:104|148:125|180:143|142:165|100:152,1,148,0|0,3:2|0:2,0:2:0:0:
30,51,44692,6,0,P|110:44|119:124,1,177.599994580078,4|0,1:3|0:2,0:2:0:0:
13,142,44960,5,4,3:3:0:0:
222,203,45139,1,0,0:2:0:0:
222,203,45228,2,0,B|244:237|235:276|199:299|199:299|165:287,1,148,4|0,0:3|0:2,0:0:0:0:
100,374,45496,2,0,P|133:313|201:327,1,148,0|4,3:2|0:3,0:2:0:0:
292,369,45764,2,0,B|287:325|315:291|328:326|355:293|351:244,1,148,0|0,0:2|0:2,0:0:0:0:
404,119,46032,6,0,P|370:218|447:290,1,222,4|0,3:3|0:0,0:2:0:0:
262,239,46478,1,4,0:3:0:0:
262,239,46567,2,0,B|275:165|275:165|203:152,1,148,0|0,3:2|0:2,0:2:0:0:
91,199,46835,6,0,P|171:205|180:125,1,177.599994580078,4|0,1:3|0:2,0:2:0:0:
108,78,47103,5,4,3:3:0:0:
8,203,47282,1,0,0:2:0:0:
8,203,47371,6,0,B|4:252|31:285|44:250|72:284|67:328,1,148,4|0,0:3|0:2,0:2:0:0:
152,354,47639,2,0,P|185:293|253:307,1,148,0|4,3:2|0:3,0:0:0:0:
345,304,47907,2,0,P|378:364|446:350,1,148,0|0,0:2|0:2,0:0:0:0:
505,205,48175,6,0,B|393:224|393:224|374:116,1,222,4|0,3:3|0:0,0:2:0:0:
300,8,48621,1,4,0:3:0:0:
300,8,48710,2,0,B|286:81|286:81|214:69,1,148,0|0,3:2|0:2,0:0:0:0:
42,77,48978,2,0,P|75:137|143:123,1,148,4|0,0:3|0:2,0:2:0:0:
201,221,49246,6,0,B|153:208|115:229|147:247|109:269|67:256,1,148,4|0,3:3|0:2,0:2:0:0:
12,339,49514,2,0,L|158:360,1,148,4|0,0:3|0:2,0:2:0:0:
227,303,49782,1,0,3:2:0:0:
371,376,49960,1,4,0:3:0:0:
447,331,50050,2,0,P|461:263|400:230,1,148,0|0,0:2|0:2,0:0:0:0:
310,162,50317,6,4,B|358:149|396:170|364:188|402:210|444:197,1,148,4|0,3:3|0:3,0:3:0:0:
498,126,50585,1,0,0:2:0:0:
432,6,50764,1,4,0:3:0:0:
432,6,50853,2,0,B|418:79|418:79|346:67,1,148,0|0,3:2|1:2,0:2:0:0:
271,18,51121,2,0,B|198:5|198:5|185:79,1,148,0|0,1:2|0:0,0:0:0:0:
25,182,51389,6,0,P|35:152|137:144,1,148,4|0,3:2|0:2,0:2:0:0:
158,222,51657,2,0,L|184:77,1,148,4|0,0:3|0:2,0:2:0:0:
105,17,51925,5,0,3:2:0:0:
62,88,52058,1,4,0:3:0:0:
135,142,52192,5,0,0:2:0:0:
158,222,52326,1,0,0:2:0:0:
26,313,52460,6,0,B|57:207|57:207|187:248,1,222,4|0,3:3|0:2,0:0:0:0:
346,292,52907,1,0,0:0:0:0:
346,292,52996,2,0,B|419:313|419:313|444:230,1,148
251,192,53264,6,0,L|266:357,1,148,0|0,1:2|0:2,0:2:0:0:
264,339,53532,1,4,3:3:0:0:
496,149,53800,2,0,B|432:142|409:90|409:90|418:157|357:191,1,222,4|0,0:3|3:2,0:0:0:0:
140,100,54246,5,4,0:3:0:0:
140,100,54335,2,0,B|108:76|111:35|111:35|94:70|51:75,1,148
65,164,54603,2,0,B|131:179|185:134|127:112|210:64|268:96,1,222,4|0,3:3|0:2,0:2:0:0:
481,217,55050,5,4,0:3:0:0:
486,220,55139,2,0,B|507:147|507:147|424:122,1,148,0|0,3:2|0:2,0:2:0:0:
350,43,55407,2,0,B|277:22|277:22|252:105,1,148,0|0,1:2|0:2,0:2:0:0:
140,100,55675,6,0,L|173:257,1,148,4|0,3:3|0:0,0:2:0:0:
84,357,55942,2,0,L|53:212,1,148,4|0,0:3|0:0,0:0:0:0:
170,244,56210,6,0,P|208:264|249:251,1,74,0|0,3:2|0:2,0:2:0:0:
291,350,56389,1,4,0:3:0:0:
291,350,56478,2,0,P|327:327|336:285,1,74,0|0,0:2|0:2,0:2:0:0:
423,160,56657,1,0,0:2:0:0:
423,160,56746,2,0,L|461:386,1,222,4|0,3:3|0:0,0:2:0:0:
291,350,57192,5,4,0:3:0:0:
291,350,57282,2,0,L|141:325,1,148,0|0,3:2|0:2,0:2:0:0:
48,351,57550,2,0,L|66:252,1,74,4|0,1:3|0:0,0:2:0:0:
92,98,57728,5,0,0:2:0:0:
92,98,57817,2,0,P|11:115|35:178,1,148,4|0,3:3|0:2,0:2:0:0:
181,110,58085,2,0,P|206:31|140:20,1,148,4|0,0:3|0:2,0:2:0:0:
127,178,58353,6,0,L|146:341,1,148,0|4,3:2|0:3,0:2:0:0:
226,382,58621,2,0,L|245:219,1,148,0|0,0:2|0:2,0:2:0:0:
311,92,58889,5,4,3:3:0:0:
364,72,58978,1,0,0:0:0:0:
419,86,59067,1,0,0:2:0:0:
458,128,59156,1,0,1:2:0:0:
512,271,59335,5,0,1:2:0:0:
452,218,59425,2,0,P|370:241|398:299,1,148,0|0,3:2|1:2,0:2:0:0:
426,346,59692,2,0,B|385:356|348:337|372:319|329:293|281:311,1,148,0|0,1:2|0:2,0:2:0:0:
92,366,59960,6,2,P|144:318|128:249,1,148,4|0,3:2|0:0,0:1:0:0:
210,338,60228,2,0,P|142:317|127:249,1,148,4|2,1:3|0:1,0:0:0:0:
165,179,60496,1,0,3:2:0:0:
290,307,60675,5,4,0:3:0:0:
368,281,60764,2,0,P|438:283|470:346,1,148,2|0,1:1|0:2,0:0:0:0:
290,307,61031,6,2,L|266:125,1,148,4|0,3:3|0:0,0:1:0:0:
318,93,61299,1,0,1:2:0:0:
196,191,61478,1,4,0:3:0:0:
126,151,61567,2,2,B|53:139|53:139|40:210,1,148,0|0,3:2|0:2,0:1:0:0:
143,331,61835,6,0,L|295:306,1,148,2|0,1:3|0:2,0:0:0:0:
355,245,62103,2,0,P|423:267|403:345,1,148,4|0,3:3|0:2,0:2:0:0:
162,340,62371,6,0,L|314:315,1,148,6|0,1:3|0:2,0:0:0:0:
374,254,62639,2,0,P|442:276|422:354,1,148,0|4,3:2|0:3,0:2:0:0:
181,349,62907,6,0,L|333:324,1,148,2|0,1:3|0:2,0:0:0:0:
393,263,63175,2,0,P|461:285|441:363,1,148,4|0,3:3|0:2,0:2:0:0:
200,358,63442,6,0,L|352:333,1,148,2|4,1:3|0:3,0:0:0:0:
412,272,63710,2,0,P|480:294|460:372,1,148,0|0,3:2|0:2,0:2:0:0:
296,244,63978,2,2,B|260:235|260:235|243:196|256:159|293:142,1,148,6|0,1:3|0:2,0:1:0:0:
453,78,64246,6,2,P|386:96|386:166,1,148,4|0,3:3|0:0,0:1:0:0:
343,64,64514,2,0,P|402:98|385:165,1,148,4|2,1:3|0:1,0:0:0:0:
293,141,64781,1,4,3:3:0:0:
405,278,64960,1,0,0:2:0:0:
471,221,65050,2,0,B|483:188|483:188|460:151|421:142|386:165,1,148,2|0,1:1|0:2,0:0:0:0:
296,244,65317,6,6,L|149:223,1,148,4|0,3:3|0:0,0:1:0:0:
86,273,65585,1,0,1:3:0:0:
196,135,65764,1,4,0:3:0:0:
127,96,65853,2,2,B|54:115|54:115|71:185,1,148,0|0,3:2|0:2,0:1:0:0:
154,365,66121,6,0,B|200:381|239:364|208:342|248:324|290:340,1,148,2|0,1:3|0:2,0:0:0:0:
296,244,66389,2,0,B|264:312|264:312|330:343,1,148,4|0,3:3|0:2,0:2:0:0:
168,360,66656,6,0,B|214:376|253:359|222:337|262:319|304:335,1,148,6|0,1:3|0:2,0:0:0:0:
310,238,66924,2,0,B|278:305|278:305|343:336,1,148,0|4,3:2|0:3,0:2:0:0:
182,353,67192,6,0,B|228:369|267:352|236:330|276:312|318:328,1,148,2|0,1:3|0:2,0:0:0:0:
323,232,67460,2,0,B|291:299|291:299|356:330,1,148,0|0,3:2|0:2,0:2:0:0:
195,346,67728,6,0,B|241:362|280:345|249:323|289:305|331:321,1,148,2|4,1:3|0:3,0:0:0:0:
336,225,67996,2,0,B|304:292|304:292|369:323,1,148,0|0,3:2|0:2,0:2:0:0:
512,277,68264,6,0,B|514:241|514:241|483:212|443:213|415:243,1,148,2|0,1:3|0:2,0:2:0:0:
195,346,68531,1,4,3:2:0:0:
195,346,68710,1,0,0:2:0:0:
134,272,68799,6,0,P|66:258|33:319,1,148,4|0,0:3|0:2,0:2:0:0:
79,379,69067,1,0,3:2:0:0:
223,266,69246,1,4,0:3:0:0:
223,266,69335,2,0,B|247:103,1,148,0|0,0:2|0:2,0:0:0:0:
224,9,69603,6,0,B|114:31|114:31|135:139,1,222,4|0,3:3|0:2,0:0:0:0:
0,236,70049,1,4,0:3:0:0:
0,236,70139,2,0,B|48:223|86:244|54:262|92:284|134:271,1,148,0|0,0:2|0:2,0:2:0:0:
223,266,70406,6,0,P|303:259|318:332,1,148,0|0,1:2|0:2,0:2:0:0:
294,381,70674,5,4,0:3:0:0:
475,367,70853,1,0,0:2:0:0:
475,367,70942,2,0,B|497:333|488:294|452:271|452:271|418:283,1,148,4|0,0:3|0:2,0:0:0:0:
324,311,71210,2,0,L|345:142,1,148,0|4,3:2|0:3,0:2:0:0:
416,153,71478,2,0,B|372:158|338:130|373:117|340:90|291:94,1,148,0|0,0:2|0:0,0:0:0:0:
41,87,71746,6,0,P|91:10|208:58,1,222,4|0,0:3|0:0,0:0:0:0:
286,253,72192,1,4,0:3:0:0:
286,253,72281,2,0,B|358:234|358:234|341:163,1,148,0|0,3:2|0:2,0:2:0:0:
255,170,72549,6,0,L|65:149,1,148,0|0,1:2|0:2,0:2:0:0:
41,87,72817,5,4,3:3:0:0:
60,227,72996,1,0,0:2:0:0:
60,227,73085,6,0,P|104:174|168:202,1,148,4|0,0:3|0:2,0:2:0:0:
255,170,73353,2,0,P|323:182|330:251,1,148,0|4,3:2|0:3,0:2:0:0:
399,299,73621,1,0,0:2:0:0:
485,142,73800,1,0,0:2:0:0:
485,142,73889,6,0,B|420:131|402:77|402:77|396:137|340:163,1,222,4|0,3:3|0:2,0:2:0:0:
197,110,74335,1,4,0:3:0:0:
197,110,74424,2,0,B|220:261,1,148,0|0,0:0|0:2,0:0:0:0:
220,368,74692,2,0,P|159:314|91:328,1,148,4|0,1:3|0:2,0:2:0:0:
99,324,74960,6,0,B|148:324|179:294|144:284|175:253|219:255,1,148,4|0,3:3|0:2,0:2:0:0:
340,163,75228,2,0,B|389:162|420:192|385:202|416:233|460:231,1,148,4|0,0:3|0:2,0:2:0:0:
512,177,75496,1,0,3:2:0:0:
351,384,75674,5,4,0:3:0:0:
280,349,75764,2,0,P|266:281|327:248,1,148,0|0,0:2|0:2,0:2:0:0:
404,272,76032,6,0,B|420:264|440:268|440:268|420:259|412:243,1,74,4|0,3:3|0:2,0:2:0:0:
326,247,76210,2,0,B|247:231|247:231|268:130,1,177.599994580078,6|0,1:1|0:0,0:0:0:0:
422,72,76478,2,0,B|501:88|501:88|480:189,1,177.599994580078,6|0,1:1|0:2,0:0:0:0:
372,162,76746,5,0,1:2:0:0:
266,136,76835,2,2,B|215:144|178:115|205:91|159:60|96:88,1,177.599994580078,4|0,0:3|0:2,0:1:0:0:
0,170,77103,6,0,P|5:73|97:101,2,222,4|4|0,3:2|0:3|3:2,0:2:0:0:
7,297,77817,1,4,0:3:0:0:
7,297,77907,2,0,P|41:274|96:363,1,148,0|0,0:2|0:2,0:2:0:0:
211,378,78175,6,2,B|243:321|219:258|179:288|155:219|187:169,1,222,6|0,3:3|0:2,0:1:0:0:
147,71,78621,1,4,0:3:0:0:
146,71,78710,2,2,P|216:60|270:108,1,148,0|0,3:0|0:2,0:1:0:0:
445,220,78978,6,0,B|517:209|517:209|507:135,1,148,0|0,1:2|0:2,0:2:0:0:
408,140,79246,2,0,B|364:142|341:179|360:179|338:224|286:222,1,148,4|0,3:3|0:0,0:0:0:0:
199,346,79514,2,0,B|155:344|132:307|151:307|129:262|77:264,1,148,4|0,0:3|0:2,0:2:0:0:
19,186,79782,6,0,P|55:168|114:176,1,74,2|0,3:1|0:2,0:2:0:0:
128,83,79960,1,4,0:3:0:0:
128,83,80050,2,0,P|161:105|184:160,1,74,2|0,0:1|0:2,0:2:0:0:
271,125,80227,1,2,0:1:0:0:
271,125,80317,2,0,P|268:165|232:212,1,74,4|0,3:3|0:2,0:2:0:0:
171,221,80496,1,2,0:1:0:0:
512,382,80763,5,4,0:3:0:0:
512,382,80853,2,2,P|446:313|394:387,1,148,0|0,3:2|0:2,0:1:0:0:
323,381,81121,2,0,L|350:216,1,148,0|0,1:2|0:2,0:2:0:0:
512,182,81389,6,0,B|464:150|469:88|469:88|438:145|373:152,2,222,4|4|0,3:3|0:3|3:2,0:0:0:0:
346,234,82102,1,4,0:3:0:0:
346,234,82192,2,0,P|306:243|286:140,1,148,0|0,0:2|0:2,0:2:0:0:
315,102,82460,5,6,3:3:0:0:
82,227,82639,2,0,P|54:196|133:128,1,148,0|0,1:2|0:2,0:2:0:0:
161,27,82907,5,0,1:2:0:0:
187,99,82996,2,0,L|177:180,1,74,4|4,0:3|0:3,0:0:0:0:
252,319,83175,5,4,0:3:0:0:
202,294,83264,1,4,0:3:0:0:
147,293,83353,1,4,0:3:0:0:
97,316,83442,1,4,0:3:0:0:
62,358,83532,1,6,1:1:0:0:
100,168,85585,5,0,3:0:0:0:
139,291,85675,1,0,1:2:0:0:
139,291,85853,2,0,B|208:296|163:255|241:265,1,111,0|0,3:0|0:0,0:0:0:0:
339,317,86210,5,0,1:2:0:0:
327,275,86300,1,0,1:2:0:0:
347,238,86389,1,0,1:2:0:0:
426,209,86478,1,0,1:2:0:0:
446,172,86567,1,0,1:2:0:0:
434,130,86657,1,0,1:2:0:0:
356,77,86746,6,0,L|300:67,1,44.3999986450196,4|0,3:3|0:2,0:2:0:0:
186,120,87013,2,2,B|237:129|237:129|309:58|309:58|363:68,1,207.199993676758,4|0,1:2|0:2,0:1:0:0:
495,112,87281,2,0,B|472:128|474:157|474:157|463:132|433:129,1,103.599996838379,0|0,3:2|0:2,0:2:0:0:
302,198,87460,1,0,3:2:0:0:
302,198,87549,2,0,B|346:231|342:288|342:288|365:239|425:232,1,207.199993676758,0|0,1:2|0:2,0:2:0:0:
512,368,87817,2,0,P|479:326|428:325,1,103.599996838379,0|0,3:2|0:2,0:2:0:0:
268,341,87996,1,0,0:2:0:0:
268,341,88085,6,0,P|217:337|188:296,1,103.599996838379,0|0,1:2|0:0,0:0:0:0:
171,173,88263,2,0,P|187:269|100:313,1,207.199993676758,0|0,3:2|0:2,0:2:0:0:
25,269,88531,1,0,3:2:0:0:
25,269,88621,2,0,L|60:64,1,207.199993676758,2|0,1:3|3:2,0:2:0:0:
229,6,88888,6,0,B|250:50|250:50|213:89,1,103.599996838379,0|0,3:0|0:2,0:0:0:0:
171,173,89067,1,0,0:2:0:0:
171,173,89156,2,0,B|229:179|252:228|252:228|248:171|293:138,1,207.199993676758,2|0,1:3|0:2,0:2:0:0:
369,222,89424,2,0,P|273:182|170:173,1,207.199993676758,0|0,3:0|3:2,0:0:0:0:
58,223,89692,2,0,P|85:309|165:266,1,207.199993676758,2|0,1:3|0:2,0:2:0:0:
281,379,89960,6,0,L|77:339,1,207.199993676758,0|0,3:2|0:2,0:2:0:0:
77,339,90228,1,2,1:3:0:0:
259,281,90406,2,0,B|325:262|378:292|334:317|386:347|445:329,1,207.199993676758,0|0,3:3|0:2,0:2:0:0:
465,158,90674,1,0,3:2:0:0:
465,158,90763,2,0,B|406:151|383:102|383:102|387:159|342:192,1,207.199993676758,2|0,1:3|0:2,0:2:0:0:
262,86,91031,6,0,L|271:141,1,44.3999986450196,4|0,3:2|0:2,0:2:0:0:
242,60,91299,2,0,L|259:162,2,103.599996838379,2|2|2,1:2|0:2|0:2,0:0:0:0:
102,141,91567,2,0,B|155:150|155:150|199:241|199:241|250:250,1,207.199993676758,0|0,3:2|3:2,0:2:0:0:
381,292,91835,2,0,B|351:288|339:264|339:264|341:292|319:309,1,103.599996838379,0|0,1:2|0:2,0:2:0:0:
177,329,92013,1,0,0:2:0:0:
177,329,92103,6,0,P|279:338|375:378,1,207.199993676758,0|0,3:2|0:2,0:2:0:0:
455,340,92371,1,0,1:2:0:0:
422,210,92549,2,0,B|377:177|381:120|381:120|358:169|300:176,1,207.199993676758,0|0,3:2|0:2,0:2:0:0:
218,36,92817,1,0,3:2:0:0:
218,36,92906,2,0,P|268:39|297:80,1,103.599996838379,0|0,1:2|0:2,0:2:0:0:
213,190,93085,1,0,3:2:0:0:
213,190,93174,6,0,L|111:171,1,103.599996838379,0|0,0:0|0:2,0:0:0:0:
78,14,93353,1,0,3:2:0:0:
78,14,93442,2,0,B|87:67|87:67|17:139|17:139|26:190,1,207.199993676758,0|0,1:2|3:2,0:2:0:0:
0,324,93710,2,0,B|66:342|119:312|75:287|127:257|186:275,1,207.199993676758,0|0,3:0|3:2,0:0:0:0:
247,343,93978,1,0,1:2:0:0:
247,343,94156,1,0,0:2:0:0:
407,304,94246,6,0,B|367:266|367:266|323:287,1,103.599996838379,0|0,1:2|0:2,0:2:0:0:
185,182,94424,1,0,1:2:0:0:
185,182,94513,2,0,B|230:149|226:92|226:92|249:141|307:148,1,207.199993676758,0|4,1:2|3:2,0:2:0:0:
307,148,94960,1,4,3:2:0:0:
24,160,95228,6,2,B|77:169|77:169|121:260|121:260|172:269,1,207.199993676758,4|0,0:1|0:0,0:1:0:0:
148,384,95496,1,0,3:2:0:0:
148,384,95585,6,0,P|243:344|345:335,1,207.199993676758,0|0,1:2|0:2,0:2:0:0:
426,281,95853,2,2,B|381:248|385:191|385:191|362:240|304:247,1,207.199993676758,0|0,3:2|3:2,0:1:0:0:
219,106,96121,2,0,P|252:148|303:149,1,103.599996838379,0|0,1:2|0:2,0:2:0:0:
419,50,96299,1,0,0:2:0:0:
419,50,96388,6,0,L|214:15,1,207.199993676758,2|0,3:1|0:2,0:0:0:0:
100,29,96656,2,0,B|138:69|138:69|117:113,1,103.599996838379,0|0,1:2|0:0,0:0:0:0:
0,151,96835,2,2,P|95:134|140:220,1,207.199993676758,0|0,3:0|0:0,0:1:0:0:
45,319,97103,1,0,3:2:0:0:
45,319,97192,2,0,B|67:302|65:274|65:274|77:298|107:302,2,103.599996838379,0|0|0,1:2|0:2|3:2,0:2:0:0:
140,220,97460,6,0,P|235:259|337:268,1,207.199993676758,0|2,3:0|0:1,0:0:0:0:
500,248,97728,2,0,B|447:257|447:257|403:348|403:348|352:357,1,207.199993676758,0|0,1:2|0:2,0:2:0:0:
258,172,97996,2,0,P|285:86|365:129,1,207.199993676758,2|0,3:1|3:2,0:2:0:0:
444,78,98263,2,0,B|399:45|403:-12|403:-12|380:37|322:44,1,207.199993676758,0|0,1:2|0:0,0:0:0:0:
229,13,98531,6,0,L|127:31,1,103.599996838379,2|0,3:2|0:0,0:0:0:0:
41,53,98710,1,0,0:0:0:0:
41,53,98799,1,2,1:2:0:0:
258,172,98978,6,0,L|53:137,1,207.199993676758
27,285,99246,1,0,3:0:0:0:
27,285,99335,2,0,B|78:276|78:276|122:185|122:185|175:176,1,207.199993676758,0|0,1:2|3:2,0:2:0:0:
352,286,99603,6,0,B|294:293|271:342|271:342|275:285|230:252,1,207.199993676758,0|2,3:0|0:2,0:0:0:0:
154,334,99871,2,0,P|249:294|351:285,1,207.199993676758,2|2,1:2|0:2,0:2:0:0:
440,321,100138,1,2,3:2:0:0:
440,321,100317,1,2,3:2:0:0:
512,158,100406,2,0,B|453:176|401:146|445:121|392:91|326:109,1,207.199993676758,0|0,1:2|0:2,0:2:0:0:
164,89,100674,6,0,B|217:98|217:98|261:189|261:189|312:198,1,207.199993676758,2|0,3:2|0:2,0:2:0:0:
151,180,100942,2,0,B|98:189|98:189|54:280|54:280|3:289,1,207.199993676758,2|0,1:2|3:2,0:2:0:0:
96,371,101210,5,2,1:2:0:0:
138,383,101300,1,0,1:2:0:0:
175,363,101389,1,0,1:2:0:0:
241,301,101478,1,2,1:2:0:0:
278,281,101567,1,0,1:2:0:0:
320,293,101657,1,0,1:2:0:0:
393,343,101746,6,0,P|348:287|375:222,1,148,4|0,3:1|0:2,0:2:0:0:
471,147,102013,2,0,P|445:212|375:222,1,148,4|0,1:3|0:2,0:2:0:0:
327,159,102281,1,0,3:2:0:0:
199,237,102460,1,4,0:3:0:0:
241,301,102550,2,0,B|220:90,1,185,0|0,1:2|0:0,0:2:0:0:
170,47,102817,6,0,B|135:37|95:63|119:76|75:109|27:84,1,148,4|0,3:3|0:2,0:2:0:0:
0,21,103085,1,0,1:2:0:0:
154,165,103264,1,4,0:3:0:0:
230,133,103353,2,0,B|242:60|242:60|171:47,1,148,0|4,3:2|0:3,0:2:0:0:
0,107,103621,6,0,B|-12:155|8:193|26:161|48:199|35:241,1,148,6|0,1:3|0:2,0:0:0:0:
10,332,103889,2,0,P|42:271|110:286,1,148,4|0,3:3|0:2,0:2:0:0:
10,122,104157,6,0,B|-3:170|18:208|36:176|58:214|45:256,1,148,6|0,1:3|0:2,0:0:0:0:
18,346,104425,2,0,P|52:285|120:300,1,148,0|4,3:2|0:3,0:0:0:0:
20,137,104692,6,0,B|7:185|28:223|46:191|68:229|55:271,1,148,2|0,1:3|0:2,0:0:0:0:
28,361,104960,2,0,P|62:300|130:315,1,148,4|0,3:3|0:2,0:2:0:0:
30,152,105228,6,0,B|17:200|38:238|56:206|78:244|65:286,1,148,2|4,1:3|0:3,0:0:0:0:
38,376,105496,2,0,P|72:315|140:330,1,148,0|4,3:2|0:3,0:2:0:0:
315,292,105763,2,0,P|247:306|213:245,1,148,0|0,1:2|0:2,0:2:0:0:
140,69,106031,6,0,P|91:118|126:178,1,148,4|0,3:3|0:2,0:2:0:0:
213,245,106299,2,4,P|194:178|124:178,1,148,4|0,1:3|0:2,0:3:0:0:
68,233,106567,1,0,3:2:0:0:
228,160,106746,1,4,0:3:0:0:
302,194,106836,2,0,B|335:206|335:206|372:183|381:144|358:109,1,148,0|0,1:2|0:2,0:2:0:0:
252,14,107103,6,0,L|224:178,1,148,4|0,3:3|0:0,0:2:0:0:
213,245,107371,1,0,1:2:0:0:
393,305,107550,1,4,0:3:0:0:
396,223,107639,2,0,B|322:211|322:211|309:282,1,148,0|0,3:2|0:2,0:2:0:0:
222,359,107907,6,0,B|173:363|140:336|175:323|141:295|97:300,1,148,0|0,1:2|0:2,0:0:0:0:
47,366,108175,2,0,B|75:198,1,148,4|0,3:3|0:2,0:2:0:0:
233,346,108442,6,0,B|184:350|151:323|186:310|152:282|108:287,1,148,4|0,1:3|0:2,0:0:0:0:
58,353,108710,2,0,B|86:185,1,148,0|4,3:2|0:3,0:2:0:0:
244,333,108978,6,0,B|195:337|162:310|197:297|163:269|119:274,1,148,0|0,1:2|0:2,0:0:0:0:
69,340,109246,2,0,B|97:172,1,148,4|0,3:3|0:2,0:2:0:0:
255,320,109514,6,0,B|206:324|173:297|208:284|174:256|130:261,1,148,0|4,1:2|0:3,0:0:0:0:
80,327,109782,2,0,B|108:159,1,148,0|0,3:2|0:2,0:2:0:0:
91,44,110050,6,0,B|57:32|57:32|21:55|12:94|34:129,1,148,0|0,1:2|0:2,0:2:0:0:
215,245,110317,1,4,3:2:0:0:
459,152,112147,5,2,0:2:0:0:
442,164,112192,2,0,B|338:155|390:74|285:73,1,185,0|0,0:2|0:0,0:2:0:0:
268,86,112460,1,0,0:2:0:0:
7,270,113665,5,2,1:2:0:0:
7,270,114246,5,0,1:2:0:0:
76,223,114335,2,0,P|119:204|153:312,1,185,0|0,3:2|0:0,0:2:0:0:
152,320,114603,1,0,1:2:0:0:
152,320,116388,5,0,1:2:0:0:
320,300,116478,2,0,B|320:261|320:261|294:297,1,74,0|0,1:2|0:0,0:2:0:0:
288,371,116746,6,0,L|259:180,1,177.599994580078,0|0,3:2|0:2,0:2:0:0:
179,134,117192,2,0,P|136:114|112:202,1,155.399995257568,4|0,3:2|0:0,0:2:0:0:
261,195,117549,2,0,B|311:202|343:174|326:158|360:114|422:144,1,166.499994918823,0|0,3:2|0:0,0:2:0:0:
432,149,117817,5,0,3:2:0:0:
327,43,117996,2,0,P|263:53|275:116,1,133.199995935059,0|0,3:2|3:2,0:2:0:0:
261,195,118353,5,0,1:2:0:0:
218,194,118442,1,0,1:2:0:0:
193,228,118531,1,0,1:2:0:0:
123,184,118621,5,0,1:2:0:0:
103,232,118710,1,0,1:2:0:0:
124,281,118799,1,0,1:2:0:0:
209,314,118888,6,0,L|281:326,1,74,0|0,3:2|0:2,0:2:0:0:
287,342,119424,2,0,L|214:329,1,74,2|0,0:2|0:2,0:2:0:0:
276,217,119960,6,2,P|285:310|397:328,1,221.999993225098,4|0,0:1|0:2,0:1:0:0:
479,218,120496,2,2,P|503:254|503:298,1,88.7999972900391,4|0,0:1|0:0,0:1:0:0:
488,304,120763,2,0,P|463:267|463:223,1,88.7999972900391,0|0,0:0|0:2,0:0:0:0:
502,103,121031,6,0,B|451:88|403:115|443:138|396:164|337:148,1,177.6,4|2,0:2|1:2,0:2:0:0:
272,48,121299,2,0,B|313:33|313:33|357:61|368:108|341:150,1,177.599994580078,0|2,0:0|0:2,0:0:0:0:
194,153,121567,2,0,B|219:117|219:117|256:142,1,88.7999972900391,2|0,3:1|0:2,0:2:0:0:
242,227,121746,1,2,3:2:0:0:
242,227,121835,2,0,P|170:184|53:201,1,177.599994580078,2|2,1:1|0:1,0:2:0:0:
132,87,122103,5,2,3:1:0:0:
242,227,122281,1,0,0:2:0:0:
242,227,122371,2,0,P|174:278|180:363,1,177.6,0|2,1:2|0:1,0:0:0:0:
342,344,122639,5,0,3:2:0:0:
298,344,122728,1,0,0:0:0:0:
261,319,122817,1,0,1:2:0:0:
242,227,122906,6,0,B|268:186|257:139|213:111|213:111|171:125,1,177.599994580078,0|0,1:2|3:2,0:0:0:0:
100,221,123174,6,0,L|87:148,1,74,2|0,3:2|0:2,0:2:0:0:
72,143,123710,2,0,L|84:215,1,74,2|0,0:2|0:2,0:2:0:0:
111,56,124246,1,2,1:1:0:0:
167,289,124424,2,0,P|219:244|189:183,1,148
8,327,124692,5,0,3:0:0:0:
80,301,124781,2,0,L|155:321,1,74,2|2,1:2|0:2,0:0:0:0:
290,305,124960,5,2,0:2:0:0:
315,255,125049,1,2,0:2:0:0:
316,200,125138,1,2,0:2:0:0:
293,150,125227,1,2,0:2:0:0:
251,115,125317,1,4,3:2:0:0:
512,294,126388,6,0,L|391:275,1,111,2|2,0:3|0:2,0:0:0:0:
331,379,126835,1,0,0:0:0:0:
331,379,126924,2,0,L|324:297,1,74,2|0,0:3|0:0,0:0:0:0:
402,276,127192,2,0,L|415:200,1,74,2|0,0:3|0:0,0:0:0:0:
375,66,127460,6,2,L|369:23,2,37,2|2|2,1:2|0:2|0:2,0:2:0:0:
460,71,127728,2,2,L|465:107,2,37,2|2|2,1:2|0:2|3:2,0:2:0:0:
344,148,127996,5,2,1:2:0:0:
281,154,128085,1,2,1:2:0:0:
237,110,128174,1,2,1:2:0:0:
189,79,128263,1,2,1:2:0:0:
126,73,128352,1,2,1:2:0:0:
82,117,128441,1,2,1:2:0:0:
90,204,128531,6,0,L|100:260,1,44.3999986450196,4|0,3:2|0:2,0:2:0:0:
59,322,128798,2,2,B|83:105,1,207.199993676758,4|0,1:2|0:2,0:1:0:0:
254,79,129066,2,0,B|264:101|264:101|188:78,1,103.599996838379,0|0,3:3|0:2,0:2:0:0:
0,150,129245,1,0,3:2:0:0:
0,150,129334,2,0,B|44:183|40:240|40:240|63:191|123:184,1,207.199993676758,0|0,1:2|0:2,0:2:0:0:
346,94,129602,6,0,P|408:144|384:186,1,103.599996838379,0|0,3:3|0:2,0:2:0:0:
262,331,129781,1,0,0:2:0:0:
262,331,129870,2,0,P|247:281|275:240,1,103.599996838379,0|0,1:0|0:2,0:0:0:0:
406,155,130048,2,0,P|371:246|274:240,1,207.199993676758,0|0,3:2|0:0,0:0:0:0:
168,104,130316,1,0,3:2:0:0:
168,104,130406,2,0,P|133:12|36:18,1,207.199993676758,2|2,1:2|0:2,0:2:0:0:
0,150,130673,6,0,B|19:261,1,103.599996838379,2|0,3:3|0:2,0:2:0:0:
222,322,130852,1,0,0:2:0:0:
222,322,130941,2,0,B|177:289|181:232|181:232|158:281|100:287,1,207.199993676758,2|2,1:3|0:2,0:2:0:0:
16,348,131209,2,0,P|118:326|221:321,1,207.199993676758,2|2,3:3|3:2,0:2:0:0:
445,328,131477,6,0,P|418:242|338:285,1,207.199993676758,2|0,1:3|0:2,0:2:0:0:
318,384,131745,2,0,L|278:180,1,207.199993676758,2|0,3:3|0:2,0:2:0:0:
278,180,132013,1,2,1:3:0:0:
512,164,132191,2,0,P|432:119|404:206,1,207.199993676758,2|0,3:3|0:2,0:2:0:0:
266,266,132459,1,0,3:3:0:0:
266,266,132549,2,0,P|224:191|123:238,1,207.199993676758,0|0,1:2|0:2,0:2:0:0:
47,229,132816,6,0,L|56:284,1,44.3999986450196,4|0,3:2|0:2,0:2:0:0:
31,203,133084,2,0,L|48:305,2,103.599996838379,6|2|2,1:2|0:2|0:2,0:0:0:0:
161,321,133352,2,0,B|136:162|136:162|167:118,1,207.199993676758,2|0,3:2|3:3,0:2:0:0:
0,51,133620,6,0,P|41:84|103:69,1,103.599996838379,0|0,1:2|0:2,0:2:0:0:
241,189,133798,1,0,0:2:0:0:
241,189,133888,2,0,P|291:117|396:159,1,207.199993676758,0|0,3:3|0:2,0:2:0:0:
436,307,134156,1,0,1:0:0:0:
512,267,134334,6,0,B|467:234|471:177|471:177|448:226|390:233,1,207.199993676758,0|0,3:0|0:0,0:0:0:0:
257,344,134602,1,0,3:2:0:0:
257,344,134691,2,0,P|207:341|178:300,1,103.599996838379,0|0,1:2|0:2,0:2:0:0:
317,167,134870,1,0,0:2:0:0:
317,167,134959,6,0,L|298:269,1,103.599996838379,2|0,3:3|0:2,0:2:0:0:
116,384,135138,1,0,0:2:0:0:
116,384,135227,2,0,B|159:172,1,207.199993676758,2|0,1:3|0:2,0:2:0:0:
3,31,135495,2,0,P|-2:117|98:93,1,207.199993676758,2|0,3:3|3:2,0:2:0:0:
163,71,135763,1,2,1:3:0:0:
397,135,135941,5,0,0:2:0:0:
317,167,136031,2,0,B|296:123|296:123|334:83,1,103.599996838379,0|0,1:2|0:2,0:2:0:0:
498,51,136209,1,0,1:2:0:0:
498,51,136298,2,0,B|474:262,1,207.199993676758,0|4,1:2|3:2,0:2:0:0:
474,256,136745,5,4,3:2:0:0:
317,167,137013,6,2,B|264:176|264:176|220:267|220:267|169:276,1,207.199993676758,4|0,3:1|0:0,0:1:0:0:
47,144,137281,1,0,3:2:0:0:
47,144,137370,2,0,P|150:115|154:208,1,207.199993676758,0|0,1:2|0:2,0:2:0:0:
108,357,137638,2,2,P|31:281|109:232,1,207.199993676758,0|0,3:3|0:2,0:1:0:0:
251,295,137906,6,0,L|368:309,1,103.599996838379,0|0,1:2|0:2,0:2:0:0:
479,375,138084,1,0,0:2:0:0:
479,375,138173,2,0,L|444:170,1,207.199993676758,2|0,3:1|0:2,0:0:0:0:
435,67,138441,2,0,B|483:58|483:58|512:106,1,103.599996838379,0|0,1:2|0:0,0:0:0:0:
444,170,138620,2,2,B|378:184|341:147|368:124|316:91|251:113,1,207.199993676758,0|0,3:3|0:0,0:1:0:0:
146,63,138888,1,0,3:2:0:0:
146,63,138977,2,0,B|168:46|166:18|166:18|178:42|208:46,2,103.599996838379,0|0|0,1:2|0:2|0:2,0:2:0:0:
356,24,139245,6,0,P|335:123|314:269,1,207.199993676758,0|2,3:0|3:1,0:0:0:0:
385,307,139513,2,0,B|332:298|332:298|288:207|288:207|237:198,1,207.199993676758,0|0,1:2|0:2,0:2:0:0:
118,327,139781,2,0,P|197:371|225:284,1,207.199993676758,2|0,3:1|3:2,0:2:0:0:
142,235,140048,2,0,B|97:202|101:145|101:145|78:194|20:201,1,207.199993676758,0|0,1:2|0:0,0:0:0:0:
236,197,140316,6,0,L|338:179,1,103.599996838379,2|0,3:1|0:0,0:0:0:0:
430,164,140495,1,0,0:0:0:0:
430,164,140584,1,0,1:2:0:0:
229,107,140763,6,0,L|429:163,1,207.199993676758
512,341,141031,1,0,3:0:0:0:
512,341,141120,2,0,P|437:246|362:304,1,207.199993676758,0|0,1:2|0:2,0:2:0:0:
281,332,141388,6,0,B|176:312|176:312|194:185,1,207.199993676758,2|2,3:3|0:2,0:2:0:0:
286,154,141656,2,0,B|390:173|390:173|372:300,1,207.199993676758,2|2,1:2|0:2,0:2:0:0:
423,351,141923,1,0,3:3:0:0:
423,351,142102,5,2,3:2:0:0:
376,273,142191,2,0,B|310:287|273:250|300:227|248:194|183:216,1,207.199993676758,2|2,1:2|0:2,0:2:0:0:
10,226,142459,2,0,P|-6:200|112:160,1,207.199993676758,0|0,3:3|0:2,0:2:0:0:
220,299,142727,2,0,P|205:325|111:243,1,207.199993676758,2|0,1:2|3:2,0:2:0:0:
187,97,142995,5,0,1:2:0:0:
229,85,143085,1,0,1:2:0:0:
266,105,143174,1,0,1:2:0:0:
332,167,143263,1,0,1:2:0:0:
369,187,143352,1,0,1:2:0:0:
411,175,143442,1,0,1:2:0:0:
456,253,143531,6,0,P|399:295|408:365,1,148,4|0,3:2|0:2,0:2:0:0:
335,268,143799,2,0,P|400:295|408:365,1,148,4|0,1:3|0:2,0:2:0:0:
501,330,144067,1,0,3:2:0:0:
295,191,144245,1,4,0:3:0:0:
238,257,144335,2,0,B|205:270|205:270|168:246|159:207|182:173,1,148,0|0,1:3|0:2,0:2:0:0:
87,82,144602,6,0,B|159:95|159:95|147:168,1,148,4|0,3:3|0:2,0:2:0:0:
85,229,144870,1,0,1:2:0:0:
279,333,145048,1,4,0:3:0:0:
238,257,145138,2,0,P|177:289|190:357,1,148,0|0,3:2|3:2,0:2:0:0:
371,343,145406,6,0,B|383:295|363:257|345:289|323:251|336:209,1,148,2|0,1:3|0:2,0:0:0:0:
261,164,145674,2,0,P|329:178|361:118,1,148,4|0,3:3|0:2,0:2:0:0:
361,328,145942,6,0,B|374:280|353:242|335:274|313:236|326:194,1,148,6|0,1:3|0:2,0:0:0:0:
251,150,146210,2,0,P|319:164|352:103,1,148,0|4,3:2|0:3,0:2:0:0:
351,313,146477,6,0,B|364:265|343:227|325:259|303:221|316:179,1,148,2|0,1:3|0:2,0:0:0:0:
241,135,146745,2,0,P|309:149|342:88,1,148,4|0,3:3|0:2,0:2:0:0:
341,298,147013,6,0,B|354:250|333:212|315:244|293:206|306:164,1,148,2|4,1:3|0:3,0:0:0:0:
231,120,147281,2,0,P|299:134|332:73,1,148,0|0,3:2|3:2,0:2:0:0:
160,18,147548,2,0,B|146:90|146:90|73:78,1,148,0|0,1:2|0:0,0:0:0:0:
45,165,147816,6,0,P|102:207|93:277,1,148,4|0,3:2|0:2,0:2:0:0:
166,180,148084,2,0,P|101:207|93:277,1,148,4|0,1:3|0:2,0:2:0:0:
0,242,148352,1,0,3:2:0:0:
176,311,148530,1,4,0:3:0:0:
233,245,148620,2,0,B|266:233|266:233|303:256|312:295|289:330,1,148,0|0,1:2|0:2,0:2:0:0:
379,384,148888,6,0,P|322:342|331:272,1,148,4|0,3:3|0:2,0:2:0:0:
410,234,149156,1,0,1:2:0:0:
391,60,149334,1,4,0:3:0:0:
387,147,149423,2,0,B|460:159|460:159|473:86,1,148,0|0,3:2|3:2,0:2:0:0:
327,6,149691,2,0,B|254:-6|254:-6|240:66,1,148,4|0,1:3|0:2,0:0:0:0:
330,272,149959,1,4,3:2:0:0:
6,346,159602,5,0,1:2:0:0:
178,302,159781,1,0,1:0:0:0:
6,346,160048,5,0,1:2:0:0:
31,297,160137,1,0,3:2:0:0:
78,269,160226,1,0,3:2:0:0:
133,271,160315,1,0,1:2:0:0:
178,302,160405,1,0,1:2:0:0:
301,193,160584,5,0,3:2:0:0:
323,177,160673,2,0,P|330:122|296:97,1,88.7999972900391,4|0,0:3|0:2,0:2:0:0:
231,56,160941,2,0,P|275:89|313:72,1,88.7999972900391,4|0,0:3|0:2,0:2:0:0:
380,36,161209,2,0,P|328:57|324:99,1,88.7999972900391,0|4,3:2|0:3,0:2:0:0:
310,90,161477,5,0,0:2:0:0:
221,44,161656,1,0,0:2:0:0:
221,44,161745,1,4,0:3:0:0:
392,27,161923,1,0,0:0:0:0:
324,187,162191,1,4,0:3:0:0:
324,187,162281,1,4,0:3:0:0:
310,90,162458,1,0,1:2:0:0:
310,90,162548,1,0,1:2:0:0:
396,277,162727,5,0,0:2:0:0:
396,277,162816,2,2,P|347:232|237:255,1,177.599994580078,4|0,0:2|0:2,0:1:0:0:
143,365,163084,2,2,P|206:345|241:238,1,177.599994580078,0|0,1:2|0:2,0:1:0:0:
193,101,163352,2,2,P|178:165|253:249,1,177.599994580078,0|0,3:2|1:2,0:1:0:0:
243,246,163620,5,0,0:2:0:0:
27,147,163798,1,0,0:2:0:0:
37,225,163888,2,0,L|44:322,1,88.7999972900391,2|0,1:1|0:0,0:0:0:0:
146,178,164066,5,8,0:3:0:0:
127,239,164156,1,8,0:3:0:0:
243,246,164334,5,4,0:3:0:0:
227,280,164424,1,4,0:3:0:0:
322,317,164602,5,0,3:3:0:0:
311,326,164691,1,0,3:3:0:0:
512,186,164959,6,0,P|472:128|401:139,1,133.199995935059,4|4,3:1|0:3,0:2:0:0:
395,44,165406,1,0,0:2:0:0:
379,34,165495,2,0,P|308:39|282:106,1,133.199995935059,4|0,0:3|0:2,0:2:0:0:
189,105,165941,1,0,0:2:0:0:
188,127,166031,2,4,P|191:148|243:174,2,66.5999979675294,4|4|4,0:3|0:3|0:3,0:3:0:0:
315,166,166477,5,4,0:3:0:0:
315,166,166566,1,4,0:3:0:0:
87,126,166745,1,4,0:3:0:0:
87,126,166834,1,0,1:2:0:0:
169,346,167013,5,0,0:0:0:0:
169,332,167102,2,2,P|211:264|306:287,1,177.599994580078,4|0,3:2|0:2,0:1:0:0:
295,287,167370,1,0,1:2:0:0:
293,298,167459,1,0,1:2:0:0:
292,309,167548,1,0,1:2:0:0:
383,364,167638,2,2,P|462:362|490:268,1,177.599994580078,4|0,3:2|0:2,0:1:0:0:
491,265,167906,1,0,1:2:0:0:
489,254,167995,1,0,1:2:0:0:
488,243,168084,1,0,1:2:0:0:
425,175,168173,5,4,0:3:0:0:
426,163,168262,1,4,0:3:0:0:
427,152,168351,1,4,0:3:0:0:
429,141,168440,1,4,0:3:0:0:
476,56,168620,5,0,1:2:0:0:
365,75,168709,1,0,1:2:0:0:
360,249,168888,5,0,1:2:0:0:
249,230,168977,1,0,3:2:0:0:
29,61,169245,5,4,3:1:0:0:
123,23,169423,1,0,0:2:0:0:
132,33,169513,2,0,L|124:129,1,88.7999972900391,4|0,0:3|0:2,0:2:0:0:
54,154,169781,2,0,L|62:250,1,88.7999972900391,4|4,0:3|0:3,0:2:0:0:
61,242,170048,1,0,0:2:0:0:
187,277,170227,1,0,0:2:0:0:
187,277,170316,2,0,L|234:285,1,44.3999986450196,4|0,0:3|0:0,0:0:0:0:
323,301,170495,2,0,L|421:318,1,88.7999972900391,0|0,0:2|0:2,0:2:0:0:
505,332,170763,5,4,0:3:0:0:
505,332,170852,1,4,0:3:0:0:
322,302,171031,1,0,1:2:0:0:
322,302,171120,1,0,1:2:0:0:
508,72,171388,5,0,1:2:0:0:
465,119,171477,1,0,1:2:0:0:
400,115,171566,1,0,1:2:0:0:
405,194,171656,5,0,1:2:0:0:
341,179,171745,1,0,1:2:0:0:
313,123,171834,1,0,1:2:0:0:
258,52,171923,5,8,0:3:0:0:
236,48,172012,1,8,0:3:0:0:
214,44,172102,1,8,0:3:0:0:
163,101,172191,5,8,0:3:0:0:
141,104,172280,1,8,0:3:0:0:
119,108,172369,1,8,0:3:0:0:
34,73,172459,6,0,B|19:32|19:32|56:60,2,88.7999972900391,4|4|4,0:3|0:3|0:3,0:0:0:0:
220,194,172727,2,0,B|235:153|235:153|198:181,2,88.7999972900391,4|4|4,0:3|0:3|0:3,0:0:0:0:
104,196,172995,5,0,3:2:0:0:
101,207,173084,1,0,3:0:0:0:
98,218,173173,1,0,3:0:0:0:
96,229,173262,1,0,3:0:0:0:
94,241,173352,1,0,3:2:0:0:
91,252,173441,1,0,3:2:0:0:
71,329,173531,5,2,1:2:0:0:
256,192,176745,12,0,177772,0:0:0:0:
114,126,177816,6,2,B|150:119|150:119|181:54|181:54|219:48,1,148,2|0,3:2|0:2,0:1:0:0:
347,162,178352,6,2,B|297:167|277:209|277:209|280:160|242:131,1,177.599994580078,4|0,3:2|0:2,0:1:0:0:
242,131,178620,1,0,1:2:0:0:
278,209,178709,1,0,1:2:0:0:
226,277,178798,1,0,1:2:0:0:
142,268,178887,1,0,1:2:0:0:
384,323,179066,6,2,B|366:257|396:204|421:248|451:196|433:137,1,207.199993676758,4|0,3:2|0:2,0:1:0:0:
488,364,179334,2,2,P|464:307|384:322,1,155.399995257569,4|0,3:2|0:2,0:1:0:0:
384,322,179691,1,2,0:2:0:0:
106,239,179959,5,2,0:0:0:0:
142,156,180138,1,2,0:2:0:0:
106,239,180406,5,2,0:2:0:0:
142,156,180495,1,2,0:0:0:0:
106,239,180763,5,2,0:2:0:0:
142,156,181031,1,2,0:0:0:0:
106,239,181298,5,2,0:2:0:0:
142,156,181477,1,2,0:2:0:0:
142,156,181744,5,2,0:2:0:0:
199,227,181834,2,0,B|248:231|281:204|246:191|280:163|324:168,1,148,2|0,0:2|0:2,0:0:0:0:
403,197,182102,6,0,P|345:157|350:86,1,148,2|2,0:3|0:0,0:0:0:0:
426,51,182370,2,0,P|484:91|479:162,1,148,0|0,0:2|0:2,0:0:0:0:
499,310,182638,6,0,P|430:284|353:288,1,148,2|0,0:3|0:1,0:1:0:0:
280,322,182906,1,0,0:2:0:0:
280,322,183084,1,0,0:2:0:0:
199,207,183173,6,0,B|242:202|260:165|260:165|257:208|290:234,2,155.399995257569,2|0|0,0:3|0:0|0:0,0:0:0:0:
199,207,183888,2,0,P|148:210|118:243,1,88.8,2|0,0:2|0:2,0:0:0:0:
43,342,184245,6,0,L|24:239,1,103.599996838379,2|2,0:3|0:2,0:0:0:0:
68,161,184513,1,2,0:2:0:0:
263,384,184781,6,0,L|244:281,1,103.599996838379,2|2,0:3|0:2,0:0:0:0:
288,203,185049,1,2,0:3:0:0:
288,203,185316,5,8,0:3:0:0:
172,361,185495,5,4,0:3:0:0:
263,384,185584,1,0,0:0:0:0:
426,262,185763,5,4,0:3:0:0:
335,285,185852,1,4,0:3:0:0:
197,180,186031,5,4,0:3:0:0:
288,203,186120,1,4,0:3:0:0:
288,203,186388,5,0,0:2:0:0:
162,261,186566,2,0,P|111:205|125:132,1,155.399995257569,0|0,0:2|0:2,0:2:0:0:
68,71,186923,1,2,0:3:0:0:
207,123,187102,2,0,B|255:135|285:113|261:87|302:59|348:76,1,155.399995257569,0|0,0:2|0:2,0:0:0:0:
466,107,187459,6,0,P|465:57|356:85,1,207.199993676758,2|0,0:3|0:0,0:2:0:0:
296,144,187906,2,0,P|309:180|322:249,1,103.599996838379,0|0,0:2|0:0,0:0:0:0:
269,337,188173,2,0,P|295:289|397:314,1,155.399995257569,0|0,0:2|0:2,0:0:0:0:
385,296,188531,6,0,P|250:282|116:268,1,258.999992095948,2|0,0:3|0:2,0:2:0:0:
65,329,189066,2,0,P|45:295|52:228,1,103.599996838379,2|0,0:3|0:2,0:2:0:0:
188,212,189334,2,0,P|207:245|200:312,1,103.599996838379,2|0,0:3|0:2,0:2:0:0:
126,269,189602,2,0,P|176:180|160:65,1,207.199993676758,2|0,0:3|0:0,0:2:0:0:
229,30,190048,1,0,0:2:0:0:
229,30,190138,1,0,3:2:0:0:
313,121,190316,6,0,L|154:97,1,155.399995257569,2|0,0:2|0:2,0:2:0:0:
87,45,190673,5,4,0:2:0:0:
72,58,190941,1,2,0:2:0:0:
62,88,191209,1,2,3:2:0:0:
70,125,191477,1,2,0:2:0:0:
111,172,191745,1,2,0:2:0:0:
193,297,192013,5,2,0:2:0:0:
200,279,192102,1,2,0:2:0:0:
204,260,192191,1,2,0:2:0:0:
202,241,192281,2,2,B|345:275|293:138|443:178,1,258.999992095948,0|0,3:2|0:2,0:1:0:0:
500,102,192816,6,2,P|410:81|363:242,1,266.399991870117,4|0,3:2|3:2,0:1:0:0:
493,310,193173,1,0,1:2:0:0:
493,310,193263,1,0,1:2:0:0:
493,310,193352,2,2,P|488:251|341:256,1,222,0|0,1:2|3:2,0:1:0:0:
221,309,193709,1,0,1:2:0:0:
221,309,193799,1,0,1:2:0:0:
221,309,193888,2,2,P|278:322|327:218,1,177.6,0|0,1:2|3:2,0:1:0:0:
245,155,194245,5,0,1:2:0:0:
245,155,194334,1,0,1:2:0:0:
245,155,194423,2,2,L|253:216,1,59.2,0|0,1:2|3:2,0:1:0:0:
220,289,194691,5,0,1:2:0:0:
261,206,194781,1,0,1:2:0:0:
302,123,194870,1,0,1:2:0:0:
352,36,194959,6,2,L|263:24,1,88.7999972900391,0|0,3:2|0:2,0:1:0:0:
88,206,195138,2,2,L|-1:194,1,88.7999972900391,8|0,0:3|0:2,0:1:0:0:
175,74,195316,6,2,L|86:62,1,88.7999972900391,4|0,0:3|0:2,0:1:0:0:
263,180,195494,2,2,L|174:168,1,88.7999972900391,4|0,0:3|0:2,0:1:0:0:
276,103,195673,5,8,0:3:0:0:
79,177,195852,1,4,1:3:0:0:
433,223,196566,5,4,0:3:0:0:
433,223,197102,6,0,L|377:233,1,44.3999986450196,4|0,3:2|0:2,0:2:0:0:
263,180,197369,2,2,B|314:171|314:171|386:242|386:242|440:232,1,207.199993676758,4|0,1:2|0:2,0:1:0:0:
494,153,197638,2,0,B|471:137|473:108|473:108|462:133|432:136,1,103.599996838379,0|0,3:2|0:0,0:2:0:0:
287,265,197816,1,0,3:2:0:0:
287,265,197905,2,0,B|243:298|247:355|247:355|224:306|164:299,1,207.199993676758,0|0,1:2|0:0,0:0:0:0:
40,322,198173,6,0,B|78:283|78:283|57:239,1,103.599996838379,0|0,3:2|0:0,0:2:0:0:
103,164,198352,1,0,0:2:0:0:
103,164,198441,2,0,B|65:203|65:203|86:247,1,103.599996838379,0|0,1:2|0:0,0:0:0:0:
213,152,198620,2,0,P|110:142|15:102,1,207.199993676758,0|0,3:2|0:2,0:2:0:0:
172,64,198843,1,0,0:0:0:0:
172,64,198977,2,0,B|232:58|255:9|255:9|251:66|295:99,1,207.199993676758,2|0,1:3|0:2,0:2:0:0:
463,78,199245,6,0,P|412:82|382:122,1,103.599996838379,0|0,3:0|0:2,0:0:0:0:
351,316,199423,1,0,0:2:0:0:
351,316,199513,2,0,B|360:263|360:263|451:219|451:219|460:168,1,207.199993676758,2|0,1:3|0:2,0:2:0:0:
441,384,199781,2,0,P|345:344|243:334,1,207.199993676758,0|0,3:0|3:2,0:0:0:0:
79,289,200048,2,0,B|145:308|198:278|154:253|206:223|265:241,1,207.199993676758,2|0,1:3|0:2,0:2:0:0:
195,142,200316,6,0,B|150:109|154:52|154:52|131:101|73:107,1,207.199993676758,2|0,3:3|0:2,0:2:0:0:
115,197,200584,1,2,1:3:0:0:
271,58,200763,2,0,P|175:98|72:107,1,207.199993676758,2|0,3:3|0:2,0:2:0:0:
289,153,201031,1,0,3:2:0:0:
289,153,201121,2,0,L|494:188,1,207.199993676758,0|0,1:2|0:2,0:2:0:0:
398,286,201388,6,0,L|343:295,1,44.3999986450196,4|0,3:2|0:2,0:2:0:0:
424,266,201656,2,0,L|322:283,2,103.599996838379,2|2|2,1:2|0:2|0:2,0:0:0:0:
308,376,201923,2,0,B|257:367|257:367|213:276|213:276|160:267,1,207.199993676758,2|0,3:2|3:2,0:0:0:0:
104,186,202191,2,0,B|127:170|125:141|125:141|136:166|166:169,1,103.599996838379,0|0,1:2|0:2,0:2:0:0:
301,136,202370,1,0,0:2:0:0:
301,136,202459,6,0,P|205:176|102:185,1,207.199993676758,0|0,3:2|0:2,0:2:0:0:
38,130,202727,1,0,1:0:0:0:
258,51,202906,2,0,B|316:44|339:-5|339:-5|335:52|380:85,1,207.199993676758,0|0,3:2|0:2,0:2:0:0:
504,136,203173,1,0,3:2:0:0:
504,136,203263,2,0,P|424:91|396:178,1,207.199993676758,0|0,1:2|3:2,0:2:0:0:
245,232,203531,6,0,P|274:272|325:276,1,103.599996838379,0|0,3:0|0:2,0:0:0:0:
349,365,203709,1,0,3:2:0:0:
349,365,203798,2,0,B|330:299|360:246|385:290|415:238|397:179,1,207.199993676758,0|0,1:2|0:2,0:2:0:0:
413,36,204066,2,0,B|362:45|362:45|318:136|318:136|265:145,1,207.199993676758,0|0,3:0|3:2,0:0:0:0:
157,102,204334,2,0,P|236:57|264:144,1,207.199993676758,0|0,1:2|0:2,0:2:0:0:
105,230,204602,5,8,0:3:0:0:
112,211,204691,1,8,0:3:0:0:
126,196,204780,1,8,0:3:0:0:
144,186,204869,1,4,0:3:0:0:
164,183,204959,1,4,0:3:0:0:
184,186,205048,1,4,0:3:0:0:
189,191,205138,5,0,3:2:0:0:
176,265,205227,1,0,3:2:0:0:
163,340,205316,1,4,3:2:0:0:
163,340,205584,6,2,B|230:361|260:323|236:292|288:254|348:288,1,207.199993676758,4|0,3:2|0:0,0:1:0:0:
437,366,205852,1,0,3:2:0:0:
468,355,205941,2,0,P|492:305|467:257,1,103.599996838379,0|0,1:2|0:2,0:2:0:0:
338,158,206120,1,0,0:2:0:0:
325,140,206209,2,2,P|354:47|454:42,1,207.199993676758,0|0,3:2|3:2,0:1:0:0:
511,150,206477,2,0,L|393:114,1,103.599996838379,0|0,1:2|0:2,0:2:0:0:
272,221,206656,1,0,0:2:0:0:
272,221,206745,6,2,L|67:256,1,207.199993676758,0|0,3:2|0:2,0:1:0:0:
17,312,207013,2,0,B|-21:272|-21:272|0:228,1,103.599996838379,0|0,1:2|0:2,0:2:0:0:
139,144,207192,2,2,B|109:251|219:217|201:333,1,207.199993676758,0|0,3:2|0:2,0:1:0:0:
141,382,207460,1,0,3:2:0:0:
141,382,207549,2,0,B|114:372|92:389|92:389|105:366|92:339,2,103.599996838379,0|0|0,1:2|0:0|3:2,0:0:0:0:
211,232,207817,6,0,L|424:275,1,207.199993676758,0|0,3:0|3:2,0:0:0:0:
512,237,208085,2,0,B|461:246|461:246|417:337|417:337|364:346,1,207.199993676758,0|0,1:2|0:2,0:2:0:0:
211,232,208353,2,2,P|257:187|331:280,1,207.199993676758,0|0,3:2|3:2,0:1:0:0:
363,346,208620,2,0,L|398:141,1,207.199993676758,0|0,1:2|3:2,0:2:0:0:
211,232,208888,6,0,L|109:250,1,103.599996838379,2|0,3:1|0:0,0:0:0:0:
25,268,209067,1,0,0:0:0:0:
25,268,209156,1,0,1:2:0:0:
0,123,209335,6,0,B|58:116|81:67|81:67|77:124|122:157,1,207.199993676758
211,232,209603,1,0,0:0:0:0:
212,232,209692,2,0,B|265:223|265:223|309:132|309:132|360:123,1,207.199993676758,0|0,1:2|0:2,0:2:0:0:
512,83,209960,6,0,B|467:50|471:-7|471:-7|448:42|390:49,1,207.199993676758,0|2,3:0|3:2,0:0:0:0:
228,117,210228,2,0,P|330:137|422:185,1,207.199993676758,2|2,1:2|3:2,0:2:0:0:
501,166,210495,1,2,3:2:0:0:
501,166,210674,1,2,3:2:0:0:
459,326,210763,2,0,P|377:365|361:273,1,207.199993676758,2|0,1:2|1:2,0:2:0:0:
228,117,211031,6,2,B|166:139|120:66|169:85|130:0|52:25,1,207.199993676758,0|0,3:2|0:2,0:1:0:0:
4,150,211298,2,2,P|91:189|132:100,1,207.199993676758,0|0,1:2|3:2,0:1:0:0:
292,62,211566,2,2,B|350:55|373:6|373:6|369:63|414:96,1,207.199993676758,0|0,0:2|3:2,0:1:0:0:
485,33,211834,6,2,P|515:73|508:123,1,103.599996838379,0|0,1:2|0:2,0:1:0:0:
377,300,212013,2,0,L|422:49,1,207.199993676758,0|0,0:2|0:0,0:0:0:0:
291,63,212281,5,0,0:2:0:0:
268,75,212370,2,0,P|246:121|263:169,1,103.599996838379,0|0,1:2|0:2,0:2:0:0:
183,213,212548,1,0,0:2:0:0:
183,239,212637,2,0,P|211:281|261:290,1,103.599996838379,2|2,3:2|0:2,0:0:0:0:
509,370,212816,5,2,3:2:0:0:
503,342,212905,2,0,P|470:303|420:298,1,103.599996838379,2|2,1:2|0:2,0:0:0:0:
351,224,213084,1,2,0:2:0:0:
324,221,213173,2,0,P|278:242|260:289,1,103.599996838379,2|0,3:2|0:0,0:2:0:0:
154,335,213352,5,0,0:2:0:0:
84,371,213441,2,2,P|3:264|53:202,1,207.199993676758,0|2,1:2|1:1,0:1:0:0:
25,116,213709,5,0,1:2:0:0:
75,119,213798,1,0,1:2:0:0:
110,155,213887,1,0,1:2:0:0:
169,210,213977,5,0,1:2:0:0:
219,207,214066,1,0,1:2:0:0:
254,171,214155,1,0,1:2:0:0:
313,97,214245,6,2,P|349:48|461:180,1,296,4|0,3:2|0:2,0:1:0:0:
344,229,214781,6,2,B|281:249|225:198|272:168|205:123|138:159,1,221.999993225098,4|0,3:2|0:2,0:1:0:0:
0,286,215316,6,2,P|28:219|117:254,1,177.599994580078,4|0,3:2|0:2,0:1:0:0:
196,340,215763,5,2,3:2:0:0:
238,273,215852,2,0,L|228:192,1,74,6|2,1:2|0:2,0:0:0:0:
137,26,216031,5,2,0:2:0:0:
172,68,216121,1,2,0:2:0:0:
222,91,216210,1,2,0:2:0:0:
277,90,216299,1,2,0:2:0:0:
327,65,216388,1,6,1:2:0:0:
327,65,218263,5,4,0:3:0:0:
396,133,218531,6,0,P|339:175|348:245,1,148,4|0,3:1|0:2,0:2:0:0:
275,148,218799,2,0,P|340:175|348:245,1,148,4|0,0:3|0:2,0:2:0:0:
248,233,219067,1,0,3:2:0:0:
460,263,219245,1,4,0:3:0:0:
403,329,219335,2,0,B|370:342|370:342|333:318|324:279|347:245,1,148,0|0,0:2|0:2,0:2:0:0:
252,320,219602,6,0,P|219:381|151:367,1,148,4|0,3:3|0:0,0:2:0:0:
101,300,219870,1,0,0:2:0:0:
159,125,220048,1,4,0:3:0:0:
238,159,220137,2,0,B|250:232|250:232|179:245,1,148,0|4,3:2|0:3,0:2:0:0:
5,20,220406,6,0,B|1:69|28:102|41:67|69:101|64:145,1,148,6|0,0:3|0:2,0:0:0:0:
159,125,220674,2,0,B|85:112|85:112|72:184,1,148,4|0,3:3|0:2,0:2:0:0:
14,32,220941,6,0,B|10:81|37:114|50:79|78:113|73:157,1,148,6|0,0:3|0:2,0:0:0:0:
168,137,221209,2,0,B|95:124|95:124|82:195,1,148,0|4,3:2|0:3,0:2:0:0:
24,43,221477,6,0,B|20:92|47:125|60:90|88:124|83:168,1,148,2|0,0:3|0:2,0:0:0:0:
178,148,221745,2,0,B|105:135|105:135|92:206,1,148,4|0,3:3|0:2,0:2:0:0:
34,54,222013,6,0,B|30:103|57:136|70:101|98:135|93:179,1,148,2|4,0:3|0:3,0:0:0:0:
188,159,222281,2,0,B|115:146|115:146|102:217,1,148,0|4,3:2|0:3,0:2:0:0:
194,17,222548,6,0,P|227:78|295:64,1,148,2|0,1:3|0:2,0:0:0:0:
450,91,222816,6,0,P|418:152|350:138,1,148,4|0,3:3|0:2,0:2:0:0:
440,201,223084,2,0,P|419:136|350:138,1,148,4|0,0:3|0:2,0:2:0:0:
275,189,223352,1,0,3:2:0:0:
444,286,223531,1,4,0:3:0:0:
385,352,223620,2,0,B|339:368|300:351|331:329|291:311|249:327,1,148,0|0,0:0|0:2,0:2:0:0:
93,354,223888,6,0,B|126:367|126:367|163:343|172:304|149:270,1,148,4|0,3:3|0:0,0:2:0:0:
57,270,224156,1,0,0:2:0:0:
188,97,224334,1,4,0:3:0:0:
149,176,224424,2,0,P|78:184|37:127,1,148,0|4,3:2|0:3,0:2:0:0:
228,17,224691,6,0,B|276:5|314:25|282:43|320:65|362:52,1,148,2|0,1:2|0:2,0:0:0:0:
407,127,224959,2,0,P|393:59|453:27,1,148,4|0,3:3|0:2,0:2:0:0:
243,27,225227,6,0,B|291:14|329:35|297:53|335:75|377:62,1,148,6|0,0:3|0:2,0:0:0:0:
421,137,225495,2,0,P|407:69|468:36,1,148,0|4,3:0|0:3,0:0:0:0:
258,37,225762,6,0,B|306:24|344:45|312:63|350:85|392:72,1,148,2|0,0:3|0:2,0:0:0:0:
436,147,226030,2,0,P|422:79|483:46,1,148,4|0,3:3|0:2,0:2:0:0:
273,47,226298,6,0,B|321:34|359:55|327:73|365:95|407:82,1,148,2|0,0:3|1:2,0:0:0:0:
484,187,226566,5,0,1:2:0:0:
442,175,226656,1,0,1:2:0:0:
405,195,226745,1,0,1:2:0:0:
376,274,226834,1,0,1:2:0:0:
339,294,226923,1,0,1:2:0:0:
297,282,227013,1,0,1:2:0:0:
244,211,227102,6,0,B|228:267|254:313|275:275|301:320|286:371,1,177.599994580078,4|0,3:3|0:2,0:2:0:0:
154,316,227370,2,0,P|234:294|244:211,1,177.599994580078,0|0,1:3|0:2,0:2:0:0:
169,164,227638,2,0,L|74:180,1,88.7999972900391,0|0,3:2|0:2,0:2:0:0:
12,52,227816,1,4,0:3:0:0:
12,52,227906,2,0,B|63:46|83:3|83:3|80:53|119:82,1,177.599994580078,0|0,1:2|0:2,0:2:0:0:
251,122,228173,6,0,B|307:137|353:111|315:90|360:64|411:79,1,177.599994580078,0|0,3:2|0:0,0:2:0:0:
481,135,228441,1,0,1:2:0:0:
422,294,228620,1,4,0:3:0:0:
504,265,228709,2,0,P|420:255|399:174,1,177.599994580078,0|4,3:2|0:3,0:2:0:0:
334,289,228977,6,0,B|282:294|262:337|262:337|265:287|230:261,1,177.599994580078,0|0,1:2|0:2,0:0:0:0:
196,269,229245,2,0,P|239:345|160:347,1,177.599994580078,0|0,3:2|0:2,0:2:0:0:
322,272,229513,6,0,B|270:277|250:320|250:320|253:270|218:244,1,177.599994580078,0|0,1:2|0:2,0:0:0:0:
184,252,229781,2,0,P|227:328|148:330,1,177.599994580078,0|4,3:2|0:3,0:2:0:0:
310,255,230048,6,0,B|258:260|238:303|238:303|241:253|206:227,1,177.599994580078,0|0,1:2|0:2,0:0:0:0:
172,235,230316,2,0,P|215:311|136:313,1,177.599994580078,0|0,3:2|0:2,0:2:0:0:
298,238,230584,6,0,B|246:243|226:286|226:286|229:236|194:210,1,177.599994580078,0|4,1:2|0:3,0:0:0:0:
160,218,230852,2,0,P|203:294|124:296,1,177.599994580078,0|0,3:2|0:2,0:2:0:0:
47,333,231120,2,0,L|81:155,1,177.599994580078,0|0,1:2|0:2,0:2:0:0:
37,84,231388,1,0,3:2:0:0:
269,152,231566,5,0,1:2:0:0:
269,152,231656,2,0,B|325:167|371:141|333:120|378:94|429:109,1,177.599994580078,0|0,0:2|3:2,0:2:0:0:
486,244,231923,2,0,B|434:238|414:195|414:195|417:245|382:271,1,177.599994580078,0|0,1:2|1:2,0:2:0:0:
452,328,232191,2,0,P|371:295|283:294,1,177.599994580078,0|0,1:2|1:2,0:0:0:0:
175,262,232459,6,0,P|196:300|189:343,1,88.7999972900391,0|0,3:2|0:2,0:2:0:0:
100,359,232638,1,0,1:2:0:0:
100,359,232727,2,0,P|79:321|87:279,1,88.7999972900391,0|0,3:3|0:2,0:2:0:0:
147,172,232906,1,0,1:2:0:0:
153,179,232995,5,0,1:2:0:0:
227,192,233084,1,0,1:2:0:0:
302,205,233173,1,0,1:2:0:0:
307,216,233263,5,0,1:2:0:0:
381,203,233352,1,0,1:2:0:0:
456,190,233441,1,0,1:2:0:0:
505,281,233531,1,0,1:2:0:0:
154,178,235406,6,0,L|162:225,1,44.3999986450196,4|2,0:2|0:0,0:1:0:0:
