osu file format v14

[General]
AudioFilename: audio.mp3
AudioLeadIn: 0
PreviewTime: 86300
Countdown: 0
SampleSet: Soft
StackLeniency: 0.3
Mode: 0
LetterboxInBreaks: 0
WidescreenStoryboard: 0

[Editor]
Bookmarks: 1166,25675,42817,59960,68532,77103,86746,101746,110317,118888,128531,143531,152102,160673,162816,164959,167102,169245,171388,173531,177816,186388,197102,209959,218531,227102,235406,235941
DistanceSpacing: 1.3
BeatDivisor: 6
GridSize: 32
TimelineZoom: 3.079999

[Metadata]
Title:Saga Jihen
TitleUnicode:佐賀事変
Artist:Hoshimachi Suisei with Hololive Fantasy
ArtistUnicode:星街すいせい with ホロライブファンタジー
Creator:Amateurre
Version:Redemption
Source:ゾンビランドサガ
Tags:Zombieland Zombie Land Saga ベストアルバム Best Album フランシュシュ Franchouchou Hosimati Hoshimati Hosimachi 三期生 3rd Generation 兎田ぺこら Usada Pekora 潤羽るしあ Uruha Rushia 白銀ノエル Shirogane Noel Danchou 不知火フレア Shiranui Flare 宝鐘マリン Houshou Marine Senchou Cover Production Full Version Idol ホロライブ Anime Japanese JPop J-Pop Jazz Rock Swing Mir LeCandy Shizuku- Kazato Asa Shikibe Mayu newton- Deppyforce Asagi Mocaotic
BeatmapID:2887762
BeatmapSetID:1399793

[Difficulty]
HPDrainRate:5.8
CircleSize:4
OverallDifficulty:9
ApproachRate:9.6
SliderMultiplier:2.4
SliderTickRate:1

[Events]
//Background and Video events
0,0,"chikiran.jpg",0,0
Video,0,"Saga Jihen.mp4"
//Break Periods
//Storyboard Layer 0 (Background)
//Storyboard Layer 1 (Fail)
//Storyboard Layer 2 (Pass)
//Storyboard Layer 3 (Foreground)
//Storyboard Layer 4 (Overlay)
//Storyboard Sound Samples

[TimingPoints]
1166,535.714285714286,4,2,1,45,1,0
1255,655.737704918033,4,2,1,45,1,0
1364,535.714285714286,4,2,1,45,1,0
4082,500,4,2,1,45,1,0
4582,480,4,2,1,45,1,0
5142,491.803278688525,4,2,1,45,1,0
6699,491.803278688525,4,2,1,45,1,0
6780,402.684563758389,4,2,1,45,1,0
6981,413.793103448276,4,2,1,45,1,0
7601,454.545454545455,4,2,1,45,1,0
7828,461.538461538462,4,2,1,45,1,0
10674,487.80487804878,4,2,1,45,1,0
11080,517.241379310345,4,2,1,45,1,0
11424,500,4,2,1,45,1,0
11840,476.190476190476,4,2,1,65,1,0
12316,495.867768595041,4,2,1,45,1,0
12977,487.80487804878,4,2,1,85,1,0
14440,461.538461538462,4,2,1,95,1,0
14593,444.444444444444,4,2,1,45,1,0
14741,444.444444444444,4,2,1,45,1,0
15259,618.556701030928,4,2,1,45,1,0
15362,714.285714285714,4,2,1,45,1,0
15719,689.655172413793,4,2,1,45,1,0
16753,530.973451327434,4,2,1,45,1,0
16841,425.531914893617,4,2,1,45,1,0
17408,425.531914893617,4,2,1,45,1,0
18684,441.176470588235,4,2,1,45,1,0
19125,441.176470588235,4,2,1,45,1,0
19492,458.015267175573,4,2,1,45,1,0
19873,458.015267175573,4,2,1,45,1,0
20254,465.116279069767,4,2,1,45,1,0
22191,487.80487804878,4,2,1,45,1,0
22841,496.894409937888,4,2,1,45,1,0
23586,465.116279069767,4,2,1,45,1,0
24748,465.116279069767,4,2,1,50,1,0
25290,606.060606060606,4,2,1,50,1,0
25391,568.181818181818,4,2,1,50,1,0
25675,267.857142857143,4,2,1,50,1,0
25675,-166.666666666667,4,2,1,50,0,0
32907,-200,4,2,1,60,0,0
34246,-83.3333333333333,4,2,1,60,0,0
34692,-125,4,2,1,60,0,0
38532,-83.3333333333333,4,2,1,60,0,0
38978,-125,4,2,1,60,0,0
44692,-71.4285714285714,4,2,1,60,0,0
45228,-125,4,2,1,60,0,0
46835,-71.4285714285714,4,2,1,60,0,0
47371,-125,4,2,1,60,0,0
49246,-71.4285714285714,4,2,1,60,0,0
49782,-125,4,2,1,60,0,0
55407,-71.4285714285714,4,2,1,60,0,0
55675,-125,4,2,1,60,0,0
57550,-71.4285714285714,4,2,1,60,0,0
57817,-100,4,2,1,60,0,0
58889,-71.4285714285714,4,2,1,60,0,0
59692,-100,4,2,1,60,0,0
59960,-83.3333333333333,4,2,1,60,0,0
60407,-125,4,2,1,60,0,0
64246,-83.3333333333333,4,2,1,60,0,0
64692,-125,4,2,1,60,0,0
70407,-71.4285714285714,4,2,1,60,0,0
70942,-125,4,2,1,60,0,0
72550,-71.4285714285714,4,2,1,60,0,0
73085,-125,4,2,1,60,0,0
74960,-100,4,2,1,60,0,0
76032,-71.4285714285714,4,2,1,60,0,0
77103,-125,4,2,1,60,0,0
78175,-83.3333333333333,4,2,1,60,0,0
78621,-125,4,2,1,60,0,0
78978,-83.3333333333333,4,2,1,60,0,0
79246,-125,4,2,1,60,0,0
85808,-250,4,2,1,60,0,0
86746,267.857142857143,4,2,1,85,1,0
86746,-400,4,2,1,85,0,0
87013,-66.6666666666667,4,2,1,85,0,1
91031,-100,4,2,1,85,0,1
91567,-66.6666666666667,4,2,1,85,0,1
94692,-55.5555555555556,4,2,1,85,0,1
95585,-66.6666666666667,4,2,1,85,0,1
96835,-83.3333333333333,4,2,1,85,0,1
97192,-133.333333333333,4,2,1,85,0,1
97638,-66.6666666666667,4,2,1,85,0,1
99335,-133.333333333333,4,2,1,85,0,1
100406,-100,4,2,1,85,0,1
100942,-80,4,2,1,85,0,1
101746,-125,4,2,1,60,0,0
105763,-83.3333333333333,4,2,1,60,0,0
106031,-125,4,2,1,60,0,0
110049,-83.3333333333333,4,2,1,60,0,0
110317,-125,4,2,1,60,0,0
111388,-200,4,2,1,60,0,0
112192,-125,4,2,1,60,0,0
113531,-200,4,2,1,60,0,0
114290,-125,4,2,1,60,0,0
114871,-200,4,2,1,60,0,0
116746,-111.111111111111,4,2,1,60,0,0
117192,-142.857142857143,4,2,1,60,0,0
117549,-200,4,2,1,60,0,0
118888,-500,4,2,1,60,0,0
119960,-100,4,2,1,60,0,0
121031,-125,4,2,1,60,0,0
123085,-500,4,2,1,60,0,0
124246,-100,4,2,1,60,0,0
125853,-500,4,2,1,45,0,0
126388,-500,4,2,1,20,0,0
127460,-100,4,2,1,45,0,0
127996,-100,4,2,1,55,0,0
128531,267.857142857143,4,2,1,85,1,0
128531,-500,4,2,1,85,0,0
128798,-66.6666666666667,4,2,1,85,0,1
129781,-125,4,2,1,85,0,1
130048,-66.6666666666667,4,2,1,85,0,1
132816,-100,4,2,1,85,0,1
133084,-66.6666666666667,4,2,1,85,0,1
134066,-100,4,2,1,85,0,1
134423,-66.6666666666667,4,2,1,85,0,1
138977,-100,4,2,1,85,0,1
139423,-66.6666666666667,4,2,1,85,0,1
141522,-83.3333333333333,4,2,1,85,0,1
143531,-125,4,2,1,60,0,0
149959,-200,4,2,1,60,0,0
150138,-200,4,2,1,50,0,0
152102,-166.666666666667,4,2,1,50,0,0
159602,-166.666666666667,4,2,1,70,0,0
162816,-76.9230769230769,4,2,1,85,0,1
164959,-76.9230769230769,4,2,1,75,0,0
165495,-90.9090909090909,4,2,1,75,0,0
166031,-111.111111111111,4,2,1,75,0,0
167102,-76.9230769230769,4,2,1,85,0,1
169245,-100,4,2,1,75,0,0
169781,-66.6666666666667,4,2,1,75,0,0
170048,-100,4,2,1,75,0,0
170763,-166.666666666667,4,2,1,75,0,0
171388,-100,4,2,1,75,0,1
173531,-100,4,2,1,40,0,0
173798,-100,4,2,1,40,0,0
176745,-200,4,2,1,45,0,0
177816,-125,4,2,1,85,0,0
178352,-66.6666666666667,4,2,1,85,0,0
179066,-50,4,2,1,85,0,0
179334,-133.333333333333,4,2,1,85,0,0
179691,-133.333333333333,4,2,1,35,0,0
182102,-133.333333333333,4,2,1,50,0,0
186388,-200,4,2,1,60,0,0
192013,-125,4,2,1,70,0,0
192281,-166.666666666667,4,2,1,70,0,0
192816,-100,4,2,1,70,0,0
193352,-142.857142857143,4,2,1,70,0,0
193888,-166.666666666667,4,2,1,70,0,0
194245,-200,4,2,1,70,0,0
194959,-76.9230769230769,4,2,1,70,0,0
197102,-500,4,2,1,70,0,0
197370,-50,4,2,1,70,0,1
197638,-66.6666666666667,4,2,1,70,0,1
201388,-100,4,2,1,70,0,1
201923,-66.6666666666667,4,2,1,70,0,1
207727,-100,4,2,1,70,0,1
208084,-66.6666666666667,4,2,1,70,0,1
209691,-100,4,2,1,70,0,1
210673,-80,4,2,1,70,0,1
211031,-66.6666666666667,4,2,1,70,0,1
211566,-83.3333333333333,4,2,1,70,0,1
212102,-66.6666666666667,4,2,1,70,0,1
214245,-125,4,2,1,70,0,1
216388,-125,4,2,1,70,0,0
218531,-125,4,2,1,60,0,0
227102,-83.3333333333333,4,2,1,70,0,0
227906,-125,4,2,1,70,0,0
228173,-83.3333333333333,4,2,1,70,0,0
228709,-100,4,2,1,70,0,0
233798,-100,4,2,1,45,0,0
235406,-83.3333333333333,4,2,1,85,0,0
235673,-83.3333333333333,4,2,1,5,0,0

[Colours]
Combo1 : 255,211,168
Combo2 : 168,211,255
Combo3 : 255,168,168
Combo4 : 168,255,168

[HitObjects]
0,208,25290,5,4,0:3:0:0:
122,152,25391,2,0,P|119:113|82:91,1,80,0|0,1:2|0:2,0:2:0:0:
68,91,25675,5,4,1:2:0:0:
211,338,25942,2,0,B|250:352|285:326|262:310|310:291|342:308,1,143.999995605469,4|0,0:3|0:2,0:2:0:0:
432,307,26389,1,4,0:3:0:0:
441,315,26478,2,0,P|481:292|477:244,1,95.9999970703126,4|0,0:3|0:2,0:2:0:0:
377,239,26746,6,0,P|385:291|398:406,1,143.999995605469,4|0,0:3|0:2,0:2:0:0:
271,281,27192,1,4,0:3:0:0:
265,269,27281,2,0,P|271:212|279:159,1,95.9999970703126,4|0,0:3|0:2,0:2:0:0:
363,157,27550,2,0,P|357:100|349:47,1,95.9999970703126,4|0,0:3|0:2,0:2:0:0:
412,11,27817,5,4,0:3:0:0:
173,146,28085,2,0,P|106:139|104:63,1,143.999995605469,4|0,0:3|0:2,0:2:0:0:
155,18,28532,1,4,0:3:0:0:
164,27,28621,2,0,P|215:37|278:53,1,95.9999970703126,4|0,0:3|0:2,0:2:0:0:
418,151,28889,6,0,P|340:161|264:176,1,143.999995605469,4|0,0:3|0:2,0:2:0:0:
155,275,29335,1,4,0:3:0:0:
164,283,29424,2,0,P|204:260|200:212,1,95.9999970703126,4|0,0:3|0:2,0:2:0:0:
214,112,29692,2,0,P|166:102|120:91,1,95.9999970703126,4|0,0:3|0:2,0:2:0:0:
15,125,29960,5,4,0:3:0:0:
53,383,30228,2,0,P|66:307|78:229,1,143.999995605469,4|0,0:3|0:2,0:2:0:0:
155,275,30675,1,4,0:3:0:0:
164,283,30764,2,0,P|214:289|296:303,1,95.9999970703126,4|0,0:3|0:2,0:2:0:0:
470,358,31032,6,0,P|442:282|357:331,1,191.999994140625,4|0,0:3|0:0,0:2:0:0:
373,328,31478,1,4,0:3:0:0:
393,315,31567,2,0,L|411:255,1,47.9999985351563,4|0,0:3|0:2,0:2:0:0:
498,134,31746,5,2,3:2:0:0:
484,117,31835,5,2,3:2:0:0:
430,101,31925,5,2,0:2:0:0:
373,121,32014,5,2,0:2:0:0:
306,169,32103,6,2,B|256:187|206:149|233:117|175:88|116:126,1,191.999994140625,6|0,0:3|0:2,0:1:0:0:
23,209,32550,2,2,B|54:186|52:147|52:147|64:183|109:189,1,143.999995605469,2|0,0:2|0:2,0:1:0:0:
202,239,32907,6,2,P|218:144|236:55,1,160,2|0,0:2|0:2,0:1:0:0:
375,28,33353,2,2,P|314:39|338:100,1,120,2|0,0:2|0:2,0:1:0:0:
393,180,33710,6,2,P|424:149|423:110,1,80,2|0,0:2|0:2,0:1:0:0:
425,115,33978,2,2,P|444:148|483:158,1,80,2|0,0:2|0:2,0:1:0:0:
458,237,34246,6,2,B|380:257|321:201|380:146|292:96|211:128,1,287.999991210938,4|4,3:2|1:3,0:1:0:0:
0,325,34692,1,2,0:1:0:0:
68,281,34782,2,0,P|127:282|139:345,1,128,0|4,3:2|0:3,0:2:0:0:
133,358,35050,1,2,1:1:0:0:
26,209,35228,5,0,0:2:0:0:
12,193,35317,2,2,P|30:121|138:174,1,192,4|0,3:3|1:2,0:1:0:0:
220,236,35764,1,4,0:3:0:0:
210,213,35853,2,2,P|224:136|237:75,1,128,4|0,3:3|0:2,0:1:0:0:
182,27,36121,5,6,1:3:0:0:
182,27,36300,1,0,0:2:0:0:
234,87,36389,2,0,P|317:91|342:12,1,128,4|0,3:3|0:2,0:2:0:0:
467,106,36657,5,6,1:3:0:0:
467,106,36836,1,0,0:2:0:0:
415,166,36925,2,0,P|332:170|307:91,1,128,0|4,3:2|0:3,0:2:0:0:
156,186,37192,5,2,1:3:0:0:
156,186,37371,1,0,0:2:0:0:
208,246,37460,2,0,P|291:250|316:171,1,128,4|0,3:3|0:2,0:2:0:0:
508,273,37728,5,2,1:3:0:0:
508,273,37907,1,4,0:3:0:0:
456,333,37996,2,0,P|373:337|348:258,1,128,4|0,3:3|0:2,0:2:0:0:
171,127,38264,2,2,B|209:130|229:107|216:95|248:65|296:82,1,128,4|0,1:3|0:2,0:1:0:0:
421,216,38532,6,2,P|365:97|243:145,1,287.999991210938,4|4,3:2|1:3,0:1:0:0:
298,384,38978,1,2,0:1:0:0:
369,327,39068,2,0,P|421:322|508:315,1,128,0|4,3:2|0:3,0:2:0:0:
512,332,39336,1,2,1:1:0:0:
333,234,39514,5,0,0:2:0:0:
320,225,39603,2,2,B|268:212|223:239|246:265|203:307|134:274,1,192,4|0,3:3|1:2,0:1:0:0:
0,212,40050,1,4,0:3:0:0:
23,222,40139,2,2,P|100:208|161:195,1,128,4|0,3:3|0:2,0:1:0:0:
225,129,40407,5,6,1:3:0:0:
225,129,40585,1,0,0:2:0:0:
296,60,40674,2,0,P|304:115|313:188,1,128,4|0,3:3|0:2,0:2:0:0:
431,196,40942,5,6,1:3:0:0:
431,196,41120,1,0,0:2:0:0:
360,127,41210,2,0,P|352:182|342:255,1,128,0|4,3:2|0:3,0:2:0:0:
162,276,41478,5,2,1:3:0:0:
162,276,41656,1,0,0:2:0:0:
233,207,41746,2,0,P|241:262|250:335,1,128,4|0,3:3|0:2,0:2:0:0:
451,327,42014,5,2,1:3:0:0:
451,327,42192,1,4,0:3:0:0:
380,258,42281,2,0,P|372:313|362:386,1,128,4|4,3:3|0:3,0:2:0:0:
247,201,42550,2,0,P|219:146|158:147,1,128,0|0,1:2|0:2,0:2:0:0:
158,146,42817,1,4,3:2:0:0:
344,350,42996,5,0,0:2:0:0:
357,366,43085,2,0,L|488:335,1,128,4|0,0:3|0:2,0:2:0:0:
487,311,43353,1,0,3:2:0:0:
496,73,43532,1,4,0:3:0:0:
486,49,43621,1,0,0:2:0:0:
389,25,43800,5,0,0:2:0:0:
379,49,43889,2,0,P|381:104|417:123,1,64,4|0,3:3|0:2,0:2:0:0:
466,150,44067,2,0,P|376:164|359:205,1,128,0|0,0:2|0:2,0:2:0:0:
352,281,44335,1,4,0:3:0:0:
341,274,44425,2,0,B|256:290|312:322|228:346,1,128,0|0,3:2|0:2,0:2:0:0:
10,177,44692,6,0,B|68:187|96:234|78:297|78:297|46:265|1:268,1,223.999993164063,4|0,1:3|0:2,0:2:0:0:
7,363,44960,2,0,P|103:277|247:279,1,223.999993164063,4|0,3:3|0:2,0:2:0:0:
193,264,45228,1,4,0:3:0:0:
353,357,45407,5,0,0:2:0:0:
377,349,45496,2,0,P|392:277|391:208,1,128,0|4,3:2|0:3,0:2:0:0:
378,201,45764,1,0,0:2:0:0:
347,63,45942,5,0,0:2:0:0:
358,39,46032,2,0,P|376:27|444:30,1,64,4|0,3:3|0:2,0:2:0:0:
511,30,46210,2,0,P|476:97|412:107,1,128,0|0,0:2|0:2,0:2:0:0:
304,140,46478,1,4,0:3:0:0:
292,153,46567,2,0,P|226:114|141:93,1,128,0|0,3:2|0:2,0:2:0:0:
26,66,46835,6,0,P|16:153|143:173,1,223.999993164063,4|0,1:3|0:2,0:2:0:0:
177,98,47103,2,0,P|151:221|138:354,1,223.999993164063,4|0,3:3|0:2,0:2:0:0:
1,367,47371,6,0,P|14:302|84:285,1,128,4|0,0:3|0:2,0:2:0:0:
139,318,47639,1,0,3:2:0:0:
269,355,47817,1,4,0:3:0:0:
292,365,47907,1,0,0:2:0:0:
348,285,48085,5,0,0:2:0:0:
371,274,48175,2,0,P|383:245|373:199,1,64,4|0,3:3|0:2,0:2:0:0:
393,378,48353,2,0,P|466:327|521:316,1,128,0|0,0:2|0:2,0:2:0:0:
502,317,48621,1,4,0:3:0:0:
502,317,48710,1,0,3:2:0:0:
173,214,48889,5,0,0:2:0:0:
160,224,48978,2,0,B|147:234|147:234|304:273,1,128,4|0,0:3|0:2,0:2:0:0:
248,162,49246,6,0,B|127:194|127:194|119:220|119:220|21:242,1,223.999993164063,4|0,3:3|0:2,0:2:0:0:
50,328,49514,2,0,B|25:312|25:312|44:159|44:159|10:139,1,223.999993164063,4|0,0:3|0:2,0:2:0:0:
68,61,49782,2,0,B|142:107|142:107|118:57,1,128,0|4,3:2|0:3,0:2:0:0:
124,70,50050,1,0,0:2:0:0:
125,272,50228,5,0,0:2:0:0:
120,252,50317,2,4,L|277:219,1,128,4|0,3:3|0:3,0:3:0:0:
245,225,50585,1,0,0:2:0:0:
479,361,50764,5,4,0:3:0:0:
491,350,50853,2,0,L|387:336,1,64,0|0,3:2|0:2,0:2:0:0:
360,235,51032,5,0,1:2:0:0:
324,369,51121,1,0,1:2:0:0:
252,18,51389,6,0,P|261:82|328:83,1,128,4|0,3:2|0:2,0:2:0:0:
326,104,51657,2,0,P|382:62|438:61,1,128,4|0,0:3|0:2,0:2:0:0:
452,74,51925,5,0,3:2:0:0:
369,363,52058,1,4,0:3:0:0:
505,158,52192,1,0,0:2:0:0:
282,247,52326,1,0,0:2:0:0:
450,335,52460,5,4,3:3:0:0:
450,335,52594,2,0,P|463:268|469:230,1,96,0|0,0:2|0:2,0:2:0:0:
206,204,52862,2,0,P|196:282|315:321,1,192,4|0,0:3|0:2,0:2:0:0:
242,351,53264,2,0,B|221:354|199:323|199:323|160:315|138:357,1,128,0|0,1:2|0:2,0:2:0:0:
277,254,53532,6,4,P|124:288|46:278,1,192,4|4,3:3|0:3,0:3:0:0:
170,101,54067,1,0,3:2:0:0:
1,204,54246,1,4,0:3:0:0:
12,220,54335,2,0,P|72:199|145:169,1,128
301,4,54603,6,0,B|350:98|237:95|298:193,1,192,4|0,3:3|0:2,0:2:0:0:
492,214,55050,1,4,0:3:0:0:
474,208,55139,2,0,B|396:193|443:147|353:141,1,128,0|0,3:2|0:2,0:2:0:0:
489,131,55407,6,0,B|419:128|385:210|442:200|418:276|323:295,1,223.999993164063,0|0,1:2|0:2,0:2:0:0:
293,183,55675,2,0,P|344:308|353:383,1,192,4|4,3:3|0:3,0:2:0:0:
0,259,56210,6,0,P|34:269|107:282,1,64,0|0,3:2|0:2,0:2:0:0:
84,365,56389,1,4,0:3:0:0:
90,351,56478,2,0,P|124:341|197:328,1,64,0|0,0:2|0:2,0:2:0:0:
293,183,56657,1,0,0:2:0:0:
299,165,56746,2,0,B|267:157|267:157|249:214,1,64,4|0,3:3|0:2,0:2:0:0:
410,384,56925,6,0,P|416:321|387:265,1,128,0|0,0:2|0:2,0:2:0:0:
279,148,57192,1,4,0:3:0:0:
267,157,57282,2,0,P|331:180|413:172,1,128,0|0,3:2|0:2,0:2:0:0:
390,177,57550,2,0,P|288:216|242:316,1,223.999993164063,4|0,1:3|0:2,0:2:0:0:
203,384,57817,6,0,P|172:263|104:235,1,160,4|0,3:3|0:2,0:2:0:0:
80,209,58085,2,0,P|36:276|106:264,1,160,4|0,0:3|0:2,0:2:0:0:
149,247,58353,2,0,P|165:170|127:102,1,160,0|4,3:2|0:3,0:2:0:0:
196,21,58621,2,0,P|76:66|6:49,1,160,0|0,0:2|0:2,0:2:0:0:
48,63,58889,6,0,B|197:92|67:161|278:192,1,223.999993164063,4|0,3:3|0:2,0:2:0:0:
283,119,59157,1,0,1:2:0:0:
461,352,59335,5,0,1:2:0:0:
505,287,59425,2,0,B|502:261|502:261|394:280,1,111.999996582031,0|0,3:2|0:2,0:2:0:0:
279,305,59603,5,0,1:2:0:0:
323,381,59692,2,0,B|329:309|329:309|323:296|323:296|333:205,1,160,0|0,1:2|0:2,0:2:0:0:
393,148,59960,6,2,B|458:87|548:205|425:277|330:222,1,287.999991210938,4|4,3:2|1:3,0:1:0:0:
46,7,60407,1,2,0:1:0:0:
103,79,60496,2,0,L|120:242,1,128,0|4,3:2|0:3,0:2:0:0:
106,230,60764,1,2,1:1:0:0:
205,109,60942,5,0,0:2:0:0:
218,121,61032,2,2,B|276:133|309:83|282:67|328:35|381:52,1,192,4|0,3:3|1:2,0:1:0:0:
487,202,61478,1,4,0:3:0:0:
473,209,61567,2,2,P|412:204|391:147,1,128,0|0,3:2|0:2,0:1:0:0:
452,99,61835,5,2,1:3:0:0:
452,99,62014,1,0,0:2:0:0:
390,147,62103,2,0,P|326:158|263:165,1,128,4|0,3:3|0:2,0:2:0:0:
139,132,62371,5,6,1:3:0:0:
139,132,62550,1,0,0:2:0:0:
191,192,62639,2,0,P|254:199|317:209,1,128,0|4,3:2|0:3,0:2:0:0:
484,213,62907,5,2,1:3:0:0:
484,213,63086,1,0,0:2:0:0:
432,273,63175,2,0,P|368:280|305:290,1,128,4|0,3:3|0:2,0:2:0:0:
135,307,63442,5,2,1:3:0:0:
135,307,63621,1,4,0:3:0:0:
187,367,63710,2,0,P|250:374|313:384,1,128,0|0,3:2|0:2,0:2:0:0:
197,215,63978,2,2,B|160:204|149:175|165:168|146:129|96:127,1,128,6|0,1:3|0:2,0:1:0:0:
0,159,64246,6,2,P|143:170|287:180,1,287.999991210938,4|4,3:3|1:3,0:1:0:0:
489,73,64692,1,2,0:1:0:0:
417,107,64782,2,0,P|358:73|382:3,1,128,4|0,3:3|0:2,0:2:0:0:
379,2,65050,1,2,1:1:0:0:
512,225,65228,5,0,0:2:0:0:
496,216,65317,2,6,B|439:195|388:224|416:246|369:286|310:250,1,192,4|0,3:3|1:3,0:1:0:0:
240,192,65764,1,4,0:3:0:0:
230,215,65853,2,2,P|244:292|257:353,1,128,0|0,3:2|0:2,0:1:0:0:
325,384,66121,5,2,1:3:0:0:
325,384,66300,1,0,0:2:0:0:
248,350,66389,2,0,P|189:331|139:368,1,128,4|0,3:3|0:2,0:2:0:0:
13,317,66657,5,6,1:3:0:0:
13,317,66836,1,0,0:2:0:0:
77,273,66925,2,0,P|135:254|185:291,1,128,0|4,3:2|0:3,0:2:0:0:
330,260,67192,5,2,1:3:0:0:
330,260,67371,1,0,0:2:0:0:
285,194,67460,2,0,P|226:175|176:212,1,128,0|0,3:2|0:2,0:2:0:0:
0,125,67728,5,2,1:3:0:0:
0,125,67907,1,4,0:3:0:0:
64,81,67996,2,0,P|122:62|172:99,1,128,0|0,3:2|0:2,0:2:0:0:
353,163,68264,2,0,P|272:161|249:89,1,128,2|0,1:3|0:2,0:2:0:0:
250,128,68532,1,4,3:2:0:0:
43,66,68710,5,0,0:2:0:0:
52,50,68800,2,0,L|95:232,1,128,4|0,0:3|0:2,0:2:0:0:
19,255,69067,2,0,P|91:275|136:332,1,128,0|4,3:2|0:3,0:2:0:0:
130,331,69335,1,0,0:2:0:0:
271,377,69514,5,0,0:2:0:0:
287,353,69603,1,4,3:3:0:0:
177,182,69782,2,0,P|185:221|195:261,1,64,0|0,0:2|0:2,0:2:0:0:
352,299,70050,1,4,0:3:0:0:
376,281,70139,2,0,P|453:263|518:257,1,128,0|0,0:2|0:2,0:2:0:0:
487,346,70407,6,0,B|374:333|436:200|270:220,1,223.999993164063,0|0,1:2|0:2,0:2:0:0:
316,218,70675,2,0,P|291:108|256:-8,1,223.999993164063,4|0,0:3|0:2,0:2:0:0:
259,1,70942,1,4,0:3:0:0:
369,52,71121,5,0,0:2:0:0:
380,77,71210,2,0,P|433:68|535:53,1,128,0|4,3:2|0:3,0:2:0:0:
506,56,71478,5,0,0:2:0:0:
400,186,71612,1,0,0:2:0:0:
213,83,71746,1,4,0:3:0:0:
256,366,71925,2,0,L|282:216,1,128,0|0,0:2|0:2,0:2:0:0:
312,138,72192,1,4,0:3:0:0:
311,153,72282,2,0,P|227:166|127:185,1,128,0|0,3:2|0:2,0:2:0:0:
56,207,72550,6,0,P|169:221|357:256,1,223.999993164063,0|0,1:2|0:2,0:2:0:0:
429,340,72817,2,0,P|513:337|439:264,1,223.999993164063,4|0,3:3|0:2,0:2:0:0:
357,279,73085,6,0,P|346:334|338:379,1,64,4|0,0:3|0:2,0:2:0:0:
177,257,73264,1,0,0:2:0:0:
165,281,73353,2,0,P|176:336|184:381,1,64,0|0,3:2|0:2,0:2:0:0:
8,298,73532,1,4,0:3:0:0:
20,322,73621,2,0,P|9:377|1:422,1,64,0|0,0:2|0:2,0:2:0:0:
84,227,73800,5,0,0:2:0:0:
94,205,73889,2,0,P|83:150|75:105,1,64,4|0,3:3|0:2,0:2:0:0:
12,98,74067,2,0,P|23:43|31:-2,1,64,0|0,0:2|0:2,0:2:0:0:
84,227,74335,2,0,P|161:166|288:128,1,192,4|0,0:3|0:2,0:2:0:0:
115,18,74692,2,0,P|188:48|245:35,1,128,4|0,1:3|0:2,0:2:0:0:
101,112,74960,6,0,P|166:207|180:281,1,160,4|0,3:3|0:2,0:2:0:0:
147,323,75228,2,0,P|217:366|277:288,1,160,4|0,0:3|0:2,0:2:0:0:
276,233,75496,2,0,P|346:190|406:268,1,160,0|4,3:2|0:3,0:2:0:0:
503,247,75764,2,0,P|453:308|426:384,1,160,0|0,0:2|0:2,0:2:0:0:
363,300,76032,6,0,P|327:269|348:177,1,111.999996582031,4|0,3:3|0:2,0:2:0:0:
501,9,76210,1,6,1:1:0:0:
501,9,76478,5,6,1:1:0:0:
465,80,76567,2,0,P|412:90|349:107,1,111.999996582031,0|0,3:2|0:2,0:2:0:0:
178,196,76746,5,0,1:2:0:0:
111,154,76835,2,2,P|127:51|231:38,1,223.999993164063,4|0,0:3|0:2,0:1:0:0:
324,289,77103,6,0,P|424:306|551:334,2,192,4|4|0,3:2|0:3|3:2,0:2:0:0:
224,360,77817,1,4,0:3:0:0:
214,372,77907,2,0,P|143:367|149:312,1,128,0|0,0:2|0:2,0:2:0:0:
175,94,78175,6,2,B|190:173|124:234|89:177|26:238|27:315,1,287.999991210938,6|0,3:3|0:2,0:1:0:0:
214,372,78621,5,4,0:3:0:0:
278,316,78710,2,2,P|251:246|185:292,1,128,0|0,3:0|0:2,0:1:0:0:
210,252,78978,6,0,B|263:257|299:203|256:192|299:138|358:144,1,191.999994140625,0|0,1:2|0:2,0:2:0:0:
405,89,79246,5,4,3:3:0:0:
482,377,79514,2,0,P|496:314|512:252,1,128,4|0,0:3|0:2,0:2:0:0:
472,173,79782,6,0,P|442:175|406:219,1,64,2|0,3:1|0:2,0:2:0:0:
302,357,79960,1,4,0:3:0:0:
375,332,80050,2,0,P|388:305|368:251,1,64,2|0,0:1|0:2,0:2:0:0:
216,176,80228,1,2,0:1:0:0:
210,252,80318,2,0,P|226:276|282:286,1,64,4|0,3:3|0:2,0:2:0:0:
320,231,80496,6,0,P|329:167|346:103,1,128,2|0,0:1|0:2,0:2:0:0:
281,39,80764,1,4,0:3:0:0:
274,30,80853,2,2,P|193:53|213:108,1,128,0|0,3:2|0:2,0:1:0:0:
129,156,81121,2,0,P|64:161|58:69,1,128,0|0,1:2|0:2,0:2:0:0:
24,35,81389,5,4,3:3:0:0:
146,267,81657,2,0,P|174:166|195:71,1,192,4|0,0:3|3:2,0:2:0:0:
359,24,82103,1,4,0:3:0:0:
344,11,82192,2,0,P|274:56|323:91,1,128,0|0,0:2|0:2,0:2:0:0:
342,127,82460,5,6,3:3:0:0:
129,156,82639,2,0,B|91:161|69:138|81:126|48:97|1:116,1,128,0|0,1:2|0:2,0:2:0:0:
133,238,82907,5,0,1:2:0:0:
192,219,82996,1,4,0:3:0:0:
246,250,83085,1,4,0:3:0:0:
261,310,83174,1,4,0:3:0:0:
340,367,83264,5,4,0:3:0:0:
435,347,83353,1,4,0:3:0:0:
483,258,83442,1,4,0:3:0:0:
447,157,83532,5,6,1:1:0:0:
277,242,85585,5,0,3:2:0:0:
55,383,85675,1,0,1:2:0:0:
55,383,85853,2,0,P|65:318|72:278,1,96,0|0,3:2|3:2,0:2:0:0:
48,106,86210,5,0,1:2:0:0:
88,143,86300,1,0,1:2:0:0:
139,123,86389,1,0,1:2:0:0:
195,60,86478,5,0,1:2:0:0:
251,173,86567,1,0,1:2:0:0:
329,71,86657,1,0,1:2:0:0:
260,107,86746,6,0,L|268:158,1,40,4|0,3:3|0:2,0:2:0:0:
279,10,87013,6,2,L|242:332,1,240.000009155274,4|0,1:2|0:2,0:1:0:0:
95,367,87281,2,0,P|37:345|41:271,1,120.000004577637,0|0,3:2|0:2,0:2:0:0:
344,207,87460,1,0,3:2:0:0:
363,230,87549,2,0,P|416:215|506:193,1,120.000004577637,0|0,1:2|0:2,0:2:0:0:
320,356,87728,5,0,0:2:0:0:
305,373,87817,2,0,P|293:326|280:206,1,120.000004577637,0|0,3:2|0:2,0:2:0:0:
449,112,87996,2,0,P|395:126|306:149,1,120.000004577637,0|0,0:2|1:2,0:2:0:0:
15,0,88263,2,0,B|64:-5|179:47|66:63|142:125|244:117,1,240.000009155274,0|0,3:2|0:2,0:2:0:0:
46,107,88531,5,0,3:2:0:0:
34,89,88621,2,0,P|21:159|48:232,1,120.000004577637,2|0,1:3|0:2,0:2:0:0:
0,295,88799,2,0,P|87:217|203:231,1,240.000009155274,0|0,3:2|0:2,0:2:0:0:
237,128,89067,5,0,0:2:0:0:
251,108,89156,2,0,P|282:172|275:249,1,120.000004577637,2|0,1:3|0:2,0:2:0:0:
197,309,89335,2,0,P|284:231|400:245,1,240.000009155274,0|0,3:2|0:2,0:2:0:0:
491,126,89603,5,0,3:2:0:0:
493,227,89692,2,0,B|343:190|473:112|266:90,1,240.000009155274,2|0,1:3|0:2,0:2:0:0:
72,27,89960,2,0,P|120:153|182:95,1,240.000009155274,0|0,3:2|0:2,0:2:0:0:
216,46,90228,2,0,P|244:23|381:-2,1,120.000004577637,2|0,1:3|0:2,0:2:0:0:
362,375,90406,2,0,P|278:279|253:155,1,240.000009155274,0|0,3:3|0:2,0:2:0:0:
235,243,90674,5,0,3:2:0:0:
226,265,90763,2,0,P|122:195|-7:159,1,240.000009155274,2|0,1:3|0:2,0:2:0:0:
22,249,91031,6,0,P|39:318|100:270,1,160,4|0,3:2|0:2,0:2:0:0:
261,143,91299,5,2,1:2:0:0:
293,270,91388,1,2,0:2:0:0:
167,233,91478,1,2,0:2:0:0:
241,214,91567,6,0,B|350:197|350:197|358:207|358:207|504:185,1,240.000009155274,0|0,3:2|3:2,0:2:0:0:
509,70,91835,6,0,B|422:86|422:86|411:124,1,120.000004577637,0|0,1:2|0:2,0:2:0:0:
392,339,92013,1,0,0:2:0:0:
409,357,92103,2,0,B|454:342|454:342|429:189,1,120.000004577637,0|0,3:2|0:2,0:2:0:0:
200,134,92281,2,0,B|155:149|155:149|180:302,1,120.000004577637,0|0,0:2|1:2,0:2:0:0:
511,384,92549,6,0,P|401:337|284:313,1,240.000009155274,0|0,3:2|0:2,0:2:0:0:
65,344,92817,5,0,3:2:0:0:
48,355,92906,2,0,P|24:310|83:235,1,120.000004577637,2|0,1:3|0:2,0:2:0:0:
48,144,93085,2,0,P|100:262|214:203,1,240.000009155274,0|0,3:3|0:2,0:2:0:0:
319,278,93353,5,0,3:2:0:0:
301,265,93442,2,0,P|318:202|362:126,1,120.000004577637,2|0,1:3|0:2,0:2:0:0:
408,4,93621,2,0,P|356:122|242:63,1,240.000009155274,0|0,3:2|0:2,0:2:0:0:
404,187,93888,5,0,3:2:0:0:
414,205,93978,2,0,P|429:210|515:147,1,120.000004577637,0|0,1:2|0:2,0:2:0:0:
275,12,94156,5,0,0:2:0:0:
196,45,94246,2,0,P|130:24|53:11,1,120.000004577637,2|0,1:3|0:2,0:2:0:0:
0,149,94424,5,0,1:2:0:0:
69,102,94513,2,0,P|136:116|209:144,1,120.000004577637,2|0,1:3|0:2,0:2:0:0:
428,253,94692,6,2,B|464:202|414:153|355:148|271:224|344:325|392:340,1,287.999991210938,4|0,3:2|0:2,0:1:0:0:
494,324,94960,2,2,P|325:297|332:203,1,287.999991210938,4|0,3:2|0:2,0:1:0:0:
312,295,95228,2,2,P|490:347|485:162,1,431.999986816407,4|0,0:1|3:2,0:1:0:0:
428,253,95585,6,0,P|372:217|281:190,1,120.000004577637,0|0,1:2|0:2,0:2:0:0:
65,35,95763,1,0,0:2:0:0:
40,38,95853,2,2,P|53:161|151:110,1,240.000009155274,0|0,3:2|3:2,0:1:0:0:
291,121,96121,2,0,P|251:76|173:95,1,120.000004577637,0|0,1:2|0:2,0:2:0:0:
97,347,96299,5,0,0:2:0:0:
167,384,96388,1,2,3:1:0:0:
70,184,96567,1,0,0:2:0:0:
0,221,96656,1,0,1:2:0:0:
206,318,96835,6,2,P|296:272|531:214,1,287.999991210938,0|0,3:0|3:2,0:1:0:0:
510,344,97192,6,0,P|465:322|451:295,1,60.0000022888184,0|0,1:2|0:2,0:2:0:0:
396,126,97371,2,0,P|330:135|321:215,1,120.000004577637,0|0,3:2|0:2,0:2:0:0:
459,229,97638,5,2,0:1:0:0:
475,220,97728,2,0,P|486:160|558:72,1,120.000004577637,0|0,1:2|0:2,0:2:0:0:
203,185,97906,1,0,0:2:0:0:
218,169,97996,2,0,P|207:109|42:10,1,240.000009155274,2|0,3:1|3:2,0:2:0:0:
0,73,98263,5,0,1:2:0:0:
285,61,98397,1,0,0:2:0:0:
206,373,98531,5,2,3:2:0:0:
302,207,98665,1,2,0:2:0:0:
466,217,98799,1,2,1:2:0:0:
140,245,98933,6,2,P|310:312|481:358,1,360.000013732911,2|0,3:0|3:2,0:1:0:0:
466,217,99335,6,0,P|429:226|412:261,1,60.0000022888184,0|0,1:2|0:2,0:2:0:0:
206,373,99513,2,0,P|139:374|116:312,1,120.000004577637,0|0,3:2|0:2,0:2:0:0:
243,271,99781,5,2,0:2:0:0:
299,325,99871,2,0,P|308:353|318:381,1,60.0000022888184,2|0,1:2|0:2,0:2:0:0:
27,286,100049,5,2,0:2:0:0:
83,232,100139,2,0,P|92:204|102:176,1,60.0000022888184,2|0,3:2|0:2,0:2:0:0:
178,221,100317,5,2,3:2:0:0:
243,271,100406,2,0,P|285:262|340:246,1,80,0|0,1:2|0:2,0:2:0:0:
151,77,100585,5,0,0:2:0:0:
95,23,100674,2,0,P|21:69|80:162,1,160,2|0,3:2|0:2,0:2:0:0:
149,376,100942,2,0,P|158:330|186:152,1,200,2|0,1:2|3:2,0:2:0:0:
228,6,101210,5,2,1:2:0:0:
249,82,101299,1,0,1:2:0:0:
271,159,101388,1,0,1:2:0:0:
353,160,101478,5,2,1:2:0:0:
375,83,101567,1,0,1:2:0:0:
396,7,101656,1,0,1:2:0:0:
458,62,101746,6,0,P|476:115|496:212,1,128,4|0,3:1|0:2,0:2:0:0:
500,267,102013,2,0,P|437:282|423:226,1,128,4|0,1:3|0:2,0:2:0:0:
492,185,102281,1,0,3:2:0:0:
389,371,102460,5,4,0:3:0:0:
391,350,102549,2,0,P|319:320|243:299,1,128,0|0,1:2|0:2,0:2:0:0:
70,274,102817,2,0,P|84:358|155:347,1,128,4|0,3:3|0:2,0:2:0:0:
133,357,103085,1,0,1:2:0:0:
206,223,103263,5,4,0:3:0:0:
224,206,103353,2,0,L|251:61,1,128,0|0,3:2|3:2,0:2:0:0:
76,15,103621,5,6,1:3:0:0:
76,15,103799,1,0,0:2:0:0:
135,75,103888,2,0,P|218:53|277:34,1,128,4|0,3:3|0:2,0:2:0:0:
372,42,104156,5,6,1:3:0:0:
372,42,104334,1,0,0:2:0:0:
313,102,104424,2,0,P|230:80|171:61,1,128,0|4,3:2|0:3,0:0:0:0:
177,153,104692,5,2,1:3:0:0:
177,153,104870,1,0,0:2:0:0:
236,213,104959,2,0,P|319:191|378:172,1,128,4|0,3:3|0:2,0:2:0:0:
473,180,105227,5,2,1:3:0:0:
473,180,105405,1,4,0:3:0:0:
414,240,105496,2,0,P|331:218|272:199,1,128,0|0,3:2|3:2,0:2:0:0:
177,153,105763,2,0,P|199:224|218:354,1,191.999994140625,0|0,1:2|0:2,0:2:0:0:
64,372,106031,6,0,P|-2:352|18:304,1,128,4|0,3:3|0:2,0:2:0:0:
95,301,106299,2,4,P|173:326|239:346,1,128,4|0,1:3|0:2,0:3:0:0:
236,363,106567,1,0,3:2:0:0:
426,380,106746,5,4,0:3:0:0:
447,363,106835,2,0,P|470:281|476:215,1,128,0|0,1:2|0:2,0:2:0:0:
481,154,107103,2,0,B|434:137|363:195|426:195|397:254|311:244,1,192,4|0,3:3|1:2,0:2:0:0:
89,62,107549,5,4,0:3:0:0:
70,62,107638,2,0,P|101:-2|163:12,1,128,0|0,3:2|0:2,0:2:0:0:
240,99,107906,5,0,1:2:0:0:
240,99,108085,1,0,0:2:0:0:
307,40,108174,2,0,P|354:74|328:127,1,128,4|0,3:3|0:2,0:2:0:0:
208,185,108442,5,4,1:3:0:0:
208,185,108621,1,0,0:2:0:0:
140,126,108710,2,0,P|92:160|118:213,1,128,0|4,3:2|0:3,0:2:0:0:
246,264,108978,5,0,1:2:0:0:
246,264,109157,1,0,0:2:0:0:
314,205,109246,2,0,P|361:239|335:292,1,128,4|0,3:3|0:2,0:2:0:0:
205,333,109513,5,0,1:2:0:0:
205,333,109692,1,4,0:3:0:0:
137,274,109781,2,0,P|89:308|115:361,1,128,0|0,3:2|0:2,0:2:0:0:
115,361,110049,2,0,P|94:261|41:167,1,191.999994140625,0|0,1:2|0:2,0:2:0:0:
0,109,110317,5,4,3:2:0:0:
71,79,110496,1,2,0:2:0:0:
163,178,110763,1,0,0:2:0:0:
163,178,110853,1,2,0:2:0:0:
270,228,111121,1,2,0:2:0:0:
373,181,111388,6,0,P|455:196|460:233,1,120,2|0,0:2|0:2,0:2:0:0:
512,274,111835,1,2,0:2:0:0:
487,110,112103,5,0,1:2:0:0:
391,83,112192,2,0,B|296:129|379:183|263:235,1,192,0|0,0:2|0:2,0:2:0:0:
200,206,112638,5,2,0:2:0:0:
131,290,112906,1,0,0:2:0:0:
131,290,112996,1,2,0:2:0:0:
27,298,113263,1,2,0:2:0:0:
199,343,113531,5,2,0:2:0:0:
271,375,113665,1,0,1:2:0:0:
283,384,113799,2,0,L|332:373,3,40,2|0|0|0,0:2|0:2|0:2|0:2,0:2:0:0:
475,372,114246,5,0,1:2:0:0:
485,344,114335,2,0,P|494:303|504:263,1,64,0|0,3:2|0:2,0:2:0:0:
359,289,114513,5,0,3:2:0:0:
342,210,114603,2,0,P|332:147|321:73,1,128,0|0,1:2|0:2,0:2:0:0:
346,7,114871,6,0,L|336:72,1,60,0|2,0:2|0:2,0:2:0:0:
322,83,115071,1,2,0:2:0:0:
306,93,115138,2,0,P|268:87|217:81,1,90,2|0,0:2|0:2,0:2:0:0:
133,88,115406,6,0,P|117:99|106:116,2,40,2|0|0,0:2|0:2|0:2,0:2:0:0:
30,130,115674,2,0,P|33:149|41:167,2,40,2|0|0,0:2|0:2|0:2,0:2:0:0:
123,193,115942,2,0,P|139:204|150:221,2,40,2|0|0,0:2|0:2|0:2,0:2:0:0:
230,227,116210,2,0,P|224:255|215:268,1,40,2|0,0:2|0:2,0:2:0:0:
166,325,116388,5,0,1:2:0:0:
155,316,116478,2,0,P|117:306|86:328,1,80,0|0,1:2|0:2,0:2:0:0:
4,273,116746,6,0,B|68:223|161:267|105:336|175:393|252:346,1,287.999991210938,0|0,3:2|0:2,0:2:0:0:
351,384,117192,6,0,P|408:326|397:241,1,167.999994873047,4|0,3:2|0:2,0:2:0:0:
325,280,117549,6,0,P|305:297|326:281,1,80,0|0,3:2|0:2,0:2:0:0:
399,245,117817,5,0,3:2:0:0:
217,279,117996,2,0,P|229:233|246:168,1,80,0|0,3:2|0:2,0:2:0:0:
245,173,118263,1,0,3:2:0:0:
242,93,118353,5,0,1:2:0:0:
184,97,118442,1,0,1:2:0:0:
159,148,118531,1,0,1:2:0:0:
102,209,118621,5,0,1:2:0:0:
27,194,118710,1,0,1:2:0:0:
3,122,118799,1,0,1:2:0:0:
23,210,118888,6,0,L|11:290,1,80,0|0,3:2|0:2,0:2:0:0:
17,308,119424,2,0,L|29:228,1,80,2|0,0:2|0:2,0:2:0:0:
1,383,119960,6,2,P|80:283|391:236,1,400,4|0,0:1|0:2,0:1:0:0:
478,186,120496,2,2,B|395:225|339:386|444:403|538:391|536:320|494:265|418:292,1,400,4|0,0:1|0:2,0:1:0:0:
419,291,121031,6,0,P|352:311|302:318,1,64,4|0,0:2|0:2,0:2:0:0:
256,371,121210,2,0,P|239:290|202:215,1,128,2|0,1:2|0:2,0:2:0:0:
175,184,121478,1,2,0:2:0:0:
175,184,121567,6,0,P|145:182|109:138,1,64,2|0,3:1|0:2,0:2:0:0:
89,3,121745,1,2,3:1:0:0:
162,28,121835,2,0,P|175:55|155:109,1,64,2|0,1:1|0:2,0:2:0:0:
35,200,122013,1,2,0:1:0:0:
29,124,122103,2,0,P|45:100|101:90,1,64,2|0,3:1|0:2,0:2:0:0:
249,127,122281,1,0,0:2:0:0:
257,141,122371,1,0,1:2:0:0:
414,355,122548,5,2,0:1:0:0:
429,268,122638,1,0,3:2:0:0:
270,281,122817,5,0,1:2:0:0:
502,330,122906,1,0,1:2:0:0:
502,330,123085,5,0,3:2:0:0:
502,330,123174,2,0,L|413:353,1,80,2|0,3:2|0:2,0:2:0:0:
387,382,123710,2,0,L|464:361,1,80,2|0,0:2|0:2,0:2:0:0:
494,236,124246,5,2,1:1:0:0:
296,384,124379,2,2,P|261:279|204:160,1,240,0|0,3:2|0:2,0:1:0:0:
149,104,124781,5,2,1:2:0:0:
149,72,124871,1,2,0:2:0:0:
176,88,124960,1,2,0:2:0:0:
79,88,125049,5,2,0:2:0:0:
198,20,125139,1,2,0:2:0:0:
196,154,125228,1,2,0:2:0:0:
159,87,125317,6,2,B|233:52|290:92|256:180|436:167|463:71|324:-39|282:110,1,400,4|0,3:2|0:2,0:1:0:0:
282,137,125853,6,0,P|282:151|288:162,3,24,2|2|2|2,0:2|0:2|0:2|0:2,0:2:0:0:
312,242,126388,5,2,0:3:0:0:
314,251,126656,1,2,0:2:0:0:
316,260,126790,1,2,0:2:0:0:
318,269,126924,1,2,0:3:0:0:
320,278,127192,1,2,0:3:0:0:
46,347,127460,6,2,P|43:328|60:290,1,40,2|2,1:2|1:2,1:2:0:0:
67,306,127549,2,2,P|78:290|117:275,1,40,2|2,0:2|0:2,0:2:0:0:
110,291,127638,2,2,P|128:288|166:305,1,40,2|2,0:2|0:2,0:2:0:0:
177,219,127728,6,2,P|196:215|234:233,1,40,2|2,1:2|0:2,0:2:0:0:
218,238,127817,2,2,P|233:249|248:288,1,40,2|2,0:2|0:2,0:2:0:0:
232,281,127906,2,2,P|235:299|218:337,1,40,2|2,3:2|0:2,0:2:0:0:
162,372,127996,5,2,1:2:0:0:
108,313,128085,1,2,1:2:0:0:
84,237,128174,1,2,1:2:0:0:
97,159,128263,1,2,1:2:0:0:
143,94,128353,1,2,1:2:0:0:
212,56,128442,1,2,1:2:0:0:
296,75,128531,6,0,L|340:85,1,32,4|0,3:2|0:2,0:2:0:0:
386,0,128798,6,2,B|333:14|333:14|293:143|293:143|234:155,1,240.000009155274,4|0,1:2|0:2,0:1:0:0:
0,72,129066,2,0,P|36:21|106:44,1,120.000004577637,0|0,3:3|0:2,0:2:0:0:
166,207,129245,1,0,3:2:0:0:
177,230,129334,2,0,P|161:287|146:345,1,120.000004577637,0|0,1:2|0:2,0:2:0:0:
368,282,129513,5,0,0:2:0:0:
386,273,129602,2,0,P|433:285|553:298,1,120.000004577637,0|0,3:3|0:2,0:2:0:0:
451,72,129781,2,0,P|399:105|399:167,1,128,0|0,0:2|0:2,0:2:0:0:
412,180,130048,1,0,3:2:0:0:
512,147,130138,6,0,B|458:167|395:129|436:80|388:31|309:53,1,240.000009155274,0|0,3:3|3:2,0:2:0:0:
129,192,130406,2,0,P|76:170|54:113,1,120.000004577637,2|0,1:2|0:2,0:2:0:0:
63,36,130584,5,2,0:2:0:0:
30,234,130673,2,0,P|72:192|134:195,1,120.000004577637,2|0,3:3|0:2,0:2:0:0:
225,217,130852,1,0,0:2:0:0:
208,230,130941,2,0,P|94:221|57:102,1,240.000009155274,2|2,1:3|0:2,0:2:0:0:
155,33,131209,6,0,P|213:39|250:84,1,120.000004577637,2|0,3:3|0:2,0:2:0:0:
381,130,131388,1,2,3:2:0:0:
365,119,131477,2,0,P|251:125|207:229,1,240.000009155274,2|0,1:3|0:2,0:2:0:0:
98,330,131745,6,0,B|129:274|95:202|65:240|18:181|55:112,1,240.000009155274,2|0,3:3|0:2,0:2:0:0:
155,33,132013,6,0,P|142:82|128:161,1,120.000004577637,2|0,1:3|0:2,0:2:0:0:
24,208,132191,2,0,P|145:190|311:177,1,240.000009155274,2|0,3:3|0:2,0:2:0:0:
269,316,132459,5,0,3:3:0:0:
272,329,132548,2,0,P|392:340|511:358,1,240.000009155274,0|0,1:2|0:2,0:2:0:0:
512,148,132816,6,0,B|468:145|448:105|448:105|445:147|400:167,1,160,4|0,3:2|0:2,0:2:0:0:
195,160,133084,5,6,1:2:0:0:
212,18,133173,1,2,0:2:0:0:
318,101,133263,1,2,0:2:0:0:
238,92,133352,6,0,B|253:190|253:190|257:198|257:198|273:334,1,240.000009155274,2|0,3:2|3:3,0:2:0:0:
72,375,133620,6,0,B|-15:359|-15:359|27:336,1,120.000004577637,0|0,1:2|0:2,0:2:0:0:
95,202,133798,1,0,0:2:0:0:
114,183,133888,2,0,P|126:236|140:309,1,120.000004577637,0|0,3:3|0:2,0:2:0:0:
291,344,134066,2,0,P|364:318|355:227,1,160,0|0,0:2|0:2,0:2:0:0:
362,219,134334,1,0,3:0:0:0:
481,322,134423,6,0,B|425:343|371:303|402:269|339:222|269:252,1,240.000009155274,0|0,0:3|3:2,0:2:0:0:
114,183,134691,2,0,P|133:119|148:67,1,120.000004577637,0|0,1:2|0:2,0:2:0:0:
92,8,134869,5,0,0:2:0:0:
227,94,134958,2,0,P|283:81|366:58,1,120.000004577637,2|0,3:3|0:2,0:2:0:0:
506,212,135138,1,0,0:2:0:0:
512,232,135227,2,0,P|400:196|243:161,1,240.000009155274,2|0,1:3|0:2,0:2:0:0:
142,267,135495,6,0,P|158:322|171:383,1,120.000004577637,2|0,3:3|0:2,0:2:0:0:
0,219,135673,1,0,3:2:0:0:
11,205,135764,2,0,P|127:232|242:269,1,240.000009155274,2|0,1:3|0:2,0:2:0:0:
378,379,136031,6,0,P|367:330|352:248,1,120.000004577637,0|0,1:2|0:2,0:2:0:0:
512,185,136209,1,0,1:2:0:0:
448,109,136298,2,0,P|437:158|422:240,1,120.000004577637,0|0,1:2|0:2,0:2:0:0:
80,304,136477,6,2,P|170:214|247:301,1,240.000009155274,4|0,3:2|0:2,0:1:0:0:
247,352,136745,2,2,P|245:243|133:203,1,240.000009155274,4|0,3:2|0:2,0:1:0:0:
43,318,137013,2,2,P|146:188|278:285,1,360.000013732911,4|0,3:1|3:2,0:1:0:0:
374,353,137370,6,0,P|457:334|530:320,1,120.000004577637,0|0,1:2|0:2,0:2:0:0:
510,158,137548,1,0,0:2:0:0:
500,134,137638,2,2,P|372:202|459:259,1,240.000009155274,0|0,3:3|0:2,0:1:0:0:
235,378,137906,2,0,P|279:338|260:260,1,120.000004577637,0|0,1:2|0:2,0:2:0:0:
161,100,138084,5,0,0:2:0:0:
124,170,138173,1,2,3:1:0:0:
394,240,138352,1,0,0:2:0:0:
357,170,138441,1,0,1:2:0:0:
74,272,138620,6,2,B|1:290|-28:221|-6:157|114:115|182:230|196:302,1,360.000013732911,0|0,3:3|3:2,0:1:0:0:
138,353,138977,2,0,B|116:351|96:358|96:358|112:339|128:336,1,80,0|0,1:2|0:2,0:2:0:0:
275,259,139156,2,0,B|322:280|332:322|332:322|311:283|263:279,1,160,0|0,0:2|0:2,0:2:0:0:
193,291,139423,5,2,3:1:0:0:
136,222,139513,2,0,P|125:162|210:125,1,120.000004577637,0|0,1:2|0:2,0:2:0:0:
72,25,139691,1,0,0:2:0:0:
77,47,139781,2,0,P|198:94|322:132,1,240.000009155274,2|0,3:1|3:2,0:2:0:0:
375,91,140048,5,0,1:2:0:0:
72,144,140182,1,0,0:2:0:0:
212,63,140316,5,2,3:1:0:0:
251,231,140450,1,0,0:2:0:0:
124,363,140584,1,0,1:2:0:0:
27,351,140718,6,2,P|215:320|405:303,1,360.000013732911,0|0,3:3|0:3,0:1:0:0:
511,122,141120,6,0,P|380:117|423:224,1,240.000009155274,0|0,1:2|0:2,0:2:0:0:
381,191,141388,2,0,P|372:127|325:122,1,120.000004577637,2|0,3:3|0:2,0:2:0:0:
79,172,141566,5,2,0:2:0:0:
23,123,141656,2,0,P|36:75|46:30,1,95.9999970703126,2|0,1:2|0:2,0:2:0:0:
227,186,141833,5,2,0:2:0:0:
158,240,141923,2,0,P|109:250|64:261,1,95.9999970703126,0|0,3:3|0:2,0:2:0:0:
286,304,142101,5,2,3:2:0:0:
357,357,142191,2,0,P|405:367|450:378,1,95.9999970703126,2|0,1:2|0:2,0:2:0:0:
410,279,142370,5,2,0:2:0:0:
266,384,142459,2,0,P|249:255|229:164,1,191.999994140625,0|0,3:3|0:2,0:2:0:0:
407,68,142727,2,0,P|331:71|354:183,1,191.999994140625,2|0,1:2|3:2,0:2:0:0:
211,267,142995,5,0,1:2:0:0:
135,246,143084,1,0,1:2:0:0:
58,224,143173,1,0,1:2:0:0:
0,146,143263,5,0,1:2:0:0:
77,124,143352,1,0,1:2:0:0:
153,103,143441,1,0,1:2:0:0:
225,175,143531,6,0,L|251:31,1,128,4|0,3:1|0:2,0:2:0:0:
332,14,143798,2,0,P|400:33|468:57,1,128,4|0,1:3|0:2,0:2:0:0:
508,107,144066,1,0,3:2:0:0:
439,212,144245,5,4,0:3:0:0:
442,195,144334,2,0,P|377:181|326:225,1,128,0|0,1:3|0:2,0:2:0:0:
245,228,144602,2,0,P|246:329|308:349,1,128,4|0,3:3|0:2,0:2:0:0:
278,354,144870,1,0,1:2:0:0:
461,380,145048,5,4,0:3:0:0:
489,375,145138,2,0,L|516:232,1,128,0|4,3:2|0:3,0:2:0:0:
442,195,145406,5,2,1:3:0:0:
442,195,145584,1,0,0:2:0:0:
481,96,145673,2,0,P|391:111|330:117,1,128,4|0,3:3|0:2,0:2:0:0:
327,206,145941,5,6,1:3:0:0:
327,206,146119,1,0,0:2:0:0:
366,305,146209,2,0,P|276:290|215:284,1,128,0|4,3:2|0:3,0:2:0:0:
205,212,146477,5,2,1:3:0:0:
205,212,146655,1,0,0:2:0:0:
244,113,146744,2,0,P|154:128|93:134,1,128,4|0,3:3|0:2,0:2:0:0:
87,218,147013,5,2,1:3:0:0:
87,218,147191,1,4,0:3:0:0:
126,317,147280,2,0,P|36:302|-25:296,1,128,0|4,3:2|3:3,0:2:0:0:
315,373,147548,1,0,1:2:0:0:
315,373,147816,6,0,P|328:301|337:239,1,128,4|0,3:2|0:2,0:2:0:0:
255,194,148084,2,0,P|242:122|233:60,1,128,4|0,1:3|0:2,0:2:0:0:
258,47,148352,1,0,3:2:0:0:
25,65,148531,5,4,0:3:0:0:
9,72,148620,2,0,P|75:140|122:124,1,128,0|0,1:2|0:2,0:2:0:0:
130,221,148888,2,0,P|215:200|283:191,1,128,4|0,3:3|0:2,0:2:0:0:
280,209,149156,1,0,1:2:0:0:
382,34,149334,5,4,0:3:0:0:
396,18,149423,2,0,P|484:38|478:91,1,128,0|4,3:2|3:3,0:2:0:0:
456,157,149691,5,4,1:3:0:0:
456,157,149870,1,0,0:2:0:0:
394,215,149959,2,0,P|403:281|410:308,1,80,4|0,3:2|0:2,0:2:0:0:
359,367,150227,5,2,0:3:0:0:
359,367,150406,1,0,0:2:0:0:
297,309,150495,2,0,P|306:242|313:215,1,80,0|0,0:2|0:2,0:2:0:0:
262,156,150763,5,2,0:3:0:0:
262,156,150942,1,0,0:2:0:0:
200,214,151031,2,0,P|209:280|216:307,1,80,0|0,0:2|0:2,0:2:0:0:
151,353,151298,5,2,0:3:0:0:
151,353,151477,1,0,0:2:0:0:
89,295,151566,2,0,P|98:228|105:201,1,80,0|0,0:3|0:3,0:3:0:0:
100,216,152102,6,0,P|152:223|190:189,1,95.9999970703126,4|0,3:2|0:2,0:2:0:0:
269,135,152370,2,0,P|316:132|306:224,1,143.999995605469,4|2,0:3|3:1,0:2:0:0:
478,327,152816,5,4,0:3:0:0:
478,327,152905,1,0,3:2:0:0:
374,384,153084,1,4,0:3:0:0:
374,384,153173,2,2,P|388:316|404:244,1,143.999995605469,4|0,3:3|0:2,0:1:0:0:
481,110,153620,1,4,0:3:0:0:
500,120,153709,2,0,P|487:176|441:179,1,95.9999970703126,0|0,3:2|0:2,0:2:0:0:
404,243,153977,2,2,P|348:260|323:222,1,95.9999970703126,4|0,0:3|0:2,0:1:0:0:
316,155,154245,5,0,3:2:0:0:
272,303,154513,2,2,P|207:320|107:352,1,143.999995605469,4|0,0:3|3:2,0:1:0:0:
19,234,154959,5,4,0:3:0:0:
29,215,155048,2,0,P|85:227|88:273,1,95.9999970703126,0|0,3:2|0:2,0:2:0:0:
133,342,155316,2,2,P|147:258|167:168,1,143.999995605469,4|0,3:3|0:2,0:1:0:0:
30,20,155763,5,4,0:3:0:0:
54,32,155852,2,0,P|64:82|77:150,1,95.9999970703126,0|4,3:2|0:3,0:2:0:0:
159,200,156120,2,0,P|168:152|177:105,1,95.9999970703126,4|0,0:3|0:2,0:2:0:0:
286,39,156388,6,0,P|340:38|351:88,1,95.9999970703126,4|0,3:2|0:2,0:2:0:0:
450,90,156656,2,0,P|419:155|399:224,1,143.999995605469,4|2,0:3|3:1,0:2:0:0:
294,309,157102,5,4,0:3:0:0:
294,309,157191,1,0,0:2:0:0:
478,374,157370,1,4,0:3:0:0:
478,374,157459,2,2,P|434:311|368:321,1,143.999995605469,0|0,3:2|0:2,0:1:0:0:
229,252,157906,1,4,0:3:0:0:
217,238,157995,2,2,P|205:192|185:128,1,95.9999970703126,0|0,3:2|0:2,0:1:0:0:
276,126,158263,2,0,P|292:81|318:20,1,95.9999970703126,4|0,0:3|0:2,0:2:0:0:
241,0,158531,5,4,3:3:0:0:
70,115,158798,2,2,P|71:69|169:86,1,143.999995605469,4|0,0:3|3:2,0:1:0:0:
191,145,159245,1,4,0:3:0:0:
174,162,159334,2,0,P|161:209|153:255,1,95.9999970703126,0|4,0:2|0:3,0:2:0:0:
114,330,159602,5,0,1:2:0:0:
413,157,159781,1,0,1:2:0:0:
484,199,160048,5,0,1:2:0:0:
473,218,160138,1,0,3:2:0:0:
422,244,160227,1,0,3:2:0:0:
364,228,160316,1,0,1:2:0:0:
326,159,160406,1,0,1:2:0:0:
19,52,160584,5,0,3:2:0:0:
26,34,160673,2,0,P|71:45|92:87,1,95.9999970703126,4|0,0:3|0:2,0:2:0:0:
94,265,160941,2,0,P|81:221|106:182,1,95.9999970703126,4|0,0:3|0:2,0:2:0:0:
258,91,161209,2,0,P|227:124|180:122,1,95.9999970703126,4|4,0:3|0:3,0:2:0:0:
180,122,161477,6,0,P|225:132|246:174,1,95.9999970703126,0|0,0:2|0:2,0:2:0:0:
275,248,161745,1,4,0:3:0:0:
246,174,161879,2,0,P|232:129|257:90,1,95.9999970703126,0|0,0:2|0:2,0:2:0:0:
257,90,162191,2,0,P|225:123|178:121,1,95.9999970703126,4|0,0:3|0:2,0:2:0:0:
98,100,162459,5,0,1:2:0:0:
315,26,162548,1,0,1:2:0:0:
338,299,162727,5,0,0:2:0:0:
275,248,162816,2,2,P|241:150|216:49,1,207.999990478516,4|0,0:2|0:2,0:1:0:0:
136,250,163084,2,2,P|237:270|337:298,1,207.999990478516,0|0,1:2|0:2,0:1:0:0:
204,129,163352,2,2,P|135:207|60:279,1,207.999990478516,0|0,3:2|1:2,0:1:0:0:
0,236,163620,5,0,0:2:0:0:
417,310,163798,1,0,0:2:0:0:
417,310,163888,5,2,1:1:0:0:
233,320,164066,5,8,0:3:0:0:
154,337,164156,1,8,0:3:0:0:
308,259,164334,5,4,0:3:0:0:
337,298,164424,1,4,0:3:0:0:
219,224,164602,5,0,3:3:0:0:
234,202,164692,1,0,3:3:0:0:
481,109,164959,6,0,P|448:241|434:321,1,207.999990478516,4|0,0:1|0:2,0:2:0:0:
499,383,165227,1,4,0:3:0:0:
499,383,165406,1,0,0:2:0:0:
356,379,165495,6,0,P|323:247|309:167,1,176.000005371094,0|4,0:2|0:3,0:2:0:0:
349,128,165763,1,0,0:2:0:0:
349,128,165942,1,0,0:2:0:0:
263,63,166031,6,4,P|242:138|231:195,2,107.999996704102,4|4|4,0:3|0:3|0:3,0:3:0:0:
166,266,166432,5,4,0:3:0:0:
166,266,166566,2,0,P|145:197|129:135,1,107.999996704102,4|0,0:3|1:2,0:2:0:0:
111,343,166834,1,0,1:2:0:0:
73,59,167102,6,2,P|53:145|25:273,1,207.999990478516,4|0,3:2|0:2,0:1:0:0:
166,266,167370,5,0,1:2:0:0:
149,214,167459,1,0,1:2:0:0:
135,162,167548,1,0,1:2:0:0:
242,178,167638,6,2,P|222:264|194:392,1,207.999990478516,4|0,3:2|0:2,0:1:0:0:
363,348,167906,5,0,1:2:0:0:
346,296,167995,1,0,1:2:0:0:
332,244,168084,1,0,1:2:0:0:
462,198,168173,5,4,0:3:0:0:
453,223,168262,1,4,0:3:0:0:
445,249,168351,1,4,0:3:0:0:
438,275,168440,1,4,0:3:0:0:
396,131,168620,5,0,1:2:0:0:
494,336,168709,1,0,1:2:0:0:
396,131,168888,5,0,1:2:0:0:
494,336,168977,1,0,3:2:0:0:
100,279,169245,6,0,P|69:248|68:209,1,80,4|0,3:2|0:2,0:2:0:0:
107,113,169423,1,0,0:2:0:0:
116,101,169513,2,0,P|181:188|136:243,1,160,4|0,0:3|0:2,0:2:0:0:
234,288,169781,6,0,B|279:281|316:208|316:208|317:296|378:334,1,240.000009155274,4|4,0:3|0:3,0:2:0:0:
510,380,170048,6,0,B|474:348|468:311|468:311|461:349|417:380,1,160,0|0,0:2|0:2,0:2:0:0:
411,240,170316,5,4,0:3:0:0:
198,339,170495,2,0,L|357:318,1,160,0|0,0:2|0:2,0:2:0:0:
184,365,170763,6,0,L|41:345,1,143.999995605469,4|0,0:3|1:2,0:2:0:0:
132,257,171120,1,0,1:2:0:0:
132,257,171388,5,0,1:2:0:0:
48,243,171477,1,0,1:2:0:0:
19,165,171566,1,0,1:2:0:0:
71,100,171656,1,0,1:2:0:0:
153,112,171745,1,0,1:2:0:0:
184,191,171834,1,0,1:2:0:0:
269,254,171923,5,8,0:3:0:0:
345,210,172013,1,8,0:3:0:0:
343,296,172102,1,8,0:3:0:0:
416,354,172191,5,8,0:3:0:0:
499,337,172280,1,8,0:3:0:0:
441,272,172370,1,8,0:3:0:0:
336,319,172459,5,4,0:3:0:0:
296,327,172548,1,4,0:3:0:0:
257,335,172637,1,4,0:3:0:0:
189,384,172727,5,4,0:3:0:0:
169,380,172816,1,4,0:3:0:0:
149,376,172905,1,4,0:3:0:0:
61,384,172995,6,2,B|19:299|39:220|128:256|149:168|80:57,1,320,0|0,3:2|0:2,0:1:0:0:
48,33,173441,1,0,3:2:0:0:
147,293,173531,5,2,1:2:0:0:
217,257,173798,1,0,0:2:0:0:
217,257,173977,1,0,0:2:0:0:
264,180,174066,5,2,0:2:0:0:
306,189,174334,1,0,0:2:0:0:
306,189,174513,1,0,0:2:0:0:
389,152,174602,5,2,0:2:0:0:
409,173,174869,1,0,0:2:0:0:
409,173,175048,1,0,0:2:0:0:
493,222,175138,5,2,0:2:0:0:
493,222,175405,1,0,0:2:0:0:
493,222,175584,1,0,0:2:0:0:
493,222,175852,5,2,0:2:0:0:
487,198,175941,1,0,0:2:0:0:
306,189,176120,5,0,0:2:0:0:
262,177,176209,1,2,0:2:0:0:
178,320,176388,5,0,0:2:0:0:
126,376,176477,1,2,0:2:0:0:
488,357,176745,6,0,B|349:387|421:247|258:288,1,240,2|0,0:2|0:2,0:2:0:0:
278,283,177414,5,2,0:2:0:0:
362,260,177548,1,2,0:2:0:0:
346,339,177682,1,2,0:2:0:0:
32,21,177816,6,2,P|43:119|243:133,1,320,2|0,3:2|0:2,0:1:0:0:
84,254,178352,6,2,P|92:175|252:164,1,240.000009155274,4|0,3:2|0:2,0:1:0:0:
301,207,178620,5,0,1:2:0:0:
370,243,178709,1,0,1:2:0:0:
444,220,178798,1,0,1:2:0:0:
481,151,178887,1,0,1:2:0:0:
0,201,179066,6,2,P|160:246|331:322,1,320,4|0,3:2|0:2,0:1:0:0:
410,329,179334,6,2,P|320:347|211:384,1,180.000006866455,4|0,3:2|0:2,0:1:0:0:
142,361,179691,5,0,0:2:0:0:
142,361,179870,1,2,0:2:0:0:
118,371,180138,5,0,0:2:0:0:
142,361,180227,1,0,0:2:0:0:
142,361,180406,1,2,0:2:0:0:
118,371,180673,5,0,0:2:0:0:
142,361,180762,1,0,0:2:0:0:
142,361,180941,1,2,0:2:0:0:
118,371,181209,5,0,0:2:0:0:
142,361,181298,1,0,0:2:0:0:
142,361,181477,1,2,0:2:0:0:
118,371,181745,5,0,0:2:0:0:
202,301,181834,1,0,0:2:0:0:
202,301,182013,1,0,0:2:0:0:
162,213,182102,6,0,P|119:258|47:249,1,120.000004577637,2|2,0:3|0:0,0:0:0:0:
19,189,182370,1,0,0:2:0:0:
88,24,182548,5,0,0:2:0:0:
106,17,182638,2,0,P|175:51|246:82,1,120.000004577637,2|0,0:3|0:1,0:1:0:0:
225,91,182906,5,0,0:2:0:0:
303,251,183084,1,0,0:2:0:0:
329,182,183173,1,2,0:3:0:0:
382,358,183352,1,0,0:2:0:0:
382,358,183620,6,0,B|488:333|401:268|535:238,2,180.000006866455,2|2|0,0:2|0:2|0:2,0:2:0:0:
370,352,184245,1,2,0:3:0:0:
163,267,184423,5,2,0:2:0:0:
144,277,184513,2,0,P|171:331|226:318,1,120.000004577637,2|0,0:2|0:2,0:2:0:0:
279,264,184781,1,2,0:3:0:0:
99,128,184959,5,2,0:2:0:0:
118,138,185049,2,0,P|91:192|36:179,1,120.000004577637,2|0,0:3|0:0,0:0:0:0:
36,87,185316,5,8,0:3:0:0:
144,277,185495,1,4,0:3:0:0:
336,50,185763,5,4,0:3:0:0:
362,128,185852,1,4,0:3:0:0:
505,164,186031,5,4,0:3:0:0:
486,200,186120,1,4,0:3:0:0:
512,382,186388,5,2,0:3:0:0:
458,323,186566,2,0,P|395:312|369:379,1,120,0|0,0:2|0:2,0:2:0:0:
294,384,186923,2,0,P|287:328|275:269,1,80,2|0,0:3|0:2,0:2:0:0:
279,283,187191,1,0,0:2:0:0:
398,245,187370,5,0,0:2:0:0:
402,218,187459,2,0,L|418:77,1,120,2|0,0:3|0:2,0:2:0:0:
306,167,187906,1,0,0:2:0:0:
297,173,187995,2,0,L|196:183,1,80,2|0,0:3|0:2,0:2:0:0:
139,154,188263,6,0,L|157:96,2,40,2|0|0,0:3|0:2|0:2,0:2:0:0:
64,196,188531,2,0,P|112:140|218:183,1,200,2|0,0:3|0:2,0:2:0:0:
297,173,189066,2,0,P|284:212|276:251,1,80,2|0,0:3|0:2,0:2:0:0:
192,249,189334,2,0,P|205:288|213:327,1,80,0|0,0:3|0:2,0:2:0:0:
301,367,189602,6,0,P|336:363|299:364,1,120,2|0,0:3|0:2,0:2:0:0:
144,351,190048,1,0,0:2:0:0:
144,351,190138,1,0,3:2:0:0:
47,384,190316,2,0,P|64:315|74:257,1,120,2|0,0:2|0:2,0:2:0:0:
67,242,190673,1,4,0:2:0:0:
144,351,190941,5,2,0:2:0:0:
222,336,191209,5,2,3:2:0:0:
284,263,191477,5,2,0:2:0:0:
275,140,191745,5,2,0:2:0:0:
145,64,192013,6,2,L|107:107,1,32,2|2,0:2|0:2,0:2:0:0:
147,85,192102,6,2,L|125:133,1,32,2|2,0:2|0:2,0:2:0:0:
150,106,192191,6,2,L|141:159,1,32,2|2,0:2|0:2,0:2:0:0:
153,127,192281,6,2,B|215:161|280:115|239:69|313:33|387:69,1,239.999992675781,0|0,3:2|0:2,0:1:0:0:
512,226,192816,6,2,P|515:151|380:185,1,240,4|0,3:2|3:2,0:1:0:0:
391,358,193173,5,0,1:2:0:0:
395,306,193263,1,0,1:2:0:0:
399,262,193352,2,2,P|362:181|289:210,1,167.999994873047,0|0,1:2|3:2,0:1:0:0:
215,315,193709,5,0,1:2:0:0:
246,296,193798,1,0,1:2:0:0:
275,278,193888,2,2,P|245:195|193:211,1,143.999995605469,0|0,1:2|3:2,0:1:0:0:
96,227,194245,5,0,1:2:0:0:
118,226,194334,1,0,1:2:0:0:
137,225,194423,2,2,P|155:159|136:135,1,80,0|0,1:2|3:2,0:1:0:0:
125,133,194691,5,0,1:2:0:0:
137,225,194781,5,0,1:2:0:0:
149,317,194870,5,0,1:2:0:0:
83,362,194959,6,2,B|32:370|32:370|78:320,1,103.999995239258,0|0,3:2|0:2,0:1:0:0:
413,164,195138,2,2,B|463:155|463:155|418:206,1,103.999995239258,8|0,0:3|0:2,0:1:0:0:
136,224,195316,6,2,B|101:185|101:185|152:194,1,103.999995239258,4|0,0:3|0:2,0:1:0:0:
377,291,195495,2,2,B|412:329|412:329|361:321,1,103.999995239258,4|0,0:3|0:2,0:1:0:0:
246,105,195673,6,2,L|260:236,1,103.999995239258,8|0,0:3|0:2,0:1:0:0:
269,310,195852,1,4,1:3:0:0:
273,325,196566,5,4,0:3:0:0:
196,304,196745,5,2,0:2:0:0:
350,357,196834,1,2,0:2:0:0:
130,356,197013,5,2,0:2:0:0:
422,286,197102,2,0,L|431:320,1,32,4|0,3:2|0:2,0:2:0:0:
505,221,197370,6,2,L|76:336,1,320,4|0,1:2|0:2,0:1:0:0:
16,36,197638,2,0,P|83:15|136:153,1,240.000009155274,0|0,3:2|3:3,0:2:0:0:
91,207,197906,5,0,1:2:0:0:
232,24,198039,1,0,0:2:0:0:
285,252,198173,2,0,P|236:363|131:288,1,240.000009155274,0|0,3:2|0:2,0:2:0:0:
144,305,198441,1,0,1:2:0:0:
510,62,198620,2,0,B|379:94|379:94|371:119|371:119|210:156,1,240.000009155274,0|0,3:2|0:2,0:2:0:0:
479,268,198888,5,0,3:2:0:0:
499,272,198977,2,0,P|508:220|445:172,1,120.000004577637,2|0,1:3|0:2,0:2:0:0:
205,174,199156,2,0,P|272:248|406:245,1,240.000009155274,0|0,3:2|0:2,0:2:0:0:
316,68,199423,5,0,3:2:0:0:
296,64,199513,2,0,P|286:115|350:164,1,120.000004577637,2|0,1:3|0:2,0:2:0:0:
432,351,199691,2,0,P|365:277|231:280,1,240.000009155274,0|0,0:2|0:2,0:2:0:0:
10,354,199959,1,0,3:2:0:0:
19,373,200048,6,0,P|135:285|89:231,1,240.000009155274,2|0,1:3|0:2,0:2:0:0:
51,3,200316,2,0,P|89:114|189:177,1,240.000009155274,2|0,3:3|0:2,0:2:0:0:
243,276,200584,2,0,P|282:232|340:231,1,120.000004577637,2|0,1:3|0:2,0:2:0:0:
492,308,200763,2,0,B|436:258|331:303|405:332|327:375|256:341,1,240.000009155274,2|0,3:3|0:2,0:2:0:0:
243,276,201031,5,0,3:2:0:0:
437,374,201120,2,0,P|459:250|475:122,1,240.000009155274,0|0,1:2|0:2,0:2:0:0:
444,47,201388,6,0,P|416:6|426:65,1,160,4|0,3:2|0:2,0:2:0:0:
473,136,201656,5,2,1:2:0:0:
351,221,201745,1,2,0:2:0:0:
397,158,201834,1,2,0:2:0:0:
351,300,201923,6,0,P|424:333|449:204,1,240.000009155274,2|0,3:2|3:2,0:0:0:0:
290,154,202191,2,0,P|248:192|275:250,1,120.000004577637,0|0,1:2|0:2,0:2:0:0:
428,336,202370,5,0,0:2:0:0:
455,341,202459,2,0,P|489:308|481:218,1,120.000004577637,0|0,3:2|0:2,0:2:0:0:
159,162,202638,2,0,P|186:289|301:345,1,240.000009155274,0|0,0:2|0:2,0:2:0:0:
474,152,202906,2,0,B|323:145|409:255|247:244,1,240.000009155274,0|0,3:2|0:2,0:2:0:0:
230,53,203173,5,0,3:2:0:0:
246,46,203263,2,0,P|271:71|178:130,1,120.000004577637,0|0,1:2|0:2,0:2:0:0:
11,270,203441,2,0,P|46:155|100:48,1,240.000009155274,0|0,3:2|0:2,0:2:0:0:
249,144,203709,5,0,3:2:0:0:
256,159,203799,2,0,P|231:184|171:90,1,120.000004577637,0|0,1:2|0:2,0:2:0:0:
7,49,203977,2,0,P|70:181|100:289,1,240.000009155274,0|0,0:2|0:2,0:2:0:0:
162,384,204245,5,0,3:2:0:0:
148,384,204335,2,0,P|164:350|340:250,1,240.000009155274,0|0,1:2|0:2,0:2:0:0:
512,228,204602,5,8,0:3:0:0:
412,290,204691,1,8,0:3:0:0:
376,180,204780,1,8,0:3:0:0:
296,114,204870,5,4,0:3:0:0:
368,159,204959,1,4,0:3:0:0:
394,79,205048,1,4,0:3:0:0:
341,25,205138,5,0,3:2:0:0:
306,35,205227,1,0,3:2:0:0:
314,0,205316,1,4,3:2:0:0:
68,284,205584,6,2,B|21:289|-24:307|-24:307|68:311|272:391,1,360.000013732911,4|0,3:2|3:2,0:1:0:0:
341,371,205941,2,0,P|324:325|295:237,1,120.000004577637,0|0,1:2|0:2,0:2:0:0:
176,0,206120,5,0,3:2:0:0:
199,10,206209,2,2,B|221:24|221:24|-29:88,1,240.000009155274,0|0,3:2|3:2,0:1:0:0:
40,169,206477,2,0,L|252:216,1,120.000004577637,0|0,1:2|0:2,0:2:0:0:
440,119,206656,5,0,0:2:0:0:
457,110,206745,2,2,P|497:-5|494:-39,1,120.000004577637,0|0,3:2|0:2,0:1:0:0:
347,213,206923,5,0,0:2:0:0:
330,204,207012,2,0,P|290:89|293:55,1,120.000004577637,0|0,1:2|0:2,0:2:0:0:
512,269,207191,2,2,P|387:303|282:407,1,240.000009155274,0|0,3:2|0:2,0:1:0:0:
263,287,207459,5,0,3:2:0:0:
450,366,207548,1,0,1:2:0:0:
239,206,207727,2,0,P|186:253|196:340,1,160,0|0,3:2|0:2,0:2:0:0:
362,296,207995,6,2,P|333:287|300:293,1,40,0|0,3:2|0:2,0:1:0:0:
374,282,208084,2,0,P|293:269|241:309,1,120.000004577637,0|0,1:2|0:2,0:2:0:0:
43,343,208263,5,0,0:2:0:0:
58,383,208352,2,2,P|104:235|125:127,1,240.000009155274,0|0,3:2|3:2,0:1:0:0:
261,48,208620,2,0,P|123:71|-10:91,1,240.000009155274,0|0,1:2|3:2,0:2:0:0:
0,0,208888,5,2,3:1:0:0:
214,147,209022,1,0,0:2:0:0:
512,110,209156,1,0,1:2:0:0:
463,382,209289,2,2,B|476:294|430:175|337:276|310:133|362:26,1,360.000013732911,0|0,3:2|3:2,0:1:0:0:
433,73,209691,6,0,P|428:122|459:176,1,80,0|0,1:2|0:2,0:2:0:0:
368,383,209870,2,0,P|372:333|248:311,1,160,0|0,0:2|0:2,0:2:0:0:
266,296,210138,5,2,3:2:0:0:
210,363,210227,2,0,P|185:334|191:268,1,80,2|0,1:2|0:2,0:2:0:0:
37,85,210406,5,2,0:2:0:0:
93,152,210495,2,0,P|118:123|112:57,1,80,2|0,3:2|0:2,0:2:0:0:
38,241,210673,5,2,3:2:0:0:
0,160,210763,2,0,P|66:168|232:251,1,200,0|0,1:2|3:2,0:2:0:0:
512,132,211031,6,2,P|501:32|398:81,1,240.000009155274,0|0,3:2|0:2,0:1:0:0:
257,175,211298,2,2,P|303:121|336:167,1,120.000004577637,0|0,1:2|0:2,0:1:0:0:
455,293,211477,5,0,3:2:0:0:
512,242,211566,2,2,P|502:192|497:147,1,95.9999970703126,0|0,0:2|0:2,0:1:0:0:
269,93,211745,5,0,3:2:0:0:
330,140,211834,2,2,P|340:190|345:235,1,95.9999970703126,0|0,1:2|0:2,0:1:0:0:
217,351,212013,5,0,0:2:0:0:
311,333,212102,2,2,B|255:371|182:327|223:284|161:231|70:287,1,240.000009155274,0|0,3:2|0:2,0:1:0:0:
37,223,212370,2,0,B|10:214|5:184|5:184|-13:227|44:262,1,120.000004577637,0|0,1:2|0:2,0:2:0:0:
102,271,212548,1,0,0:2:0:0:
165,220,212638,5,2,3:2:0:0:
162,200,212727,1,2,0:2:0:0:
153,182,212816,1,2,3:2:0:0:
214,129,212906,5,2,1:2:0:0:
174,100,212995,1,2,0:2:0:0:
126,104,213084,1,2,0:2:0:0:
31,75,213173,6,0,P|158:63|275:42,1,240.000009155274,2|0,3:2|0:2,0:2:0:0:
336,179,213441,2,2,P|391:193|463:225,1,120.000004577637,0|0,1:2|0:2,0:1:0:0:
467,208,213620,1,2,1:1:0:0:
368,100,213709,5,0,1:2:0:0:
330,185,213798,1,0,1:2:0:0:
293,271,213888,1,0,1:2:0:0:
248,370,213977,5,0,1:2:0:0:
210,285,214066,1,0,1:2:0:0:
173,199,214156,1,0,1:2:0:0:
33,150,214245,6,2,B|-28:115|-2:38|84:0|178:150|84:262,1,320,4|0,3:2|0:2,0:1:0:0:
18,351,214781,6,2,B|90:395|174:342|117:282|212:217|290:290,1,320,4|0,3:2|0:2,0:1:0:0:
494,230,215316,6,2,B|430:225|400:303|400:303|395:218|288:173,1,256,4|0,3:2|0:2,0:1:0:0:
425,136,215763,5,2,3:2:0:0:
419,165,215852,1,6,1:2:0:0:
401,110,215942,1,2,0:2:0:0:
457,123,216031,1,2,0:2:0:0:
335,156,216119,5,2,0:2:0:0:
230,129,216209,1,2,0:2:0:0:
307,52,216298,1,2,0:2:0:0:
291,112,216388,5,6,1:2:0:0:
0,384,218263,5,4,0:3:0:0:
466,297,218531,6,0,P|393:282|314:256,1,128,4|0,3:1|0:2,0:2:0:0:
320,353,218798,2,0,P|247:368|168:394,1,128,4|0,0:3|0:2,0:2:0:0:
175,374,219066,1,0,3:2:0:0:
52,170,219245,5,4,0:3:0:0:
61,155,219334,2,0,P|83:222|39:250,1,128,0|0,0:2|0:2,0:2:0:0:
43,249,219602,2,0,B|159:247|91:169|223:177,1,192,4|0,3:3|0:2,0:2:0:0:
430,34,220048,5,4,0:3:0:0:
444,22,220138,2,0,P|486:86|487:137,1,128,0|4,3:2|0:3,0:2:0:0:
462,248,220406,5,6,0:3:0:0:
462,248,220584,1,0,0:2:0:0:
415,323,220673,2,0,P|462:379|524:375,1,128,4|0,3:3|0:2,0:2:0:0:
371,256,220941,5,6,0:3:0:0:
371,256,221119,1,0,0:2:0:0:
284,275,221209,2,0,P|277:347|324:388,1,128,0|4,3:2|0:3,0:2:0:0:
300,197,221477,5,2,0:3:0:0:
300,197,221655,1,0,0:2:0:0:
226,149,221744,2,0,P|169:196|174:258,1,128,4|0,3:3|0:2,0:2:0:0:
292,106,222014,5,2,0:3:0:0:
292,106,222192,1,4,0:3:0:0:
274,19,222281,2,0,P|201:12|160:59,1,128,0|4,3:2|0:3,0:2:0:0:
162,70,222548,1,2,1:3:0:0:
487,35,222727,5,0,0:2:0:0:
501,47,222816,2,0,P|489:110|474:180,1,128,4|0,3:3|0:2,0:2:0:0:
390,240,223084,2,0,P|402:303|417:373,1,128,4|0,0:3|0:2,0:2:0:0:
443,372,223352,1,0,3:2:0:0:
264,263,223531,5,4,0:3:0:0:
272,247,223620,2,0,P|194:259|131:267,1,128,0|0,0:0|0:2,0:2:0:0:
108,353,223888,2,0,P|28:343|40:233,1,192,4|0,3:3|0:2,0:2:0:0:
190,61,224334,5,4,0:3:0:0:
199,47,224423,2,0,P|114:28|52:15,1,128,0|4,3:2|0:3,0:2:0:0:
22,96,224691,5,2,1:2:0:0:
22,96,224870,1,0,0:2:0:0:
92,143,224959,2,0,P|124:215|155:280,1,128,4|0,3:3|0:2,0:2:0:0:
198,330,225227,5,6,0:3:0:0:
198,330,225406,1,0,0:2:0:0:
268,283,225495,2,0,P|300:211|331:146,1,128,0|4,3:0|0:3,0:0:0:0:
366,87,225763,5,2,0:3:0:0:
366,87,225942,1,0,0:2:0:0:
436,134,226031,2,0,P|468:206|499:271,1,128,4|0,3:3|0:2,0:2:0:0:
444,324,226298,5,2,0:3:0:0:
444,324,226477,1,0,1:2:0:0:
376,362,226566,5,0,1:2:0:0:
327,320,226655,1,0,1:2:0:0:
267,298,226744,1,0,1:2:0:0:
230,228,226834,5,0,1:2:0:0:
165,283,226923,1,0,1:2:0:0:
85,312,227012,1,0,1:2:0:0:
0,299,227102,6,0,B|-11:170|-11:170|21:149|39:102,1,191.999994140625,4|0,3:3|0:2,0:2:0:0:
0,24,227370,2,0,P|14:83|168:35,1,191.999994140625,0|0,1:3|0:2,0:2:0:0:
182,44,227638,2,0,B|187:20|202:5|202:5|172:16|155:48,1,95.9999970703126,0|0,3:2|0:2,0:2:0:0:
128,192,227816,5,0,3:3:0:0:
193,151,227906,2,0,P|265:169|277:219,1,128,0|0,1:2|0:2,0:2:0:0:
203,302,228173,6,0,B|257:292|257:292|329:131|329:131|407:118,1,287.999991210938,0|0,3:2|1:2,0:2:0:0:
497,347,228620,5,0,3:2:0:0:
448,286,228709,2,0,P|376:269|343:339,1,160,0|0,3:2|3:2,0:2:0:0:
257,370,228977,5,0,1:2:0:0:
257,370,229156,1,0,0:2:0:0:
203,302,229245,2,0,P|216:222|232:118,1,160,0|0,3:2|0:2,0:2:0:0:
201,0,229513,5,0,1:2:0:0:
201,0,229691,1,0,0:2:0:0:
147,68,229780,2,0,P|160:148|176:252,1,160,0|0,3:2|3:2,0:2:0:0:
342,336,230048,5,0,1:2:0:0:
342,336,230227,1,0,0:2:0:0:
392,270,230316,2,0,P|405:190|421:86,1,160,0|0,3:2|0:2,0:2:0:0:
326,2,230584,5,0,1:2:0:0:
326,2,230762,1,0,3:2:0:0:
272,70,230852,2,0,P|285:150|301:254,1,160,0|0,3:2|0:2,0:2:0:0:
178,363,231120,2,0,B|128:361|88:317|121:320|102:280|17:285,1,160,0|0,1:2|0:2,0:2:0:0:
32,271,231388,6,0,P|70:270|107:243,1,80,0|0,3:2|0:2,0:2:0:0:
195,276,231566,5,0,1:2:0:0:
253,322,231656,2,0,P|291:322|328:349,1,80,0|0,0:2|0:2,0:2:0:0:
512,253,231834,5,0,3:2:0:0:
449,205,231924,2,0,P|410:205|373:232,1,80,0|0,1:2|0:2,0:2:0:0:
225,136,232102,5,0,1:2:0:0:
253,57,232191,1,0,1:2:0:0:
330,22,232281,1,0,1:2:0:0:
412,41,232370,1,0,1:2:0:0:
382,114,232460,2,0,P|348:132|303:128,1,80,0|0,3:2|0:2,0:2:0:0:
205,259,232638,5,0,1:2:0:0:
148,206,232728,2,0,P|114:187|69:191,1,80,0|0,3:2|0:2,0:2:0:0:
8,231,232906,1,0,1:2:0:0:
55,121,232995,5,0,1:2:0:0:
76,197,233084,1,0,1:2:0:0:
98,274,233173,1,0,1:2:0:0:
208,350,233263,5,0,1:2:0:0:
230,273,233352,1,0,1:2:0:0:
251,197,233441,1,0,1:2:0:0:
366,108,233531,5,0,1:2:0:0:
503,171,233798,5,2,0:2:0:0:
503,171,233977,1,0,0:2:0:0:
425,200,234066,1,0,0:2:0:0:
468,301,234334,5,2,0:2:0:0:
468,301,234512,1,0,0:2:0:0:
390,272,234602,1,0,0:2:0:0:
375,373,234870,5,2,0:2:0:0:
375,373,235048,1,0,0:2:0:0:
310,300,235138,1,0,0:2:0:0:
195,332,235406,6,2,B|263:355|347:277|278:257|357:176|436:203,1,287.999991210938,6|0,0:2|0:2,0:1:0:0:
