osu file format v14

[General]
AudioFilename: audio.mp3
AudioLeadIn: 0
PreviewTime: 49307
Countdown: 0
SampleSet: Normal
StackLeniency: 0.7
Mode: 1
LetterboxInBreaks: 0
WidescreenStoryboard: 0

[Editor]
DistanceSpacing: 0.8
BeatDivisor: 4
GridSize: 32
TimelineZoom: 1.3

[Metadata]
Title:comet
TitleUnicode:comet
Artist:Hoshimachi Suisei
ArtistUnicode:星街すいせい
Creator:komasy
Version:futsuu
Source:
Tags:日本語 Japanese Electronic Pop Future Bass Core Cut Ver Version *Luna はるお Haruo VTuber Virtual YouTuber バーチャルYouTuber ホロライブ Hololive Hoshimati Hosimati Speed Taiko Mapping Contest #2 STMC2 tasuke912
BeatmapID:2445339
BeatmapSetID:1172244

[Difficulty]
HPDrainRate:7
CircleSize:5
OverallDifficulty:3.6
ApproachRate:6
SliderMultiplier:1.4
SliderTickRate:1

[Events]
//Background and Video events
0,0,"bg.jpg",0,140
//Break Periods
//Storyboard Layer 0 (Background)
//Storyboard Layer 1 (Fail)
//Storyboard Layer 2 (Pass)
//Storyboard Layer 3 (Foreground)
//Storyboard Layer 4 (Overlay)
//Storyboard Sound Samples

[TimingPoints]
141,370.37037037037,4,1,0,50,1,8
1622,370.37037037037,4,1,0,50,1,0
1622,-100,4,1,0,50,0,0
7448,-100,4,1,0,60,0,0
11894,-100,4,1,0,20,0,0
13375,-100,4,1,0,70,0,0
13473,-100,4,1,0,70,0,1
25227,-100,4,1,0,60,0,1
25325,-100,4,1,0,60,0,0
35598,-100,4,1,0,30,0,0
37079,-100,4,1,0,60,0,0
43005,-100,4,1,0,70,0,0
47449,-100,4,1,0,60,0,0
48283,-100,4,1,0,50,0,0
48931,-100,4,1,0,20,0,0
49301,-100,4,1,0,50,0,0
50510,-100,4,1,0,70,0,1
56436,-100,4,1,0,70,0,0
57177,-100,4,1,0,70,0,1
61621,-100,4,1,0,70,0,0
62362,-100,4,1,0,70,0,1
68288,-100,4,1,0,70,0,0
69029,-100,4,1,0,70,0,1
73473,-100,4,1,0,70,0,0
74214,-100,4,1,0,70,0,1
86066,-100,4,1,0,70,0,0

[HitObjects]
160,96,1622,5,0,0:0:0:0:
352,96,2362,1,8,0:0:0:0:
352,96,2733,1,8,0:0:0:0:
160,96,3288,1,0,0:0:0:0:
160,96,3473,1,0,0:0:0:0:
352,96,3844,1,8,0:0:0:0:
160,96,4584,1,0,0:0:0:0:
352,96,5325,1,8,0:0:0:0:
160,96,5881,1,0,0:0:0:0:
160,96,6251,1,0,0:0:0:0:
160,96,6436,1,0,0:0:0:0:
352,96,6807,1,8,0:0:0:0:
160,96,7547,1,0,0:0:0:0:
352,96,7918,1,8,0:0:0:0:
160,96,8288,1,0,0:0:0:0:
352,96,8844,1,8,0:0:0:0:
160,96,9029,1,0,0:0:0:0:
352,96,9399,1,8,0:0:0:0:
160,96,9770,1,0,0:0:0:0:
160,96,10325,1,0,0:0:0:0:
160,96,10510,1,0,0:0:0:0:
160,96,10881,1,0,0:0:0:0:
352,96,11251,1,8,0:0:0:0:
352,96,11529,1,8,0:0:0:0:
160,96,11807,1,0,0:0:0:0:
256,192,11992,12,0,13103,0:0:0:0:
160,288,13473,5,4,0:0:0:0:
352,96,14214,1,8,0:0:0:0:
352,96,14492,1,8,0:0:0:0:
160,96,14770,1,0,0:0:0:0:
352,96,15140,1,8,0:0:0:0:
160,96,15510,1,0,0:0:0:0:
352,96,15881,1,8,0:0:0:0:
352,96,16066,1,8,0:0:0:0:
160,96,16436,1,0,0:0:0:0:
160,96,16992,1,0,0:0:0:0:
352,96,17177,1,8,0:0:0:0:
352,96,17547,1,8,0:0:0:0:
160,96,17733,1,0,0:0:0:0:
160,96,18103,1,0,0:0:0:0:
352,96,18659,1,8,0:0:0:0:
352,96,18936,1,8,0:0:0:0:
352,96,19214,1,8,0:0:0:0:
160,288,19399,1,4,0:0:0:0:
352,96,20140,1,8,0:0:0:0:
160,96,20418,1,0,0:0:0:0:
160,96,20696,1,0,0:0:0:0:
160,96,21066,1,0,0:0:0:0:
352,96,21436,1,8,0:0:0:0:
352,96,21807,1,8,0:0:0:0:
352,96,21992,1,8,0:0:0:0:
160,96,22362,1,0,0:0:0:0:
160,96,22918,1,0,0:0:0:0:
352,96,23103,1,8,0:0:0:0:
352,96,23473,1,8,0:0:0:0:
160,96,23659,1,0,0:0:0:0:
160,96,24029,1,0,0:0:0:0:
352,96,24399,1,8,0:0:0:0:
352,96,24584,1,8,0:0:0:0:
160,96,24770,1,0,0:0:0:0:
160,96,25325,5,0,0:0:0:0:
352,96,26066,1,8,0:0:0:0:
352,96,26344,1,8,0:0:0:0:
352,96,26621,1,8,0:0:0:0:
160,96,26807,1,0,0:0:0:0:
352,96,27547,1,8,0:0:0:0:
352,96,27825,1,8,0:0:0:0:
160,96,28103,1,0,0:0:0:0:
160,96,28288,1,0,0:0:0:0:
160,96,28844,1,0,0:0:0:0:
352,96,29029,1,8,0:0:0:0:
352,96,29399,1,8,0:0:0:0:
160,96,30325,1,0,0:0:0:0:
352,96,30510,1,8,0:0:0:0:
352,96,30788,1,8,0:0:0:0:
352,96,31066,1,8,0:0:0:0:
160,96,31251,1,0,0:0:0:0:
160,96,31807,1,0,0:0:0:0:
160,96,32177,1,0,0:0:0:0:
352,96,32547,1,8,0:0:0:0:
352,96,32918,1,8,0:0:0:0:
352,96,33103,1,8,0:0:0:0:
160,96,33659,1,0,0:0:0:0:
352,96,33844,1,8,0:0:0:0:
160,96,34214,1,0,0:0:0:0:
352,96,34584,1,8,0:0:0:0:
352,96,34955,1,8,0:0:0:0:
160,96,35140,1,0,0:0:0:0:
352,96,35325,1,8,0:0:0:0:
256,192,35696,12,0,36436,0:0:0:0:
160,96,37177,5,0,0:0:0:0:
160,96,37547,1,0,0:0:0:0:
160,96,37918,1,0,0:0:0:0:
160,96,38196,1,0,0:0:0:0:
160,96,38473,1,0,0:0:0:0:
352,96,39214,1,8,0:0:0:0:
352,96,39399,1,8,0:0:0:0:
267,95,39677,1,0,0:0:0:0:
267,95,39955,1,0,0:0:0:0:
352,96,40140,1,8,0:0:0:0:
352,96,40510,1,8,0:0:0:0:
352,96,40881,1,8,0:0:0:0:
352,96,41159,1,8,0:0:0:0:
352,96,41436,1,8,0:0:0:0:
352,288,41992,1,12,0:0:0:0:
352,96,43103,1,8,0:0:0:0:
352,96,43473,1,8,0:0:0:0:
352,96,43844,1,8,0:0:0:0:
352,96,44214,1,8,0:0:0:0:
160,96,44399,1,0,0:0:0:0:
352,96,44584,1,8,0:0:0:0:
352,96,44955,1,8,0:0:0:0:
352,96,45325,1,8,0:0:0:0:
352,96,45696,1,8,0:0:0:0:
160,96,45881,1,0,0:0:0:0:
352,96,46066,1,8,0:0:0:0:
160,96,46436,1,0,0:0:0:0:
352,96,46807,1,8,0:0:0:0:
352,96,46992,1,8,0:0:0:0:
160,96,47177,1,0,0:0:0:0:
256,192,47362,12,0,48844,0:0:0:0:
352,96,49399,5,8,0:0:0:0:
352,96,49770,1,8,0:0:0:0:
352,96,50140,1,8,0:0:0:0:
160,288,50510,5,4,0:0:0:0:
352,96,50881,1,8,0:0:0:0:
160,96,51251,1,0,0:0:0:0:
160,96,51529,1,0,0:0:0:0:
352,96,51807,1,8,0:0:0:0:
160,96,52177,1,0,0:0:0:0:
160,96,52733,1,0,0:0:0:0:
160,96,53010,1,0,0:0:0:0:
160,96,53288,1,0,0:0:0:0:
352,96,53473,1,8,0:0:0:0:
160,96,53844,1,0,0:0:0:0:
352,96,54214,1,8,0:0:0:0:
160,96,54492,1,0,0:0:0:0:
160,96,54770,1,0,0:0:0:0:
352,96,55140,1,8,0:0:0:0:
160,96,55510,1,0,0:0:0:0:
160,96,55881,1,0,0:0:0:0:
352,96,56066,1,8,0:0:0:0:
352,96,56251,1,8,0:0:0:0:
160,288,56436,1,4,0:0:0:0:
160,96,57177,1,0,0:0:0:0:
160,96,57455,1,0,0:0:0:0:
160,96,57733,1,0,0:0:0:0:
352,96,58103,1,8,0:0:0:0:
160,96,58659,1,0,0:0:0:0:
352,96,58936,1,8,0:0:0:0:
352,96,59214,1,8,0:0:0:0:
160,96,59399,1,0,0:0:0:0:
160,96,59770,1,0,0:0:0:0:
352,96,60140,1,8,0:0:0:0:
160,288,60510,1,4,0:0:0:0:
160,288,61066,1,4,0:0:0:0:
160,288,61621,1,4,0:0:0:0:
160,288,62362,5,4,0:0:0:0:
352,96,62733,1,8,0:0:0:0:
160,96,63103,1,0,0:0:0:0:
352,96,63381,1,8,0:0:0:0:
352,96,63659,1,8,0:0:0:0:
160,96,64029,1,0,0:0:0:0:
160,96,64584,1,0,0:0:0:0:
160,96,64862,1,0,0:0:0:0:
160,96,65140,1,0,0:0:0:0:
352,96,65325,1,8,0:0:0:0:
160,96,65696,1,0,0:0:0:0:
352,96,66066,1,8,0:0:0:0:
352,96,66344,1,8,0:0:0:0:
160,96,66621,1,0,0:0:0:0:
352,96,66992,1,8,0:0:0:0:
160,96,67362,1,0,0:0:0:0:
160,96,67733,1,0,0:0:0:0:
352,96,67918,1,8,0:0:0:0:
352,96,68103,1,8,0:0:0:0:
160,288,68288,5,4,0:0:0:0:
160,96,69029,1,0,0:0:0:0:
160,96,69307,1,0,0:0:0:0:
160,96,69584,1,0,0:0:0:0:
352,96,69955,1,8,0:0:0:0:
160,96,70510,1,0,0:0:0:0:
352,96,70788,1,8,0:0:0:0:
352,96,71066,1,8,0:0:0:0:
160,96,71251,1,0,0:0:0:0:
160,96,71621,1,0,0:0:0:0:
352,96,71992,1,8,0:0:0:0:
160,288,72362,1,4,0:0:0:0:
160,288,72918,1,4,0:0:0:0:
352,96,73473,1,8,0:0:0:0:
352,96,73844,1,8,0:0:0:0:
160,288,74214,5,4,0:0:0:0:
352,96,74955,1,8,0:0:0:0:
352,96,75233,1,8,0:0:0:0:
160,96,75510,1,0,0:0:0:0:
352,96,75881,1,8,0:0:0:0:
160,96,76251,1,0,0:0:0:0:
352,96,76621,1,8,0:0:0:0:
352,96,76807,1,8,0:0:0:0:
160,96,77177,1,0,0:0:0:0:
160,96,77733,1,0,0:0:0:0:
352,96,77918,1,8,0:0:0:0:
352,96,78288,1,8,0:0:0:0:
160,96,78473,1,0,0:0:0:0:
160,96,78844,1,0,0:0:0:0:
352,96,79399,1,8,0:0:0:0:
352,96,79677,1,8,0:0:0:0:
352,96,79955,1,8,0:0:0:0:
160,288,80140,1,4,0:0:0:0:
352,96,80881,1,8,0:0:0:0:
160,96,81159,1,0,0:0:0:0:
160,96,81436,1,0,0:0:0:0:
160,96,81807,1,0,0:0:0:0:
352,96,82177,1,8,0:0:0:0:
352,96,82547,1,8,0:0:0:0:
352,96,82733,1,8,0:0:0:0:
160,96,83103,1,0,0:0:0:0:
160,96,83659,1,0,0:0:0:0:
352,96,83844,1,8,0:0:0:0:
352,96,84214,1,8,0:0:0:0:
160,96,84399,1,0,0:0:0:0:
160,96,84770,5,0,0:0:0:0:
352,96,85140,1,8,0:0:0:0:
160,96,85510,1,0,0:0:0:0:
352,96,85696,1,8,0:0:0:0:
352,96,85881,1,8,0:0:0:0:
