osu file format v14

[General]
AudioFilename: audio.mp3
AudioLeadIn: 0
PreviewTime: 49307
Countdown: 0
SampleSet: Soft
StackLeniency: 0.7
Mode: 3
LetterboxInBreaks: 0
SpecialStyle: 0
WidescreenStoryboard: 1

[Editor]
DistanceSpacing: 0.1
BeatDivisor: 4
GridSize: 32
TimelineZoom: 2

[Metadata]
Title:comet (Cut Ver.)
TitleUnicode:comet (Cut Ver.)
Artist:Hoshimachi Suisei
ArtistUnicode:星街すいせい
Creator:Amiichii
Version:Starlight!
Source:
Tags:日本語 Japanese Pop J-Pop Jpop Electronic Future Bass Core *Luna はるお Haruo VTuber Virtual YouTuber バーチャルYouTuber ホロライブ Hololive Hoshimati Hosimati still still stellar female vocal short ver 0th generation 0th gen 0期生 ゼロきせい zero kisei
BeatmapID:3374176
BeatmapSetID:1652996

[Difficulty]
HPDrainRate:8
CircleSize:4
OverallDifficulty:8
ApproachRate:6
SliderMultiplier:1.4
SliderTickRate:1

[Events]
//Background and Video events
0,0,"bg.jpg",0,0
//Break Periods
//Storyboard Layer 0 (Background)
//Storyboard Layer 1 (Fail)
//Storyboard Layer 2 (Pass)
//Storyboard Layer 3 (Foreground)
//Storyboard Layer 4 (Overlay)
//Storyboard Sound Samples
Sample,52177,0,"Snare.wav",50
Sample,64029,0,"Snare.wav",50

[TimingPoints]
1622,370.37037037037,4,2,1,50,1,0
25696,-100,4,2,1,35,0,0
37177,-52.6315789473684,4,2,1,35,0,0
37178,-100,4,2,1,50,0,0
37223,-142.857142857143,4,2,1,50,0,0
37362,-100,4,2,1,50,0,0
37547,-52.6315789473684,4,2,1,50,0,0
37594,-142.857142857143,4,2,1,50,0,0
37733,-100,4,2,1,50,0,0
37918,-52.6315789473684,4,2,1,50,0,0
37964,-142.857142857143,4,2,1,50,0,0
38103,-100,4,2,1,50,0,0
38196,-52.6315789473684,4,2,1,50,0,0
38242,-142.857142857143,4,2,1,50,0,0
38381,-100,4,2,1,50,0,0
38473,-52.6315789473684,4,2,1,50,0,0
38520,-142.857142857143,4,2,1,50,0,0
38659,-100,4,2,1,50,0,0
40140,-52.6315789473684,4,2,1,50,0,0
40186,-142.857142857143,4,2,1,50,0,0
40325,-100,4,2,1,50,0,0
40510,-52.6315789473684,4,2,1,50,0,0
40557,-142.857142857143,4,2,1,50,0,0
40696,-100,4,2,1,50,0,0
40881,-52.6315789473684,4,2,1,50,0,0
40927,-142.857142857143,4,2,1,50,0,0
41066,-100,4,2,1,50,0,0
41159,-52.6315789473684,4,2,1,50,0,0
41205,-142.857142857143,4,2,1,50,0,0
41344,-100,4,2,1,50,0,0
41436,-52.6315789473684,4,2,1,50,0,0
41483,-142.857142857143,4,2,1,50,0,0
41622,-100,4,2,1,50,0,0
41992,-52.6315789473684,4,2,1,50,0,0
42084,-142.857142857143,4,2,1,50,0,0
42362,-117.647058823529,4,2,1,50,0,0
42640,-100,4,2,1,50,0,0
42918,-142.857142857143,4,2,1,50,0,0
43057,-52.6315789473684,4,2,1,50,0,0
43103,-100,4,2,1,50,0,0
49029,-166.666666666667,4,2,1,50,0,0
49214,-71.4285714285714,4,2,1,50,0,0
49399,-166.666666666667,4,2,1,50,0,0
49400,-100,4,2,1,35,0,0
49584,-71.4285714285714,4,2,1,35,0,0
49770,-166.666666666667,4,2,1,35,0,0
49955,-71.4285714285714,4,2,1,35,0,0
50140,-166.666666666667,4,2,1,35,0,0
50325,-71.4285714285714,4,2,1,35,0,0
50510,-100,4,2,1,50,0,1
56436,-100,4,2,1,50,0,0
62362,-100,4,2,1,50,0,1
68288,-100,4,2,1,50,0,0
73473,-166.666666666667,4,2,1,50,0,0
73659,-71.4285714285714,4,2,1,50,0,0
73844,-166.666666666667,4,2,1,50,0,0
74029,-71.4285714285714,4,2,1,50,0,0
74214,-100,4,2,1,50,0,0

[HitObjects]
64,192,834,5,0,0:0:0:0:
192,192,1020,1,0,0:0:0:0:
320,192,1205,1,0,0:0:0:0:
64,192,1622,1,2,0:0:0:0:
448,192,1622,1,0,0:0:0:0:
320,192,1992,1,0,0:0:0:0:
64,192,2177,1,0,0:0:0:0:
192,192,2246,1,0,0:0:0:0:
320,192,2362,1,8,0:0:0:0:
448,192,2362,1,0,0:0:0:0:
192,192,2547,1,0,0:0:0:0:
320,192,2547,1,0,0:0:0:0:
64,192,2733,1,0,0:0:0:0:
192,192,2733,1,0,0:0:0:0:
448,192,2918,1,0,0:0:0:0:
64,192,3288,1,2,0:0:0:0:
192,192,3288,1,0,0:0:0:0:
64,192,3473,1,2,0:0:0:0:
192,192,3473,1,0,0:0:0:0:
448,192,3520,1,0,0:0:0:0:
320,192,3659,128,0,3844:0:0:0:0:
64,192,3844,128,8,4121:0:0:0:0:
448,192,3844,1,0,0:0:0:0:
320,192,4121,128,0,4399:0:0:0:0:
192,192,4214,1,0,0:0:0:0:
448,192,4399,128,0,4584:0:0:0:0:
64,192,4584,128,2,4770:0:0:0:0:
192,192,4584,1,0,0:0:0:0:
320,192,4770,128,0,4955:0:0:0:0:
448,192,4955,1,0,0:0:0:0:
192,192,5140,128,0,5696:0:0:0:0:
64,192,5325,1,8,0:0:0:0:
320,192,5325,1,0,0:0:0:0:
320,192,5696,1,0,0:0:0:0:
448,192,5696,1,0,0:0:0:0:
64,192,5881,128,2,6251:0:0:0:0:
192,192,5881,1,0,0:0:0:0:
320,192,6251,1,2,0:0:0:0:
448,192,6251,1,0,0:0:0:0:
320,192,6436,128,2,6621:0:0:0:0:
448,192,6436,1,0,0:0:0:0:
192,192,6621,128,0,6807:0:0:0:0:
64,192,6807,1,8,0:0:0:0:
448,192,6807,128,0,6992:0:0:0:0:
192,192,6992,128,0,7177:0:0:0:0:
64,192,7177,128,0,7362:0:0:0:0:
448,192,7177,1,0,0:0:0:0:
320,192,7362,128,0,7547:0:0:0:0:
64,192,7547,1,2,0:0:0:0:
192,192,7547,1,0,0:0:0:0:
320,192,7733,1,0,0:0:0:50:Snare.wav
192,192,7825,1,0,0:0:0:50:Snare.wav
64,192,7918,1,8,0:0:0:0:
448,192,7918,1,2,0:0:0:0:
192,192,8103,1,0,0:0:0:50:Snare.wav
320,192,8172,1,0,0:0:0:0:
192,192,8288,1,2,0:0:0:0:
448,192,8288,1,0,0:0:0:0:
64,192,8473,1,0,0:0:0:50:Snare.wav
192,192,8566,1,2,0:0:0:0:
320,192,8566,1,0,0:0:0:0:
64,192,8659,1,8,0:0:0:0:
448,192,8659,1,0,0:0:0:0:
192,192,8751,1,0,0:0:0:50:Snare.wav
320,192,8797,1,0,0:0:0:50:Snare.wav
64,192,8844,1,2,0:0:0:0:
448,192,8844,1,0,0:0:0:0:
192,192,8936,1,0,0:0:0:50:Snare.wav
320,192,9029,1,2,0:0:0:0:
448,192,9029,1,0,0:0:0:0:
192,192,9214,1,0,0:0:0:50:Snare.wav
320,192,9307,1,0,0:0:0:50:Snare.wav
64,192,9399,1,8,0:0:0:0:
448,192,9399,1,2,0:0:0:0:
192,192,9446,1,0,0:0:0:0:
320,192,9584,1,0,0:0:0:50:Snare.wav
64,192,9770,1,2,0:0:0:0:
192,192,9770,1,0,0:0:0:0:
448,192,9862,1,0,0:0:0:50:Snare.wav
320,192,9909,1,0,0:0:0:50:Snare.wav
192,192,9955,1,0,0:0:0:50:Snare.wav
64,192,10047,1,2,0:0:0:0:
448,192,10047,1,0,0:0:0:0:
192,192,10140,1,8,0:0:0:0:
320,192,10140,1,0,0:0:0:50:Snare.wav
64,192,10325,1,2,0:0:0:0:
320,192,10325,1,0,0:0:0:0:
192,192,10418,1,0,0:0:0:50:Snare.wav
320,192,10510,1,2,0:0:0:0:
448,192,10510,1,0,0:0:0:0:
64,192,10881,1,10,0:0:0:0:
448,192,10881,1,0,0:0:0:50:Snare.wav
192,192,11066,1,0,0:0:0:0:
320,192,11251,1,2,0:0:0:0:
448,192,11251,1,0,0:0:0:50:Snare.wav
64,192,11529,1,2,0:0:0:0:
192,192,11529,1,0,0:0:0:50:Snare.wav
320,192,11621,1,8,0:0:0:0:
448,192,11621,1,0,0:0:0:0:
192,192,11807,1,2,0:0:0:0:
320,192,11807,1,0,0:0:0:0:
64,192,11992,128,0,12733:0:0:0:0:
448,192,12733,128,0,12918:0:0:0:0:
192,192,12918,128,0,13103:0:0:0:0:
320,192,13103,128,0,13288:0:0:0:0:
64,192,13288,128,0,13473:0:0:0:0:
192,192,13473,1,2,0:0:0:0:
320,192,13473,128,4,13844:0:0:0:0:
448,192,13473,128,0,13844:0:0:0:0:
192,192,13844,128,0,14121:0:0:0:50:Squeak1.wav
320,192,14029,128,0,14121:0:0:0:50:Squeak2.wav
64,192,14214,128,2,14307:0:0:0:0:
320,192,14214,1,0,0:0:0:0:
448,192,14214,128,0,14399:0:0:0:0:
192,192,14307,128,0,14399:0:0:0:0:
320,192,14399,128,0,14492:0:0:0:0:
64,192,14492,128,2,14770:0:0:0:0:
448,192,14492,1,0,0:0:0:0:
192,192,14584,128,0,14770:0:0:0:0:
320,192,14770,1,2,0:0:0:0:
448,192,14770,128,4,14955:0:0:0:0:
64,192,14862,1,0,0:0:0:0:
192,192,14909,1,0,0:0:0:0:
320,192,14955,1,0,0:0:0:0:
448,192,15047,1,0,0:0:0:0:
192,192,15140,1,2,0:0:0:0:
320,192,15140,1,0,0:0:0:0:
64,192,15233,1,0,0:0:0:0:
320,192,15325,1,0,0:0:0:0:
448,192,15325,1,0,0:0:0:0:
192,192,15418,1,0,0:0:0:0:
64,192,15510,1,0,0:0:0:0:
448,192,15510,1,0,0:0:0:0:
320,192,15603,1,0,0:0:0:0:
64,192,15696,1,8,0:0:0:0:
192,192,15696,1,0,0:0:0:0:
192,192,15881,1,0,0:0:0:0:
320,192,15881,128,0,16066:0:0:0:0:
64,192,16066,128,0,16251:0:0:0:0:
448,192,16066,1,0,0:0:0:0:
192,192,16251,128,0,16436:0:0:0:0:
448,192,16251,1,0,0:0:0:0:
320,192,16344,1,0,0:0:0:0:
64,192,16436,1,2,0:0:0:0:
448,192,16436,128,4,16621:0:0:0:0:
64,192,16621,1,0,0:0:0:50:Snare.wav
192,192,16668,1,0,0:0:0:50:Snare.wav
320,192,16714,1,0,0:0:0:50:Snare.wav
64,192,16807,1,0,0:0:0:0:
448,192,16807,1,0,0:0:0:0:
192,192,16992,1,2,0:0:0:0:
320,192,16992,1,0,0:0:0:0:
448,192,16992,128,0,17177:0:0:0:0:
64,192,17177,128,8,17362:0:0:0:0:
192,192,17177,1,0,0:0:0:0:
320,192,17362,128,0,17547:0:0:0:0:
448,192,17362,1,0,0:0:0:0:
192,192,17547,128,2,17733:0:0:0:0:
64,192,17547,1,4,0:0:0:0:
448,192,17547,1,0,0:0:0:0:
320,192,17733,1,0,0:0:0:0:
448,192,17733,128,0,18103:0:0:0:0:
64,192,18103,1,2,0:0:0:0:
192,192,18103,1,0,0:0:0:0:
320,192,18103,1,0,0:0:0:0:
64,192,18381,1,2,0:0:0:0:
320,192,18381,1,0,0:0:0:0:
448,192,18381,1,0,0:0:0:0:
192,192,18473,128,0,18844:0:0:0:50:Snare.wav
320,192,18659,1,2,0:0:0:0:
448,192,18659,1,0,0:0:0:0:
64,192,18844,128,0,19029:0:0:0:0:
320,192,18936,1,2,0:0:0:0:
448,192,18936,1,0,0:0:0:0:
192,192,19029,128,0,19214:0:0:0:0:
320,192,19214,128,2,19399:0:0:0:0:
448,192,19214,1,0,0:0:0:0:
64,192,19399,1,4,0:0:0:0:
192,192,19399,128,2,19770:0:0:0:0:
448,192,19399,128,0,19770:0:0:0:0:
64,192,19770,128,0,20047:0:0:0:50:Squeak1.wav
320,192,19955,128,0,20047:0:0:0:50:Squeak2.wav
64,192,20140,128,2,20325:0:0:0:0:
192,192,20140,1,0,0:0:0:0:
448,192,20140,128,0,20233:0:0:0:0:
320,192,20233,128,0,20325:0:0:0:0:
192,192,20325,128,0,20418:0:0:0:0:
64,192,20418,1,2,0:0:0:0:
448,192,20418,128,0,20696:0:0:0:0:
320,192,20510,128,0,20696:0:0:0:0:
64,192,20696,128,4,20881:0:0:0:0:
192,192,20696,1,2,0:0:0:0:
448,192,20788,1,0,0:0:0:50:Snare.wav
320,192,20834,1,0,0:0:0:50:Snare.wav
192,192,20881,1,0,0:0:0:50:Snare.wav
448,192,20973,1,0,0:0:0:50:Snare.wav
192,192,21066,1,0,0:0:0:50:Snare.wav
320,192,21066,1,0,0:0:0:0:
64,192,21159,1,0,0:0:0:0:
320,192,21251,1,0,0:0:0:50:Snare.wav
448,192,21251,1,0,0:0:0:0:
64,192,21436,1,0,0:0:0:0:
192,192,21436,1,0,0:0:0:0:
64,192,21621,1,0,0:0:0:0:
448,192,21621,128,0,21807:0:0:0:0:
192,192,21807,128,0,21992:0:0:0:50:Snare.wav
320,192,21807,1,0,0:0:0:0:
448,192,21899,1,0,0:0:0:50:Snare.wav
64,192,21992,128,0,22177:0:0:0:0:
320,192,21992,1,0,0:0:0:0:
192,192,22177,1,0,0:0:0:50:Snare.wav
448,192,22177,128,0,22362:0:0:0:0:
320,192,22270,1,0,0:0:0:50:Snare.wav
64,192,22362,128,4,22733:0:0:0:0:
192,192,22362,1,2,0:0:0:0:
320,192,22547,1,0,0:0:0:0:
448,192,22733,1,0,0:0:0:0:
64,192,22918,1,2,0:0:0:0:
192,192,22918,1,0,0:0:0:0:
320,192,22918,1,0,0:0:0:0:
64,192,23103,1,8,0:0:0:0:
448,192,23103,128,0,23288:0:0:0:0:
192,192,23288,1,0,0:0:0:0:
320,192,23288,128,0,23473:0:0:0:0:
64,192,23473,1,2,0:0:0:0:
192,192,23473,128,0,23659:0:0:0:0:
448,192,23473,1,0,0:0:0:0:
64,192,23659,128,0,24029:0:0:0:0:
320,192,23659,128,0,23844:0:0:0:0:
448,192,23844,1,0,0:0:0:0:
192,192,24029,1,2,0:0:0:0:
320,192,24029,1,4,0:0:0:0:
448,192,24029,1,0,0:0:0:0:
64,192,24214,1,0,0:0:0:0:
320,192,24399,1,0,0:0:0:50:Snare.wav
448,192,24399,1,0,0:0:0:0:
64,192,24492,1,0,0:0:0:50:Snare.wav
192,192,24492,1,0,0:0:0:0:
320,192,24584,128,0,24770:0:0:0:50:Snare.wav
448,192,24584,1,0,0:0:0:0:
64,192,24770,128,2,24955:0:0:0:0:
192,192,24770,1,0,0:0:0:0:
448,192,24770,1,0,0:0:0:0:
320,192,24955,128,0,25140:0:0:0:0:
448,192,24955,128,0,25325:0:0:0:0:
192,192,25140,128,0,25325:0:0:0:0:
64,192,25325,1,4,0:0:0:0:
320,192,25325,1,2,0:0:0:0:
192,192,25696,1,0,0:0:0:0:
320,192,25881,1,2,0:0:0:0:
448,192,25881,1,0,0:0:0:0:
192,192,25950,1,0,0:0:0:0:
64,192,26066,1,8,0:0:0:0:
448,192,26066,128,0,26344:0:0:0:0:
320,192,26251,1,0,0:0:0:0:
64,192,26344,128,0,26621:0:0:0:0:
192,192,26436,1,0,0:0:0:0:
320,192,26436,1,0,0:0:0:0:
320,192,26621,128,2,26807:0:0:0:0:
448,192,26621,1,0,0:0:0:0:
64,192,26807,128,0,27177:0:0:0:0:
192,192,26992,1,2,0:0:0:0:
448,192,26992,1,0,0:0:0:0:
320,192,27177,1,2,0:0:0:0:
448,192,27177,1,0,0:0:0:0:
192,192,27223,1,0,0:0:0:0:
320,192,27385,1,0,0:0:0:0:
64,192,27547,1,8,0:0:0:0:
448,192,27547,128,0,27825:0:0:0:0:
64,192,27825,1,2,0:0:0:0:
192,192,27825,128,0,28103:0:0:0:0:
320,192,27918,1,0,0:0:0:0:
64,192,28103,128,2,28288:0:0:0:0:
448,192,28103,1,0,0:0:0:0:
192,192,28288,1,2,0:0:0:0:
320,192,28288,128,0,28659:0:0:0:0:
448,192,28288,1,0,0:0:0:0:
448,192,28659,1,0,0:0:0:0:
64,192,28844,128,2,29029:0:0:0:0:
192,192,28844,1,0,0:0:0:0:
320,192,29029,1,8,0:0:0:0:
448,192,29029,128,0,29214:0:0:0:0:
192,192,29214,128,0,29399:0:0:0:0:
64,192,29399,1,0,0:0:0:0:
320,192,29399,128,0,29770:0:0:0:0:
448,192,29399,1,0,0:0:0:0:
192,192,29584,1,2,0:0:0:0:
448,192,29584,1,0,0:0:0:0:
64,192,29955,1,2,0:0:0:0:
448,192,29955,1,0,0:0:0:0:
64,192,30140,1,2,0:0:0:0:
320,192,30140,1,0,0:0:0:0:
192,192,30325,128,0,30510:0:0:0:0:
320,192,30510,1,8,0:0:0:0:
448,192,30510,128,0,30788:0:0:0:0:
192,192,30696,1,0,0:0:0:0:
64,192,30788,128,0,31066:0:0:0:0:
320,192,30881,1,0,0:0:0:0:
192,192,31066,128,0,31251:0:0:0:0:
64,192,31251,1,2,0:0:0:0:
320,192,31251,1,0,0:0:0:0:
448,192,31251,128,0,31621:0:0:0:0:
192,192,31621,1,0,0:0:0:0:
64,192,31807,128,2,32177:0:0:0:0:
320,192,31807,1,0,0:0:0:0:
192,192,31876,1,0,0:0:0:0:
320,192,31992,1,8,0:0:0:0:
448,192,31992,1,0,0:0:0:0:
192,192,32177,128,0,32362:0:0:0:0:
64,192,32362,1,0,0:0:0:0:
320,192,32362,1,0,0:0:0:0:
448,192,32362,1,0,0:0:0:0:
192,192,32547,1,2,0:0:0:0:
448,192,32547,128,0,32918:0:0:0:0:
64,192,32918,1,2,0:0:0:0:
192,192,32918,128,0,33103:0:0:0:0:
320,192,33103,1,2,0:0:0:0:
448,192,33103,128,0,33288:0:0:0:0:
64,192,33149,1,0,0:0:0:0:
192,192,33288,1,0,0:0:0:0:
320,192,33473,1,8,0:0:0:0:
448,192,33473,1,0,0:0:0:0:
64,192,33659,128,0,33844:0:0:0:0:
320,192,33751,1,2,0:0:0:0:
448,192,33751,1,0,0:0:0:0:
192,192,33844,128,0,34029:0:0:0:0:
320,192,34029,1,2,0:0:0:0:
448,192,34029,128,0,34214:0:0:0:0:
64,192,34214,1,2,0:0:0:0:
192,192,34214,1,0,0:0:0:0:
320,192,34214,1,0,0:0:0:0:
64,192,34399,128,0,34584:0:0:0:0:
320,192,34584,128,0,34770:0:0:0:0:
448,192,34584,1,0,0:0:0:0:
64,192,34770,1,2,0:0:0:0:
192,192,34770,1,0,0:0:0:0:
320,192,34955,1,8,0:0:0:0:
448,192,34955,128,0,35140:0:0:0:0:
64,192,35140,1,0,0:0:0:0:
64,192,35325,1,0,0:0:0:0:
192,192,35325,128,0,35696:0:0:0:0:
320,192,35325,1,0,0:0:0:0:
320,192,35510,1,2,0:0:0:0:
448,192,35510,1,0,0:0:0:0:
320,192,35881,1,2,0:0:0:0:
448,192,35881,1,0,0:0:0:0:
320,192,36066,1,2,0:0:0:0:
448,192,36066,1,0,0:0:0:0:
64,192,36251,128,0,36621:0:0:0:0:
320,192,36436,128,0,36621:0:0:0:0:
192,192,36621,128,0,36807:0:0:0:0:
448,192,36621,128,0,37084:0:0:0:0:
64,192,36807,128,0,36992:0:0:0:0:
320,192,36992,128,0,37084:0:0:0:0:
64,192,37177,128,2,37362:0:0:0:0:
192,192,37177,128,4,37362:0:0:0:0:
448,192,37177,128,0,37362:0:0:0:0:
192,192,37547,128,2,37733:0:0:0:0:
320,192,37547,128,0,37733:0:0:0:0:
448,192,37547,128,0,37733:0:0:0:0:
64,192,37918,128,2,38103:0:0:0:0:
320,192,37918,128,0,38103:0:0:0:0:
448,192,37918,128,0,38103:0:0:0:0:
64,192,38196,128,2,38381:0:0:0:0:
192,192,38196,128,0,38381:0:0:0:0:
320,192,38196,128,0,38381:0:0:0:0:
64,192,38473,128,2,38659:0:0:0:0:
192,192,38473,128,4,38659:0:0:0:0:
320,192,38473,128,0,38659:0:0:0:0:
448,192,38473,128,0,38659:0:0:0:0:
448,192,38844,1,0,0:0:0:0:
320,192,38936,1,0,0:0:0:0:
64,192,39029,1,0,0:0:0:50:Snare.wav
448,192,39121,1,0,0:0:0:50:Snare.wav
320,192,39168,1,0,0:0:0:50:Snare.wav
192,192,39214,1,0,0:0:0:50:Snare.wav
448,192,39307,1,0,0:0:0:50:Snare.wav
64,192,39399,1,0,0:0:0:50:Snare.wav
192,192,39584,1,0,0:0:0:0:
320,192,39677,1,0,0:0:0:50:Snare.wav
448,192,39770,1,0,0:0:0:0:
192,192,39955,1,0,0:0:0:50:Snare.wav
64,192,40140,128,2,40325:0:0:0:0:
320,192,40140,128,4,40325:0:0:0:0:
448,192,40140,128,0,40325:0:0:0:0:
192,192,40510,128,2,40696:0:0:0:0:
320,192,40510,128,0,40696:0:0:0:0:
448,192,40510,128,0,40696:0:0:0:0:
64,192,40881,128,2,41066:0:0:0:0:
192,192,40881,128,0,41066:0:0:0:0:
320,192,40881,128,0,41066:0:0:0:0:
64,192,41159,128,2,41344:0:0:0:0:
320,192,41159,128,0,41344:0:0:0:0:
448,192,41159,128,0,41344:0:0:0:0:
64,192,41436,128,2,41621:0:0:0:0:
192,192,41436,128,4,41621:0:0:0:0:
320,192,41436,128,0,41621:0:0:0:0:
448,192,41436,128,0,41621:0:0:0:0:
192,192,41807,1,0,0:0:0:0:
64,192,41992,1,0,0:0:0:0:
448,192,41992,1,0,0:0:0:0:
192,192,42362,128,0,42640:0:0:0:0:
320,192,42640,128,0,42918:0:0:0:0:
448,192,42918,128,0,43103:0:0:0:0:
64,192,43103,1,2,0:0:0:0:
192,192,43103,1,4,0:0:0:0:
320,192,43103,1,0,0:0:0:50:Snare.wav
448,192,43288,1,0,0:0:0:0:
64,192,43473,1,2,0:0:0:0:
320,192,43473,1,0,0:0:0:50:Snare.wav
192,192,43659,1,0,0:0:0:0:
64,192,43844,1,2,0:0:0:0:
448,192,43844,1,0,0:0:0:50:Snare.wav
320,192,44029,1,0,0:0:0:0:
192,192,44121,1,0,0:0:0:0:
64,192,44214,1,2,0:0:0:0:
448,192,44214,1,0,0:0:0:50:Snare.wav
192,192,44399,1,2,0:0:0:0:
320,192,44399,1,4,0:0:0:0:
192,192,44584,1,2,0:0:0:0:
448,192,44584,1,0,0:0:0:50:Snare.wav
64,192,44770,1,0,0:0:0:0:
192,192,44862,1,0,0:0:0:0:
320,192,44955,1,2,0:0:0:0:
448,192,44955,1,0,0:0:0:50:Snare.wav
192,192,45140,1,0,0:0:0:0:
64,192,45325,1,2,0:0:0:0:
320,192,45325,1,0,0:0:0:50:Snare.wav
448,192,45510,1,0,0:0:0:0:
64,192,45603,1,8,0:0:0:0:
192,192,45603,1,0,0:0:0:0:
320,192,45696,1,2,0:0:0:0:
448,192,45696,1,0,0:0:0:50:Snare.wav
192,192,45881,1,8,0:0:0:0:
320,192,45881,1,0,0:0:0:0:
64,192,46066,1,2,0:0:0:0:
448,192,46066,1,4,0:0:0:0:
64,192,46251,1,2,0:0:0:0:
320,192,46251,1,0,0:0:0:0:
192,192,46436,1,2,0:0:0:0:
448,192,46436,1,0,0:0:0:0:
320,192,46621,1,2,0:0:0:0:
448,192,46621,1,0,0:0:0:0:
64,192,46714,1,2,0:0:0:0:
192,192,46714,1,0,0:0:0:0:
320,192,46807,1,2,0:0:0:0:
448,192,46807,1,0,0:0:0:50:Snare.wav
192,192,46992,1,2,0:0:0:0:
320,192,46992,1,0,0:0:0:0:
64,192,47084,1,0,0:0:0:50:Snare.wav
192,192,47177,1,2,0:0:0:0:
448,192,47177,1,0,0:0:0:0:
320,192,47270,1,0,0:0:0:50:Snare.wav
64,192,47362,1,2,0:0:0:0:
192,192,47362,1,4,0:0:0:0:
320,192,47455,1,0,0:0:0:50:Snare.wav
448,192,47547,1,0,0:0:0:50:Snare.wav
64,192,47640,1,0,0:0:0:50:Snare.wav
192,192,47686,1,0,0:0:0:0:
320,192,47733,1,0,0:0:0:50:Snare.wav
448,192,47825,1,0,0:0:0:50:Snare.wav
64,192,47918,1,0,0:0:0:50:Snare.wav
448,192,48010,1,0,0:0:0:50:Snare.wav
320,192,48057,1,0,0:0:0:0:
192,192,48103,1,0,0:0:0:50:Snare.wav
64,192,48196,1,0,0:0:0:50:Snare.wav
448,192,48288,1,0,0:0:0:50:Snare.wav
320,192,48381,1,0,0:0:0:50:Snare.wav
192,192,48473,1,0,0:0:0:50:Snare.wav
448,192,48566,1,0,0:0:0:50:Snare.wav
64,192,48659,1,0,0:0:0:50:Snare.wav
192,192,48751,1,0,0:0:0:50:Snare.wav
320,192,48844,1,0,0:0:0:50:Snare.wav
64,192,48936,1,0,0:0:0:50:Snare.wav
448,192,49029,1,0,0:0:0:0:
192,192,49399,1,0,0:0:0:0:
448,192,49399,1,0,0:0:0:0:
64,192,49770,1,0,0:0:0:0:
320,192,49770,1,0,0:0:0:0:
64,192,50140,1,0,0:0:0:0:
192,192,50140,1,0,0:0:0:0:
64,192,50510,1,2,0:0:0:0:
192,192,50510,1,4,0:0:0:0:
320,192,50510,128,0,50696:0:0:0:0:
448,192,50510,1,0,0:0:0:0:
448,192,50696,1,0,0:0:0:50:Snare.wav
64,192,50788,128,0,50973:0:0:0:50:Snare.wav
192,192,50881,1,8,0:0:0:0:
320,192,50881,1,2,0:0:0:0:
448,192,51066,128,0,51251:0:0:0:50:Snare.wav
192,192,51251,128,2,51436:0:0:0:0:
320,192,51251,1,0,0:0:0:0:
448,192,51436,1,0,0:0:0:50:Snare.wav
64,192,51529,128,2,51714:0:0:0:0:
192,192,51529,1,0,0:0:0:0:
320,192,51621,1,8,0:0:0:0:
448,192,51621,1,0,0:0:0:0:
64,192,51807,1,2,0:0:0:0:
192,192,51807,128,0,51992:0:0:0:0:
320,192,51899,1,0,0:0:0:50:Snare.wav
448,192,51992,1,0,0:0:0:0:
64,192,52084,1,0,0:0:0:50:Snare.wav
192,192,52131,1,0,0:0:0:50:Snare.wav
448,192,52177,1,2,0:0:0:0:
320,192,52223,1,0,0:0:0:50:Snare.wav
192,192,52270,1,0,0:0:0:50:Snare.wav
64,192,52316,1,0,0:0:0:50:Snare.wav
320,192,52362,1,8,0:0:0:0:
448,192,52362,1,2,0:0:0:0:
192,192,52547,128,0,52733:0:0:0:50:Snare.wav
320,192,52640,1,0,0:0:0:50:Snare.wav
64,192,52733,128,2,52918:0:0:0:0:
448,192,52733,1,0,0:0:0:0:
320,192,52918,128,0,53103:0:0:0:50:Snare.wav
64,192,53010,1,2,0:0:0:0:
192,192,53010,1,0,0:0:0:0:
448,192,53103,128,8,53288:0:0:0:0:
64,192,53288,128,2,53473:0:0:0:0:
192,192,53288,1,0,0:0:0:0:
320,192,53381,1,0,0:0:0:50:Snare.wav
192,192,53473,1,2,0:0:0:0:
448,192,53473,128,0,53844:0:0:0:0:
64,192,53659,1,0,0:0:0:50:Snare.wav
320,192,53751,1,0,0:0:0:50:Snare.wav
64,192,53844,1,8,0:0:0:0:
192,192,53844,128,2,54214:0:0:0:0:
448,192,54029,1,0,0:0:0:50:Snare.wav
64,192,54214,128,2,54399:0:0:0:0:
320,192,54214,1,0,0:0:0:0:
192,192,54399,1,0,0:0:0:50:Snare.wav
320,192,54492,128,2,54677:0:0:0:0:
448,192,54492,1,0,0:0:0:0:
64,192,54584,1,8,0:0:0:0:
192,192,54584,1,0,0:0:0:0:
64,192,54770,1,2,0:0:0:0:
448,192,54770,128,0,55140:0:0:0:0:
192,192,54862,1,0,0:0:0:0:
64,192,54955,1,2,0:0:0:0:
320,192,54955,1,0,0:0:0:0:
192,192,55140,128,0,55325:0:0:0:50:Snare.wav
320,192,55233,1,2,0:0:0:0:
64,192,55325,1,8,0:0:0:0:
448,192,55325,1,0,0:0:0:0:
192,192,55510,1,2,0:0:0:0:
320,192,55510,128,0,55881:0:0:0:0:
64,192,55696,1,2,0:0:0:0:
448,192,55696,1,0,0:0:0:0:
192,192,55881,128,0,56066:0:0:0:0:
320,192,55973,1,2,0:0:0:0:
448,192,55973,1,0,0:0:0:0:
64,192,56066,128,0,56251:0:0:0:0:
320,192,56159,1,0,0:0:0:0:
192,192,56251,1,2,0:0:0:0:
448,192,56251,128,0,56436:0:0:0:0:
64,192,56436,128,2,56621:0:0:0:0:
320,192,56436,1,4,0:0:0:0:
192,192,56621,1,0,0:0:0:50:Snare.wav
320,192,56714,1,0,0:0:0:50:Snare.wav
64,192,56807,1,0,0:0:0:50:Squeak1.wav
448,192,56807,128,0,57177:0:0:0:0:
192,192,56992,128,0,57177:0:0:0:50:Squeak2.wav
320,192,56992,1,0,0:0:0:0:
64,192,57177,128,8,57455:0:0:0:0:
320,192,57177,1,2,0:0:0:0:
192,192,57270,1,0,0:0:0:0:
448,192,57362,1,0,0:0:0:0:
192,192,57455,1,2,0:0:0:0:
320,192,57455,1,0,0:0:0:0:
64,192,57547,1,8,0:0:0:0:
448,192,57547,128,0,57640:0:0:0:0:
192,192,57733,128,2,58103:0:0:0:0:
320,192,57733,1,0,0:0:0:0:
64,192,57825,1,0,0:0:0:50:Snare.wav
448,192,58103,128,2,58288:0:0:0:0:
320,192,58196,1,0,0:0:0:0:
64,192,58288,1,0,0:0:0:50:Snare.wav
192,192,58288,1,0,0:0:0:0:
320,192,58473,128,0,58659:0:0:0:0:
192,192,58566,1,0,0:0:0:0:
64,192,58659,128,8,58844:0:0:0:0:
448,192,58659,1,2,0:0:0:0:
320,192,58844,128,0,59029:0:0:0:0:
64,192,58936,1,2,0:0:0:0:
448,192,58936,1,0,0:0:0:0:
192,192,59029,128,0,59214:0:0:0:50:Snare.wav
320,192,59214,1,2,0:0:0:0:
448,192,59214,128,0,59399:0:0:0:50:Snare.wav
64,192,59399,1,2,0:0:0:0:
192,192,59399,1,4,0:0:0:0:
320,192,59584,1,0,0:0:0:50:Snare.wav
192,192,59677,1,0,0:0:0:50:Snare.wav
64,192,59770,128,2,59955:0:0:0:0:
448,192,59770,1,0,0:0:0:0:
320,192,59955,128,0,60325:0:0:0:50:Snare.wav
64,192,60140,1,8,0:0:0:0:
448,192,60140,1,0,0:0:0:0:
192,192,60325,128,0,60510:0:0:0:0:
64,192,60510,1,2,0:0:0:0:
320,192,60510,1,4,0:0:0:0:
448,192,60510,128,0,60881:0:0:0:0:
320,192,60881,1,0,0:0:0:50:Snare.wav
192,192,60973,1,0,0:0:0:50:Snare.wav
64,192,61066,1,2,0:0:0:0:
320,192,61066,128,4,61436:0:0:0:0:
448,192,61066,1,0,0:0:0:0:
64,192,61251,128,8,61436:0:0:0:0:
192,192,61251,1,0,0:0:0:0:
448,192,61436,1,0,0:0:0:50:Snare.wav
192,192,61529,1,0,0:0:0:50:Snare.wav
64,192,61621,128,2,61992:0:0:0:0:
320,192,61621,1,4,0:0:0:0:
448,192,61621,128,0,61807:0:0:0:0:
192,192,61899,1,0,0:0:0:50:Snare.wav
320,192,61992,128,0,62362:0:0:0:0:
448,192,61992,128,0,62177:0:0:0:0:
192,192,62177,1,0,0:0:0:50:Snare.wav
64,192,62362,1,4,0:0:0:0:
192,192,62362,128,2,62547:0:0:0:0:
448,192,62362,1,0,0:0:0:0:
320,192,62547,1,0,0:0:0:50:Snare.wav
448,192,62640,128,0,62825:0:0:0:50:Snare.wav
64,192,62733,1,8,0:0:0:0:
192,192,62733,1,2,0:0:0:0:
320,192,62918,128,0,63103:0:0:0:50:Snare.wav
64,192,63103,1,2,0:0:0:0:
448,192,63103,128,0,63288:0:0:0:0:
192,192,63288,1,0,0:0:0:50:Snare.wav
64,192,63381,128,2,63566:0:0:0:0:
320,192,63381,1,0,0:0:0:0:
192,192,63473,1,8,0:0:0:0:
448,192,63473,1,0,0:0:0:0:
320,192,63659,128,2,63844:0:0:0:0:
448,192,63659,1,0,0:0:0:0:
192,192,63751,1,0,0:0:0:50:Snare.wav
64,192,63844,1,0,0:0:0:0:
448,192,63936,1,0,0:0:0:50:Snare.wav
320,192,63983,1,0,0:0:0:50:Snare.wav
64,192,64029,1,2,0:0:0:0:
192,192,64075,1,0,0:0:0:50:Snare.wav
320,192,64121,1,0,0:0:0:50:Snare.wav
448,192,64168,1,0,0:0:0:50:Snare.wav
64,192,64214,1,8,0:0:0:0:
192,192,64214,1,2,0:0:0:0:
320,192,64399,128,0,64584:0:0:0:50:Snare.wav
192,192,64492,1,0,0:0:0:50:Snare.wav
64,192,64584,1,2,0:0:0:0:
448,192,64584,128,0,64770:0:0:0:0:
192,192,64770,128,0,64955:0:0:0:50:Snare.wav
320,192,64862,1,2,0:0:0:0:
448,192,64862,1,0,0:0:0:0:
64,192,64955,128,8,65140:0:0:0:0:
320,192,65140,128,2,65325:0:0:0:0:
448,192,65140,1,0,0:0:0:0:
192,192,65233,1,0,0:0:0:50:Snare.wav
64,192,65325,128,2,65696:0:0:0:0:
448,192,65325,1,0,0:0:0:0:
320,192,65510,1,0,0:0:0:50:Snare.wav
192,192,65603,1,0,0:0:0:50:Snare.wav
320,192,65696,128,8,66066:0:0:0:0:
448,192,65696,1,2,0:0:0:0:
64,192,65881,1,0,0:0:0:50:Snare.wav
192,192,66066,1,2,0:0:0:0:
448,192,66066,128,0,66251:0:0:0:0:
320,192,66251,1,0,0:0:0:50:Snare.wav
64,192,66344,1,2,0:0:0:0:
192,192,66344,128,0,66529:0:0:0:0:
320,192,66436,1,8,0:0:0:0:
448,192,66436,1,0,0:0:0:0:
64,192,66621,128,2,66992:0:0:0:0:
448,192,66621,1,0,0:0:0:0:
320,192,66714,1,0,0:0:0:0:
192,192,66807,1,2,0:0:0:0:
448,192,66807,1,0,0:0:0:0:
320,192,66992,128,0,67177:0:0:0:50:Snare.wav
192,192,67084,1,2,0:0:0:0:
64,192,67177,1,8,0:0:0:0:
448,192,67177,1,0,0:0:0:0:
192,192,67362,128,2,67733:0:0:0:0:
320,192,67362,1,0,0:0:0:0:
64,192,67547,1,2,0:0:0:0:
448,192,67547,1,0,0:0:0:0:
320,192,67733,128,0,67918:0:0:0:0:
64,192,67825,1,2,0:0:0:0:
192,192,67825,1,0,0:0:0:0:
448,192,67918,128,0,68103:0:0:0:0:
192,192,68010,1,0,0:0:0:0:
64,192,68103,128,2,68288:0:0:0:0:
320,192,68103,1,0,0:0:0:0:
320,192,68288,1,4,0:0:0:0:
448,192,68288,128,2,68473:0:0:0:0:
192,192,68473,1,0,0:0:0:50:Snare.wav
320,192,68566,1,0,0:0:0:50:Snare.wav
64,192,68659,128,0,69029:0:0:0:50:Squeak1.wav
448,192,68659,1,0,0:0:0:0:
192,192,68844,1,0,0:0:0:50:Squeak2.wav
320,192,68844,128,0,69029:0:0:0:0:
192,192,69029,1,8,0:0:0:0:
448,192,69029,128,2,69307:0:0:0:0:
320,192,69121,1,0,0:0:0:0:
64,192,69214,1,0,0:0:0:0:
192,192,69307,1,2,0:0:0:0:
320,192,69307,1,0,0:0:0:0:
64,192,69399,128,8,69492:0:0:0:0:
448,192,69399,1,0,0:0:0:0:
192,192,69584,1,2,0:0:0:0:
320,192,69584,128,0,69955:0:0:0:0:
448,192,69677,1,0,0:0:0:50:Snare.wav
64,192,69955,128,2,70140:0:0:0:0:
192,192,70047,1,0,0:0:0:0:
320,192,70140,1,8,0:0:0:0:
448,192,70140,1,0,0:0:0:0:
192,192,70325,128,0,70510:0:0:0:0:
320,192,70418,1,0,0:0:0:0:
64,192,70510,1,8,0:0:0:0:
448,192,70510,128,2,70696:0:0:0:0:
192,192,70696,128,0,70881:0:0:0:0:
64,192,70788,1,8,0:0:0:0:
448,192,70788,1,2,0:0:0:0:
320,192,70881,128,0,71066:0:0:0:50:Snare.wav
64,192,71066,128,2,71251:0:0:0:0:
192,192,71066,1,0,0:0:0:50:Snare.wav
320,192,71251,1,4,0:0:0:0:
448,192,71251,1,2,0:0:0:0:
192,192,71436,1,0,0:0:0:50:Snare.wav
320,192,71529,1,0,0:0:0:50:Snare.wav
64,192,71621,1,2,0:0:0:0:
448,192,71621,128,0,71714:0:0:0:0:
192,192,71807,128,0,72177:0:0:0:50:Snare.wav
64,192,71992,1,8,0:0:0:0:
448,192,71992,1,0,0:0:0:0:
320,192,72177,128,0,72362:0:0:0:0:
64,192,72362,1,4,0:0:0:0:
192,192,72362,1,2,0:0:0:0:
448,192,72362,128,0,72733:0:0:0:0:
64,192,72733,1,0,0:0:0:50:Snare.wav
320,192,72825,1,0,0:0:0:50:Snare.wav
64,192,72918,1,4,0:0:0:0:
192,192,72918,128,2,73288:0:0:0:0:
448,192,72918,1,0,0:0:0:0:
320,192,73103,1,8,0:0:0:0:
448,192,73103,1,0,0:0:0:0:
64,192,73288,1,0,0:0:0:50:Snare.wav
320,192,73381,1,0,0:0:0:50:Snare.wav
64,192,73473,1,8,0:0:0:0:
448,192,73473,1,0,0:0:0:0:
192,192,73844,1,0,0:0:0:0:
448,192,73844,1,0,0:0:0:0:
64,192,74214,1,2,0:0:0:0:
320,192,74214,128,4,74584:0:0:0:0:
448,192,74214,128,0,74584:0:0:0:0:
192,192,74584,128,0,74862:0:0:0:50:Squeak1.wav
320,192,74770,128,0,74862:0:0:0:50:Squeak2.wav
64,192,74955,128,2,75047:0:0:0:0:
320,192,74955,1,0,0:0:0:0:
448,192,74955,128,0,75140:0:0:0:0:
192,192,75047,128,0,75140:0:0:0:0:
320,192,75140,128,0,75233:0:0:0:0:
64,192,75233,128,2,75510:0:0:0:0:
448,192,75233,1,0,0:0:0:0:
192,192,75325,128,0,75510:0:0:0:0:
320,192,75510,1,2,0:0:0:0:
448,192,75510,128,4,75696:0:0:0:0:
64,192,75603,1,0,0:0:0:0:
192,192,75649,1,0,0:0:0:0:
320,192,75696,1,0,0:0:0:0:
448,192,75788,1,0,0:0:0:0:
192,192,75881,1,2,0:0:0:0:
320,192,75881,1,0,0:0:0:0:
64,192,75973,1,0,0:0:0:0:
320,192,76066,1,0,0:0:0:0:
448,192,76066,1,0,0:0:0:0:
192,192,76159,1,0,0:0:0:0:
64,192,76251,1,0,0:0:0:0:
320,192,76251,1,0,0:0:0:0:
448,192,76344,1,0,0:0:0:0:
64,192,76436,1,8,0:0:0:0:
192,192,76436,1,0,0:0:0:0:
192,192,76621,1,0,0:0:0:0:
448,192,76621,128,0,76807:0:0:0:0:
320,192,76714,1,0,0:0:0:0:
64,192,76807,128,0,76992:0:0:0:0:
192,192,76807,1,0,0:0:0:0:
320,192,76992,128,0,77177:0:0:0:0:
448,192,76992,1,0,0:0:0:0:
192,192,77084,1,0,0:0:0:0:
64,192,77177,1,2,0:0:0:0:
448,192,77177,128,4,77362:0:0:0:0:
64,192,77362,1,0,0:0:0:50:Snare.wav
192,192,77409,1,0,0:0:0:50:Snare.wav
320,192,77455,1,0,0:0:0:50:Snare.wav
64,192,77547,1,0,0:0:0:0:
448,192,77547,1,0,0:0:0:0:
192,192,77733,1,2,0:0:0:0:
320,192,77733,1,0,0:0:0:0:
448,192,77733,128,0,77918:0:0:0:0:
64,192,77918,128,8,78103:0:0:0:0:
192,192,77918,1,0,0:0:0:0:
448,192,78103,128,0,78288:0:0:0:0:
320,192,78103,1,0,0:0:0:0:
192,192,78288,128,2,78473:0:0:0:0:
64,192,78288,1,4,0:0:0:0:
320,192,78288,1,0,0:0:0:0:
64,192,78473,1,0,0:0:0:0:
448,192,78473,128,0,78844:0:0:0:0:
64,192,78844,1,2,0:0:0:0:
192,192,78844,1,0,0:0:0:0:
320,192,78844,1,0,0:0:0:0:
64,192,79121,1,2,0:0:0:0:
320,192,79121,1,0,0:0:0:0:
448,192,79121,1,0,0:0:0:0:
192,192,79214,128,0,79584:0:0:0:50:Snare.wav
320,192,79399,1,2,0:0:0:0:
448,192,79399,1,0,0:0:0:0:
64,192,79584,128,0,79770:0:0:0:0:
320,192,79677,1,2,0:0:0:0:
448,192,79677,1,0,0:0:0:0:
192,192,79770,128,0,79955:0:0:0:0:
320,192,79955,128,2,80140:0:0:0:0:
448,192,79955,1,0,0:0:0:0:
64,192,80140,1,4,0:0:0:0:
192,192,80140,128,2,80510:0:0:0:0:
448,192,80140,128,0,80510:0:0:0:0:
64,192,80510,128,0,80788:0:0:0:50:Squeak1.wav
320,192,80696,128,0,80788:0:0:0:50:Squeak2.wav
64,192,80881,128,2,81066:0:0:0:0:
192,192,80881,1,0,0:0:0:0:
448,192,80881,128,0,80973:0:0:0:0:
320,192,80973,128,0,81066:0:0:0:0:
192,192,81066,128,0,81159:0:0:0:0:
64,192,81159,1,2,0:0:0:0:
448,192,81159,128,0,81436:0:0:0:0:
320,192,81251,128,0,81436:0:0:0:0:
64,192,81436,128,4,81621:0:0:0:0:
192,192,81436,1,2,0:0:0:0:
448,192,81529,1,0,0:0:0:50:Snare.wav
320,192,81575,1,0,0:0:0:50:Snare.wav
192,192,81621,1,0,0:0:0:50:Snare.wav
448,192,81714,1,0,0:0:0:50:Snare.wav
64,192,81807,1,0,0:0:0:50:Snare.wav
320,192,81807,1,0,0:0:0:0:
192,192,81899,1,0,0:0:0:0:
320,192,81992,1,0,0:0:0:50:Snare.wav
448,192,81992,1,0,0:0:0:0:
64,192,82177,1,0,0:0:0:0:
192,192,82177,1,0,0:0:0:0:
64,192,82362,1,0,0:0:0:0:
448,192,82362,128,0,82547:0:0:0:0:
192,192,82547,128,0,82733:0:0:0:50:Snare.wav
320,192,82547,1,0,0:0:0:0:
448,192,82640,1,0,0:0:0:50:Snare.wav
64,192,82733,128,0,82918:0:0:0:0:
320,192,82733,1,0,0:0:0:0:
192,192,82918,1,0,0:0:0:50:Snare.wav
448,192,82918,128,0,83103:0:0:0:0:
320,192,83010,1,0,0:0:0:50:Snare.wav
64,192,83103,128,4,83473:0:0:0:0:
192,192,83103,1,2,0:0:0:0:
320,192,83288,1,0,0:0:0:0:
448,192,83473,1,0,0:0:0:0:
64,192,83659,1,2,0:0:0:0:
320,192,83659,1,0,0:0:0:0:
192,192,83659,1,0,0:0:0:0:
64,192,83844,1,8,0:0:0:0:
448,192,83844,128,0,84029:0:0:0:0:
192,192,84029,1,0,0:0:0:0:
320,192,84029,128,0,84214:0:0:0:0:
64,192,84214,1,2,0:0:0:0:
192,192,84214,128,0,84399:0:0:0:0:
448,192,84214,1,0,0:0:0:0:
64,192,84399,128,0,84770:0:0:0:0:
320,192,84399,128,0,84584:0:0:0:0:
448,192,84584,1,0,0:0:0:0:
192,192,84770,1,2,0:0:0:0:
320,192,84770,1,4,0:0:0:0:
448,192,84770,1,0,0:0:0:0:
64,192,84955,1,0,0:0:0:0:
320,192,85140,1,0,0:0:0:50:Snare.wav
64,192,85510,1,2,0:0:0:0:
192,192,85510,1,4,0:0:0:0:
448,192,85510,1,0,0:0:0:0:
320,192,85696,1,0,0:0:0:0:
192,192,85881,1,0,0:0:0:0:
