osu file format v14

[General]
AudioFilename: audio.mp3
AudioLeadIn: 0
PreviewTime: 49307
Countdown: 0
SampleSet: Soft
StackLeniency: 0.7
Mode: 3
LetterboxInBreaks: 0
SpecialStyle: 0
WidescreenStoryboard: 1

[Editor]
DistanceSpacing: 0.1
BeatDivisor: 4
GridSize: 32
TimelineZoom: 1.5

[Metadata]
Title:comet (Cut Ver.)
TitleUnicode:comet (Cut Ver.)
Artist:Hoshimachi Suisei
ArtistUnicode:星街すいせい
Creator:Amiichii
Version:Normal
Source:
Tags:日本語 Japanese Pop J-Pop Jpop Electronic Future Bass Core *Luna はるお Haruo VTuber Virtual YouTuber バーチャルYouTuber ホロライブ Hololive Hoshimati Hosimati still still stellar female vocal short ver 0th generation 0th gen 0期生 ゼロきせい zero kisei
BeatmapID:3374299
BeatmapSetID:1652996

[Difficulty]
HPDrainRate:7.5
CircleSize:4
OverallDifficulty:7.5
ApproachRate:6
SliderMultiplier:1.4
SliderTickRate:1

[Events]
//Background and Video events
0,0,"bg.jpg",0,0
//Break Periods
//Storyboard Layer 0 (Background)
//Storyboard Layer 1 (Fail)
//Storyboard Layer 2 (Pass)
//Storyboard Layer 3 (Foreground)
//Storyboard Layer 4 (Overlay)
//Storyboard Sound Samples
Sample,11251,0,"Snare.wav",50
Sample,11529,0,"Snare.wav",50
Sample,46807,0,"Snare.wav",50
Sample,52177,0,"Snare.wav",50
Sample,59214,0,"Snare.wav",50
Sample,64029,0,"Snare.wav",50
Sample,71066,0,"Snare.wav",50

[TimingPoints]
1622,370.37037037037,4,2,1,50,1,0
25696,-100,4,2,1,35,0,0
37178,-100,4,2,1,50,0,0
49400,-100,4,2,1,35,0,0
50510,-100,4,2,1,50,0,1
56436,-100,4,2,1,50,0,0
62362,-100,4,2,1,50,0,1
68288,-100,4,2,1,50,0,0

[HitObjects]
64,192,834,5,0,0:0:0:0:
192,192,1020,1,0,0:0:0:0:
320,192,1205,1,0,0:0:0:0:
192,192,1622,1,2,0:0:0:0:
448,192,1622,1,0,0:0:0:0:
64,192,1992,1,0,0:0:0:0:
448,192,2177,1,0,0:0:0:0:
64,192,2362,1,8,0:0:0:0:
192,192,2362,1,0,0:0:0:0:
448,192,2547,1,0,0:0:0:0:
320,192,2733,1,0,0:0:0:0:
64,192,2918,128,0,3288:0:0:0:0:
448,192,3288,1,2,0:0:0:0:
448,192,3473,1,2,0:0:0:0:
192,192,3659,1,0,0:0:0:0:
320,192,3844,128,8,4121:0:0:0:0:
448,192,3844,1,0,0:0:0:0:
64,192,4121,128,0,4399:0:0:0:0:
448,192,4399,128,0,4584:0:0:0:0:
192,192,4584,128,2,4770:0:0:0:0:
320,192,4770,128,0,4955:0:0:0:0:
64,192,4955,1,0,0:0:0:0:
448,192,5140,128,0,5696:0:0:0:0:
64,192,5325,1,8,0:0:0:0:
192,192,5325,1,0,0:0:0:0:
320,192,5696,1,0,0:0:0:0:
64,192,5881,128,2,6251:0:0:0:0:
448,192,6251,1,2,0:0:0:0:
448,192,6436,1,2,0:0:0:0:
192,192,6621,1,0,0:0:0:0:
64,192,6807,1,8,0:0:0:0:
320,192,6807,1,0,0:0:0:0:
448,192,6992,1,0,0:0:0:0:
320,192,7177,1,0,0:0:0:0:
192,192,7362,1,0,0:0:0:0:
64,192,7547,1,2,0:0:0:0:
448,192,7547,1,0,0:0:0:0:
320,192,7733,128,0,7918:0:0:0:50:Snare.wav
192,192,7918,1,8,0:0:0:0:
448,192,7918,1,2,0:0:0:0:
64,192,8103,128,0,8288:0:0:0:50:Snare.wav
320,192,8288,1,2,0:0:0:0:
448,192,8473,1,0,0:0:0:50:Snare.wav
320,192,8566,1,2,0:0:0:0:
64,192,8659,1,8,0:0:0:0:
192,192,8659,1,0,0:0:0:0:
448,192,8844,1,2,0:0:0:0:
64,192,9029,1,2,0:0:0:0:
192,192,9399,1,8,0:0:0:0:
320,192,9399,1,2,0:0:0:0:
448,192,9584,1,0,0:0:0:50:Snare.wav
64,192,9770,1,2,0:0:0:0:
320,192,10047,1,2,0:0:0:0:
64,192,10140,1,8,0:0:0:0:
192,192,10140,1,0,0:0:0:50:Snare.wav
448,192,10325,1,2,0:0:0:0:
192,192,10510,1,2,0:0:0:0:
64,192,10881,1,10,0:0:0:0:
320,192,10881,1,0,0:0:0:50:Snare.wav
192,192,11251,1,2,0:0:0:0:
320,192,11529,1,2,0:0:0:0:
64,192,11621,1,8,0:0:0:0:
448,192,11621,1,0,0:0:0:0:
192,192,11807,1,2,0:0:0:0:
320,192,11992,128,0,12733:0:0:0:0:
64,192,12733,128,0,12918:0:0:0:0:
448,192,12918,128,0,13103:0:0:0:0:
192,192,13103,128,0,13288:0:0:0:0:
320,192,13288,128,0,13473:0:0:0:0:
64,192,13473,128,2,13844:0:0:0:0:
192,192,13473,1,4,0:0:0:0:
448,192,13844,128,0,14214:0:0:0:50:Squeak1.wav
192,192,14029,128,0,14214:0:0:0:50:Squeak2.wav
320,192,14214,1,2,0:0:0:0:
192,192,14492,1,2,0:0:0:0:
64,192,14770,128,2,15140:0:0:0:0:
448,192,14770,1,4,0:0:0:0:
320,192,15140,128,2,15325:0:0:0:0:
192,192,15325,128,0,15510:0:0:0:0:
448,192,15510,128,0,15696:0:0:0:0:
192,192,15696,1,8,0:0:0:0:
320,192,15696,1,0,0:0:0:0:
64,192,15881,128,0,16066:0:0:0:0:
448,192,16066,128,0,16251:0:0:0:0:
192,192,16251,128,0,16436:0:0:0:0:
64,192,16436,1,2,0:0:0:0:
320,192,16436,1,4,0:0:0:0:
448,192,16621,128,0,16807:0:0:0:50:Snare.wav
192,192,16807,1,0,0:0:0:0:
64,192,16992,128,2,17177:0:0:0:0:
320,192,17177,128,8,17362:0:0:0:0:
448,192,17177,1,0,0:0:0:0:
192,192,17362,128,0,17547:0:0:0:0:
448,192,17547,128,6,17733:0:0:0:0:
64,192,17733,128,0,18103:0:0:0:0:
320,192,18103,1,2,0:0:0:0:
192,192,18381,1,2,0:0:0:0:
64,192,18659,1,2,0:0:0:0:
448,192,18936,1,2,0:0:0:0:
192,192,19214,1,2,0:0:0:0:
320,192,19399,128,4,19770:0:0:0:0:
448,192,19399,1,2,0:0:0:0:
64,192,19770,128,0,20140:0:0:0:50:Squeak1.wav
448,192,19955,128,0,20140:0:0:0:50:Squeak2.wav
192,192,20140,1,2,0:0:0:0:
320,192,20418,1,2,0:0:0:0:
64,192,20696,1,4,0:0:0:0:
448,192,20696,128,2,21066:0:0:0:0:
192,192,21066,1,0,0:0:0:50:Snare.wav
320,192,21251,1,0,0:0:0:50:Snare.wav
448,192,21436,1,0,0:0:0:0:
64,192,21621,128,0,21807:0:0:0:0:
448,192,21807,128,0,21992:0:0:0:50:Snare.wav
192,192,21992,128,0,22177:0:0:0:0:
320,192,22177,128,0,22362:0:0:0:50:Snare.wav
64,192,22362,128,4,22733:0:0:0:0:
192,192,22362,1,2,0:0:0:0:
448,192,22547,1,0,0:0:0:0:
320,192,22733,1,0,0:0:0:0:
192,192,22918,1,2,0:0:0:0:
448,192,23103,128,8,23288:0:0:0:0:
320,192,23103,1,0,0:0:0:0:
192,192,23288,128,0,23473:0:0:0:0:
320,192,23473,128,2,23659:0:0:0:0:
64,192,23659,128,0,24029:0:0:0:0:
320,192,24029,1,2,0:0:0:0:
448,192,24029,1,4,0:0:0:0:
192,192,24214,1,0,0:0:0:0:
64,192,24399,1,0,0:0:0:50:Snare.wav
192,192,24770,1,2,0:0:0:0:
320,192,24770,1,0,0:0:0:0:
64,192,24955,1,0,0:0:0:0:
448,192,25140,1,0,0:0:0:0:
64,192,25325,1,4,0:0:0:0:
320,192,25325,1,2,0:0:0:0:
192,192,25696,1,0,0:0:0:0:
448,192,25881,1,2,0:0:0:0:
64,192,26066,1,8,0:0:0:0:
192,192,26066,1,0,0:0:0:0:
320,192,26436,1,0,0:0:0:0:
448,192,26436,1,0,0:0:0:0:
192,192,26621,1,2,0:0:0:0:
448,192,26992,1,2,0:0:0:0:
192,192,27177,1,2,0:0:0:0:
64,192,27547,1,8,0:0:0:0:
448,192,27547,1,0,0:0:0:0:
320,192,27825,1,2,0:0:0:0:
192,192,28103,1,2,0:0:0:0:
320,192,28288,1,2,0:0:0:0:
448,192,28288,1,0,0:0:0:0:
64,192,28659,1,0,0:0:0:0:
448,192,28844,1,2,0:0:0:0:
64,192,29029,1,8,0:0:0:0:
192,192,29029,1,0,0:0:0:0:
192,192,29399,1,0,0:0:0:0:
320,192,29399,1,0,0:0:0:0:
448,192,29584,1,2,0:0:0:0:
64,192,29955,1,2,0:0:0:0:
448,192,30140,128,2,30325:0:0:0:0:
64,192,30325,128,0,30510:0:0:0:0:
320,192,30510,128,8,30696:0:0:0:0:
448,192,30510,1,0,0:0:0:0:
192,192,30696,128,0,30881:0:0:0:0:
448,192,30881,128,0,31066:0:0:0:0:
320,192,31066,128,0,31251:0:0:0:0:
64,192,31251,1,2,0:0:0:0:
192,192,31251,1,0,0:0:0:0:
448,192,31621,1,0,0:0:0:0:
192,192,31807,1,2,0:0:0:0:
64,192,31992,1,8,0:0:0:0:
320,192,31992,1,0,0:0:0:0:
64,192,32362,1,0,0:0:0:0:
448,192,32362,1,0,0:0:0:0:
320,192,32547,1,2,0:0:0:0:
64,192,32918,1,2,0:0:0:0:
320,192,33103,1,2,0:0:0:0:
192,192,33473,1,8,0:0:0:0:
448,192,33473,1,0,0:0:0:0:
320,192,33751,1,2,0:0:0:0:
192,192,34029,1,2,0:0:0:0:
64,192,34214,1,2,0:0:0:0:
448,192,34214,1,0,0:0:0:0:
192,192,34770,1,2,0:0:0:0:
64,192,34955,1,8,0:0:0:0:
320,192,34955,1,0,0:0:0:0:
448,192,35325,128,0,35881:0:0:0:0:
192,192,35510,1,2,0:0:0:0:
320,192,35881,1,2,0:0:0:0:
192,192,36066,1,2,0:0:0:0:
64,192,36251,128,0,36621:0:0:0:0:
448,192,36621,128,0,36807:0:0:0:0:
192,192,36807,128,0,36992:0:0:0:0:
320,192,36992,128,0,37177:0:0:0:0:
64,192,37177,1,2,0:0:0:0:
448,192,37177,1,4,0:0:0:0:
64,192,37547,1,2,0:0:0:0:
320,192,37547,1,0,0:0:0:0:
192,192,37918,1,2,0:0:0:0:
448,192,37918,1,0,0:0:0:0:
320,192,38196,1,2,0:0:0:0:
448,192,38196,1,0,0:0:0:0:
64,192,38473,1,2,0:0:0:0:
192,192,38473,1,4,0:0:0:0:
192,192,39214,1,0,0:0:0:50:Snare.wav
320,192,39584,1,0,0:0:0:0:
192,192,39770,1,0,0:0:0:0:
448,192,39955,1,0,0:0:0:50:Snare.wav
64,192,40140,1,2,0:0:0:0:
192,192,40140,1,4,0:0:0:0:
192,192,40510,1,2,0:0:0:0:
320,192,40510,1,0,0:0:0:0:
320,192,40881,1,2,0:0:0:0:
448,192,40881,1,0,0:0:0:0:
64,192,41159,1,2,0:0:0:0:
192,192,41159,1,0,0:0:0:0:
64,192,41436,1,2,0:0:0:0:
448,192,41436,1,4,0:0:0:0:
320,192,41807,1,0,0:0:0:0:
192,192,41992,1,0,0:0:0:0:
64,192,42362,128,0,42640:0:0:0:0:
320,192,42640,128,0,42918:0:0:0:0:
192,192,42918,128,0,43103:0:0:0:0:
320,192,43103,1,6,0:0:0:0:
448,192,43103,1,0,0:0:0:50:Snare.wav
192,192,43473,1,2,0:0:0:0:
448,192,43473,1,0,0:0:0:50:Snare.wav
64,192,43844,1,2,0:0:0:0:
192,192,43844,1,0,0:0:0:50:Snare.wav
448,192,44121,1,0,0:0:0:0:
64,192,44214,1,2,0:0:0:0:
320,192,44214,1,0,0:0:0:50:Snare.wav
192,192,44399,1,6,0:0:0:0:
320,192,44584,1,2,0:0:0:0:
448,192,44584,1,0,0:0:0:50:Snare.wav
64,192,44955,1,2,0:0:0:0:
192,192,44955,1,0,0:0:0:50:Snare.wav
192,192,45325,1,2,0:0:0:0:
320,192,45325,1,0,0:0:0:50:Snare.wav
64,192,45603,1,8,0:0:0:0:
320,192,45696,1,2,0:0:0:0:
448,192,45696,1,0,0:0:0:50:Snare.wav
192,192,45881,1,8,0:0:0:0:
64,192,46066,1,2,0:0:0:0:
448,192,46066,1,4,0:0:0:0:
320,192,46251,1,2,0:0:0:0:
192,192,46436,1,2,0:0:0:0:
448,192,46621,1,2,0:0:0:0:
320,192,46714,1,2,0:0:0:0:
64,192,46807,1,2,0:0:0:0:
192,192,46992,1,2,0:0:0:0:
320,192,47177,1,2,0:0:0:0:
64,192,47362,128,2,49029:0:0:0:0:
448,192,47362,1,4,0:0:0:0:
192,192,47547,1,0,0:0:0:50:Snare.wav
320,192,47733,1,0,0:0:0:50:Snare.wav
448,192,47918,1,0,0:0:0:50:Snare.wav
192,192,48103,1,0,0:0:0:50:Snare.wav
320,192,48288,1,0,0:0:0:50:Snare.wav
448,192,48473,1,0,0:0:0:50:Snare.wav
192,192,48659,1,0,0:0:0:50:Snare.wav
320,192,48844,1,0,0:0:0:50:Snare.wav
448,192,49029,1,0,0:0:0:0:
192,192,49399,1,0,0:0:0:0:
320,192,49770,1,0,0:0:0:0:
448,192,50140,1,0,0:0:0:0:
64,192,50510,1,2,0:0:0:0:
192,192,50510,1,4,0:0:0:0:
320,192,50788,1,0,0:0:0:50:Snare.wav
64,192,50881,1,8,0:0:0:0:
448,192,50881,1,2,0:0:0:0:
192,192,51066,1,0,0:0:0:50:Snare.wav
448,192,51251,1,2,0:0:0:0:
320,192,51529,1,2,0:0:0:0:
64,192,51621,1,8,0:0:0:0:
192,192,51621,1,0,0:0:0:0:
448,192,51807,1,2,0:0:0:0:
192,192,52177,1,2,0:0:0:0:
64,192,52362,1,8,0:0:0:0:
320,192,52362,1,2,0:0:0:0:
448,192,52547,1,0,0:0:0:50:Snare.wav
448,192,52733,1,2,0:0:0:0:
64,192,52918,1,0,0:0:0:50:Snare.wav
320,192,53010,1,2,0:0:0:0:
64,192,53103,1,8,0:0:0:0:
448,192,53288,1,2,0:0:0:0:
192,192,53473,1,2,0:0:0:0:
64,192,53844,1,8,0:0:0:0:
320,192,53844,1,2,0:0:0:0:
448,192,54214,1,2,0:0:0:0:
64,192,54492,1,2,0:0:0:0:
192,192,54584,1,8,0:0:0:0:
320,192,54584,1,0,0:0:0:0:
448,192,54770,1,2,0:0:0:0:
64,192,54955,1,2,0:0:0:0:
320,192,55140,1,0,0:0:0:50:Snare.wav
192,192,55325,1,8,0:0:0:0:
448,192,55325,1,0,0:0:0:0:
64,192,55510,128,2,55881:0:0:0:0:
320,192,55696,1,2,0:0:0:0:
448,192,55881,128,0,56066:0:0:0:0:
192,192,56066,128,0,56251:0:0:0:0:
320,192,56251,128,2,56436:0:0:0:0:
64,192,56436,128,2,56807:0:0:0:0:
192,192,56436,1,4,0:0:0:0:
320,192,56807,1,0,0:0:0:50:Squeak1.wav
448,192,56807,1,0,0:0:0:0:
192,192,57177,128,10,57547:0:0:0:0:
64,192,57547,1,8,0:0:0:0:
320,192,57547,1,0,0:0:0:0:
448,192,57733,128,2,58103:0:0:0:0:
64,192,58103,128,2,58288:0:0:0:0:
320,192,58288,1,0,0:0:0:50:Snare.wav
192,192,58473,128,0,58659:0:0:0:0:
448,192,58659,128,10,58844:0:0:0:0:
64,192,58844,128,0,59029:0:0:0:0:
320,192,59029,128,0,59214:0:0:0:50:Snare.wav
192,192,59214,128,2,59399:0:0:0:0:
320,192,59399,1,2,0:0:0:0:
448,192,59399,128,4,59770:0:0:0:0:
64,192,59770,1,2,0:0:0:0:
320,192,59955,128,0,60325:0:0:0:50:Snare.wav
192,192,60325,1,0,0:0:0:0:
64,192,60510,1,2,0:0:0:0:
448,192,60510,128,4,60881:0:0:0:0:
192,192,60881,1,0,0:0:0:50:Snare.wav
320,192,61066,1,6,0:0:0:0:
64,192,61251,128,8,61621:0:0:0:0:
192,192,61251,1,0,0:0:0:0:
320,192,61621,128,2,61992:0:0:0:0:
448,192,61621,1,4,0:0:0:0:
192,192,61992,128,0,62362:0:0:0:0:
320,192,62362,1,4,0:0:0:0:
448,192,62362,1,2,0:0:0:0:
192,192,62640,1,0,0:0:0:50:Snare.wav
64,192,62733,1,8,0:0:0:0:
448,192,62733,1,2,0:0:0:0:
320,192,62918,1,0,0:0:0:50:Snare.wav
64,192,63103,1,2,0:0:0:0:
192,192,63381,1,2,0:0:0:0:
320,192,63473,1,8,0:0:0:0:
448,192,63473,1,0,0:0:0:0:
64,192,63659,1,2,0:0:0:0:
320,192,64029,1,2,0:0:0:0:
192,192,64214,1,8,0:0:0:0:
448,192,64214,1,2,0:0:0:0:
64,192,64399,1,0,0:0:0:50:Snare.wav
64,192,64584,1,2,0:0:0:0:
448,192,64770,1,0,0:0:0:50:Snare.wav
192,192,64862,1,2,0:0:0:0:
448,192,64955,1,8,0:0:0:0:
64,192,65140,1,2,0:0:0:0:
320,192,65325,1,2,0:0:0:0:
192,192,65696,1,8,0:0:0:0:
448,192,65696,1,2,0:0:0:0:
64,192,66066,1,2,0:0:0:0:
448,192,66344,1,2,0:0:0:0:
192,192,66436,1,8,0:0:0:0:
320,192,66436,1,0,0:0:0:0:
64,192,66621,1,2,0:0:0:0:
448,192,66807,1,2,0:0:0:0:
192,192,66992,1,0,0:0:0:50:Snare.wav
64,192,67177,1,8,0:0:0:0:
320,192,67177,1,0,0:0:0:0:
448,192,67362,128,2,67733:0:0:0:0:
192,192,67547,1,2,0:0:0:0:
64,192,67733,128,0,67918:0:0:0:0:
320,192,67918,128,0,68103:0:0:0:0:
192,192,68103,128,2,68288:0:0:0:0:
320,192,68288,1,4,0:0:0:0:
448,192,68288,128,2,68659:0:0:0:0:
64,192,68659,1,0,0:0:0:50:Squeak1.wav
192,192,68659,1,0,0:0:0:0:
320,192,69029,128,10,69399:0:0:0:0:
192,192,69399,1,8,0:0:0:0:
448,192,69399,1,0,0:0:0:0:
64,192,69584,128,2,69955:0:0:0:0:
448,192,69955,128,2,70140:0:0:0:0:
192,192,70140,1,8,0:0:0:0:
320,192,70325,128,0,70510:0:0:0:0:
64,192,70510,128,10,70696:0:0:0:0:
448,192,70696,128,0,70881:0:0:0:0:
192,192,70881,128,0,71066:0:0:0:50:Snare.wav
320,192,71066,128,2,71251:0:0:0:0:
64,192,71251,128,4,71621:0:0:0:0:
192,192,71251,1,2,0:0:0:0:
448,192,71621,1,2,0:0:0:0:
192,192,71807,128,0,72177:0:0:0:50:Snare.wav
320,192,72177,1,0,0:0:0:0:
448,192,72362,128,4,72733:0:0:0:0:
64,192,72362,1,2,0:0:0:0:
320,192,72733,1,0,0:0:0:50:Snare.wav
192,192,72918,1,6,0:0:0:0:
320,192,73103,1,8,0:0:0:0:
448,192,73103,1,0,0:0:0:0:
64,192,73288,128,0,73473:0:0:0:50:Snare.wav
448,192,73473,1,8,0:0:0:0:
192,192,73844,1,0,0:0:0:0:
64,192,74214,128,2,74584:0:0:0:0:
320,192,74214,1,4,0:0:0:0:
448,192,74584,128,0,74955:0:0:0:50:Squeak1.wav
192,192,74770,128,0,74955:0:0:0:50:Squeak2.wav
320,192,74955,1,2,0:0:0:0:
192,192,75233,1,2,0:0:0:0:
64,192,75510,128,2,75881:0:0:0:0:
448,192,75510,1,4,0:0:0:0:
320,192,75881,128,2,76066:0:0:0:0:
192,192,76066,128,0,76251:0:0:0:0:
448,192,76251,128,0,76436:0:0:0:0:
320,192,76436,1,8,0:0:0:0:
64,192,76621,128,0,76807:0:0:0:0:
448,192,76807,128,0,76992:0:0:0:0:
192,192,76992,128,0,77177:0:0:0:0:
64,192,77177,1,2,0:0:0:0:
320,192,77177,1,4,0:0:0:0:
448,192,77362,128,0,77547:0:0:0:50:Snare.wav
192,192,77547,1,0,0:0:0:0:
64,192,77733,128,2,77918:0:0:0:0:
320,192,77918,128,8,78103:0:0:0:0:
192,192,78103,128,0,78288:0:0:0:0:
448,192,78288,128,6,78473:0:0:0:0:
64,192,78473,128,0,78844:0:0:0:0:
320,192,78844,1,2,0:0:0:0:
192,192,79121,1,2,0:0:0:0:
64,192,79399,1,2,0:0:0:0:
448,192,79677,1,2,0:0:0:0:
192,192,79955,1,2,0:0:0:0:
320,192,80140,128,4,80510:0:0:0:0:
448,192,80140,1,2,0:0:0:0:
64,192,80510,128,0,80881:0:0:0:50:Squeak1.wav
448,192,80696,128,0,80881:0:0:0:50:Squeak2.wav
192,192,80881,1,2,0:0:0:0:
320,192,81159,1,2,0:0:0:0:
192,192,81436,1,4,0:0:0:0:
448,192,81436,128,2,81807:0:0:0:0:
64,192,81807,1,0,0:0:0:50:Snare.wav
192,192,81992,1,0,0:0:0:50:Snare.wav
320,192,82177,1,0,0:0:0:0:
64,192,82362,128,0,82547:0:0:0:0:
448,192,82547,128,0,82733:0:0:0:50:Snare.wav
192,192,82733,128,0,82918:0:0:0:0:
320,192,82918,128,0,83103:0:0:0:50:Snare.wav
64,192,83103,128,4,83473:0:0:0:0:
192,192,83103,1,2,0:0:0:0:
448,192,83288,1,0,0:0:0:0:
320,192,83473,1,0,0:0:0:0:
192,192,83659,1,2,0:0:0:0:
448,192,83844,128,8,84029:0:0:0:0:
192,192,84029,128,0,84214:0:0:0:0:
320,192,84214,128,2,84399:0:0:0:0:
64,192,84399,128,0,84770:0:0:0:0:
192,192,84770,1,2,0:0:0:0:
320,192,84770,1,4,0:0:0:0:
448,192,84955,1,0,0:0:0:0:
192,192,85140,1,0,0:0:0:50:Snare.wav
320,192,85510,1,2,0:0:0:0:
448,192,85510,1,4,0:0:0:0:
64,192,85696,1,0,0:0:0:0:
320,192,85881,1,0,0:0:0:0:
