osu file format v14

[General]
AudioFilename: audio.mp3
AudioLeadIn: 0
PreviewTime: 49232
Countdown: 0
SampleSet: Soft
StackLeniency: 0.7
Mode: 0
LetterboxInBreaks: 0
WidescreenStoryboard: 1

[Editor]
Bookmarks: 760,3723,13353,25205,37057,50390,74094,85945,97797,111131,134834,146686,158538,170390,182242,194094,205945,217797,229649,241501
DistanceSpacing: 0.4
BeatDivisor: 4
GridSize: 32
TimelineZoom: 2.799999

[Metadata]
Title:comet
TitleUnicode:comet
Artist:Hoshimachi Suisei
ArtistUnicode:星街すいせい
Creator:Amateurre
Version:Shooting Star
Source:
Tags:vtuber virtual youtuber hololive ホロライブ japanese pop jpop j-pop electronic future bass *Luna still stellar suichan hosimati hoshimati hosimachi sui-chan pile ayamemymommy mocaotic lortus hinsvar midorijeon shizuku- shikibe mayu kazato asa
BeatmapID:3277335
BeatmapSetID:1604940

[Difficulty]
HPDrainRate:5
CircleSize:4
OverallDifficulty:8.6
ApproachRate:9.4
SliderMultiplier:1.9
SliderTickRate:1

[Events]
//Background and Video events
0,0,"comet bg.jpg",0,0
Video,-115,"Comet.mp4"
//Break Periods
//Storyboard Layer 0 (Background)
//Storyboard Layer 1 (Fail)
//Storyboard Layer 2 (Pass)
//Storyboard Layer 3 (Foreground)
//Storyboard Layer 4 (Overlay)
//Storyboard Sound Samples

[TimingPoints]
20,370.37037037037,4,2,0,55,1,0
760,-100,4,2,10,55,0,0
1501,-111.111111111111,4,2,10,60,0,0
7427,-111.111111111111,4,2,10,65,0,0
7612,-111.111111111111,4,2,11,65,0,0
7797,-111.111111111111,4,2,10,65,0,0
7982,-111.111111111111,4,2,11,65,0,0
8538,-111.111111111111,4,2,10,65,0,0
8631,-111.111111111111,4,2,11,65,0,0
9279,-111.111111111111,4,2,10,65,0,0
9464,-111.111111111111,4,2,11,65,0,0
10019,-111.111111111111,4,2,10,65,0,0
10205,-111.111111111111,4,2,11,65,0,0
11501,-111.111111111111,4,2,10,65,0,0
11686,-111.111111111111,4,2,11,65,0,0
11871,-666.666666666667,4,2,11,65,0,0
12612,-666.666666666667,4,2,11,70,0,0
13353,-47.6190476190476,4,2,12,75,0,0
13723,-142.857142857143,4,2,10,75,0,0
14094,-62.5,4,2,13,75,0,0
15390,-90.9090909090909,4,2,13,75,0,0
15575,-90.9090909090909,4,2,10,75,0,0
15760,-62.5,4,2,10,75,0,0
15945,-71.4285714285714,4,2,10,75,0,0
16316,-62.5,4,2,12,75,0,0
16501,-62.5,4,2,11,75,0,0
16871,-62.5,4,2,13,75,0,0
17057,-58.8235294117647,4,2,13,75,0,0
17982,-50,4,2,13,75,0,0
18260,-55.5555555555556,4,2,13,75,0,0
18538,-62.5,4,2,14,75,0,0
18723,-62.5,4,2,13,75,0,0
18816,-83.3333333333333,4,2,13,75,0,0
19279,-47.6190476190476,4,2,13,75,0,0
19649,-142.857142857143,4,2,10,75,0,0
20019,-62.5,4,2,13,75,0,0
20945,-62.5,4,2,15,75,0,0
21501,-62.5,4,2,10,75,0,0
21686,-55.5555555555556,4,2,10,75,0,0
21871,-55.5555555555556,4,2,11,75,0,0
22242,-50,4,2,13,75,0,0
22982,-66.6666666666667,4,2,13,75,0,0
23538,-200,4,2,13,75,0,0
23908,-58.8235294117647,4,2,13,75,0,0
24279,-58.8235294117647,4,2,11,75,0,0
24649,-58.8235294117647,4,2,13,75,0,0
24834,-125,4,2,13,75,0,0
25205,-100,4,2,10,60,0,0
27057,-166.666666666667,4,2,10,60,0,0
28168,-100,4,2,10,60,0,0
31131,-83.3333333333333,4,2,10,60,0,0
31686,-125,4,2,10,60,0,0
32427,-100,4,2,10,60,0,0
36131,-133.333333333333,4,2,10,60,0,0
36501,-166.666666666667,4,2,10,60,0,0
37057,-166.666666666667,4,2,16,65,0,0
37427,-166.666666666667,4,2,11,65,0,0
37797,-66.6666666666667,4,2,11,65,0,0
38353,-50,4,2,11,65,0,0
38723,-100,4,2,11,65,0,0
39001,-100,4,2,17,65,0,0
39279,-166.666666666667,4,2,17,65,0,0
39557,-166.666666666667,4,2,11,65,0,0
40760,-66.6666666666667,4,2,11,65,0,0
41316,-166.666666666667,4,2,11,65,0,0
41871,-333.333333333334,4,2,11,65,0,0
42242,-100,4,2,11,65,0,0
42982,-71.4285714285714,4,2,18,70,0,0
46686,-71.4285714285714,4,2,19,70,0,0
46871,-71.4285714285714,4,2,11,70,0,0
47427,-71.4285714285714,4,2,12,70,0,0
48168,-71.4285714285714,4,2,11,70,0,0
49279,-500,4,2,11,60,0,0
50390,-52.6315789473684,4,2,12,80,0,0
50668,-52.6315789473684,4,2,10,80,0,0
50760,-52.6315789473684,4,2,20,80,0,0
50945,-52.6315789473684,4,2,13,80,0,0
51131,-45.4545454545455,4,2,13,80,0,0
51408,-83.3333333333333,4,2,13,80,0,0
51501,-83.3333333333333,4,2,16,80,0,0
51686,-58.8235294117647,4,2,20,80,0,0
52057,-52.6315789473684,4,2,20,80,0,0
52427,-52.6315789473684,4,2,13,80,0,0
52890,-52.6315789473684,4,2,20,80,0,0
52982,-52.6315789473684,4,2,13,80,0,0
53353,-52.6315789473684,4,2,13,80,0,0
53723,-52.6315789473684,4,2,20,80,0,0
54094,-45.4545454545455,4,2,20,80,0,0
54371,-83.3333333333333,4,2,20,80,0,0
54464,-83.3333333333333,4,2,16,80,0,0
54649,-52.6315789473684,4,2,13,80,0,0
55205,-52.6315789473684,4,2,16,80,0,0
55390,-52.6315789473684,4,2,20,80,0,0
55575,-125,4,2,20,80,0,0
55760,-125,4,2,10,80,0,0
55853,-125,4,2,20,80,0,0
55945,-125,4,2,10,80,0,0
56131,-62.5,4,2,20,80,0,0
56316,-45.4545454545455,4,2,20,80,0,0
56686,-76.9230769230769,4,2,11,80,0,0
57057,-52.6315789473684,4,2,13,80,0,0
57427,-52.6315789473684,4,2,18,80,0,0
57612,-52.6315789473684,4,2,13,80,0,0
58168,-52.6315789473684,4,2,18,80,0,0
58538,-45.4545454545455,4,2,20,80,0,0
58723,-45.4545454545455,4,2,10,80,0,0
58816,-45.4545454545455,4,2,20,80,0,0
58908,-45.4545454545455,4,2,10,80,0,0
59094,-45.4545454545455,4,2,20,80,0,0
59834,-100,4,2,18,80,0,0
60390,-62.5,4,2,20,80,0,0
60945,-76.9230769230769,4,2,20,80,0,0
61131,-76.9230769230769,4,2,18,80,0,0
61501,-111.111111111111,4,2,13,80,0,0
61779,-111.111111111111,4,2,18,80,0,0
62242,-52.6315789473684,4,2,21,80,0,0
62519,-52.6315789473684,4,2,10,80,0,0
62612,-52.6315789473684,4,2,20,80,0,0
62797,-52.6315789473684,4,2,13,80,0,0
62982,-52.6315789473684,4,2,13,80,0,0
63260,-83.3333333333333,4,2,13,80,0,0
63353,-83.3333333333333,4,2,16,80,0,0
63538,-58.8235294117647,4,2,20,80,0,0
64094,-52.6315789473684,4,2,20,80,0,0
64279,-52.6315789473684,4,2,13,80,0,0
64742,-52.6315789473684,4,2,20,80,0,0
64834,-52.6315789473684,4,2,13,80,0,0
65205,-52.6315789473684,4,2,13,80,0,0
65575,-52.6315789473684,4,2,20,80,0,0
65945,-52.6315789473684,4,2,20,80,0,0
66223,-83.3333333333333,4,2,20,80,0,0
66316,-83.3333333333333,4,2,16,80,0,0
66501,-52.6315789473684,4,2,13,80,0,0
67057,-52.6315789473684,4,2,16,80,0,0
67242,-52.6315789473684,4,2,20,80,0,0
67427,-125,4,2,20,80,0,0
67612,-125,4,2,10,80,0,0
67705,-125,4,2,20,80,0,0
67797,-125,4,2,10,80,0,0
67982,-62.5,4,2,20,80,0,0
68168,-45.4545454545455,4,2,20,80,0,0
68538,-76.9230769230769,4,2,11,80,0,0
68908,-52.6315789473684,4,2,13,80,0,0
69279,-52.6315789473684,4,2,18,80,0,0
69464,-52.6315789473684,4,2,13,80,0,0
70019,-52.6315789473684,4,2,18,80,0,0
70389,-45.4545454545455,4,2,20,80,0,0
70575,-45.4545454545455,4,2,10,80,0,0
70668,-45.4545454545455,4,2,20,80,0,0
70760,-45.4545454545455,4,2,13,80,0,0
71501,-45.4545454545455,4,2,20,80,0,0
71685,-90.9090909090909,4,2,18,80,0,0
72241,-62.5,4,2,20,80,0,0
72796,-76.9230769230769,4,2,20,80,0,0
72982,-76.9230769230769,4,2,16,80,0,0
73352,-111.111111111111,4,2,13,65,0,0
74094,-55.5555555555556,4,2,12,75,0,0
74464,-142.857142857143,4,2,10,75,0,0
74834,-62.5,4,2,13,75,0,0
75390,-55.5555555555556,4,2,13,75,0,0
75760,-62.5,4,2,13,75,0,0
76131,-90.9090909090909,4,2,13,75,0,0
76316,-90.9090909090909,4,2,10,75,0,0
76501,-62.5,4,2,10,75,0,0
76686,-71.4285714285714,4,2,10,75,0,0
77057,-62.5,4,2,12,75,0,0
77242,-62.5,4,2,11,75,0,0
77612,-62.5,4,2,13,75,0,0
77797,-58.8235294117647,4,2,13,75,0,0
78723,-50,4,2,13,75,0,0
79001,-55.5555555555556,4,2,13,75,0,0
79279,-62.5,4,2,14,75,0,0
79464,-62.5,4,2,13,75,0,0
79557,-83.3333333333333,4,2,13,75,0,0
80019,-55.5555555555556,4,2,13,75,0,0
80390,-142.857142857143,4,2,10,75,0,0
80760,-62.5,4,2,13,75,0,0
81686,-62.5,4,2,15,75,0,0
82242,-62.5,4,2,10,75,0,0
82427,-55.5555555555556,4,2,10,75,0,0
82612,-55.5555555555556,4,2,11,75,0,0
82982,-45.4545454545455,4,2,13,75,0,0
83353,-50,4,2,13,75,0,0
83723,-66.6666666666667,4,2,13,75,0,0
84279,-66.6666666666667,4,2,13,75,0,0
84649,-58.8235294117647,4,2,13,75,0,0
85019,-58.8235294117647,4,2,11,75,0,0
85390,-58.8235294117647,4,2,13,75,0,0
85575,-125,4,2,13,75,0,0
85945,-100,4,2,10,60,0,0
91871,-83.3333333333333,4,2,10,60,0,0
92426,-125,4,2,10,60,0,0
93167,-100,4,2,10,60,0,0
96871,-166.666666666667,4,2,10,60,0,0
97797,-166.666666666667,4,2,16,65,0,0
98168,-166.666666666667,4,2,11,65,0,0
98538,-66.6666666666667,4,2,11,65,0,0
99094,-55.5555555555556,4,2,11,65,0,0
99464,-100,4,2,11,65,0,0
99742,-100,4,2,17,65,0,0
100019,-166.666666666667,4,2,17,65,0,0
100297,-166.666666666667,4,2,11,65,0,0
101501,-66.6666666666667,4,2,11,65,0,0
102057,-166.666666666667,4,2,11,65,0,0
102612,-333.333333333334,4,2,11,65,0,0
102982,-111.111111111111,4,2,11,65,0,0
103723,-76.9230769230769,4,2,18,70,0,0
107427,-76.9230769230769,4,2,11,70,0,0
108168,-76.9230769230769,4,2,17,70,0,0
109279,-76.9230769230769,4,2,11,70,0,0
109649,-76.9230769230769,4,2,11,60,0,0
110575,-76.9230769230769,4,2,12,60,0,0
110760,-76.9230769230769,4,2,22,70,0,0
110945,-76.9230769230769,4,2,11,70,0,0
111131,-52.6315789473684,4,2,12,80,0,0
111408,-52.6315789473684,4,2,10,80,0,0
111501,-52.6315789473684,4,2,20,80,0,0
111686,-52.6315789473684,4,2,13,80,0,0
111871,-45.4545454545455,4,2,13,80,0,0
112149,-83.3333333333333,4,2,13,80,0,0
112242,-83.3333333333333,4,2,16,80,0,0
112427,-58.8235294117647,4,2,20,80,0,0
112797,-52.6315789473684,4,2,20,80,0,0
113168,-52.6315789473684,4,2,13,80,0,0
113631,-52.6315789473684,4,2,20,80,0,0
113723,-52.6315789473684,4,2,13,80,0,0
114094,-52.6315789473684,4,2,13,80,0,0
114464,-52.6315789473684,4,2,20,80,0,0
114834,-45.4545454545455,4,2,20,80,0,0
115112,-83.3333333333333,4,2,20,80,0,0
115205,-83.3333333333333,4,2,16,80,0,0
115390,-52.6315789473684,4,2,13,80,0,0
115945,-52.6315789473684,4,2,16,80,0,0
116131,-52.6315789473684,4,2,20,80,0,0
116316,-125,4,2,20,80,0,0
116501,-125,4,2,10,80,0,0
116594,-125,4,2,20,80,0,0
116686,-125,4,2,10,80,0,0
116871,-62.5,4,2,20,80,0,0
117057,-45.4545454545455,4,2,20,80,0,0
117427,-76.9230769230769,4,2,11,80,0,0
117797,-52.6315789473684,4,2,13,80,0,0
118168,-52.6315789473684,4,2,18,80,0,0
118353,-52.6315789473684,4,2,13,80,0,0
118908,-52.6315789473684,4,2,18,80,0,0
119279,-45.4545454545455,4,2,20,80,0,0
119464,-45.4545454545455,4,2,10,80,0,0
119557,-45.4545454545455,4,2,20,80,0,0
119649,-45.4545454545455,4,2,10,80,0,0
119834,-45.4545454545455,4,2,20,80,0,0
120575,-90.9090909090909,4,2,18,80,0,0
121131,-62.5,4,2,20,80,0,0
121686,-76.9230769230769,4,2,20,80,0,0
121871,-76.9230769230769,4,2,18,80,0,0
122242,-111.111111111111,4,2,13,80,0,0
122519,-111.111111111111,4,2,18,80,0,0
122982,-52.6315789473684,4,2,21,80,0,0
123260,-52.6315789473684,4,2,10,80,0,0
123353,-52.6315789473684,4,2,20,80,0,0
123538,-52.6315789473684,4,2,13,80,0,0
123723,-52.6315789473684,4,2,13,80,0,0
124001,-83.3333333333333,4,2,13,80,0,0
124094,-83.3333333333333,4,2,16,80,0,0
124279,-58.8235294117647,4,2,20,80,0,0
124834,-52.6315789473684,4,2,20,80,0,0
125019,-52.6315789473684,4,2,13,80,0,0
125482,-52.6315789473684,4,2,20,80,0,0
125575,-52.6315789473684,4,2,13,80,0,0
125946,-52.6315789473684,4,2,13,80,0,0
126316,-52.6315789473684,4,2,20,80,0,0
126686,-52.6315789473684,4,2,20,80,0,0
126964,-83.3333333333333,4,2,20,80,0,0
127057,-83.3333333333333,4,2,16,80,0,0
127242,-52.6315789473684,4,2,13,80,0,0
127797,-52.6315789473684,4,2,16,80,0,0
127982,-52.6315789473684,4,2,20,80,0,0
128168,-125,4,2,20,80,0,0
128353,-125,4,2,10,80,0,0
128445,-125,4,2,20,80,0,0
128538,-125,4,2,10,80,0,0
128723,-62.5,4,2,20,80,0,0
128908,-45.4545454545455,4,2,20,80,0,0
129279,-76.9230769230769,4,2,11,80,0,0
129649,-52.6315789473684,4,2,13,80,0,0
130019,-52.6315789473684,4,2,18,80,0,0
130205,-52.6315789473684,4,2,13,80,0,0
130760,-52.6315789473684,4,2,18,80,0,0
131130,-45.4545454545455,4,2,20,80,0,0
131316,-45.4545454545455,4,2,10,80,0,0
131408,-45.4545454545455,4,2,20,80,0,0
131501,-45.4545454545455,4,2,10,80,0,0
131686,-45.4545454545455,4,2,20,80,0,0
132426,-90.9090909090909,4,2,18,80,0,0
132982,-62.5,4,2,20,80,0,0
133537,-76.9230769230769,4,2,20,80,0,0
133723,-76.9230769230769,4,2,16,80,0,0
134093,-142.857142857143,4,2,13,65,0,0
134834,-52.6315789473684,4,2,12,75,0,0
135019,-52.6315789473684,4,2,10,75,0,0
135205,-52.6315789473684,4,2,20,75,0,0
135390,-52.6315789473684,4,2,13,75,0,0
135945,-52.6315789473684,4,2,16,75,0,0
136131,-52.6315789473684,4,2,13,75,0,0
136223,-90.9090909090909,4,2,13,75,0,0
136501,-50,4,2,13,75,0,0
136686,-50,4,2,20,75,0,0
136871,-50,4,2,10,75,0,0
137057,-55.5555555555556,4,2,20,75,0,0
137242,-55.5555555555556,4,2,10,75,0,0
137334,-55.5555555555556,4,2,20,75,0,0
137427,-55.5555555555556,4,2,10,75,0,0
137612,-55.5555555555556,4,2,20,75,0,0
137797,-50,4,2,20,75,0,0
137982,-50,4,2,10,75,0,0
138168,-50,4,2,20,75,0,0
138353,-50,4,2,13,75,0,0
138908,-58.8235294117647,4,2,18,75,0,0
139094,-58.8235294117647,4,2,13,75,0,0
139279,-50,4,2,13,75,0,0
139649,-50,4,2,18,75,0,0
139834,-50,4,2,20,75,0,0
140019,-125,4,2,20,75,0,0
140205,-125,4,2,10,75,0,0
140297,-125,4,2,20,75,0,0
140390,-125,4,2,10,75,0,0
140574,-62.5,4,2,20,75,0,0
140760,-45.4545454545455,4,2,20,75,0,0
140945,-45.4545454545455,4,2,11,75,0,0
141131,-76.9230769230769,4,2,11,75,0,0
141501,-52.6315789473684,4,2,20,75,0,0
141871,-52.6315789473684,4,2,16,75,0,0
142057,-52.6315789473684,4,2,13,75,0,0
142612,-52.6315789473684,4,2,18,75,0,0
142982,-52.6315789473684,4,2,20,75,0,0
143168,-45.4545454545455,4,2,10,75,0,0
143260,-45.4545454545455,4,2,20,75,0,0
143353,-45.4545454545455,4,2,10,75,0,0
143538,-45.4545454545455,4,2,20,75,0,0
143908,-45.4545454545455,4,2,10,75,0,0
144094,-45.4545454545455,4,2,20,75,0,0
144279,-45.4545454545455,4,2,10,75,0,0
144834,-62.5,4,2,20,75,0,0
145019,-62.5,4,2,13,75,0,0
145390,-100,4,2,13,75,0,0
145575,-76.9230769230769,4,2,18,75,0,0
145853,-76.9230769230769,4,2,23,75,0,0
146686,-50,4,2,12,75,0,0
146871,-50,4,2,10,75,0,0
147057,-50,4,2,20,75,0,0
147242,-50,4,2,13,75,0,0
147797,-50,4,2,16,75,0,0
147982,-50,4,2,13,75,0,0
148538,-50,4,2,20,75,0,0
148723,-50,4,2,13,75,0,0
149186,-50,4,2,20,75,0,0
149279,-50,4,2,13,75,0,0
150019,-50,4,2,20,75,0,0
150205,-50,4,2,13,75,0,0
150760,-50,4,2,16,75,0,0
150945,-50,4,2,13,75,0,0
151501,-50,4,2,16,75,0,0
151686,-50,4,2,20,75,0,0
151871,-125,4,2,20,75,0,0
152057,-125,4,2,10,75,0,0
152149,-125,4,2,20,75,0,0
152242,-125,4,2,10,75,0,0
152427,-62.5,4,2,20,75,0,0
152612,-50,4,2,20,75,0,0
152797,-50,4,2,11,75,0,0
152982,-76.9230769230769,4,2,11,75,0,0
153353,-50,4,2,13,75,0,0
153723,-50,4,2,16,75,0,0
153908,-50,4,2,13,75,0,0
154464,-50,4,2,18,75,0,0
154834,-50,4,2,13,75,0,0
155019,-45.4545454545455,4,2,13,75,0,0
155112,-45.4545454545455,4,2,20,75,0,0
155205,-45.4545454545455,4,2,13,75,0,0
155575,-50,4,2,13,75,0,0
155945,-50,4,2,20,75,0,0
156131,-50,4,2,10,75,0,0
156686,-50,4,2,20,75,0,0
156871,-50,4,2,13,75,0,0
157242,-66.6666666666667,4,2,13,75,0,0
157427,-66.6666666666667,4,2,18,75,0,0
157612,-66.6666666666667,4,2,11,75,0,0
157705,-83.3333333333333,4,2,11,75,0,0
157797,-83.3333333333333,4,2,24,75,0,0
157982,-83.3333333333333,4,2,11,75,0,0
158075,-83.3333333333333,4,2,24,75,0,0
158260,-83.3333333333333,4,2,11,75,0,0
158353,-83.3333333333333,4,2,24,75,0,0
158445,-83.3333333333333,4,2,11,75,0,0
158538,-66.6666666666667,4,2,14,70,0,0
158908,-83.3333333333333,4,2,11,70,0,0
159279,-83.3333333333333,4,2,25,70,0,0
159649,-83.3333333333333,4,2,13,70,0,0
160760,-83.3333333333333,4,2,26,70,0,0
161131,-83.3333333333333,4,2,27,70,0,0
161316,-83.3333333333333,4,2,11,70,0,0
161501,-62.5,4,2,13,70,0,0
161871,-83.3333333333333,4,2,13,70,0,0
162242,-83.3333333333333,4,2,25,70,0,0
162612,-83.3333333333333,4,2,13,70,0,0
163723,-83.3333333333333,4,2,26,70,0,0
164094,-83.3333333333333,4,2,13,70,0,0
164464,-62.5,4,2,13,70,0,0
165019,-83.3333333333333,4,2,13,70,0,0
165205,-83.3333333333333,4,2,25,70,0,0
165575,-100,4,2,13,70,0,0
166686,-100,4,2,26,70,0,0
167057,-100,4,2,13,70,0,0
167427,-66.6666666666667,4,2,13,70,0,0
167797,-83.3333333333333,4,2,13,70,0,0
168168,-83.3333333333333,4,2,25,70,0,0
168538,-83.3333333333333,4,2,13,70,0,0
168723,-83.3333333333333,4,2,11,70,0,0
168908,-83.3333333333333,4,2,17,70,0,0
169464,-83.3333333333333,4,2,13,70,0,0
169834,-166.666666666667,4,2,13,70,0,0
170390,-66.6666666666667,4,2,14,70,0,0
170760,-66.6666666666667,4,2,11,70,0,0
171131,-66.6666666666667,4,2,25,70,0,0
171501,-66.6666666666667,4,2,13,70,0,0
172057,-83.3333333333333,4,2,13,70,0,0
172612,-83.3333333333333,4,2,26,70,0,0
172982,-83.3333333333333,4,2,27,70,0,0
173168,-83.3333333333333,4,2,11,70,0,0
173353,-66.6666666666667,4,2,13,70,0,0
174094,-66.6666666666667,4,2,25,70,0,0
174464,-83.3333333333333,4,2,13,70,0,0
175575,-83.3333333333333,4,2,26,70,0,0
175945,-83.3333333333333,4,2,13,70,0,0
176316,-66.6666666666667,4,2,13,70,0,0
177057,-66.6666666666667,4,2,25,70,0,0
177427,-66.6666666666667,4,2,13,70,0,0
177797,-83.3333333333333,4,2,13,70,0,0
178538,-83.3333333333333,4,2,26,70,0,0
178908,-83.3333333333333,4,2,13,70,0,0
180019,-83.3333333333333,4,2,25,70,0,0
180390,-83.3333333333333,4,2,13,70,0,0
181501,-100,4,2,26,70,0,0
181871,-100,4,2,13,70,0,0
182242,-158.730158730159,4,2,15,60,0,0
182427,-158.730158730159,4,2,11,60,0,0
183908,-158.730158730159,4,2,11,56,0,0
185205,-158.730158730159,4,2,11,52,0,0
186871,-158.730158730159,4,2,11,48,0,0
188168,-158.730158730159,4,2,11,44,0,0
189834,-158.730158730159,4,2,11,40,0,0
191501,-158.730158730159,4,2,11,36,0,0
192242,-62.5,4,2,27,65,0,0
192334,-62.5,4,2,11,65,0,0
192797,-62.5,4,2,27,75,0,0
192890,-62.5,4,2,11,75,0,0
192982,-62.5,4,2,17,75,0,0
193353,-62.5,4,2,10,65,0,0
193538,-62.5,4,2,12,65,0,0
193723,-125,4,2,25,75,0,0
194094,-52.6315789473684,4,2,12,80,0,0
194371,-52.6315789473684,4,2,10,80,0,0
194464,-52.6315789473684,4,2,20,80,0,0
194649,-52.6315789473684,4,2,13,80,0,0
194834,-52.6315789473684,4,2,13,80,0,0
195112,-83.3333333333333,4,2,13,80,0,0
195205,-83.3333333333333,4,2,16,80,0,0
195390,-58.8235294117647,4,2,20,80,0,0
195945,-52.6315789473684,4,2,20,80,0,0
196131,-52.6315789473684,4,2,13,80,0,0
196594,-52.6315789473684,4,2,20,80,0,0
196686,-52.6315789473684,4,2,13,80,0,0
197057,-52.6315789473684,4,2,13,80,0,0
197427,-62.5,4,2,20,80,0,0
197797,-62.5,4,2,20,80,0,0
198075,-83.3333333333333,4,2,20,80,0,0
198168,-83.3333333333333,4,2,16,80,0,0
198353,-52.6315789473684,4,2,13,80,0,0
198908,-52.6315789473684,4,2,16,80,0,0
199094,-52.6315789473684,4,2,20,80,0,0
199279,-125,4,2,20,80,0,0
199464,-125,4,2,10,80,0,0
199557,-125,4,2,20,80,0,0
199649,-125,4,2,10,80,0,0
199834,-62.5,4,2,20,80,0,0
200019,-45.4545454545455,4,2,20,80,0,0
200390,-76.9230769230769,4,2,11,80,0,0
200760,-52.6315789473684,4,2,13,80,0,0
201131,-52.6315789473684,4,2,18,80,0,0
201316,-52.6315789473684,4,2,13,80,0,0
201871,-52.6315789473684,4,2,18,80,0,0
202241,-45.4545454545455,4,2,20,80,0,0
202427,-45.4545454545455,4,2,10,80,0,0
202519,-45.4545454545455,4,2,20,80,0,0
202612,-45.4545454545455,4,2,10,80,0,0
202797,-45.4545454545455,4,2,20,80,0,0
203538,-45.4545454545455,4,2,18,80,0,0
203723,-62.5,4,2,18,80,0,0
204093,-45.4545454545455,4,2,20,80,0,0
204648,-55.5555555555556,4,2,20,80,0,0
204834,-55.5555555555556,4,2,18,80,0,0
205204,-249.999999999999,4,2,18,60,0,0
205575,-249.999999999999,4,2,26,70,0,0
205945,-52.6315789473684,4,2,12,75,0,0
206131,-52.6315789473684,4,2,10,75,0,0
206316,-52.6315789473684,4,2,20,75,0,0
206501,-52.6315789473684,4,2,13,75,0,0
207057,-52.6315789473684,4,2,16,75,0,0
207242,-52.6315789473684,4,2,13,75,0,0
207334,-90.9090909090909,4,2,13,75,0,0
207612,-50,4,2,13,75,0,0
207797,-50,4,2,20,75,0,0
207982,-50,4,2,13,75,0,0
208168,-55.5555555555556,4,2,13,75,0,0
208445,-55.5555555555556,4,2,20,75,0,0
208538,-55.5555555555556,4,2,13,75,0,0
208908,-50,4,2,13,75,0,0
209279,-50,4,2,20,75,0,0
209464,-50,4,2,13,75,0,0
210019,-58.8235294117647,4,2,18,75,0,0
210205,-58.8235294117647,4,2,13,75,0,0
210390,-50,4,2,13,75,0,0
210760,-50,4,2,16,75,0,0
210945,-50,4,2,20,75,0,0
211130,-125,4,2,20,75,0,0
211316,-125,4,2,10,75,0,0
211408,-125,4,2,20,75,0,0
211501,-125,4,2,10,75,0,0
211685,-62.5,4,2,20,75,0,0
211871,-45.4545454545455,4,2,20,75,0,0
212057,-45.4545454545455,4,2,11,75,0,0
212242,-76.9230769230769,4,2,11,75,0,0
212612,-52.6315789473684,4,2,20,75,0,0
212982,-52.6315789473684,4,2,16,75,0,0
213168,-52.6315789473684,4,2,13,75,0,0
213723,-52.6315789473684,4,2,18,75,0,0
214094,-52.6315789473684,4,2,13,75,0,0
214279,-45.4545454545455,4,2,13,75,0,0
214371,-45.4545454545455,4,2,20,75,0,0
214464,-45.4545454545455,4,2,13,75,0,0
215205,-45.4545454545455,4,2,20,75,0,0
215390,-45.4545454545455,4,2,18,75,0,0
215945,-45.4545454545455,4,2,20,75,0,0
216131,-45.4545454545455,4,2,13,75,0,0
216501,-52.6315789473684,4,2,13,75,0,0
216686,-52.6315789473684,4,2,18,75,0,0
216871,-52.6315789473684,4,2,11,75,0,0
217057,-52.6315789473684,4,2,27,75,0,0
217242,-52.6315789473684,4,2,11,75,0,0
217797,-52.6315789473684,4,2,13,75,0,0
218168,-66.6666666666667,4,2,13,75,0,0
218538,-50,4,2,13,65,0,0
218908,-50,4,2,16,65,0,0
219094,-50,4,2,13,65,0,0
219649,-50,4,2,20,65,0,0
219834,-50,4,2,13,65,0,0
220297,-50,4,2,20,65,0,0
220390,-50,4,2,13,65,0,0
221131,-50,4,2,20,65,0,0
221316,-50,4,2,13,65,0,0
221871,-50,4,2,16,65,0,0
222057,-50,4,2,13,65,0,0
222612,-50,4,2,16,65,0,0
222797,-50,4,2,20,65,0,0
222982,-125,4,2,20,65,0,0
223168,-125,4,2,10,65,0,0
223260,-125,4,2,20,65,0,0
223353,-125,4,2,10,65,0,0
223537,-62.5,4,2,20,65,0,0
223723,-45.4545454545455,4,2,20,65,0,0
223908,-45.4545454545455,4,2,11,65,0,0
224094,-76.9230769230769,4,2,11,65,0,0
224464,-50,4,2,13,65,0,0
224834,-50,4,2,16,65,0,0
225019,-50,4,2,13,65,0,0
225575,-50,4,2,18,65,0,0
225945,-50,4,2,13,65,0,0
226131,-45.4545454545455,4,2,13,65,0,0
226223,-45.4545454545455,4,2,20,65,0,0
226316,-45.4545454545455,4,2,13,65,0,0
226686,-45.4545454545455,4,2,13,65,0,0
227057,-45.4545454545455,4,2,20,65,0,0
227242,-45.4545454545455,4,2,10,65,0,0
227797,-45.4545454545455,4,2,20,65,0,0
227982,-45.4545454545455,4,2,13,65,0,0
228353,-55.5555555555556,4,2,13,65,0,0
228538,-55.5555555555556,4,2,18,65,0,0
228908,-55.5555555555556,4,2,20,65,0,0
229094,-55.5555555555556,4,2,13,65,0,0
229649,-47.6190476190476,4,2,12,75,0,0
230019,-142.857142857143,4,2,10,75,0,0
230390,-58.8235294117647,4,2,13,75,0,0
231686,-90.9090909090909,4,2,13,75,0,0
231871,-90.9090909090909,4,2,10,75,0,0
232056,-62.5,4,2,10,75,0,0
232241,-71.4285714285714,4,2,10,75,0,0
232612,-62.5,4,2,12,75,0,0
232797,-62.5,4,2,11,75,0,0
233168,-62.5,4,2,13,75,0,0
233353,-58.8235294117647,4,2,13,75,0,0
234278,-50,4,2,13,75,0,0
234556,-55.5555555555556,4,2,13,75,0,0
234834,-62.5,4,2,14,75,0,0
235019,-62.5,4,2,13,75,0,0
235112,-83.3333333333333,4,2,13,75,0,0
235575,-47.6190476190476,4,2,13,75,0,0
235945,-142.857142857143,4,2,10,75,0,0
236315,-58.8235294117647,4,2,13,75,0,0
237242,-58.8235294117647,4,2,15,75,0,0
237797,-58.8235294117647,4,2,10,75,0,0
237982,-55.5555555555556,4,2,10,75,0,0
238168,-55.5555555555556,4,2,11,75,0,0
238538,-50,4,2,13,75,0,0
239278,-66.6666666666667,4,2,13,75,0,0
239834,-200,4,2,13,75,0,0
240205,-66.6666666666667,4,2,13,75,0,0
240575,-66.6666666666667,4,2,11,75,0,0
240945,-66.6666666666667,4,2,13,75,0,0

[Colours]
Combo1 : 89,117,244
Combo2 : 120,225,248
Combo3 : 70,153,255
Combo4 : 177,226,221

[HitObjects]
7,384,1501,6,0,P|37:269|52:217,1,170.999994781494,2|0,1:2|0:0,0:0:0:0:
0,120,2057,1,0,0:0:0:0:
4,131,2149,1,0,0:0:0:0:
9,142,2242,2,0,P|75:123|107:114,1,85.4999973907472,10|2,2:2|2:2,0:0:0:0:
195,59,2612,1,2,2:2:0:0:
110,28,2797,1,2,2:2:0:0:
110,28,3168,5,2,1:2:0:0:
269,141,3353,2,0,L|342:120,2,42.7499986953736,0|0|2,1:1|0:0|2:2,0:0:0:0:
195,59,3723,2,0,L|161:217,2,128.249996086121,10|2|2,2:2|2:2|2:2,0:0:0:0:
60,208,4464,6,0,P|153:214|193:288,1,170.999994781494,2|0,1:2|0:0,0:0:0:0:
344,175,5205,1,8,2:2:0:0:
280,2,5575,5,2,2:2:0:0:
280,2,5760,2,0,P|366:36|468:48,1,170.999994781494,2|2,1:2|1:2,0:0:0:0:
512,158,6316,2,0,P|448:142|395:143,1,85.4999973907472,2|0,1:2|0:0,0:0:0:0:
309,177,6686,2,0,P|364:250|454:236,1,170.999994781494,8|0,2:2|0:0,0:0:0:0:
259,346,7242,5,2,2:2:0:0:
259,346,7427,2,0,P|188:367|150:383,1,85.4999973907472,0|8,1:1|2:2,0:0:0:0:
171,377,7705,1,8,2:2:0:0:
165,383,7797,1,8,1:2:0:0:
0,274,7982,1,8,2:2:0:0:
66,384,8168,2,0,L|95:279,1,85.4999973907472,2|10,1:2|2:2,0:0:0:0:
146,247,8445,2,0,L|129:186,1,42.7499986953736,0|10,1:1|2:2,0:0:0:0:
327,384,8723,5,2,1:2:0:0:
478,287,8908,2,0,P|413:302|379:320,1,85.4999973907472,0|8,1:1|2:2,0:0:0:0:
314,253,9186,1,8,2:2:0:0:
319,243,9279,2,0,P|361:235|400:220,1,85.4999973907472,10|10,1:2|2:2,0:0:0:0:
495,113,9649,5,0,1:1:0:0:
487,122,9742,2,0,L|478:149,2,21.3749993476868,8|8|8,2:2|2:2|2:2,0:0:0:0:
347,14,10019,2,0,L|375:115,1,85.4999973907472,10|10,2:2|1:2,0:0:0:0:
316,156,10297,1,8,2:2:0:0:
307,146,10390,5,0,1:1:0:0:
443,50,10760,5,10,1:2:0:0:
180,267,11131,6,0,L|169:219,1,42.7499986953736,10|0,1:2|0:0,0:0:0:0:
4,73,11408,2,0,L|51:87,1,42.7499986953736,10|8,1:2|2:2,0:0:0:0:
260,18,11686,2,0,L|223:51,1,42.7499986953736,10|0,1:2|0:0,0:0:0:0:
148,116,11871,6,0,P|155:135|154:114,1,56.9999982604981,2|2,2:2|2:2,0:0:0:0:
131,37,12797,5,2,2:2:0:0:
121,28,12982,1,2,2:2:0:0:
134,24,13168,1,2,2:2:0:0:
67,311,13353,6,0,B|14:357|-59:296|-18:219|62:192|129:206|147:291|147:291,1,299.249990867615,6|0,1:2|0:0,0:0:0:0:
295,366,13723,6,0,P|316:376|299:359,1,66.4999979705811,2|0,2:1|0:0,0:0:0:0:
176,370,14094,6,0,P|229:303|225:231,1,152,2|2,1:2|2:2,0:0:0:0:
271,156,14371,2,0,P|343:173|311:226,1,152,2|0,1:2|0:0,0:0:0:0:
228,239,14649,6,0,P|342:255|441:318,1,228,6|0,1:2|0:0,0:0:0:0:
506,170,15019,2,0,P|484:203|442:211,1,76,2|0,1:2|0:0,0:0:0:0:
349,347,15205,1,2,2:2:0:0:
494,384,15390,1,2,2:2:0:0:
494,384,15760,5,2,2:2:0:0:
360,235,15945,2,0,P|379:146|390:97,1,132.999995941162,2|2,2:2|2:2,0:0:0:0:
332,40,16223,5,0,0:0:0:0:
323,46,16316,2,0,P|297:87|307:125,1,76,4|0,1:2|0:0,0:0:0:0:
464,267,16501,2,0,L|452:216,2,38,10|8|8,2:2|2:2|2:2,0:0:0:0:
11,375,16871,5,0,1:1:0:0:
53,194,17057,6,0,P|67:234|114:257,1,80.750001540184,10|0,2:2|0:0,0:0:0:0:
89,336,17242,2,0,P|127:354|176:337,1,80.750001540184,2|0,2:2|0:0,0:0:0:0:
224,269,17427,1,2,1:2:0:0:
11,375,17612,6,0,P|110:291|256:266,1,242.250004620552,2|0,2:2|0:0,0:0:0:0:
295,218,17982,6,0,B|274:179|302:130|302:130|271:178|220:181,1,190,2|0,1:2|0:0,0:0:0:0:
223,96,18260,6,0,B|186:80|179:29|179:29|183:80|151:109,1,170.999994781494,2|0,1:2|0:0,0:0:0:0:
92,47,18538,6,0,B|58:55|25:24|25:24|56:57|49:95,1,152,10|2,1:2|2:2,0:0:0:0:
3,226,18816,6,0,P|51:184|114:192,1,113.999996520996,2|0,1:2|0:0,0:0:0:0:
112,195,19094,1,2,1:2:0:0:
407,68,19279,6,0,B|466:38|436:-50|347:-36|297:13|284:86|356:139|356:139,1,299.249990867615,6|0,1:2|0:0,0:0:0:0:
453,276,19649,6,0,P|471:291|457:271,1,66.4999979705811,2|0,2:1|0:0,0:0:0:0:
440,151,20019,6,0,P|397:214|305:216,1,152,2|2,1:2|2:2,0:0:0:0:
225,366,20297,2,0,P|197:310|269:302,1,152,0|0,1:1|0:0,0:0:0:0:
323,377,20575,2,0,P|297:254|266:110,1,228,6|0,1:2|0:0,0:0:0:0:
253,79,20945,2,0,B|252:41|252:41|267:80,1,76,10|0,2:2|0:0,0:0:0:0:
265,297,21131,5,10,2:2:0:0:
326,224,21316,1,0,0:0:0:0:
385,167,21501,1,10,2:2:0:0:
165,2,21686,6,0,P|146:41|187:106,1,85.4999973907472,2|0,2:2|0:0,0:0:0:0:
124,164,21871,2,0,P|132:191|127:163,1,85.4999973907472,10|0,2:2|0:0,0:0:0:0:
17,37,22057,2,0,P|49:66|35:142,1,85.4999973907472,10|8,2:2|2:2,0:0:0:0:
203,259,22242,6,0,B|244:195|244:195|160:178|94:223|109:313,1,285,4|0,1:2|0:0,0:0:0:0:
41,359,22612,2,0,P|-1:318|14:261,1,95
30,202,22797,1,0,1:1:0:0:
275,364,22982,5,10,2:2:0:0:
350,249,23168,1,2,2:2:0:0:
292,133,23353,1,2,1:2:0:0:
504,342,23538,6,0,P|522:364|499:347,1,83.125,2|0,2:2|0:0,0:0:0:0:
512,354,23908,2,0,P|456:224|478:96,1,242.250004620552,6|0,1:2|0:0,0:0:0:0:
471,15,24279,1,8,2:2:0:0:
492,25,24371,1,8,2:2:0:0:
500,47,24464,1,10,2:2:0:0:
415,197,24649,1,2,1:2:0:0:
298,125,24834,6,0,P|289:107|283:89,1,38,2|0,2:2|0:0,0:0:0:0:
375,33,25019,2,0,P|366:49|361:68,1,38
227,197,25205,6,0,B|173:191|141:233|161:244|130:298|65:291,1,190,6|0,1:2|0:0,0:0:0:0:
4,186,25760,1,0,1:1:0:0:
4,186,25853,1,0,0:0:0:0:
4,186,25945,2,0,P|72:174|127:217,2,142.5,10|2|2,2:2|2:2|1:2,0:0:0:0:
163,295,26686,1,2,2:2:0:0:
232,96,27057,6,0,P|224:68|215:41,1,56.9999982604981,0|0,1:1|0:0,0:0:0:0:
318,132,27427,5,10,2:2:0:0:
433,127,27705,1,2,1:2:0:0:
500,224,27982,1,2,1:2:0:0:
326,122,28168,6,0,P|421:106|512:85,1,190,2|0,1:2|0:0,0:0:0:0:
401,252,28723,1,2,1:2:0:0:
401,252,28908,2,0,P|390:300|382:346,1,95,10|2,2:2|2:2,0:0:0:0:
282,268,29279,6,0,B|240:246|190:275|201:285|195:307|157:337|109:316,1,190,2|0,2:2|0:0,0:0:0:0:
24,261,29834,1,0,1:1:0:0:
31,376,30019,2,0,P|22:317|17:282,1,95,0|2,1:1|2:2,0:0:0:0:
188,99,30390,6,0,B|151:96|133:58|133:58|135:95|105:119,2,142.5,10|2|2,2:2|2:2|2:2,0:0:0:0:
7,151,31131,2,0,P|119:165|220:217,1,227.999993041992,2|0,1:2|0:0,0:0:0:0:
340,176,31686,2,0,P|373:136|378:87,1,76,2|8,1:2|2:2,0:0:0:0:
239,32,32057,2,0,P|264:59|274:95,1,76,2|0,2:2|0:0,0:0:0:0:
449,203,32427,6,0,P|343:210|310:295,1,190,2|2,1:2|1:2,0:0:0:0:
208,351,32982,2,0,P|161:346|133:310,1,95,2|0,1:2|0:0,0:0:0:0:
49,284,33353,1,8,2:2:0:0:
296,380,33631,5,0,1:1:0:0:
295,370,33723,2,0,P|303:307|315:246,1,95,2|2,2:2|1:2,0:0:0:0:
182,226,34094,2,0,P|168:153|152:86,1,142.5,0|0,1:1|0:0,0:0:0:0:
152,86,34464,1,2,2:2:0:0:
123,0,34649,1,0,1:1:0:0:
316,114,34834,6,0,P|356:90|373:46,1,95,10|2,2:2|2:2,0:0:0:0:
261,49,35205,2,0,P|327:79|451:84,1,190,2|0,2:2|0:0,0:0:0:0:
506,38,35760,1,0,1:1:0:0:
512,43,35945,1,0,1:1:0:0:
348,124,36131,6,0,P|278:133|212:159,1,142.500005435944,2|2,2:2|2:2,0:0:0:0:
108,95,36686,1,2,2:2:0:0:
135,5,36871,1,2,2:2:0:0:
0,296,37057,6,0,P|57:243|53:226,1,85.4999973907472,6|0,1:2|0:0,0:0:0:0:
226,234,37427,2,0,P|209:158|192:152,1,85.4999973907472,2|0,1:2|0:0,0:0:0:0:
108,95,37797,6,0,P|93:161|141:210,1,142.500005435944,2|0,1:2|0:0,0:0:0:0:
115,345,38075,2,0,P|181:362|232:317,1,142.500005435944,2|0,1:2|0:0,0:0:0:0:
332,317,38353,2,0,P|195:277|57:246,1,285,6|0,1:2|0:0,0:0:0:0:
0,296,38723,5,0,0:0:0:0:
3,305,38816,1,0,0:0:0:0:
5,314,38908,1,8,2:2:0:0:
7,324,39001,1,8,2:2:0:0:
8,332,39094,2,0,L|1:363,2,31.6666666666667,10|0|0,2:2|0:0|0:0,0:0:0:0:
56,245,39279,6,0,P|45:198|33:160,2,85.4999973907472,8|8|10,2:2|2:2|2:2,0:0:0:0:
267,254,40019,6,0,P|324:201|320:184,1,85.4999973907472,6|0,1:2|0:0,0:0:0:0:
470,144,40390,2,0,P|426:79|408:79,1,85.4999973907472,2|0,1:2|0:0,0:0:0:0:
248,170,40760,6,0,P|318:161|388:144,1,142.500005435944,2|0,1:2|0:0,0:0:0:0:
512,279,41038,2,0,P|441:288|371:303,1,142.500005435944,2|0,1:2|0:0,0:0:0:0:
260,360,41316,2,0,P|242:361|261:357,1,56.9999982604981,6|0,1:2|0:0,0:0:0:0:
250,355,41686,5,0,0:0:0:0:
165,310,41871,2,0,L|170:275,1,28.4999991302491
0,206,42242,6,0,B|24:179|19:140|19:140|43:170|80:173,2,142.5,2|2|2,2:2|2:2|2:2,0:0:0:0:
134,83,42982,6,0,P|99:165|80:287,1,199.499993911743,14|0,1:2|0:0,0:0:0:0:
165,310,43353,2,0,P|227:232|306:172,1,199.499993911743,8|0,1:2|0:0,0:0:0:0:
376,31,43723,2,0,P|303:22|293:75,1,132.999995941162,10|0,1:2|0:0,0:0:0:0:
365,107,44001,1,2,1:2:0:0:
365,107,44094,2,0,P|396:118|425:135,1,66.4999979705811,8|0,2:2|0:0,0:0:0:0:
500,103,44279,1,6,1:2:0:0:
509,262,44464,6,0,P|442:266|377:281,1,132.999995941162,10|0,1:2|0:0,0:0:0:0:
256,339,44742,1,2,2:2:0:0:
256,339,44834,2,0,P|230:316|225:280,1,66.4999979705811,8|0,1:2|0:0,0:0:0:0:
333,220,45019,2,0,P|308:241|301:273,1,66.4999979705811,2|0,2:2|0:0,0:0:0:0:
345,361,45205,1,8,1:2:0:0:
121,341,45390,5,2,2:2:0:0:
118,357,45482,1,0,1:1:0:0:
114,373,45575,1,10,2:2:0:0:
81,190,45760,1,2,1:2:0:0:
0,285,45945,6,0,P|42:285|77:258,1,66.4999979705811,4|0,1:2|0:0,0:0:0:0:
202,345,46131,2,0,P|223:308|217:264,1,66.4999979705811,2|0,1:2|0:0,0:0:0:0:
360,211,46316,2,0,P|338:174|298:157,1,66.4999979705811,2|0,1:2|0:0,0:0:0:0:
181,65,46501,5,2,1:2:0:0:
181,65,46594,1,0,0:0:0:0:
181,65,46686,2,0,L|190:-1,1,66.4999979705811,8|0,1:2|0:0,0:0:0:0:
272,16,46871,1,10,1:2:0:0:
272,16,46964,1,8,2:2:0:0:
272,16,47057,2,0,L|262:81,1,66.4999979705811,2|8,1:2|2:2,0:0:0:0:
82,187,47242,5,14,1:2:0:0:
77,178,47334,1,8,2:2:0:0:
71,168,47427,5,8,2:2:0:0:
97,114,47519,1,8,2:2:0:0:
157,112,47612,5,8,2:2:0:0:
188,163,47705,1,8,2:2:0:0:
160,215,47797,1,8,2:2:0:0:
103,236,47890,1,8,2:2:0:0:
86,293,47982,1,8,2:2:0:0:
131,332,48075,1,8,2:2:0:0:
203,281,48168,6,0,P|217:313|225:352,1,66.4999979705811,8|8,2:2|2:2,0:0:0:0:
300,335,48353,6,0,P|303:302|301:268,1,66.4999979705811,8|8,2:2|2:2,0:0:0:0:
398,288,48538,6,0,P|391:320|379:351,1,66.4999979705811,8|8,2:2|2:2,0:0:0:0:
450,384,48723,6,0,P|472:359|489:330,1,66.4999979705811,8|8,2:2|2:2,0:0:0:0:
491,0,49279,6,0,L|502:39,2,38,2|2|2,2:2|2:2|2:2,0:0:0:0:
0,136,50390,6,0,P|92:152|170:206,1,180.49999518013,6|0,1:1|0:0,0:0:0:0:
256,157,50668,1,2,2:2:0:0:
267,149,50760,2,0,P|295:106|273:53,1,90.2499975900651,8|0,1:2|0:0,0:0:0:0:
162,11,50945,2,0,P|176:56|185:102,1,90.2499975900651,2|0,2:2|0:0,0:0:0:0:
369,257,51131,6,0,P|275:241|201:326,1,209.000006378174,2|0,1:2|0:0,0:0:0:0:
78,376,51408,6,0,L|145:349,2,56.9999982604981,2|8|0,1:2|2:2|0:0,0:0:0:0:
264,383,51686,6,0,B|192:391|149:340|182:323|138:267|59:293,1,242.250004620552,2|0,1:2|0:0,0:0:0:0:
61,293,52057,2,0,P|34:253|55:208,1,90.2499975900651,2|0,1:2|0:0,0:0:0:0:
131,18,52242,6,0,P|146:85|69:49,1,180.49999518013,8|2,1:2|2:2,0:0:0:0:
6,133,52519,1,0,0:0:0:0:
0,123,52612,2,0,P|103:134|177:199,1,180.49999518013,2|2,1:2|2:2,0:0:0:0:
256,197,52890,2,0,P|269:226|248:203,1,90.2499975900651,8|2,1:2|2:2,0:0:0:0:
248,27,53075,1,0,0:0:0:0:
241,31,53168,2,0,P|233:87|255:121,1,90.2499975900651,2|0,1:2|0:0,0:0:0:0:
376,376,53353,6,0,P|396:278|420:188,1,180.49999518013,2|0,1:2|0:0,0:0:0:0:
486,167,53631,1,0,0:0:0:0:
496,163,53723,2,0,B|540:74|477:5|396:2|375:95|430:111,1,270.749992770195,10|0,1:2|0:0,0:0:0:0:
429,110,54094,6,0,B|354:96|332:157|349:142|330:207|253:198,1,209.000006378174,2|0,1:2|0:0,0:0:0:0:
148,244,54371,6,0,L|208:261,2,56.9999982604981,2|8|0,1:2|2:2|0:0,0:0:0:0:
4,100,54649,6,0,P|15:147|26:191,1,90.2499975900651,2|0,1:2|0:0,0:0:0:0:
84,326,54834,2,0,P|109:211|127:144,1,180.49999518013,0|2,1:1|2:2,0:0:0:0:
177,81,55112,1,0,1:1:0:0:
171,71,55205,1,8,2:2:0:0:
25,187,55390,1,2,1:2:0:0:
313,374,55575,6,0,P|294:342|300:305,1,76,8|2,1:2|2:2,0:0:0:0:
289,218,55853,6,0,P|327:218|357:241,1,76,8|0,1:2|0:0,0:0:0:0:
435,278,56131,6,0,P|417:311|383:327,1,76,10|0,1:2|0:0,0:0:0:0:
206,315,56316,6,0,P|372:277|537:244,1,313.500009567261,6|0,1:2|0:0,0:0:0:0:
512,336,56686,2,0,P|495:374|502:333,1,123.499994346619,10|0,2:1|0:0,0:0:0:0:
512,7,57057,6,0,B|531:63|481:95|487:75|428:109|456:173,1,180.49999518013,2|0,1:2|0:0,0:0:0:0:
512,248,57334,2,0,P|419:184|343:198,1,180.49999518013,0|0,1:1|0:0,0:0:0:0:
287,230,57612,1,2,1:2:0:0:
275,235,57705,1,0,0:0:0:0:
41,44,57982,6,0,P|10:66|10:137,1,90.2499975900651,2|0,2:2|0:0,0:0:0:0:
113,291,58168,2,0,P|91:137|72:86,1,180.49999518013,8|2,2:2|2:2,0:0:0:0:
199,6,58445,1,0,0:0:0:0:
209,0,58538,2,0,P|178:39|105:38,1,104.500003189087,10|0,1:2|0:0,0:0:0:0:
5,323,58723,6,0,P|1:290|13:263,1,52.2500015945435,2|0,2:2|0:0,0:0:0:0:
19,298,58816,2,0,P|31:267|55:250,1,52.2500015945435,8|0,1:2|0:0,0:0:0:0:
40,283,58908,2,0,P|66:263|95:260,1,52.2500015945435,2|0,2:2|0:0,0:0:0:0:
62,289,59001,2,0,P|94:284|121:297,1,52.2500015945435
95,366,59094,6,0,P|151:359|183:320,1,104.500003189087,10|0,1:2|0:0,0:0:0:0:
418,356,59279,6,0,P|264:324|93:286,1,313.500009567261,4|0,1:2|0:0,0:0:0:0:
37,268,59649,1,10,1:2:0:0:
244,365,59834,6,0,B|294:374|314:332|298:341|320:294|368:305,1,142.5,2|0,2:2|0:0,0:0:0:0:
361,303,60205,1,2,2:2:0:0:
512,374,60390,6,0,P|454:288|468:61,1,304,14|0,1:2|0:0,0:0:0:0:
280,263,60945,6,0,P|283:157|374:50,1,246.999988693238,6|0,1:2|0:0,0:0:0:0:
427,0,61408,1,0,0:0:0:0:
436,1,61501,5,6,1:2:0:0:
502,72,61779,5,8,2:2:0:0:
429,128,62057,5,8,2:2:0:0:
15,6,62242,6,0,P|121:34|203:93,1,180.49999518013,6|0,1:2|0:0,0:0:0:0:
246,141,62519,1,2,2:2:0:0:
259,131,62612,2,0,P|283:95|271:42,1,90.2499975900651,8|0,1:2|0:0,0:0:0:0:
0,147,62797,2,0,P|38:123|81:112,1,90.2499975900651,2|0,2:2|0:0,0:0:0:0:
287,246,62982,6,0,P|183:236|150:158,1,180.49999518013,2|0,1:2|0:0,0:0:0:0:
96,57,63260,6,0,P|88:84|81:112,2,56.9999982604981,2|8|0,1:2|2:2|0:0,0:0:0:0:
35,331,63538,6,0,P|-7:254|90:293,1,242.250004620552,2|0,1:2|0:0,0:0:0:0:
91,277,63908,2,0,P|132:313|206:299,1,80.750001540184,2|0,1:2|0:0,0:0:0:0:
491,289,64094,6,0,P|379:320|297:380,1,180.49999518013,8|2,1:2|2:2,0:0:0:0:
245,384,64371,1,0,0:0:0:0:
243,372,64464,2,0,B|227:313|272:282|271:303|313:263|287:207,1,180.49999518013,2|2,1:2|2:2,0:0:0:0:
238,148,64742,2,0,P|201:210|218:245,1,90.2499975900651,8|2,1:2|2:2,0:0:0:0:
151,293,64927,1,0,0:0:0:0:
143,288,65019,2,0,P|113:255|114:211,1,90.2499975900651,2|0,1:2|0:0,0:0:0:0:
222,0,65205,6,0,P|283:73|388:54,1,180.49999518013,2|0,1:2|0:0,0:0:0:0:
462,144,65482,1,0,0:0:0:0:
474,148,65575,2,0,B|545:203|511:301|428:331|376:244|434:211,1,270.749992770195,10|0,1:2|0:0,0:0:0:0:
430,213,65945,6,0,P|446:116|468:23,1,180.49999518013,2|0,1:2|0:0,0:0:0:0:
346,16,66223,2,0,L|375:118,2,56.9999982604981,2|8|0,1:2|2:2|0:0,0:0:0:0:
240,220,66501,6,0,P|282:237|328:243,1,90.2499975900651,2|0,1:2|0:0,0:0:0:0:
504,378,66686,2,0,P|392:343|300:338,1,180.49999518013,0|2,1:1|2:2,0:0:0:0:
256,364,66964,1,0,1:1:0:0:
246,369,67057,1,8,2:2:0:0:
414,243,67242,1,2,1:2:0:0:
272,6,67427,6,0,P|241:29|186:14,1,76,8|2,1:2|2:2,0:0:0:0:
200,126,67705,6,0,P|164:111|149:56,1,76,8|0,1:2|0:0,0:0:0:0:
61,133,67982,6,0,P|55:95|96:54,1,76,10|0,1:2|0:0,0:0:0:0:
0,8,68168,6,0,P|151:51|352:131,1,313.500009567261,6|0,1:2|0:0,0:0:0:0:
354,36,68538,2,0,B|387:39|393:75|386:84|386:84|379:51|354:38,1,123.499994346619,10|0,2:1|0:0,0:0:0:0:
61,133,68908,6,0,P|1:194|27:276,1,180.49999518013,2|0,1:2|0:0,0:0:0:0:
153,361,69186,2,0,P|188:293|112:289,1,180.49999518013,0|0,1:1|0:0,0:0:0:0:
51,349,69464,1,2,1:2:0:0:
42,356,69557,1,0,0:0:0:0:
499,384,69834,6,0,P|444:363|373:350,1,90.2499975900651,2|0,2:2|0:0,0:0:0:0:
274,283,70019,2,0,P|378:270|416:194,1,180.49999518013,8|2,2:2|2:2,0:0:0:0:
493,245,70297,1,0,0:0:0:0:
500,236,70390,2,0,P|508:201|467:140,1,104.500003189087,10|0,1:2|0:0,0:0:0:0:
194,262,70575,6,0,P|164:248|147:224,1,52.2500015945435,2|0,2:2|0:0,0:0:0:0:
180,237,70668,2,0,P|160:210|158:181,1,52.2500015945435,8|0,1:2|0:0,0:0:0:0:
179,212,70760,2,0,P|175:179|188:153,1,52.2500015945435,2|0,2:2|0:0,0:0:0:0:
195,196,70853,2,0,P|207:166|233:150,1,52.2500015945435
298,182,70945,6,0,P|305:127|270:88,1,104.500003189087,2|0,1:2|0:0,0:0:0:0:
219,0,71131,6,0,P|258:156|294:318,1,313.500009567261,4|0,1:2|0:0,0:0:0:0:
319,381,71501,1,10,1:2:0:0:
512,300,71686,6,0,B|461:282|444:226|444:226|457:284|420:324,1,209.000006378174,2|2,2:2|2:2,0:0:0:0:
319,381,72242,6,0,P|224:301|25:320,1,304,14|0,1:2|0:0,0:0:0:0:
197,122,72797,6,0,P|71:148|-8:240,1,246.999988693238,6|0,1:2|0:0,0:0:0:0:
114,366,73260,5,0,0:0:0:0:
114,366,73353,2,0,P|84:305|111:225,1,128.249996086121,10|0,2:2|0:0,0:0:0:0:
94,247,73723,1,2,2:2:0:0:
512,153,74094,6,0,B|455:106|481:37|481:37|439:103|374:94,1,256.499992172241,6|0,1:2|0:0,0:0:0:0:
183,99,74464,6,0,P|171:78|185:97,1,66.4999979705811,2|0,2:1|0:0,0:0:0:0:
317,220,74834,6,0,P|309:145|270:80,1,152,2|2,1:2|2:2,0:0:0:0:
330,14,75112,2,0,P|402:52|341:96,1,152,2|0,1:2|0:0,0:0:0:0:
420,184,75390,6,0,P|363:145|167:99,1,256.499992172241,2|0,1:2|0:0,0:0:0:0:
30,96,75760,2,0,P|66:87|94:62,1,76,2|0,1:2|0:0,0:0:0:0:
154,8,75945,1,2,2:2:0:0:
119,162,76131,1,2,2:2:0:0:
119,162,76501,5,2,2:2:0:0:
270,80,76686,2,0,L|245:210,1,132.999995941162,2|2,2:2|2:2,0:0:0:0:
288,288,76964,5,0,0:0:0:0:
297,296,77057,2,0,P|340:288|357:253,1,76,4|0,1:2|0:0,0:0:0:0:
155,170,77242,2,0,L|118:161,2,38,10|8|8,2:2|2:2|2:2,0:0:0:0:
501,9,77612,5,0,1:1:0:0:
339,147,77797,6,0,P|306:124|294:86,1,80.750001540184,10|0,2:2|0:0,0:0:0:0:
419,9,77982,2,0,P|386:31|374:69,1,80.750001540184,2|0,2:2|0:0,0:0:0:0:
435,173,78168,1,6,1:2:0:0:
224,50,78353,6,0,P|339:81|429:160,1,242.250004620552,2|0,2:2|0:0,0:0:0:0:
496,237,78723,6,0,B|465:269|479:323|479:323|462:269|413:253,1,190,2|0,1:2|0:0,0:0:0:0:
394,336,79001,6,0,B|354:341|334:389|334:389|351:341|327:304,1,170.999994781494,2|0,1:2|0:0,0:0:0:0:
255,349,79279,6,0,B|224:332|184:353|184:353|222:330|225:291,1,152,10|2,1:2|2:2,0:0:0:0:
104,174,79557,6,0,P|145:217|149:277,1,113.999996520996,2|0,1:2|0:0,0:0:0:0:
147,285,79834,1,2,1:2:0:0:
1,145,80019,6,0,B|58:98|35:30|35:30|77:97|148:87,1,256.499992172241,6|0,1:2|0:0,0:0:0:0:
299,11,80390,2,0,P|311:-10|297:9,1,66.4999979705811,2|0,2:1|0:0,0:0:0:0:
230,138,80760,6,0,P|304:151|368:191,1,152,2|2,1:2|2:2,0:0:0:0:
474,77,81038,2,0,P|482:10|416:15,1,152,0|0,1:1|0:0,0:0:0:0:
388,99,81316,2,0,L|418:324,1,228,6|0,1:2|0:0,0:0:0:0:
481,373,81686,2,0,B|517:381|517:381|488:358,1,76,10|0,2:2|0:0,0:0:0:0:
336,308,81871,5,10,2:2:0:0:
245,327,82057,1,0,0:0:0:0:
165,342,82242,1,10,2:2:0:0:
7,169,82427,6,0,P|38:138|112:157,1,85.4999973907472,2|0,2:2|0:0,0:0:0:0:
131,67,82612,2,0,P|172:78|194:150,1,85.4999973907472,10|0,2:2|0:0,0:0:0:0:
155,210,82797,2,0,P|185:216|159:200,1,85.4999973907472,10|8,2:2|2:2,0:0:0:0:
14,180,82982,6,0,P|139:166|311:7,1,313.500009567261,4|0,1:2|0:0,0:0:0:0:
387,191,83353,2,0,P|408:149|394:103,1,95
367,3,83538,1,0,1:1:0:0:
264,166,83723,5,10,2:2:0:0:
401,111,83908,1,2,2:2:0:0:
510,206,84094,1,2,1:2:0:0:
303,372,84279,6,0,B|253:391|215:341|218:316|233:324|193:251|107:293,1,213.750008153916,2|0,2:2|0:0,0:0:0:0:
66,328,84649,2,0,B|49:338|33:340|33:340|52:352|81:328,1,80.750001540184,6|0,1:2|0:0,0:0:0:0:
158,201,84834,2,0,L|171:121,1,80.750001540184
127,52,85019,5,8,2:2:0:0:
106,62,85112,1,8,2:2:0:0:
98,84,85205,1,10,2:2:0:0:
243,183,85390,1,2,1:2:0:0:
412,0,85575,6,0,P|414:31|427:61,1,38,2|0,2:2|0:0,0:0:0:0:
326,37,85760,2,0,P|346:60|358:90,1,38
492,70,85945,6,0,P|390:91|317:167,1,190,6|0,1:2|0:0,0:0:0:0:
396,264,86501,1,0,1:1:0:0:
396,264,86594,1,0,0:0:0:0:
396,264,86686,2,0,P|451:235|431:148,2,142.5,10|2|2,2:2|2:2|1:2,0:0:0:0:
301,247,87427,1,2,2:2:0:0:
56,381,87797,6,0,P|115:366|159:355,1,95,0|0,1:1|0:0,0:0:0:0:
375,219,88168,5,10,2:2:0:0:
272,163,88445,1,2,1:2:0:0:
218,261,88723,1,2,1:2:0:0:
293,333,88908,6,0,P|181:281|97:258,1,190,2|0,1:2|0:0,0:0:0:0:
6,131,89464,1,2,1:2:0:0:
65,61,89649,2,0,P|105:106|85:157,1,95,10|2,2:2|2:2,0:0:0:0:
21,255,90019,6,0,P|99:174|183:185,1,190,2|0,2:2|0:0,0:0:0:0:
294,47,90575,1,0,1:1:0:0:
178,90,90760,2,0,P|238:114|256:162,1,95,0|2,1:1|2:2,0:0:0:0:
427,1,91131,6,0,P|349:36|279:47,2,142.5,10|2|2,2:2|2:2|2:2,0:0:0:0:
251,138,91871,6,0,P|360:149|422:276,1,227.999993041992,2|0,1:2|0:0,0:0:0:0:
423,384,92427,2,0,P|399:356|402:319,1,76,2|8,1:2|2:2,0:0:0:0:
484,294,92797,2,0,P|509:322|506:359,1,76,2|0,2:2|0:0,0:0:0:0:
421,241,93168,6,0,P|440:148|473:57,1,190,2|2,1:2|1:2,0:0:0:0:
359,0,93723,2,0,P|353:64|401:85,1,95,2|0,1:2|0:0,0:0:0:0:
502,214,94094,2,0,P|438:159|366:176,2,142.5,8|0|2,2:2|1:1|1:2,0:0:0:0:
332,317,94834,6,0,P|259:334|195:365,1,142.5,0|0,1:1|0:0,0:0:0:0:
188,371,95205,2,0,P|84:351|71:349,1,95,2|0,2:2|1:1,0:0:0:0:
18,188,95575,5,10,2:2:0:0:
78,243,95760,1,2,2:2:0:0:
2,273,95945,2,0,P|85:200|204:184,1,190,2|0,2:2|0:0,0:0:0:0:
236,235,96501,2,0,P|195:273|153:270,1,95,0|0,1:1|1:1,0:0:0:0:
18,186,96871,6,0,P|32:116|45:51,1,113.999996520996,2|2,2:2|2:2,0:0:0:0:
91,16,97427,1,2,2:2:0:0:
142,78,97612,1,2,2:2:0:0:
437,58,97797,6,0,P|426:90|368:115,1,85.4999973907472,6|0,1:2|0:0,0:0:0:0:
282,1,98168,2,0,P|304:26|296:89,1,85.4999973907472,2|0,1:2|0:0,0:0:0:0:
477,162,98538,6,0,P|407:154|361:205,1,142.500005435944,2|0,1:2|0:0,0:0:0:0:
258,170,98816,2,0,P|250:239|301:286,1,142.500005435944,2|0,2:2|0:0,0:0:0:0:
231,383,99094,6,0,P|328:299|465:298,1,256.499992172241,2|0,2:2|0:0,0:0:0:0:
512,384,99464,6,0,L|507:360,2,23.75
477,215,99649,1,8,1:2:0:0:
477,215,99742,1,8,2:2:0:0:
477,215,99834,2,0,L|466:161,1,47.5,10|8,2:2|2:2,0:0:0:0:
406,104,100019,6,0,P|416:62|426:21,2,85.4999973907472,8|8|10,1:2|2:2|2:2,0:0:0:0:
136,225,100760,6,0,P|113:182|123:138,1,85.4999973907472,2|0,1:2|0:0,0:0:0:0:
196,127,101131,2,0,P|219:170|209:214,1,85.4999973907472,2|0,1:2|0:0,0:0:0:0:
298,369,101501,6,0,P|228:305|161:330,1,142.500005435944,2|0,1:2|0:0,0:0:0:0:
136,225,101779,2,0,P|45:253|33:324,1,142.500005435944,2|0,2:2|0:0,0:0:0:0:
15,384,102057,6,0,P|82:359|109:350,1,99.7499969558717,2|0,2:2|0:0,0:0:0:0:
196,284,102612,2,0,L|188:311,1,28.4999991302491,0|0,1:1|0:0,0:0:0:0:
55,213,102982,6,0,P|43:135|29:75,1,128.249996086121,2|2,1:2|2:2,0:0:0:0:
0,17,103353,2,0,P|-7:-3|2:15,1,64.1249980430604,0|0,1:1|0:0,0:0:0:0:
226,101,103723,5,14,1:2:0:0:
308,14,103908,1,2,2:2:0:0:
226,101,104094,2,0,P|309:107|398:164,1,185.249991519928,8|0,1:2|0:0,0:0:0:0:
447,235,104464,2,0,P|487:203|472:126,1,123.499994346619,10|0,1:2|0:0,0:0:0:0:
430,75,104742,1,2,2:2:0:0:
420,69,104834,1,8,1:2:0:0:
307,205,105019,6,0,P|335:235|366:243,1,61.7499971733095,2|0,2:2|0:0,0:0:0:0:
488,336,105205,1,10,1:2:0:0:
388,365,105390,6,0,L|395:334,2,30.8749985866547,0|0|2,0:0|0:0|2:2,0:0:0:0:
512,256,105575,2,0,P|490:171|481:134,1,123.499994346619,8|2,1:2|2:2,0:0:0:0:
288,338,105945,6,0,P|215:316|163:307,1,123.499994346619,8|2,1:2|2:2,0:0:0:0:
168,307,106223,1,0,0:0:0:0:
168,307,106316,1,10,1:2:0:0:
82,369,106501,1,2,2:2:0:0:
24,31,106686,6,0,P|51:78|83:87,1,61.7499971733095,0|0,1:1|0:0,0:0:0:0:
11,144,106871,2,0,P|64:157|92:141,1,61.7499971733095,2|0,1:2|0:0,0:0:0:0:
261,69,107057,6,0,P|205:69|182:92,1,61.7499971733095,2|0,1:2|0:0,0:0:0:0:
172,0,107242,2,0,P|133:39|132:71,1,61.7499971733095,2|0,1:2|0:0,0:0:0:0:
108,255,107427,2,0,P|135:206|127:175,1,61.7499971733095,8|0,1:2|0:0,0:0:0:0:
213,209,107612,2,0,P|198:155|170:139,1,61.7499971733095,2|8,1:2|2:2,0:0:0:0:
327,3,107797,5,2,1:2:0:0:
338,7,107890,1,0,0:0:0:0:
349,12,107982,1,10,1:2:0:0:
360,16,108075,1,0,0:0:0:0:
371,20,108168,5,8,1:2:0:0:
421,43,108260,1,8,2:2:0:0:
433,97,108353,1,8,1:2:0:0:
394,136,108445,1,8,2:2:0:0:
339,125,108538,1,8,1:2:0:0:
302,167,108631,1,8,2:2:0:0:
311,221,108723,1,8,1:2:0:0:
357,252,108816,1,8,2:2:0:0:
416,315,108908,6,0,P|436:281|433:237,1,61.7499971733095,10|8,1:2|2:2,0:0:0:0:
477,190,109094,2,0,P|505:217|513:260,1,61.7499971733095,10|8,1:2|2:2,0:0:0:0:
289,361,109279,6,0,P|269:327|272:283,1,61.7499971733095,10|8,1:2|2:2,0:0:0:0:
228,236,109464,2,0,P|199:263|191:306,1,61.7499971733095,10|8,1:2|2:2,0:0:0:0:
63,325,109649,5,2,2:2:0:0:
142,216,109834,1,2,2:2:0:0:
142,350,110019,1,2,2:2:0:0:
63,241,110205,1,2,2:2:0:0:
191,283,110390,1,2,2:2:0:0:
63,325,110575,5,0,1:1:0:0:
315,227,110760,2,0,P|311:195|303:159,1,61.7499971733095,10|0,2:2|0:0,0:0:0:0:
259,41,110945,5,8,2:2:0:0:
252,32,111038,1,8,2:2:0:0:
239,24,111131,2,0,B|186:20|154:67|180:82|149:124|84:115,1,180.49999518013,6|0,1:1|0:0,0:0:0:0:
9,70,111408,1,2,2:2:0:0:
1,84,111501,2,0,P|-4:127|22:163,1,90.2499975900651,8|0,1:2|0:0,0:0:0:0:
100,290,111686,2,0,P|108:245|122:202,1,90.2499975900651,2|0,2:2|0:0,0:0:0:0:
244,109,111871,6,0,P|338:125|412:40,1,209.000006378174,2|0,1:2|0:0,0:0:0:0:
512,52,112149,6,0,L|485:-15,2,56.9999982604981,2|8|0,1:2|2:2|0:0,0:0:0:0:
244,109,112427,6,0,B|322:84|366:140|339:161|376:213|450:193,1,242.250004620552,2|0,1:2|0:0,0:0:0:0:
512,255,112797,2,0,P|479:284|436:276,1,90.2499975900651,2|0,1:2|0:0,0:0:0:0:
266,383,112982,6,0,P|188:339|99:344,1,180.49999518013,8|2,1:2|2:2,0:0:0:0:
16,271,113260,1,0,0:0:0:0:
7,280,113353,2,0,P|15:358|91:335,1,180.49999518013,2|2,1:2|2:2,0:0:0:0:
163,221,113631,2,0,P|241:229|218:305,1,180.49999518013,8|0,1:2|0:0,0:0:0:0:
90,244,113908,2,0,P|92:187|119:157,1,90.2499975900651,2|0,1:2|0:0,0:0:0:0:
36,28,114094,6,0,B|87:11|130:45|111:63|151:94|202:78,1,180.49999518013,2|0,1:2|0:0,0:0:0:0:
353,149,114371,1,0,0:0:0:0:
363,145,114464,2,0,B|407:56|344:-13|263:-16|242:77|297:93,1,270.749992770195,10|0,1:2|0:0,0:0:0:0:
296,92,114834,6,0,B|371:106|393:45|376:52|395:-5|472:4,1,209.000006378174,2|0,1:2|0:0,0:0:0:0:
511,80,115112,6,0,L|494:140,2,56.9999982604981,2|8|0,1:2|2:2|0:0,0:0:0:0:
349,228,115390,6,0,P|305:217|261:206,1,90.2499975900651,2|0,1:2|0:0,0:0:0:0:
155,254,115575,2,0,P|178:167|197:79,1,180.49999518013,0|2,1:1|2:2,0:0:0:0:
194,69,115853,1,0,1:1:0:0:
188,59,115945,1,8,2:2:0:0:
261,206,116131,1,2,1:2:0:0:
33,350,116316,6,0,P|14:318|20:281,1,76,10|2,1:2|2:2,0:0:0:0:
154,254,116594,6,0,P|137:286|103:302,1,76,8|0,1:2|0:0,0:0:0:0:
9,193,116871,6,0,P|46:193|76:216,1,76,10|0,1:2|0:0,0:0:0:0:
33,350,117057,6,0,P|185:314|339:283,1,313.500009567261,6|0,1:2|0:0,0:0:0:0:
483,163,117427,2,0,P|494:123|476:161,1,123.499994346619,10|0,2:1|0:0,0:0:0:0:
351,368,117797,6,0,B|327:315|386:281|380:301|430:269|411:213,1,180.49999518013,2|0,1:2|0:0,0:0:0:0:
341,72,118075,2,0,P|260:78|274:157,1,180.49999518013,0|0,1:1|0:0,0:0:0:0:
349,158,118353,1,2,1:2:0:0:
361,153,118445,1,0,0:0:0:0:
44,372,118723,6,0,P|13:350|13:279,1,90.2499975900651,2|0,2:2|0:0,0:0:0:0:
132,131,118908,2,0,B|151:218|67:209|84:297,1,180.49999518013,8|2,2:2|2:2,0:0:0:0:
142,347,119186,1,0,0:0:0:0:
149,362,119279,2,0,P|198:365|246:310,1,104.500003189087,10|0,1:2|0:0,0:0:0:0:
266,172,119464,6,0,P|290:164|316:170,1,52.2500015945435,2|0,2:2|0:0,0:0:0:0:
293,140,119557,2,0,P|318:146|337:163,1,52.2500015945435,8|0,1:2|0:0,0:0:0:0:
333,136,119649,2,0,P|351:154|358:179,1,52.2500015945435,2|0,2:2|0:0,0:0:0:0:
371,153,119742,2,0,P|377:178|372:203,1,52.2500015945435
448,239,119834,6,0,P|412:276|361:281,1,104.500003189087,10|0,1:2|0:0,0:0:0:0:
201,100,120019,6,0,P|310:216|313:394,1,313.500009567261,4|0,1:2|0:0,0:0:0:0:
323,363,120390,1,10,1:2:0:0:
512,374,120575,6,0,P|524:306|445:315,1,156.750004783631,2|0,2:2|0:0,0:0:0:0:
455,301,120945,1,2,2:2:0:0:
481,40,121131,6,0,P|395:98|168:84,1,304,14|0,1:2|0:0,0:0:0:0:
310,288,121686,6,0,P|206:263|121:151,1,246.999988693238,6|0,1:2|0:0,0:0:0:0:
125,79,122149,1,0,0:0:0:0:
127,70,122242,5,6,1:2:0:0:
74,14,122519,5,8,2:2:0:0:
0,41,122797,5,8,2:2:0:0:
0,333,122982,6,0,P|74:276|164:267,1,180.49999518013,6|0,1:2|0:0,0:0:0:0:
289,335,123260,1,2,2:2:0:0:
300,322,123353,2,0,P|324:286|312:233,1,90.2499975900651,8|0,1:2|0:0,0:0:0:0:
196,194,123538,2,0,P|229:220|234:274,1,90.2499975900651,2|0,2:2|0:0,0:0:0:0:
423,366,123723,6,0,P|511:309|467:231,1,180.49999518013,2|0,1:2|0:0,0:0:0:0:
330,155,124001,6,0,P|303:145|275:137,2,56.9999982604981,2|8|0,1:2|2:2|0:0,0:0:0:0:
512,139,124279,6,0,B|441:112|385:187|440:191|381:288|260:221,1,242.250004620552,2|0,1:2|0:0,0:0:0:0:
140,321,124649,2,0,P|102:309|75:280,1,80.750001540184,2|0,1:2|0:0,0:0:0:0:
81,79,124834,6,0,P|125:156|146:244,1,180.49999518013,8|2,1:2|2:2,0:0:0:0:
239,347,125112,1,0,0:0:0:0:
230,337,125205,2,0,B|177:313|137:355|158:354|127:399|68:383,1,180.49999518013,2|2,1:2|2:2,0:0:0:0:
0,289,125482,6,0,P|4:245|38:216,1,90.2499975900651,8|2,1:2|2:2,0:0:0:0:
150,148,125668,1,0,0:0:0:0:
160,145,125760,2,0,P|178:104|164:63,1,90.2499975900651,2|0,1:2|0:0,0:0:0:0:
235,242,125945,6,0,P|296:315|401:296,1,180.49999518013,2|0,1:2|0:0,0:0:0:0:
501,383,126223,1,0,0:0:0:0:
512,376,126316,2,0,B|547:302|479:253|472:267|463:292|382:219|441:139,1,270.749992770195,10|0,1:2|0:0,0:0:0:0:
414,27,126686,6,0,P|490:9|491:88,1,180.49999518013,2|0,1:2|0:0,0:0:0:0:
345,190,126964,2,0,P|327:181|290:174,2,56.9999982604981,2|8|0,1:2|2:2|0:0,0:0:0:0:
453,238,127242,6,0,P|440:188|434:148,1,90.2499975900651,2|0,1:2|0:0,0:0:0:0:
309,13,127427,2,0,P|330:113|349:217,1,180.49999518013,0|2,1:1|2:2,0:0:0:0:
290,247,127705,1,0,1:1:0:0:
280,252,127797,1,8,2:2:0:0:
434,149,127982,1,2,1:2:0:0:
236,119,128168,6,0,P|205:142|150:127,1,76,8|2,1:2|2:2,0:0:0:0:
30,23,128445,6,0,P|66:38|81:93,1,76,8|0,1:2|0:0,0:0:0:0:
37,229,128723,6,0,P|31:191|72:150,1,76,10|0,1:2|0:0,0:0:0:0:
180,61,128908,6,0,P|123:207|99:362,1,313.500009567261,6|0,1:2|0:0,0:0:0:0:
171,384,129279,2,0,B|201:397|224:369|222:358|222:358|200:383|173:382,1,123.499994346619,10|0,2:1|0:0,0:0:0:0:
50,160,129649,6,0,P|111:220|193:194,1,180.49999518013,2|0,1:2|0:0,0:0:0:0:
367,272,129927,2,0,P|402:204|326:199,1,180.49999518013,0|0,1:1|0:0,0:0:0:0:
263,248,130205,1,2,1:2:0:0:
254,255,130297,1,0,0:0:0:0:
218,42,130575,6,0,P|234:83|246:127,1,90.2499975900651,2|0,2:2|0:0,0:0:0:0:
227,343,130760,2,0,P|331:330|369:254,1,180.49999518013,8|2,2:2|2:2,0:0:0:0:
442,223,131038,1,0,0:0:0:0:
452,224,131131,2,0,P|488:259|491:311,1,104.500003189087,10|0,1:2|0:0,0:0:0:0:
321,130,131316,6,0,P|344:119|370:122,1,52.2500015945435,2|0,2:2|0:0,0:0:0:0:
344,95,131408,2,0,P|369:98|390:113,1,52.2500015945435,8|0,1:2|0:0,0:0:0:0:
383,85,131501,2,0,P|403:100|414:124,1,52.2500015945435,2|0,2:2|0:0,0:0:0:0:
422,97,131594,2,0,P|431:121|430:146,1,52.2500015945435
510,151,131686,6,0,P|494:204|446:225,1,104.500003189087,10|0,1:2|0:0,0:0:0:0:
219,8,131871,6,0,P|311:98|366:292,1,313.500009567261,4|0,1:2|0:0,0:0:0:0:
412,337,132242,1,10,1:2:0:0:
161,319,132427,6,0,B|111:297|98:240|98:240|107:299|67:336,1,209.000006378174,2|2,2:2|2:2,0:0:0:0:
6,271,132982,6,0,P|143:280|278:410,1,304,14|0,1:2|0:0,0:0:0:0:
207,142,133538,2,0,P|303:223|345:363,1,246.999988693238,6|0,1:2|0:0,0:0:0:0:
422,377,134001,5,0,0:0:0:0:
427,384,134094,2,0,P|470:356|466:281,1,132.999995941162,10|2,2:2|2:2,0:0:0:0:
512,44,134834,6,0,P|408:85|316:132,1,180.49999518013,6|2,1:1|2:2,0:0:0:0:
264,87,135112,1,0,0:0:0:0:
253,79,135205,2,0,P|229:42|247:-11,1,90.2499975900651,10|0,1:2|0:0,0:0:0:0:
436,117,135390,2,0,P|421:176|379:196,1,90.2499975900651,2|0,2:2|0:0,0:0:0:0:
237,358,135575,6,0,B|181:372|156:327|168:331|142:282|78:300,1,180.49999518013,2|0,1:2|0:0,0:0:0:0:
12,341,135853,1,2,1:2:0:0:
3,347,135945,1,8,2:2:0:0:
268,184,136131,5,2,1:2:0:0:
259,188,136223,2,0,P|223:224|236:279,1,104.500003189087
231,273,136501,6,0,P|281:279|322:314,1,95,2|0,1:2|0:0,0:0:0:0:
124,185,136686,2,0,P|240:152|300:101,1,190,8|2,1:2|2:2,0:0:0:0:
411,5,136964,5,0,0:0:0:0:
416,12,137057,2,0,P|447:62|365:67,1,170.999994781494,10|2,1:2|2:2,0:0:0:0:
292,109,137334,2,0,P|405:131|468:198,1,170.999994781494,8|0,1:2|0:0,0:0:0:0:
512,205,137612,2,0,P|476:243|437:241,1,85.4999973907472,10|0,1:2|0:0,0:0:0:0:
94,93,137797,6,0,P|187:86|243:8,1,190,2|2,1:2|2:2,0:0:0:0:
241,14,138075,1,0,0:0:0:0:
242,14,138168,2,0,P|206:58|234:124,1,95,10|0,1:2|0:0,0:0:0:0:
4,71,138353,2,0,P|10:128|77:154,1,95,2|0,2:2|0:0,0:0:0:0:
191,295,138538,1,2,1:2:0:0:
191,295,138816,5,0,1:1:0:0:
147,361,138908,2,0,P|79:380|39:404,1,80.750001540184,10|0,2:2|0:0,0:0:0:0:
235,364,139094,2,0,P|272:316|255:268,1,80.750001540184,2|0,1:2|0:0,0:0:0:0:
21,237,139279,6,0,P|117:240|192:297,1,190,2|2,1:2|2:2,0:0:0:0:
333,376,139557,1,0,1:1:0:0:
340,383,139649,1,10,2:2:0:0:
108,291,139834,2,0,P|109:245|148:221,1,95,0|0,1:1|0:0,0:0:0:0:
430,7,140019,6,0,P|419:43|366:64,1,76,10|2,1:2|2:2,0:0:0:0:
443,146,140297,6,0,P|406:155|361:119,1,76,8|0,1:2|0:0,0:0:0:0:
335,234,140575,6,0,P|308:206|317:149,1,76,10|0,1:2|0:0,0:0:0:0:
211,166,140760,6,0,P|356:108|510:76,1,313.500009567261,6|0,1:2|0:0,0:0:0:0:
309,37,141131,2,0,B|276:34|270:-2|277:-11|277:-11|284:22|309:35,1,123.499994346619,10|2,2:1|2:2,0:0:0:0:
501,161,141501,6,0,B|526:218|475:249|484:230|428:266|461:332,1,180.49999518013,10|0,1:2|0:0,0:0:0:0:
512,384,141779,1,2,1:2:0:0:
512,384,141871,1,8,2:2:0:0:
301,345,142057,6,0,P|274:361|303:348,1,90.2499975900651,2|0,1:2|0:0,0:0:0:0:
371,315,142242,1,2,2:2:0:0:
130,10,142427,6,0,P|142:47|187:65,1,90.2499975900651,2|0,2:2|0:0,0:0:0:0:
328,114,142612,2,0,P|243:129|168:202,1,180.49999518013,8|2,2:2|2:2,0:0:0:0:
116,255,142890,1,0,0:0:0:0:
104,249,142982,2,0,P|76:213|87:160,1,90.2499975900651,10|0,1:2|0:0,0:0:0:0:
418,71,143168,6,0,P|422:38|410:11,1,52.2500015945435,2|0,2:2|0:0,0:0:0:0:
404,46,143260,2,0,P|392:15|368:-2,1,52.2500015945435,8|0,1:2|0:0,0:0:0:0:
383,31,143353,2,0,P|357:11|328:8,1,52.2500015945435,2|0,2:2|0:0,0:0:0:0:
361,37,143445,2,0,P|329:32|302:45,1,52.2500015945435
328,114,143538,6,0,P|271:109|236:69,1,104.500003189087,10|0,1:2|0:0,0:0:0:0:
5,104,143723,6,0,P|159:72|330:34,1,313.500009567261,6|0,1:2|0:0,0:0:0:0:
311,38,144094,5,10,1:2:0:0:
136,0,144279,1,2,2:2:0:0:
488,83,144464,1,10,2:2:0:0:
488,83,144834,6,0,P|448:192|426:69,1,304,14|2,1:2|2:2,0:0:0:0:
256,96,145390,6,0,P|263:15|317:75,1,190,6|2,1:2|2:2,0:0:0:0:
295,184,145945,5,10,1:2:0:0:
190,155,146131,1,10,2:2:0:0:
183,165,146223,1,8,2:2:0:0:
77,134,146408,1,8,2:2:0:0:
71,144,146501,1,10,2:2:0:0:
66,154,146594,1,8,2:2:0:0:
0,208,146686,6,0,P|90:177|183:166,1,190,6|2,1:2|2:2,0:0:0:0:
307,270,146964,1,0,0:0:0:0:
320,269,147057,2,0,P|355:244|369:196,1,95,10|0,1:2|0:0,0:0:0:0:
253,108,147242,2,0,P|279:141|277:192,1,95,2|0,2:2|0:0,0:0:0:0:
356,354,147427,6,0,P|483:333|520:246,1,190,2|0,1:2|0:0,0:0:0:0:
497,216,147705,1,2,1:2:0:0:
491,207,147797,1,8,2:2:0:0:
364,85,147982,6,0,P|360:39|394:8,1,95,2|0,1:2|0:0,0:0:0:0:
469,33,148168,2,0,P|473:79|440:111,1,95,2|0,2:2|0:0,0:0:0:0:
312,170,148353,6,0,P|278:201|282:247,1,95,2|0,1:2|0:0,0:0:0:0:
116,275,148538,1,8,1:2:0:0:
112,288,148631,1,0,0:0:0:0:
112,301,148723,2,0,P|143:334|189:330,1,95,2|0,2:2|0:0,0:0:0:0:
358,326,148908,6,0,P|286:271|188:252,1,190,2|2,1:2|2:2,0:0:0:0:
141,181,149186,1,8,1:2:0:0:
134,173,149279,2,0,P|144:120|154:80,1,95,2|0,2:2|0:0,0:0:0:0:
73,58,149464,2,0,P|64:104|52:150,1,95,2|0,1:2|0:0,0:0:0:0:
10,363,149649,6,0,P|108:321|194:330,1,190,2|2,1:2|2:2,0:0:0:0:
240,188,149927,1,0,0:0:0:0:
251,191,150019,2,0,P|285:222|282:268,1,95,10|0,1:2|0:0,0:0:0:0:
349,384,150205,2,0,P|345:338|379:307,1,95,2|0,2:2|0:0,0:0:0:0:
480,168,150390,1,2,1:2:0:0:
480,168,150668,5,2,1:2:0:0:
507,255,150760,2,0,P|462:244|413:236,1,95,8|0,2:2|0:0,0:0:0:0:
410,100,150945,2,0,P|363:92|316:81,1,95,2|0,1:2|0:0,0:0:0:0:
281,245,151131,2,0,P|188:259|96:289,1,190,2|2,1:2|2:2,0:0:0:0:
41,337,151408,1,0,1:1:0:0:
32,346,151501,1,8,2:2:0:0:
0,171,151686,6,0,P|50:188|91:195,1,95,2|0,1:2|0:0,0:0:0:0:
365,254,151871,6,0,P|363:216|317:182,1,76,10|2,1:2|2:2,0:0:0:0:
412,123,152149,6,0,P|378:104|325:127,1,76,8|0,1:2|0:0,0:0:0:0:
331,10,152427,6,0,P|297:30|291:87,1,76,10|0,1:2|0:0,0:0:0:0:
232,212,152612,6,0,P|374:152|511:157,1,285,6|0,1:2|0:0,0:0:0:0:
286,63,152982,2,0,B|254:73|234:43|237:32|237:32|257:59|285:61,1,123.499994346619,10|2,2:1|2:2,0:0:0:0:
440,298,153353,6,0,B|463:252|439:204|411:217|388:168|411:123,1,190,2|0,1:2|0:0,0:0:0:0:
460,67,153631,1,2,1:2:0:0:
468,60,153723,1,8,2:2:0:0:
362,269,153908,6,0,P|315:294|269:268,1,95,2|0,1:2|0:0,0:0:0:0:
212,320,154094,1,2,2:2:0:0:
96,35,154279,6,0,B|92:7|116:-4|116:-4|121:25|94:42,1,95,2|0,2:2|0:0,0:0:0:0:
9,68,154464,2,0,P|123:84|167:157,1,190,8|2,2:2|2:2,0:0:0:0:
236,178,154742,1,0,0:0:0:0:
245,186,154834,2,0,P|287:165|301:117,1,95,2|0,1:2|0:0,0:0:0:0:
425,23,155019,6,0,P|447:35|461:57,1,52.2500015945435,2|0,2:2|0:0,0:0:0:0:
466,19,155112,2,0,P|479:41|480:67,1,52.2500015945435,8|0,1:2|0:0,0:0:0:0:
497,44,155205,2,0,P|496:69|484:92,1,52.2500015945435,2|0,2:2|0:0,0:0:0:0:
512,83,155297,2,0,P|498:105|477:120,1,52.2500015945435
499,198,155390,6,0,P|447:196|410:161,1,104.500003189087,2|0,1:2|0:0,0:0:0:0:
305,19,155575,6,0,P|357:145|369:297,1,285,6|0,1:2|0:0,0:0:0:0:
369,292,155945,5,10,1:2:0:0:
477,120,156131,1,2,2:2:0:0:
305,19,156316,1,10,2:2:0:0:
305,19,156686,6,0,P|324:109|388:69,2,190,14|2|2,1:2|2:2|2:2,0:0:0:0:
506,130,157242,6,0,P|476:192|418:166,2,142.500005435944,6|10|10,1:2|2:2|2:2,0:0:0:0:
497,109,157705,1,8,2:2:0:0:
497,109,157797,1,14,1:2:0:0:
345,210,157982,5,10,2:2:0:0:
349,219,158075,1,8,2:2:0:0:
439,368,158260,5,8,2:2:0:0:
443,377,158353,1,8,2:2:0:0:
511,272,158538,6,0,P|380:299|325:356,1,213.750008153916,6|0,1:2|0:0,0:0:0:0:
256,384,158908,2,0,L|208:374,2,28.4999991302491,10|8|8,2:2|2:2|2:2,0:0:0:0:
326,353,159094,1,10,2:2:0:0:
175,315,159279,1,8,2:2:0:0:
175,315,159649,5,2,1:2:0:0:
258,246,159834,1,0,0:0:0:0:
165,188,160019,1,2,2:2:0:0:
234,114,160205,2,0,P|220:59|205:4,1,113.999996520996,2|0,1:2|1:1,0:0:0:0:
0,77,160575,6,0,P|55:93|116:114,1,113.999996520996,2|8,2:2|2:2,0:0:0:0:
306,173,160945,1,2,2:2:0:0:
89,276,161131,6,0,P|87:242|75:216,1,56.9999982604981,10|0,1:2|0:0,0:0:0:0:
180,237,161316,2,0,P|157:211|147:184,1,56.9999982604981,10|0,2:2|0:0,0:0:0:0:
1,311,161501,6,0,P|98:300|192:386,1,228,6|0,1:2|0:0,0:0:0:0:
190,381,161871,1,2,2:2:0:0:
312,330,162057,1,2,1:2:0:0:
425,271,162242,1,8,2:2:0:0:
425,271,162612,6,0,B|441:214|404:188|402:206|360:164|386:110,1,170.999994781494,2|0,1:2|0:0,0:0:0:0:
383,116,162982,1,2,2:2:0:0:
507,0,163168,2,0,P|492:72|483:124,1,113.999996520996,2|0,1:2|1:1,0:0:0:0:
189,32,163538,6,0,P|247:46|305:60,1,113.999996520996,2|8,2:2|2:2,0:0:0:0:
512,189,163908,1,2,2:2:0:0:
397,90,164094,1,2,1:2:0:0:
467,32,164279,1,2,2:2:0:0:
347,170,164464,6,0,P|262:186|130:279,1,228,6|0,1:2|0:0,0:0:0:0:
87,316,164834,2,0,P|65:291|72:241,1,76,2|0,2:2|0:0,0:0:0:0:
1,137,165019,1,2,1:2:0:0:
115,183,165205,1,8,2:2:0:0:
115,183,165575,6,0,P|129:112|145:31,1,142.5,2|0,1:2|0:0,0:0:0:0:
139,29,165945,2,0,P|150:82|160:122,1,95,0|0,0:0|1:1,0:0:0:0:
323,173,166316,2,0,P|308:217|294:266,1,95,2|0,1:2|0:0,0:0:0:0:
198,316,166686,2,0,P|287:295|357:353,1,190,8|2,2:2|1:2,0:0:0:0:
294,263,167242,1,0,0:0:0:0:
447,383,167427,6,0,P|519:319|490:198,1,213.750008153916,6|0,1:2|0:0,0:0:0:0:
450,156,167797,2,0,P|461:100|472:45,1,113.999996520996,2|2,2:2|1:2,0:0:0:0:
209,0,168168,5,10,2:2:0:0:
362,89,168353,1,2,2:2:0:0:
200,198,168538,1,2,1:2:0:0:
258,91,168723,2,0,L|272:144,4,28.4999991302491,10|8|8|8|8,2:2|2:2|2:2|2:2|2:2,0:0:0:0:
18,98,169094,6,0,P|88:117|141:135,1,113.999996520996,10|8,2:2|2:2,0:0:0:0:
305,199,169464,1,6,1:2:0:0:
459,63,169834,6,0,P|390:87|424:126,1,142.499995651245,6|0,1:2|0:0,0:0:0:0:
511,159,170390,6,0,P|414:160|303:200,1,213.750008153916,6|0,1:2|0:0,0:0:0:0:
219,160,170760,2,0,P|210:141|209:112,2,35.625001358986,10|8|8,2:2|2:2|2:2,0:0:0:0:
293,111,170945,1,10,2:2:0:0:
178,233,171131,1,8,2:2:0:0:
178,233,171501,5,2,1:2:0:0:
87,212,171686,1,0,0:0:0:0:
38,292,171871,1,2,2:2:0:0:
98,363,172057,2,0,P|158:350|218:346,1,113.999996520996,0|0,1:1|1:1,0:0:0:0:
87,212,172427,6,0,P|61:154|88:105,1,113.999996520996,2|8,2:2|2:2,0:0:0:0:
262,28,172797,1,2,2:2:0:0:
158,69,172982,6,0,L|170:14,1,56.9999982604981,10|0,1:2|0:0,0:0:0:0:
244,35,173168,2,0,L|232:90,1,56.9999982604981,10|0,2:2|0:0,0:0:0:0:
287,221,173353,6,0,B|338:190|394:233|377:238|373:252|429:304|493:258,1,213.750008153916,6|0,1:2|0:0,0:0:0:0:
476,267,173723,1,2,2:2:0:0:
316,293,173908,1,2,1:2:0:0:
199,172,174094,1,8,2:2:0:0:
199,172,174464,6,0,P|187:249|173:341,1,170.999994781494,2|0,1:2|0:0,0:0:0:0:
173,341,174834,1,2,2:2:0:0:
110,191,175019,2,0,P|85:211|92:286,1,113.999996520996,2|0,1:2|1:1,0:0:0:0:
280,215,175390,6,0,P|334:198|391:192,1,113.999996520996,2|8,2:2|2:2,0:0:0:0:
477,23,175760,1,2,2:2:0:0:
405,109,175945,1,2,1:2:0:0:
471,158,176131,1,2,2:2:0:0:
464,33,176316,6,0,P|430:171|405:312,1,285.000010871888,6|0,1:2|0:0,0:0:0:0:
471,158,176871,1,2,1:2:0:0:
280,215,177057,1,10,2:2:0:0:
280,215,177427,5,0,1:1:0:0:
186,169,177612,1,2,2:2:0:0:
118,254,177797,2,0,P|123:310|133:366,1,113.999996520996,2|0,2:2|1:1,0:0:0:0:
201,283,178168,5,0,1:1:0:0:
43,381,178353,2,0,P|37:324|27:268,1,113.999996520996,2|8,2:2|2:2,0:0:0:0:
68,86,178723,5,0,0:0:0:0:
3,141,178908,2,0,P|51:170|107:156,1,113.999996520996,2|0,1:2|0:0,0:0:0:0:
356,32,179279,5,6,1:2:0:0:
356,244,179464,1,2,2:2:0:0:
231,72,179649,1,2,2:2:0:0:
433,138,179834,1,2,1:2:0:0:
230,203,180019,1,8,2:2:0:0:
230,203,180390,5,2,1:2:0:0:
427,126,180575,2,0,P|372:155|315:135,1,113.999996520996,2|2,1:2|2:2,0:0:0:0:
147,131,180945,5,2,1:2:0:0:
273,278,181131,2,0,P|218:248|161:268,1,113.999996520996,2|2,1:2|2:2,0:0:0:0:
8,246,181408,5,0,0:0:0:0:
8,246,181501,2,0,P|15:286|22:339,1,95,10|0,2:2|0:0,0:0:0:0:
99,325,181871,2,0,P|92:285|84:231,1,95,2|0,1:2|0:0,0:0:0:0:
190,119,182242,6,0,B|176:189|176:189|129:133|129:133|59:142|59:142|99:79|99:79|69:15|69:15|141:33|141:33|193:-15|193:-15|197:58|197:58|260:92|260:92|190:119|190:119|248:216|347:214|444:136|389:23|361:-14|281:-1|281:-1|334:12|370:56|349:120|349:120|362:141|362:141|338:186|273:182|203:252|180:366|262:453|377:431|423:399|455:348|450:294|420:248|353:245|338:304,1,1915.19994155274,6|10,1:1|1:2,0:0:0:0:
256,192,189927,12,2,192057,2:2:0:0:
18,21,192242,6,0,L|31:80,4,38,10|0|8|8|8,1:2|0:0|2:2|2:2|2:2,0:0:0:0:
239,192,192612,2,0,L|152:170,1,76,8|8,2:2|2:2,0:0:0:0:
75,179,192797,6,0,L|88:120,4,38,10|0|8|8|10,1:2|0:0|2:2|2:2|2:2,0:0:0:0:
165,39,193106,5,8,2:2:0:0:
154,78,193229,5,8,2:2:0:0:
126,49,193353,5,10,2:2:0:0:
239,82,193538,5,0,1:1:0:0:
119,374,193723,6,0,P|78:366|118:301,1,114,10|0,2:2|0:0,0:0:0:0:
13,248,194094,6,0,P|98:280|187:295,1,180.49999518013,6|0,1:1|0:0,0:0:0:0:
251,217,194371,1,2,2:2:0:0:
268,223,194464,2,0,P|301:267|269:307,1,90.2499975900651,8|0,1:2|0:0,0:0:0:0:
203,384,194649,2,0,P|197:339|186:295,1,90.2499975900651,2|0,2:2|0:0,0:0:0:0:
8,159,194834,6,0,P|-19:77|39:14,1,180.49999518013,2|0,1:2|0:0,0:0:0:0:
241,99,195112,2,0,P|268:107|295:114,2,56.9999982604981,2|8|0,1:2|2:2|0:0,0:0:0:0:
59,95,195390,6,0,B|128:128|175:66|158:60|155:47|210:-14|271:17,1,242.250004620552,2|0,1:2|0:0,0:0:0:0:
473,17,195760,2,0,P|443:54|400:59,1,80.750001540184,2|0,1:2|0:0,0:0:0:0:
349,0,195945,6,0,P|393:77|414:165,1,180.49999518013,8|2,1:2|2:2,0:0:0:0:
476,270,196223,1,0,0:0:0:0:
483,260,196316,2,0,P|414:204|327:214,1,180.49999518013,2|2,1:2|2:2,0:0:0:0:
188,193,196594,6,0,P|179:237|167:280,1,90.2499975900651,8|2,1:2|2:2,0:0:0:0:
235,378,196779,1,0,0:0:0:0:
244,373,196871,2,0,P|252:328|264:285,1,90.2499975900651,2|0,1:2|0:0,0:0:0:0:
245,120,197057,6,0,P|178:180|92:159,1,180.49999518013,2|0,1:2|0:0,0:0:0:0:
18,114,197334,1,0,0:0:0:0:
25,105,197427,2,0,B|74:77|76:10|76:10|94:76|156:89,1,228,10|0,1:2|0:0,0:0:0:0:
402,122,197797,6,0,P|354:200|297:156,1,152,2|0,1:2|0:0,0:0:0:0:
245,120,198075,2,0,L|274:18,2,56.9999982604981,2|8|0,1:2|2:2|0:0,0:0:0:0:
176,307,198353,6,0,P|222:292|264:284,1,90.2499975900651,2|0,1:2|0:0,0:0:0:0:
512,338,198538,2,0,P|458:290|347:352,1,180.49999518013,0|2,1:1|2:2,0:0:0:0:
299,367,198816,1,0,1:1:0:0:
300,378,198908,1,8,2:2:0:0:
512,176,199094,5,2,1:2:0:0:
328,70,199279,1,10,1:2:0:0:
414,264,199464,1,2,2:2:0:0:
458,57,199649,1,2,2:2:0:0:
300,199,199834,1,10,1:2:0:0:
435,153,200019,6,0,P|279:171|126:203,1,313.500009567261,6|0,1:2|0:0,0:0:0:0:
74,265,200390,2,0,B|41:262|35:226|42:217|42:217|49:250|74:263,1,123.499994346619,10|0,2:1|0:0,0:0:0:0:
79,38,200760,6,0,P|125:110|117:226,1,180.49999518013,2|0,1:2|0:0,0:0:0:0:
243,338,201038,2,0,P|317:322|273:260,1,180.49999518013,0|0,1:1|0:0,0:0:0:0:
188,279,201316,1,2,1:2:0:0:
179,286,201408,1,0,0:0:0:0:
8,345,201686,6,0,P|63:324|134:311,1,90.2499975900651,2|0,2:2|0:0,0:0:0:0:
272,260,201871,2,0,P|167:257|121:186,1,180.49999518013,8|2,2:2|2:2,0:0:0:0:
27,240,202149,1,0,0:0:0:0:
20,231,202242,2,0,P|12:196|53:135,1,104.500003189087,10|0,1:2|0:0,0:0:0:0:
287,37,202427,6,0,P|306:54|314:78,1,52.2500015945435,2|0,2:2|0:0,0:0:0:0:
327,44,202519,2,0,P|334:68|329:94,1,52.2500015945435,8|0,1:2|0:0,0:0:0:0:
352,75,202612,2,0,P|345:100|328:119,1,52.2500015945435,2|0,2:2|0:0,0:0:0:0:
357,116,202705,2,0,P|339:134|314:144,1,52.2500015945435
341,219,202797,6,0,P|286:226|247:191,1,104.500003189087,10|0,1:2|0:0,0:0:0:0:
125,203,202982,6,0,P|281:164|443:128,1,313.500009567261,4|0,1:2|0:0,0:0:0:0:
495,82,203353,2,0,P|515:139|475:184,1,104.500003189087,10|0,1:2|0:0,0:0:0:0:
425,325,203538,2,0,P|453:366|504:371,1,104.500003189087,2|0,2:2|0:0,0:0:0:0:
512,270,203723,6,0,P|403:293|291:327,1,228,8|0,2:2|0:0,0:0:0:0:
291,326,204094,6,0,B|251:302|257:234|257:234|230:287|173:290,2,209.000006378174,14|0|0,1:2|0:0|0:0,0:0:0:0:
18,254,204649,6,0,B|51:225|47:175|47:175|70:220|118:223,2,170.999994781494,6|10|0,1:2|2:2|0:0,0:0:0:0:
181,155,205205,6,0,L|191:105,1,38,2|2,2:2|2:2,0:0:0:0:
102,61,205575,2,0,L|112:111,1,38,10|2,2:2|2:2,0:0:0:0:
41,384,205945,6,0,P|122:330|220:337,1,180.49999518013,6|2,1:1|2:2,0:0:0:0:
290,276,206223,1,0,0:0:0:0:
300,267,206316,2,0,P|326:224|301:171,1,90.2499975900651,10|0,1:2|0:0,0:0:0:0:
184,158,206501,2,0,P|158:201|183:254,1,90.2499975900651,2|0,2:2|0:0,0:0:0:0:
414,202,206686,6,0,B|431:139|382:110|384:125|333:89|368:26,1,180.49999518013,2|0,1:2|0:0,0:0:0:0:
286,14,206964,1,2,1:2:0:0:
278,4,207057,1,8,2:2:0:0:
61,157,207242,5,2,1:2:0:0:
50,152,207334,2,0,P|19:120|40:63,1,104.500003189087
7,1,207612,6,0,P|73:28|127:22,1,95,2|0,1:2|0:0,0:0:0:0:
1,237,207797,2,0,P|104:172|199:159,1,190,8|2,1:2|2:2,0:0:0:0:
392,120,208075,5,0,0:0:0:0:
401,113,208168,2,0,P|407:41|339:63,1,170.999994781494,2|2,1:2|2:2,0:0:0:0:
307,137,208445,2,0,B|251:150|227:107|241:110|217:64|154:79,1,170.999994781494,8|0,1:2|0:0,0:0:0:0:
95,28,208723,2,0,P|75:57|82:108,1,85.4999973907472,2|0,1:2|0:0,0:0:0:0:
8,240,208908,6,0,P|98:229|160:297,1,190,2|2,1:2|2:2,0:0:0:0:
160,297,209186,1,0,0:0:0:0:
160,297,209279,2,0,P|186:255|161:191,1,95,10|0,1:2|0:0,0:0:0:0:
11,384,209464,2,0,P|45:343|110:335,1,95,2|0,2:2|0:0,0:0:0:0:
342,295,209649,5,2,1:2:0:0:
342,295,209927,5,0,1:1:0:0:
386,361,210019,2,0,P|454:380|494:404,1,80.750001540184,10|0,2:2|0:0,0:0:0:0:
297,361,210205,2,0,P|260:313|277:265,1,80.750001540184,2|0,1:2|0:0,0:0:0:0:
512,237,210390,6,0,P|416:240|341:297,1,190,2|2,1:2|2:2,0:0:0:0:
200,376,210668,1,0,1:1:0:0:
193,383,210760,1,8,2:2:0:0:
391,227,210945,2,0,P|406:192|389:136,1,95,2|0,1:2|0:0,0:0:0:0:
66,84,211131,6,0,P|77:119|101:148,1,76,10|2,1:2|2:2,0:0:0:0:
174,110,211408,6,0,P|162:74|164:36,1,76,8|0,1:2|0:0,0:0:0:0:
271,28,211686,6,0,P|254:61|251:99,1,76,10|0,1:2|0:0,0:0:0:0:
0,40,211871,6,0,P|146:82|298:191,1,313.500009567261,6|0,1:2|0:0,0:0:0:0:
326,237,212242,2,0,B|359:234|365:198|358:189|358:189|351:222|326:235,1,123.499994346619,10|2,2:1|2:2,0:0:0:0:
15,373,212612,6,0,P|99:302|193:326,1,180.49999518013,10|0,1:2|0:0,0:0:0:0:
236,339,212890,1,2,1:2:0:0:
248,346,212982,1,8,2:2:0:0:
27,228,213168,2,0,P|52:273|104:286,1,90.2499975900651,2|0,1:2|0:0,0:0:0:0:
163,308,213353,1,2,2:2:0:0:
439,140,213538,6,0,P|391:161|380:210,1,90.2499975900651,2|0,2:2|0:0,0:0:0:0:
238,256,213723,2,0,P|347:277|374:370,1,180.49999518013,8|2,2:2|2:2,0:0:0:0:
446,378,214001,1,0,0:0:0:0:
457,371,214094,2,0,P|484:326|466:286,1,90.2499975900651,2|0,1:2|0:0,0:0:0:0:
269,172,214279,6,0,P|243:165|223:148,1,52.2500015945435,2|0,2:2|0:0,0:0:0:0:
250,148,214371,2,0,P|231:131|221:106,1,52.2500015945435,8|0,1:2|0:0,0:0:0:0:
248,123,214464,2,0,P|239:98|244:73,1,52.2500015945435,2|0,2:2|0:0,0:0:0:0:
261,105,214557,2,0,P|266:80|283:60,1,52.2500015945435
358,93,214649,6,0,P|367:46|329:-3,1,104.500003189087,2|0,1:2|0:0,0:0:0:0:
162,219,214834,6,0,P|288:122|447:137,1,313.500009567261,6|0,1:2|0:0,0:0:0:0:
496,183,215205,1,10,1:2:0:0:
337,1,215390,1,2,2:2:0:0:
100,94,215575,1,10,2:2:0:0:
100,94,215945,6,0,P|117:9|175:71,2,209.000006378174,14|2|2,1:2|2:2|2:2,0:0:0:0:
285,207,216501,2,0,P|275:133|211:176,2,180.49999518013,6|10|10,1:2|2:2|2:2,0:0:0:0:
27,268,217057,5,10,1:2:0:0:
88,208,217242,5,10,2:2:0:0:
212,176,217427,5,2,2:2:0:0:
378,221,217612,5,10,2:2:0:0:
512,11,217797,5,2,2:1:0:0:
502,21,217890,1,0,0:0:0:0:
491,11,217982,1,2,2:2:0:0:
502,0,218075,1,0,0:0:0:0:
499,13,218168,2,0,P|501:47|510:86,1,71.2500027179719,2|0,2:2|0:0,0:0:0:0:
420,21,218353,2,0,P|427:56|430:91,1,71.2500027179719,2|0,2:2|0:0,0:0:0:0:
471,177,218538,6,0,P|377:184|290:232,1,190,6|0,1:2|0:0,0:0:0:0:
212,176,218816,1,2,1:2:0:0:
198,174,218908,2,0,P|167:136|202:76,1,95,8|0,2:2|0:0,0:0:0:0:
280,10,219094,2,0,P|268:57|259:102,1,95,2|0,1:2|0:0,0:0:0:0:
293,228,219279,1,2,2:2:0:0:
95,361,219464,6,0,P|50:368|21:333,1,95,2|0,1:2|0:0,0:0:0:0:
66,209,219649,1,8,1:2:0:0:
79,205,219742,1,0,0:0:0:0:
91,204,219834,2,0,P|124:235|119:281,1,95,2|0,2:2|0:0,0:0:0:0:
20,333,220019,6,0,P|118:303|208:311,1,190,2|2,1:2|2:2,0:0:0:0:
371,271,220297,2,0,P|375:342|311:268,1,190,8|0,1:2|0:0,0:0:0:0:
201,204,220575,2,0,P|244:221|296:227,1,95,2|0,1:2|0:0,0:0:0:0:
512,135,220760,6,0,B|459:136|432:84|449:88|460:75|436:22|374:30,1,190,2|2,1:2|2:2,0:0:0:0:
256,123,221038,1,0,0:0:0:0:
248,129,221131,2,0,P|208:88|225:40,1,95,10|0,1:2|0:0,0:0:0:0:
300,19,221316,2,0,P|339:59|322:107,1,95,2|0,2:2|0:0,0:0:0:0:
201,204,221501,1,2,1:2:0:0:
201,204,221779,5,2,1:2:0:0:
292,227,221871,2,0,P|346:212|357:177,1,95,8|0,2:2|0:0,0:0:0:0:
478,111,222057,2,0,B|496:92|484:69|484:69|460:80|471:111,1,95,2|0,1:2|0:0,0:0:0:0:
292,227,222242,6,0,P|377:194|469:305,1,190,2|2,1:2|2:2,0:0:0:0:
393,373,222519,5,0,1:1:0:0:
381,366,222612,2,0,P|358:322|378:271,1,95,8|0,2:2|0:0,0:0:0:0:
201,204,222797,2,0,P|204:157|238:126,1,95,2|0,1:2|0:0,0:0:0:0:
499,38,222982,6,0,P|486:73|477:110,1,76,10|2,1:2|2:2,0:0:0:0:
397,77,223260,6,0,P|393:39|387:2,1,76,8|0,1:2|0:0,0:0:0:0:
292,57,223538,6,0,P|310:90|324:125,1,76,10|0,1:2|0:0,0:0:0:0:
477,110,223723,6,0,B|390:55|336:147|340:167|361:161|305:262|215:207,1,313.500009567261,6|0,1:2|0:0,0:0:0:0:
80,258,224094,2,0,B|56:270|49:303|49:303|42:294|48:258|81:255,1,123.499994346619,10|2,2:1|2:2,0:0:0:0:
58,48,224464,6,0,P|135:148|145:228,1,190,2|0,1:2|0:0,0:0:0:0:
185,276,224742,1,2,1:2:0:0:
192,286,224834,2,0,P|256:290|280:252,1,95,8|0,2:2|0:0,0:0:0:0:
431,362,225019,2,0,P|466:308|445:268,1,95,2|0,1:2|0:0,0:0:0:0:
336,361,225205,5,2,2:2:0:0:
309,201,225390,6,0,P|348:210|374:265,1,95,2|0,2:2|0:0,0:0:0:0:
458,283,225575,2,0,P|480:212|412:91,1,190,8|2,2:2|2:2,0:0:0:0:
483,43,225853,1,0,0:0:0:0:
476,34,225945,2,0,P|436:20|381:40,1,95,2|0,1:2|0:0,0:0:0:0:
309,201,226131,6,0,P|289:217|263:223,1,52.2500015945435,2|0,2:2|0:0,0:0:0:0:
295,240,226223,2,0,P|269:244|245:235,1,52.2500015945435,8|0,1:2|0:0,0:0:0:0:
262,262,226316,2,0,P|237:252|220:233,1,52.2500015945435,2|0,2:2|0:0,0:0:0:0:
219,260,226408,2,0,P|202:239|196:214,1,52.2500015945435
118,243,226501,6,0,P|109:196|147:147,1,104.500003189087,2|0,1:2|0:0,0:0:0:0:
211,57,226686,6,0,P|165:209|144:365,1,313.500009567261,6|0,1:2|0:0,0:0:0:0:
144,361,227057,5,10,1:2:0:0:
196,214,227242,1,2,2:2:0:0:
97,76,227427,1,2,2:2:0:0:
96,75,227797,6,0,P|52:149|138:150,2,209.000006378174,14|2|2,1:2|2:2|2:2,0:0:0:0:
263,254,228353,6,0,P|337:248|311:179,2,170.999994781494,6|10|2,1:2|2:2|2:2,0:0:0:0:
246,242,228816,1,0,0:0:0:0:
246,242,228908,1,14,1:2:0:0:
7,336,229279,1,6,1:2:0:0:
90,122,229649,6,0,B|132:100|127:42|85:13|15:27|-36:113|37:195,1,299.249990867615,6|0,1:2|0:0,0:0:0:0:
99,360,230019,6,0,P|110:379|103:356,1,66.4999979705811,2|0,2:1|0:0,0:0:0:0:
7,336,230390,6,0,P|83:273|172:290,1,161.500003080368,2|2,1:2|2:2,0:0:0:0:
228,231,230668,2,0,P|236:170|162:196,1,161.500003080368,2|0,1:2|0:0,0:0:0:0:
142,276,230945,6,0,P|206:196|193:48,1,242.250004620552,6|0,1:2|0:0,0:0:0:0:
261,13,231316,2,0,P|294:45|301:95,1,80.750001540184,2|0,1:2|0:0,0:0:0:0:
350,183,231501,1,2,2:2:0:0:
428,66,231686,1,2,2:2:0:0:
428,66,232057,5,2,2:2:0:0:
512,238,232242,2,0,P|424:253|357:293,1,132.999995941162,2|2,2:2|2:2,0:0:0:0:
326,336,232519,1,0,0:0:0:0:
318,332,232612,2,0,P|294:292|310:244,1,76,4|0,1:2|0:0,0:0:0:0:
359,146,232797,2,0,L|348:190,2,38,10|8|8,2:2|2:2|2:2,0:0:0:0:
0,279,233168,5,0,1:1:0:0:
76,300,233353,2,0,P|90:337|123:359,1,80.750001540184,10|0,2:2|0:0,0:0:0:0:
188,218,233538,2,0,P|160:246|153:285,1,80.750001540184,2|0,2:2|0:0,0:0:0:0:
218,379,233723,1,2,1:2:0:0:
0,279,233908,2,0,P|118:296|213:369,1,242.250004620552,2|0,2:2|0:0,0:0:0:0:
310,365,234279,6,0,B|313:320|363:295|363:295|311:318|267:293,1,190,2|0,1:2|0:0,0:0:0:0:
316,223,234557,6,0,B|293:189|315:142|315:142|291:187|248:194,1,170.999994781494,2|0,1:2|0:0,0:0:0:0:
232,111,234834,6,0,B|199:99|188:55|188:55|196:99|169:127,1,152,10|2,1:2|2:2,0:0:0:0:
3,24,235112,6,0,P|43:72|99:69,1,113.999996520996,2|0,1:2|0:0,0:0:0:0:
99,68,235390,1,2,1:2:0:0:
450,2,235575,6,0,B|541:50|510:161|445:188|398:167|382:111|418:83,1,299.249990867615,6|0,1:2|0:0,0:0:0:0:
259,32,235945,2,0,P|251:8|268:27,1,66.4999979705811,2|0,2:1|0:0,0:0:0:0:
417,83,236316,6,0,P|321:93|254:182,1,161.500003080368,2|2,1:2|2:2,0:0:0:0:
213,188,236594,2,0,B|239:222|227:265|227:265|244:223|285:216,1,161.500003080368,0|0,1:1|0:0,0:0:0:0:
322,325,236871,6,0,P|238:244|121:252,1,242.250004620552,6|0,1:2|0:0,0:0:0:0:
53,295,237242,2,0,B|13:305|13:305|53:281,1,80.750001540184,10|0,2:2|0:0,0:0:0:0:
213,188,237427,5,10,2:2:0:0:
139,102,237612,1,0,0:0:0:0:
204,6,237797,1,10,2:2:0:0:
494,250,237982,6,0,P|475:211|516:146,1,85.4999973907472,2|0,2:2|0:0,0:0:0:0:
453,85,238168,2,0,P|461:58|456:86,1,85.4999973907472,10|0,2:2|0:0,0:0:0:0:
351,217,238353,2,0,P|383:188|369:112,1,85.4999973907472,10|8,2:2|2:2,0:0:0:0:
70,9,238538,6,0,P|220:56|316:166,1,285,4|0,1:2|0:0,0:0:0:0:
361,19,238908,2,0,P|341:54|279:72,1,95
202,89,239094,1,0,1:1:0:0:
482,303,239279,5,10,2:2:0:0:
351,217,239464,1,2,2:2:0:0:
271,365,239649,1,2,1:2:0:0:
36,172,239834,6,0,P|64:199|102:202,1,71.25,2|0,2:2|0:0,0:0:0:0:
103,283,240205,6,0,P|140:272|161:240,1,71.25,6|0,1:2|0:0,0:0:0:0:
235,275,240390,2,0,P|244:237|227:202,1,71.25
100,58,240575,2,0,P|90:95|107:130,2,71.25,8|8|10,2:2|2:2|2:2,0:0:0:0:
235,275,240945,6,0,P|244:237|227:202,1,71.25,2|0,1:2|0:0,0:0:0:0:
233,54,241131,2,0,P|195:64|174:96,1,71.25,2|0,2:2|0:0,0:0:0:0:
300,163,241316,2,0,P|272:136|233:133,1,71.25,2|0,2:2|0:0,0:0:0:0:
