osu file format v14

[General]
AudioFilename: audio.mp3
AudioLeadIn: 0
PreviewTime: 58562
Countdown: 0
SampleSet: Soft
StackLeniency: 0.7
Mode: 0
LetterboxInBreaks: 0
WidescreenStoryboard: 0

[Editor]
Bookmarks: 875,15311,29747,44183,58619,91100,105536,119972,134408,148844,163281,177717,210198
DistanceSpacing: 0.1
BeatDivisor: 8
GridSize: 32
TimelineZoom: 2.2

[Metadata]
Title:bye bye rainy
TitleUnicode:バイバイレイニー
Artist:Hoshimachi Suisei
ArtistUnicode:星街すいせい
Creator:Amateurre
Version:Shooting Star
Source:
Tags:vtuber virtual youtuber hololive ホロライブ 堀江晶太 horie shouta kemu japanese pop jpop j-pop still stellar suichan hosimati hoshimati hosimachi sui-chan pile ayamemymommy midorijeon huzz hinsvar jiysea
BeatmapID:3414737
BeatmapSetID:1671869

[Difficulty]
HPDrainRate:5
CircleSize:4
OverallDifficulty:8.8
ApproachRate:9.4
SliderMultiplier:1.8
SliderTickRate:1

[Events]
//Background and Video events
0,0,"bye bye rainy.jpg",0,0
Video,6,"byebyerainy.mp4"
//Break Periods
//Storyboard Layer 0 (Background)
//Storyboard Layer 1 (Fail)
//Storyboard Layer 2 (Pass)
//Storyboard Layer 3 (Foreground)
//Storyboard Layer 4 (Overlay)
//Storyboard Sound Samples

[TimingPoints]
875,451.127819548872,4,2,1,45,1,0
875,-111.111111111111,4,2,1,45,0,0
13506,-111.111111111111,4,2,2,45,0,0
15311,-35.7142857142857,4,2,3,70,0,0
15649,-45.4545454545455,4,2,3,70,0,0
16213,-55.5555555555556,4,2,3,70,0,0
17115,-66.6666666666667,4,2,3,70,0,0
18468,-83.3333333333333,4,2,3,70,0,0
18920,-45.4545454545455,4,2,3,70,0,0
19709,-55.5555555555556,4,2,3,70,0,0
22529,-35.7142857142857,4,2,3,70,0,0
22980,-45.4545454545455,4,2,3,70,0,0
23431,-55.5555555555556,4,2,3,70,0,0
24333,-66.6666666666667,4,2,3,70,0,0
26138,-45.4545454545455,4,2,3,70,0,0
27040,-55.5555555555556,4,2,3,70,0,0
29747,-76.9230769230769,4,2,3,65,0,0
36965,-55.5555555555556,4,2,3,65,0,0
37416,-71.4285714285714,4,2,3,65,0,0
37754,-55.5555555555556,4,2,3,65,0,0
38318,-76.9230769230769,4,2,3,65,0,0
44183,-125,4,2,4,60,0,0
44408,-125,4,2,1,60,0,0
44521,-125,4,2,4,60,0,0
47341,-83.3333333333333,4,2,4,60,0,0
47566,-83.3333333333333,4,2,1,60,0,0
47679,-83.3333333333333,4,2,4,60,0,0
47792,-125,4,2,4,60,0,0
48017,-125,4,2,1,60,0,0
48093,-125,4,2,4,60,0,0
50950,-125,4,2,1,60,0,0
51401,-125,4,2,5,50,0,0
55010,-125,4,2,3,60,0,0
55461,-83.3333333333333,4,2,3,60,0,0
56814,-83.3333333333333,4,2,3,65,0,0
57717,-83.3333333333333,4,2,1,65,0,0
58619,-45.4545454545455,4,2,3,75,0,1
59070,-55.5555555555556,4,2,3,75,0,1
59521,-50,4,2,3,75,0,1
59972,-66.6666666666667,4,2,3,75,0,1
60423,-66.6666666666667,4,2,3,75,0,1
62228,-55.5555555555556,4,2,3,75,0,1
64032,-62.5,4,2,3,75,0,1
65837,-45.4545454545455,4,2,3,75,0,1
66288,-55.5555555555556,4,2,3,75,0,1
66739,-50,4,2,3,75,0,1
67641,-66.6666666666667,4,2,3,75,0,1
69446,-55.5555555555556,4,2,3,75,0,1
71250,-62.5,4,2,3,75,0,1
73055,-41.6666666666667,4,2,3,75,0,1
73506,-45.4545454545455,4,2,3,75,0,1
74183,-50,4,2,3,75,0,1
74859,-55.5555555555556,4,2,3,75,0,1
78017,-62.5,4,2,3,75,0,1
80273,-45.4545454545455,4,2,3,75,0,1
81175,-50,4,2,3,75,0,1
84333,-55.5555555555556,4,2,3,75,0,1
87491,-200,4,2,3,60,0,0
88393,-250,4,2,3,60,0,0
89296,-1000,4,2,3,60,0,0
91100,-35.7142857142857,4,2,3,70,0,0
91438,-45.4545454545455,4,2,3,70,0,0
92002,-55.5555555555556,4,2,3,70,0,0
92904,-66.6666666666667,4,2,3,70,0,0
94257,-83.3333333333333,4,2,3,70,0,0
94709,-45.4545454545455,4,2,3,70,0,0
95498,-55.5555555555556,4,2,3,70,0,0
98318,-35.7142857142857,4,2,3,70,0,0
98769,-45.4545454545455,4,2,3,70,0,0
99220,-55.5555555555556,4,2,3,70,0,0
100122,-66.6666666666667,4,2,3,70,0,0
101927,-45.4545454545455,4,2,3,70,0,0
102829,-55.5555555555556,4,2,3,70,0,0
105536,-76.9230769230769,4,2,3,60,0,0
108465,-125,4,2,3,60,0,0
108468,-125,4,2,1,60,0,0
108525,-125,4,2,1,5,0,0
108694,-125,4,2,1,60,0,0
108750,-125,4,2,1,5,0,0
108920,-125,4,2,1,60,0,0
108976,-125,4,2,1,5,0,0
109145,-100,4,2,4,60,0,0
111175,-100,4,2,1,60,0,0
111401,-100,4,2,4,60,0,0
112303,-250,4,2,4,60,0,0
112754,-55.5555555555556,4,2,3,65,0,0
113205,-76.9230769230769,4,2,3,65,0,0
119972,-100,4,2,4,60,0,0
122905,-66.6666666666667,4,2,4,60,0,0
123356,-66.6666666666667,4,2,1,60,0,0
123581,-249.999999999999,4,2,4,60,0,0
123807,-249.999999999999,4,2,1,60,0,0
124032,-249.999999999999,4,2,4,60,0,0
125386,-111.111111111111,4,2,4,60,0,0
126739,-111.111111111111,4,2,1,60,0,0
127190,-111.111111111111,4,2,5,50,0,0
127641,-125,4,2,5,50,0,0
130799,-125,4,2,3,60,0,0
131250,-125,4,2,3,60,0,0
131702,-83.3333333333333,4,2,3,60,0,0
132604,-83.3333333333333,4,2,3,65,0,0
133506,-83.3333333333333,4,2,3,50,0,0
133732,-111.111111111111,4,2,3,50,0,0
134408,-55.5555555555556,4,2,3,75,0,1
135423,-55.5555555555556,4,2,3,75,0,1
142078,-45.4545454545455,4,2,3,75,0,1
142529,-55.5555555555556,4,2,3,75,0,1
148732,-55.5555555555556,4,2,3,75,0,0
148844,-55.5555555555556,4,2,3,70,0,1
148957,-55.5555555555556,4,2,3,70,0,0
156514,-45.4545454545455,4,2,3,70,0,0
156965,-50,4,2,3,70,0,0
157416,-55.5555555555556,4,2,3,70,0,0
157867,-55.5555555555556,4,2,3,70,0,0
158995,-50,4,2,3,70,0,0
159671,-55.5555555555556,4,2,3,70,0,0
163281,-238.095238095238,4,2,1,50,0,0
170499,-333.333333333333,4,2,1,50,0,0
175010,-333.333333333333,4,2,1,40,0,0
177265,-333.333333333333,4,2,1,60,0,0
177717,-45.4545454545455,4,2,3,75,0,1
178168,-55.5555555555556,4,2,3,75,0,1
178619,-50,4,2,3,75,0,1
179521,-66.6666666666667,4,2,3,75,0,1
181326,-55.5555555555556,4,2,3,75,0,1
183130,-62.5,4,2,3,75,0,1
184935,-45.4545454545455,4,2,3,75,0,1
185386,-55.5555555555556,4,2,3,75,0,1
185837,-50,4,2,3,75,0,1
186739,-66.6666666666667,4,2,3,75,0,1
188544,-55.5555555555556,4,2,3,75,0,1
190348,-62.5,4,2,3,75,0,1
192153,-250,4,2,3,75,0,1
192604,-45.4545454545455,4,2,3,75,0,1
193281,-50,4,2,3,75,0,1
193957,-55.5555555555556,4,2,3,75,0,1
197115,-62.5,4,2,3,75,0,1
199371,-45.4545454545455,4,2,3,75,0,1
200273,-50,4,2,3,75,0,1
203431,-55.5555555555556,4,2,3,75,0,1
206589,-55.5555555555556,4,2,3,75,0,1
210198,-333.333333333333,4,2,3,55,0,0
210536,-333.333333333333,4,2,3,5,0,0

[Colours]
Combo1 : 79,126,238
Combo2 : 98,192,249
Combo3 : 139,252,235

[HitObjects]
239,269,273,5,0,0:0:0:0:
239,269,348,1,0,0:0:0:0:
239,269,423,2,0,P|197:270|161:312,1,90
5,368,762,5,0,0:0:0:0:
0,384,875,2,0,L|92:358,1,80.9999975280763,2|0,3:2|3:2,0:0:0:0:
164,302,1213,2,0,L|123:288,1,40.4999987640381,2|8,2:2|0:2,0:0:0:0:
226,384,1551,1,0,0:0:0:0:
59,236,1777,2,0,P|44:197|58:146,1,80.9999975280763,2|8,2:2|0:2,0:0:0:0:
99,87,2115,2,0,P|139:124|122:162,1,80.9999975280763,2|0,2:2|0:0,0:0:0:0:
182,213,2453,2,0,L|222:199,1,40.4999987640381,0|2,0:0|2:2,0:0:0:0:
291,140,2679,5,0,3:2:0:0:
291,140,2905,1,0,3:2:0:0:
188,15,3130,2,0,P|250:35|315:54,1,121.499996292114,10|8,0:2|0:2,0:0:0:0:
316,45,3581,1,0,0:0:0:0:
501,14,3807,2,0,P|470:48|465:87,1,80.9999975280763,10|0,0:2|0:0,0:0:0:0:
386,95,4145,2,0,P|390:116|411:141,1,40.4999987640381,2|0,2:2|0:0,0:0:0:0:
509,249,4371,5,0,0:0:0:0:
509,249,4484,2,0,L|417:223,1,80.9999975280763,2|0,3:2|3:2,0:0:0:0:
368,325,4822,2,0,L|409:311,1,40.4999987640381,2|8,2:2|0:2,0:0:0:0:
281,249,5160,1,0,0:0:0:0:
198,384,5386,2,0,P|169:348|177:298,1,80.9999975280763,2|8,2:2|0:2,0:0:0:0:
271,238,5724,2,0,L|249:334,1,80.9999975280763,2|0,2:2|0:0,0:0:0:0:
311,376,6062,2,0,L|377:362,1,40.4999987640381,0|2,0:0|2:2,0:0:0:0:
189,238,6288,5,0,3:2:0:0:
189,238,6514,1,0,3:2:0:0:
355,75,6739,6,0,P|261:98|213:109,1,121.499996292114,10|8,0:2|0:2,0:0:0:0:
170,148,7190,1,2,2:2:0:0:
46,30,7416,1,10,0:2:0:0:
111,93,7641,1,2,2:2:0:0:
111,93,7754,1,2,2:2:0:0:
111,93,7867,1,0,0:0:0:0:
0,269,8093,6,0,P|49:270|75:301,1,80.9999975280763,2|0,3:2|3:2,0:0:0:0:
127,351,8431,2,0,L|174:336,1,40.4999987640381,2|8,2:2|0:2,0:0:0:0:
20,384,8769,1,0,0:0:0:0:
149,251,8995,2,0,L|170:172,1,80.9999975280763,2|8,2:2|0:2,0:0:0:0:
57,111,9333,2,0,L|78:190,1,80.9999975280763,2|0,2:2|0:0,0:0:0:0:
25,283,9671,2,0,L|92:263,1,40.4999987640381,0|2,0:0|2:2,0:0:0:0:
243,226,9897,5,0,3:2:0:0:
243,226,10123,1,0,3:2:0:0:
369,376,10348,2,0,P|353:334|358:281,1,80.9999975280763,10|0,0:2|0:0,0:0:0:0:
353,298,10687,1,8,0:2:0:0:
353,298,10799,1,0,0:0:0:0:
512,126,11025,2,0,P|488:158|450:167,1,80.9999975280763,10|0,0:2|0:0,0:0:0:0:
427,240,11363,2,0,P|400:228|384:198,1,40.4999987640381,2|0,2:2|0:0,0:0:0:0:
337,45,11589,5,0,0:0:0:0:
337,45,11702,2,0,L|358:122,1,80.9999975280763,2|0,3:2|3:2,0:0:0:0:
269,194,12040,2,0,L|280:156,1,40.4999987640381,2|8,2:2|0:2,0:0:0:0:
392,220,12378,1,0,0:0:0:0:
201,271,12604,2,0,P|162:282|123:293,1,80.9999975280763,2|8,2:2|0:2,0:0:0:0:
65,356,12942,2,0,P|25:354|0:325,1,80.9999975280763,2|0,2:2|0:0,0:0:0:0:
35,215,13281,2,0,L|47:255,1,40.4999987640381
280,384,13506,6,0,P|298:314|316:248,1,121.499996292114,2|2,3:2|2:2,0:0:0:0:
195,208,13957,2,0,P|212:271|221:307,1,80.9999975280763,8|0,0:2|0:0,0:0:0:0:
372,100,14408,5,2,2:2:0:0:
337,115,14521,1,2,2:2:0:0:
308,78,14634,1,2,2:2:0:0:
246,110,14747,1,2,2:2:0:0:
190,55,14859,2,0,L|134:64,1,40.4999987640381,10|0,0:2|0:0,0:0:0:0:
23,248,15085,5,2,2:2:0:0:
26,259,15160,5,2,2:2:0:0:
29,271,15235,5,2,2:2:0:0:
32,283,15311,6,0,B|90:311|147:266|142:236|121:237|180:161|259:209,1,251.999992309571,6|0,3:2|0:0,0:0:0:0:
364,276,15649,1,0,0:0:0:0:
381,281,15762,2,0,P|420:242|419:198,1,99.0000030212403,10|0,3:2|0:0,0:0:0:0:
291,103,15987,2,0,P|330:141|329:185,1,99.0000030212403
200,361,16213,5,2,3:2:0:0:
191,369,16326,2,0,P|183:317|171:276,1,80.9999975280763,2|0,2:2|0:0,0:0:0:0:
286,345,16551,2,0,P|276:305|270:265,1,80.9999975280763,2|8,2:2|3:2,0:0:0:0:
205,211,16777,1,2,2:2:0:0:
418,351,17002,5,2,2:2:0:0:
434,357,17115,2,0,P|469:293|416:228,1,135.000005149842,0|2,3:2|2:2,0:0:0:0:
261,76,17566,2,0,P|226:130|251:190,1,135.000005149842,10|0,3:2|0:0,0:0:0:0:
312,249,17905,1,0,0:0:0:0:
323,244,18017,2,0,P|329:213|337:177,1,67.5000025749208,0|0,3:2|0:0,0:0:0:0:
419,196,18243,2,0,P|411:228|404:261,1,67.5000025749208,2|0,2:2|0:0,0:0:0:0:
140,337,18468,6,0,P|72:350|22:370,1,107.999996704102,8|0,3:2|0:0,0:0:0:0:
35,363,18807,5,0,0:0:0:0:
2,278,18920,2,0,P|152:303|289:350,1,297.000009063721,2|0,3:2|0:0,0:0:0:0:
90,173,19371,2,0,P|182:203|281:221,1,198.000006042481,10|0,3:2|0:0,0:0:0:0:
281,221,19709,5,0,0:0:0:0:
472,303,19822,1,2,3:2:0:0:
472,303,19935,2,0,P|480:251|492:210,1,80.9999975280763,2|0,2:2|0:0,0:0:0:0:
391,199,20160,2,0,P|384:239|376:278,1,80.9999975280763,2|8,2:2|3:2,0:0:0:0:
408,355,20386,1,2,2:2:0:0:
460,153,20611,5,2,2:2:0:0:
460,153,20724,2,0,P|378:165|300:179,1,161.999995056153,0|2,3:2|2:2,0:0:0:0:
16,80,21175,2,0,P|98:68|176:54,1,161.999995056153,8|0,3:2|0:0,0:0:0:0:
275,8,21514,5,0,0:0:0:0:
284,20,21626,2,0,P|279:54|273:100,1,80.9999975280763,2|0,3:2|0:0,0:0:0:0:
257,250,21852,5,0,0:0:0:0:
257,250,21965,1,0,3:2:0:0:
183,204,22078,2,0,P|142:208|102:214,1,80.9999975280763,10|0,3:2|0:0,0:0:0:0:
122,331,22303,2,0,P|166:324|202:320,1,80.9999975280763,8|0,2:2|0:0,0:0:0:0:
485,181,22529,6,0,B|427:209|370:164|375:134|396:135|337:59|258:107,1,251.999992309571,2|0,3:2|0:0,0:0:0:0:
171,117,22867,1,0,0:0:0:0:
160,105,22980,2,0,P|162:56|199:24,1,99.0000030212403,10|0,3:2|0:0,0:0:0:0:
303,176,23205,2,0,P|291:227|282:276,1,99.0000030212403
455,368,23431,5,2,3:2:0:0:
464,376,23544,2,0,P|472:324|484:283,1,80.9999975280763,2|0,2:2|0:0,0:0:0:0:
369,352,23769,2,0,P|379:312|385:272,1,80.9999975280763,2|8,2:2|3:2,0:0:0:0:
450,218,23995,1,2,2:2:0:0:
282,272,24220,5,2,2:2:0:0:
271,279,24333,2,0,P|228:219|250:161,1,135.000005149842,0|2,3:2|2:2,0:0:0:0:
472,21,24784,2,0,P|515:81|493:139,1,135.000005149842,8|0,3:2|0:0,0:0:0:0:
401,209,25123,1,0,0:0:0:0:
396,198,25235,2,0,P|365:192|329:184,1,67.5000025749208,0|0,3:2|0:0,0:0:0:0:
245,165,25461,2,0,P|213:157|180:150,1,67.5000025749208,2|0,2:2|0:0,0:0:0:0:
81,313,25687,6,0,L|213:286,1,135.000005149842,8|0,3:2|0:0,0:0:0:0:
213,286,26025,5,0,0:0:0:0:
294,339,26138,2,0,P|151:301|3:277,1,297.000009063721,2|0,3:2|0:0,0:0:0:0:
289,206,26589,2,0,P|190:193|94:172,1,198.000006042481,10|0,3:2|0:0,0:0:0:0:
12,285,26927,5,0,0:0:0:0:
12,285,27040,1,2,3:2:0:0:
12,285,27153,2,0,P|21:324|27:364,1,80.9999975280763,2|0,2:2|0:0,0:0:0:0:
119,346,27378,2,0,P|111:306|103:266,1,80.9999975280763,2|8,2:2|3:2,0:0:0:0:
42,203,27604,1,2,2:2:0:0:
212,350,27829,5,2,2:2:0:0:
212,350,27942,2,0,P|294:362|372:376,1,161.999995056153,0|2,3:2|2:2,0:0:0:0:
512,206,28393,2,0,P|430:194|352:180,1,161.999995056153,8|0,3:2|0:0,0:0:0:0:
352,180,28732,1,0,0:0:0:0:
290,244,28844,5,2,3:2:0:0:
291,253,28957,1,0,3:2:0:0:
293,263,29070,1,2,2:2:0:0:
295,273,29183,1,0,3:2:0:0:
207,247,29296,6,0,P|204:205|197:167,1,80.9999975280763,10|0,3:2|3:2,0:0:0:0:
378,284,29521,2,0,P|380:324|387:364,1,80.9999975280763,10|0,2:2|0:0,0:0:0:0:
138,74,29747,6,0,P|179:123|293:111,1,175.499991966248,6|2,3:2|2:2,0:0:0:0:
370,54,30198,2,0,P|338:45|304:33,1,58.4999973220826,10|0,3:2|0:0,0:0:0:0:
232,6,30423,1,2,2:2:0:0:
45,148,30649,2,0,P|52:116|60:82,1,58.4999973220826,2|0,3:2|0:0,0:0:0:0:
132,8,30874,2,0,P|152:82|165:133,1,116.999994644165,2|8,2:2|3:2,0:0:0:0:
236,235,31326,1,2,2:2:0:0:
22,315,31551,5,2,3:2:0:0:
132,207,31777,1,2,2:2:0:0:
8,117,32002,1,10,3:2:0:0:
114,294,32228,2,0,P|139:306|155:336,1,58.4999973220826,2|0,2:2|0:0,0:0:0:0:
295,299,32453,2,0,P|246:328|234:384,1,116.999994644165,0|2,3:2|2:2,0:0:0:0:
12,230,32905,2,0,P|92:211|134:200,1,116.999994644165,8|0,3:2|0:0,0:0:0:0:
196,238,33243,1,0,0:0:0:0:
297,166,33356,6,0,B|291:117|341:94|345:98|349:102|396:85|390:27,1,175.499991966248,2|2,3:2|2:2,0:0:0:0:
251,5,33807,2,0,L|306:23,1,58.4999973220826,10|2,3:2|2:2,0:0:0:0:
386,20,34032,1,2,2:2:0:0:
500,140,34258,2,0,P|494:112|496:83,1,58.4999973220826,2|0,3:2|0:0,0:0:0:0:
429,198,34484,2,0,P|404:145|357:112,1,116.999994644165,2|8,2:2|3:2,0:0:0:0:
512,225,34935,1,2,2:2:0:0:
423,50,35160,5,2,3:2:0:0:
333,213,35386,1,2,2:2:0:0:
502,315,35611,1,10,3:2:0:0:
289,374,35837,2,0,L|349:358,1,58.4999973220826,2|0,2:2|0:0,0:0:0:0:
496,326,36062,2,0,P|433:326|405:268,1,116.999994644165,0|2,3:2|2:2,0:0:0:0:
349,206,36401,1,0,3:2:0:0:
349,206,36514,2,0,P|358:187|353:207,1,58.4999973220826,10|0,3:2|0:0,0:0:0:0:
255,261,36739,2,0,P|264:279|259:259,1,58.4999973220826,10|0,2:2|0:0,0:0:0:0:
405,285,36965,6,0,P|297:229|140:238,1,242.999992584229,2|0,3:2|0:0,0:0:0:0:
57,88,37416,2,0,P|53:147|108:173,1,125.999996154785,10|2,3:2|2:2,0:0:0:0:
189,145,37754,1,2,2:2:0:0:
99,264,37867,1,2,3:2:0:0:
84,295,37980,1,2,2:2:0:0:
94,331,38093,1,2,2:2:0:0:
121,352,38205,1,2,2:2:0:0:
158,353,38318,2,0,P|191:343|238:330,1,58.4999973220826,10|0,3:2|0:0,0:0:0:0:
99,264,38544,2,0,P|66:254|19:241,1,58.4999973220826,2|0,2:2|0:0,0:0:0:0:
175,87,38769,6,0,L|191:156,2,58.4999973220826,2|2|2,3:2|2:2|2:2,0:0:0:0:
114,18,39108,1,2,2:2:0:0:
114,18,39220,2,0,L|45:37,1,58.4999973220826,10|0,3:2|0:0,0:0:0:0:
2,127,39446,2,0,P|68:123|105:179,1,116.999994644165,2|0,2:2|3:2,0:0:0:0:
264,253,39897,1,0,0:0:0:0:
175,87,40123,2,0,P|240:78|269:16,1,116.999994644165,10|0,3:2|0:0,0:0:0:0:
338,0,40461,1,2,2:2:0:0:
441,91,40574,5,2,3:2:0:0:
441,91,40912,1,2,2:2:0:0:
501,32,41025,2,0,P|478:108|470:207,1,175.499991966248,10|2,3:2|2:2,0:0:0:0:
504,280,41476,2,0,P|455:245|388:256,1,116.999994644165,2|0,3:2|0:0,0:0:0:0:
304,185,41927,1,10,3:2:0:0:
428,332,42153,1,2,2:2:0:0:
225,370,42378,5,0,3:2:0:0:
320,296,42604,1,2,2:2:0:0:
162,150,42829,2,0,P|186:241|188:282,1,116.999994644165,10|2,3:2|2:2,0:0:0:0:
178,278,43130,2,0,P|175:247|168:225,2,38.9999982147218,0|0|0,0:0|0:0|3:2,0:0:0:0:
341,120,43506,5,2,3:2:0:0:
341,120,43619,1,0,3:2:0:0:
310,194,43732,2,0,P|297:211|301:190,1,58.4999973220826,8|0,3:2|0:0,0:0:0:0:
373,46,43957,2,0,P|385:28|381:49,1,58.4999973220826,8|0,3:2|0:0,0:0:0:0:
476,244,44183,5,2,3:2:0:0:
316,332,44484,1,0,0:0:0:0:
316,332,44634,2,0,P|287:327|243:322,2,48,2|2|2,2:2|2:2|2:2,0:0:0:0:
415,367,45085,2,0,L|382:243,1,108,10|0,2:2|0:0,0:0:0:0:
422,125,45536,5,2,2:2:0:0:
460,121,45687,1,2,2:2:0:0:
494,144,45837,1,2,2:2:0:0:
502,178,45987,1,2,2:2:0:0:
336,141,46288,1,0,0:0:0:0:
336,141,46438,2,0,P|300:147|265:153,1,72,0|2,3:2|2:2,0:0:0:0:
185,243,46890,5,8,2:2:0:0:
185,243,47002,1,0,0:0:0:0:
185,243,47115,2,0,L|192:198,1,36,0|0,3:2|0:0,0:0:0:0:
260,164,47341,2,0,B|266:117|235:84|220:101|190:63|204:14,1,161.999995056153,2|0,3:2|0:0,0:0:0:0:
280,29,47792,6,0,P|314:34|351:38,1,72,2|8,3:2|2:2,0:0:0:0:
146,123,48243,2,0,P|112:128|74:132,1,72,2|0,2:2|0:0,0:0:0:0:
0,145,48581,1,0,0:0:0:0:
0,145,48694,1,10,2:2:0:0:
200,245,49032,1,0,0:0:0:0:
11,363,49371,1,0,3:2:0:0:
102,248,49596,5,2,2:2:0:0:
89,294,49747,1,0,0:0:0:0:
119,331,49897,1,2,2:2:0:0:
169,336,50047,2,0,P|230:328|281:324,1,96,2|2,3:2|2:2,0:0:0:0:
339,367,50499,2,0,L|335:384,2,18,10|0|0,2:2|0:0|0:0,0:0:0:0:
458,267,50724,5,0,3:2:0:0:
394,223,50950,1,8,2:2:0:0:
387,299,51175,1,8,2:2:0:0:
468,189,51401,5,2,0:0:0:0:
336,89,51852,6,0,L|350:13,2,48,10|2|2,0:0|2:2|2:2,0:0:0:0:
282,150,52303,2,0,P|293:195|306:257,1,96,2|2,2:2|2:2,0:0:0:0:
205,346,52754,6,0,P|260:354|274:357,2,48,10|2|2,0:0|2:2|2:2,0:0:0:0:
111,377,53205,2,0,P|121:330|132:283,1,96,2|2,2:2|2:2,0:0:0:0:
42,103,53656,5,10,0:0:0:0:
24,148,53807,1,2,2:2:0:0:
45,191,53957,1,2,2:2:0:0:
85,204,54108,2,0,P|135:197|200:187,1,96,2|0,2:2|0:0,0:0:0:0:
296,123,54559,1,8,0:0:0:0:
388,272,54784,5,2,2:2:0:0:
388,272,54897,1,0,0:0:0:0:
388,272,55010,2,0,P|384:251|382:236,1,36,10|0,3:2|0:0,0:0:0:0:
306,174,55235,2,0,P|302:156|300:138,1,36,8|0,2:2|0:0,0:0:0:0:
288,313,55461,6,0,L|309:246,1,53.9999983520508,8|0,3:2|0:0,0:0:0:0:
386,143,55687,2,0,L|402:91,1,53.9999983520508,10|0,2:2|0:0,0:0:0:0:
238,211,55912,5,10,3:2:0:0:
238,211,56025,1,0,0:0:0:0:
238,211,56138,2,0,L|168:218,1,53.9999983520508,8|0,2:2|0:0,0:0:0:0:
459,196,56363,1,8,3:2:0:0:
459,196,56476,1,0,0:0:0:0:
459,196,56589,2,0,L|529:189,1,53.9999983520508,10|0,2:2|0:0,0:0:0:0:
373,4,56814,5,10,3:2:0:0:
362,11,56927,5,8,2:2:0:0:
376,31,57040,5,8,3:2:0:0:
346,66,57153,5,8,2:2:0:0:
383,120,57265,5,8,3:2:0:0:
325,184,57378,5,8,2:2:0:0:
371,252,57491,5,10,3:2:0:0:
306,309,57604,5,8,2:2:0:0:
381,365,57717,6,0,L|429:375,2,35.9999989013672,2|0|0,3:2|3:2|3:2,0:0:0:0:
297,305,57942,6,0,L|249:315,2,35.9999989013672,0|0|0,3:2|3:2|3:2,0:0:0:0:
371,252,58168,5,10,2:1:0:0:
463,106,58619,6,0,P|359:117|336:158,1,148.50000453186,6|0,3:2|0:0,0:0:0:0:
264,155,58844,2,0,P|258:201|302:217,1,99.0000030212403
401,234,59070,2,0,P|287:176|161:180,1,242.999992584229,10|2,3:2|2:2,0:0:0:0:
71,344,59521,1,2,3:2:0:0:
20,180,59634,1,2,2:2:0:0:
1,273,59747,2,0,P|44:259|87:247,1,90,2|0,2:2|0:0,0:0:0:0:
273,346,59972,2,0,P|208:357|163:308,1,135.000005149842,8|2,3:2|2:2,0:0:0:0:
20,180,60311,1,0,0:0:0:0:
20,180,60423,6,0,P|51:121|123:116,1,135.000005149842,2|0,3:2|0:0,0:0:0:0:
512,12,60874,2,0,P|442:27|364:43,1,135.000005149842,10|0,3:2|0:0,0:0:0:0:
184,172,61326,1,2,3:2:0:0:
243,98,61438,1,2,2:2:0:0:
178,35,61551,2,0,P|145:24|104:14,1,67.5000025749208,2|0,2:2|0:0,0:0:0:0:
278,189,61777,2,0,P|311:178|352:168,1,67.5000025749208,10|0,3:2|0:0,0:0:0:0:
495,66,62002,1,2,2:2:0:0:
495,66,62115,1,0,0:0:0:0:
495,66,62228,6,0,P|457:112|465:222,1,161.999995056153,0|0,3:2|0:0,0:0:0:0:
242,364,62679,2,0,P|216:374|238:358,1,80.9999975280763,10|0,3:2|0:0,0:0:0:0:
458,299,62905,2,0,P|413:293|387:256,1,80.9999975280763,2|0,2:2|0:0,0:0:0:0:
268,170,63130,5,0,3:2:0:0:
323,324,63356,1,0,0:0:0:0:
111,253,63581,1,10,3:2:0:0:
111,253,63694,2,0,P|155:243|194:234,1,80.9999975280763,2|2,2:2|2:2,0:0:0:0:
335,102,63920,1,2,2:2:0:0:
268,170,64032,6,0,P|239:117|256:56,1,108,0|0,3:2|0:0,0:0:0:0:
309,21,64258,2,0,P|317:-2|305:19,1,72,2|0,2:2|0:0,0:0:0:0:
471,183,64484,2,0,P|400:185|347:232,1,144,10|2,3:2|2:2,0:0:0:0:
291,322,64822,1,2,2:2:0:0:
291,322,64935,1,0,3:2:0:0:
291,322,65047,1,0,0:0:0:0:
163,227,65160,6,0,L|183:295,1,72,0|0,0:0|3:2,0:0:0:0:
103,383,65386,2,0,L|82:314,1,72,8|0,3:2|0:0,0:0:0:0:
262,196,65611,1,10,2:2:0:0:
1,17,65837,6,0,P|28:68|118:74,1,148.50000453186,6|0,3:2|0:0,0:0:0:0:
154,146,66062,2,0,P|196:131|189:81,1,99.0000030212403
182,0,66288,2,0,P|154:79|127:243,1,242.999992584229,10|2,3:2|2:2,0:0:0:0:
7,354,66739,1,2,3:2:0:0:
127,235,66852,1,2,2:2:0:0:
11,184,66965,2,0,P|36:238|43:287,1,90,2|0,2:2|0:0,0:0:0:0:
151,383,67190,2,0,P|231:332|213:246,1,180,8|2,3:2|2:2,0:0:0:0:
371,170,67529,5,0,0:0:0:0:
448,197,67641,2,0,P|352:222|301:238,1,135.000005149842,2|0,3:2|0:0,0:0:0:0:
0,13,68093,2,0,P|96:38|147:54,1,135.000005149842,10|0,3:2|0:0,0:0:0:0:
194,168,68431,1,2,2:2:0:0:
255,97,68544,2,0,P|246:61|239:21,1,67.5000025749208,2|2,3:2|2:2,0:0:0:0:
96,159,68769,2,0,P|104:191|110:224,1,67.5000025749208,2|0,2:2|0:0,0:0:0:0:
197,363,68995,2,0,P|142:325|77:335,1,135.000005149842,10|2,3:2|2:2,0:0:0:0:
277,246,69333,5,0,0:0:0:0:
333,301,69446,2,0,P|409:273|511:241,1,161.999995056153,0|0,3:2|0:0,0:0:0:0:
512,144,69784,1,0,0:0:0:0:
512,144,69897,2,0,P|464:144|437:111,1,80.9999975280763,10|0,3:2|0:0,0:0:0:0:
286,35,70123,2,0,P|276:10|289:34,1,80.9999975280763,2|0,2:2|0:0,0:0:0:0:
329,179,70348,6,0,P|342:134|354:92,1,80.9999975280763,0|0,3:2|0:0,0:0:0:0:
399,13,70574,1,0,0:0:0:0:
169,226,70799,2,0,B|168:175|128:160|125:171|80:155|83:93,1,161.999995056153,10|2,3:2|2:2,0:0:0:0:
159,22,71138,1,2,2:2:0:0:
159,22,71250,6,0,P|176:70|166:99,1,72,0|0,3:2|0:0,0:0:0:0:
86,182,71476,2,0,P|49:195|17:201,1,72,2|2,2:2|2:2,0:0:0:0:
127,308,71702,2,0,P|190:257|261:271,1,144,10|2,3:2|2:2,0:0:0:0:
379,287,72040,2,0,P|378:349|317:334,1,144,2|0,2:2|0:0,0:0:0:0:
248,263,72378,5,0,3:2:0:0:
248,263,72491,1,0,3:2:0:0:
311,208,72604,2,0,P|333:181|331:146,1,72,8|0,3:2|3:2,0:0:0:0:
253,118,72829,2,0,P|229:143|231:178,1,72,8|0,3:2|0:0,0:0:0:0:
316,333,73055,6,0,P|263:177|163:37,1,323.999990112305,6|0,3:2|0:0,0:0:0:0:
490,90,73506,2,0,P|443:147|419:217,1,148.50000453186,10|0,3:2|0:0,0:0:0:0:
477,287,73732,2,0,P|512:255|506:208,1,99.0000030212403
384,18,73957,1,2,3:2:0:0:
419,216,74070,1,2,2:2:0:0:
335,117,74183,2,0,P|290:126|245:149,1,90,2|0,2:2|0:0,0:0:0:0:
68,133,74408,2,0,P|63:130|130:110,1,180,8|2,3:2|2:2,0:0:0:0:
306,225,74747,5,0,0:0:0:0:
306,225,74859,2,0,P|238:181|157:174,1,161.999995056153,2|0,3:2|0:0,0:0:0:0:
375,343,75311,2,0,P|450:280|428:223,1,161.999995056153,10|0,3:2|0:0,0:0:0:0:
375,18,75762,1,2,3:2:0:0:
463,79,75874,1,2,2:2:0:0:
349,132,75987,2,0,P|309:142|270:153,1,80.9999975280763,2|0,2:2|0:0,0:0:0:0:
434,230,76213,2,0,P|474:240|513:251,1,80.9999975280763,10|0,3:2|0:0,0:0:0:0:
273,384,76438,1,2,2:2:0:0:
273,384,76551,1,0,0:0:0:0:
273,384,76664,6,0,B|274:334|235:319|231:320|225:325|179:299|198:242,1,161.999995056153,0|0,3:2|0:0,0:0:0:0:
315,68,77002,1,0,0:0:0:0:
315,68,77115,2,0,P|327:44|318:70,1,80.9999975280763,10|0,3:2|0:0,0:0:0:0:
133,194,77341,2,0,P|162:166|220:173,1,80.9999975280763,2|0,2:2|0:0,0:0:0:0:
335,210,77566,5,0,3:2:0:0:
215,62,77792,1,0,0:0:0:0:
0,181,78017,1,10,3:2:0:0:
60,242,78130,1,2,2:2:0:0:
4,316,78243,1,2,2:2:0:0:
4,316,78356,2,0,P|19:359|26:389,1,72,2|0,2:2|3:2,0:0:0:0:
172,294,78581,5,0,0:0:0:0:
172,294,78694,2,0,P|158:255|149:222,1,72,2|0,2:2|0:0,0:0:0:0:
33,72,78920,2,0,P|70:132|142:127,1,144,10|2,3:2|2:2,0:0:0:0:
222,176,79258,2,0,P|288:132|358:132,1,144,2|0,2:2|0:0,0:0:0:0:
279,49,79596,2,0,L|288:15,2,36,0|0|0,0:0|0:0|3:2,0:0:0:0:
425,182,79822,2,0,P|485:197|483:134,1,144,8|10,3:2|2:2,0:0:0:0:
429,42,80160,1,0,3:2:0:0:
421,51,80273,6,0,P|384:184|374:344,1,297.000009063721,6|0,3:2|0:0,0:0:0:0:
194,384,80724,2,0,P|169:313|133:242,1,148.50000453186,10|0,3:2|0:0,0:0:0:0:
68,172,80950,2,0,P|30:193|40:248,1,99.0000030212403,0|2,0:0|2:2,0:0:0:0:
130,332,81175,1,2,3:2:0:0:
228,222,81288,1,2,2:2:0:0:
352,259,81401,2,0,P|414:237|473:230,1,90,2|0,2:2|0:0,0:0:0:0:
262,32,81626,2,0,P|216:96|111:97,1,180,8|2,3:2|2:2,0:0:0:0:
0,49,81965,5,0,0:0:0:0:
0,49,82078,2,0,P|34:144|39:222,1,180,0|2,3:2|2:2,0:0:0:0:
182,321,82416,1,0,0:0:0:0:
72,384,82529,2,0,P|90:319|102:275,1,90,10|0,3:2|0:0,0:0:0:0:
421,92,82754,2,0,P|403:157|391:201,1,90,2|0,2:2|0:0,0:0:0:0:
401,291,82980,6,0,P|269:251|195:233,1,180,0|0,3:2|0:0,0:0:0:0:
182,321,83318,1,0,0:0:0:0:
9,240,83431,6,0,P|-5:198|12:160,1,90,10|0,3:2|0:0,0:0:0:0:
288,166,83656,2,0,P|281:122|246:97,1,90,2|0,2:2|0:0,0:0:0:0:
98,0,83882,5,0,3:2:0:0:
148,192,84108,1,0,0:0:0:0:
205,32,84333,6,0,P|172:66|169:120,1,80.9999975280763,10|0,3:2|0:0,0:0:0:0:
17,80,84559,2,0,P|61:94|89:140,1,80.9999975280763,2|0,2:2|0:0,0:0:0:0:
175,292,84784,5,0,3:2:0:0:
148,192,85010,1,0,0:0:0:0:
390,16,85235,5,10,3:2:0:0:
416,86,85348,1,2,2:2:0:0:
464,25,85461,1,2,2:2:0:0:
496,99,85574,2,0,P|416:113|342:146,1,161.999995056153,2|0,2:2|0:0,0:0:0:0:
276,206,85912,2,0,P|248:179|271:126,1,80.9999975280763,2|0,2:2|0:0,0:0:0:0:
435,211,86138,2,0,P|394:287|310:273,1,161.999995056153,10|2,3:2|2:2,0:0:0:0:
164,369,86476,1,2,3:2:0:0:
231,293,86589,1,0,3:2:0:0:
231,293,86814,5,0,3:2:0:0:
144,269,86927,1,0,3:2:0:0:
67,247,87040,2,0,P|42:233|69:241,1,80.9999975280763,10|0,3:2|0:0,0:0:0:0:
314,317,87265,2,0,P|340:324|316:311,1,80.9999975280763,10|0,3:2|0:0,0:0:0:0:
212,196,87491,6,0,P|221:156|241:103,1,90,0|2,0:0|2:2,0:0:0:0:
129,169,88393,6,0,P|136:132|147:99,1,72,0|2,0:0|2:2,0:0:0:0:
45,144,89296,6,0,P|50:115|58:91,1,54,0|2,0:0|2:2,0:0:0:0:
57,91,91100,6,0,B|123:100|149:170|149:170|142:95|200:54,1,251.999992309571,6|0,3:2|0:0,0:0:0:0:
262,195,91438,1,0,0:0:0:0:
250,189,91551,2,0,P|152:195|69:260,1,198.000006042481,10|0,3:2|0:0,0:0:0:0:
426,125,92002,5,2,3:2:0:0:
432,117,92115,2,0,P|434:74|394:46,1,80.9999975280763,2|0,2:2|0:0,0:0:0:0:
340,149,92341,2,0,P|312:120|316:81,1,80.9999975280763,2|8,2:2|3:2,0:0:0:0:
336,0,92566,1,2,2:2:0:0:
512,194,92792,5,2,2:2:0:0:
504,186,92905,2,0,P|477:272|462:357,1,135.000005149842,0|2,3:2|2:2,0:0:0:0:
246,384,93356,2,0,P|231:318|209:254,1,135.000005149842,10|0,3:2|0:0,0:0:0:0:
414,187,93694,1,0,0:0:0:0:
408,198,93807,2,0,P|396:239|391:279,1,67.5000025749208,0|0,3:2|0:0,0:0:0:0:
320,330,94032,2,0,P|314:296|304:264,1,67.5000025749208,2|0,2:2|0:0,0:0:0:0:
403,384,94258,1,8,3:2:0:0:
261,193,94484,1,0,0:0:0:0:
120,270,94709,6,0,P|252:230|437:193,1,297.000009063721,2|0,3:2|0:0,0:0:0:0:
134,137,95160,2,0,P|231:118|334:91,1,198.000006042481,10|0,3:2|0:0,0:0:0:0:
326,92,95499,1,0,0:0:0:0:
506,11,95611,1,2,3:2:0:0:
511,20,95724,2,0,P|505:54|442:65,1,80.9999975280763,2|0,2:2|0:0,0:0:0:0:
314,8,95950,2,0,P|346:-3|387:45,1,80.9999975280763,2|8,2:2|3:2,0:0:0:0:
411,139,96175,1,2,2:2:0:0:
208,20,96401,5,2,2:2:0:0:
197,24,96514,2,0,P|167:54|183:101,2,80.9999975280763,0|0|2,3:2|0:0|2:2,0:0:0:0:
0,227,96965,2,0,P|97:243|121:324,1,161.999995056153,8|0,3:2|0:0,0:0:0:0:
247,146,97303,1,0,0:0:0:0:
245,155,97416,2,0,P|216:180|154:181,1,80.9999975280763,2|0,3:2|0:0,0:0:0:0:
17,60,97641,5,0,0:0:0:0:
17,60,97754,1,0,3:2:0:0:
93,108,97867,2,0,P|132:98|171:88,1,80.9999975280763,10|0,3:2|0:0,0:0:0:0:
78,207,98093,2,0,P|38:216|0:226,1,80.9999975280763,8|0,2:2|0:0,0:0:0:0:
282,275,98318,6,0,B|340:296|360:366|360:366|348:295|396:249,1,251.999992309571,2|0,3:2|0:0,0:0:0:0:
499,238,98656,1,0,0:0:0:0:
492,248,98769,2,0,P|397:218|289:191,1,198.000006042481,10|0,3:2|0:0,0:0:0:0:
6,381,99220,1,2,3:2:0:0:
11,372,99333,2,0,P|102:346|128:339,1,80.9999975280763,2|0,2:2|0:0,0:0:0:0:
183,211,99559,2,0,P|157:302|150:328,1,80.9999975280763,2|8,2:2|3:2,0:0:0:0:
187,378,99784,1,2,2:2:0:0:
9,202,100010,5,2,2:2:0:0:
0,193,100123,2,0,P|56:144|136:161,1,135.000005149842,0|2,3:2|2:2,0:0:0:0:
387,322,100574,2,0,P|339:367|273:367,1,135.000005149842,8|0,3:2|0:0,0:0:0:0:
103,233,100912,1,0,0:0:0:0:
103,233,101025,2,0,P|151:221|174:214,1,67.5000025749208,0|0,3:2|0:0,0:0:0:0:
276,285,101250,2,0,P|228:297|205:304,1,67.5000025749208,2|0,2:2|0:0,0:0:0:0:
27,349,101476,2,0,P|112:368|169:386,1,135.000005149842,8|0,3:2|0:0,0:0:0:0:
336,209,101927,6,0,B|349:156|385:182|398:119,1,99.0000030212403,2|0,3:2|0:0,0:0:0:0:
466,94,102153,1,0,0:0:0:0:
466,94,102265,1,0,0:0:0:0:
507,158,102378,2,0,P|418:115|320:101,1,198.000006042481,10|0,3:2|0:0,0:0:0:0:
320,101,102717,1,0,0:0:0:0:
128,76,102829,5,2,3:2:0:0:
131,64,102942,2,0,P|161:35|215:43,1,80.9999975280763,2|0,2:2|0:0,0:0:0:0:
300,189,103168,2,0,P|259:177|239:126,1,80.9999975280763,2|8,2:2|3:2,0:0:0:0:
285,26,103393,1,2,2:2:0:0:
7,193,103619,1,2,2:2:0:0:
0,206,103732,2,0,P|108:174|173:156,1,161.999995056153,0|2,3:2|2:2,0:0:0:0:
388,367,104183,2,0,P|280:335|215:317,1,161.999995056153,8|0,3:2|0:0,0:0:0:0:
232,321,104521,1,0,0:0:0:0:
125,270,104634,5,2,3:2:0:0:
127,278,104747,1,0,3:2:0:0:
129,286,104859,1,2,2:2:0:0:
131,294,104972,1,0,3:2:0:0:
77,351,105085,2,0,P|37:333|-13:336,1,80.9999975280763,10|0,3:2|3:2,0:0:0:0:
180,212,105311,2,0,P|220:230|270:227,1,80.9999975280763,10|0,2:2|0:0,0:0:0:0:
401,376,105536,5,4,3:2:0:0:
401,376,108468,6,0,L|396:348,1,18,10|0,3:2|0:0,0:0:0:0:
381,284,108694,6,0,L|377:266,1,18,8|0,3:2|0:0,0:0:0:0:
363,190,108920,6,0,L|359:172,1,18,8|0,3:2|0:0,0:0:0:0:
491,90,109145,6,0,L|388:72,1,90,2|0,2:2|0:0,0:0:0:0:
318,54,109484,1,2,2:2:0:0:
318,54,109596,2,0,L|327:118,1,45,2|2,3:2|2:2,0:0:0:0:
192,141,109822,6,0,L|151:137,2,22.5,2|0|0,2:2|0:0|0:0,0:0:0:0:
302,284,110047,5,10,2:2:0:0:
300,272,110160,1,0,0:0:0:0:
298,261,110273,1,2,2:2:0:0:
296,250,110386,1,0,0:0:0:0:
294,239,110499,1,0,0:0:0:0:
292,228,110611,1,0,0:0:0:0:
290,217,110724,2,0,L|235:212,1,45,2|0,2:2|0:0,0:0:0:0:
79,269,110950,2,0,L|10:262,1,45,2|0,2:2|0:0,0:0:0:0:
169,272,111175,5,10,2:2:0:0:
169,272,111288,1,0,0:0:0:0:
169,272,111401,2,0,L|162:203,1,45,2|0,3:2|0:0,0:0:0:0:
146,64,111626,6,0,L|142:23,2,22.5,2|0|0,2:2|0:0|0:0,0:0:0:0:
156,143,111852,1,8,2:2:0:0:
373,50,112303,6,0,P|366:3|351:-9,1,54,0|0,3:2|0:0,0:0:0:0:
364,0,112754,6,0,P|269:62|314:241,1,242.999992584229,2|0,3:2|0:0,0:0:0:0:
312,342,113205,5,10,3:2:0:0:
191,225,113318,2,0,P|236:260|293:257,1,116.999994644165,2|2,2:2|2:2,0:0:0:0:
343,193,113656,5,2,3:2:0:0:
312,342,113769,2,0,P|365:320|390:269,1,116.999994644165,2|2,2:2|2:2,0:0:0:0:
351,199,114108,5,10,3:2:0:0:
472,311,114220,2,0,P|479:254|448:206,1,116.999994644165,2|2,2:2|2:2,0:0:0:0:
317,128,114559,6,0,P|322:98|325:70,1,58.4999973220826,2|2,3:2|2:2,0:0:0:0:
405,81,114784,2,0,P|399:110|396:138,1,58.4999973220826,2|2,2:2|2:2,0:0:0:0:
191,225,115010,6,0,P|134:229|5:250,1,175.499991966248,10|0,3:2|0:0,0:0:0:0:
17,247,115461,2,0,P|12:212|8:189,1,58.4999973220826,0|0,3:2|0:0,0:0:0:0:
89,94,115687,2,0,P|94:129|97:151,1,58.4999973220826,0|2,0:0|2:2,0:0:0:0:
249,281,115912,2,0,P|273:228|249:170,1,116.999994644165,10|2,3:2|2:2,0:0:0:0:
253,174,116250,1,0,0:0:0:0:
186,92,116363,6,0,P|264:146|360:113,1,175.499991966248,2|2,3:2|2:2,0:0:0:0:
486,195,116814,2,0,P|427:187|364:230,1,116.999994644165,10|0,3:2|0:0,0:0:0:0:
377,213,117153,1,2,2:2:0:0:
429,327,117265,6,0,P|434:298|444:270,1,58.4999973220826,2|0,3:2|0:0,0:0:0:0:
296,226,117491,2,0,P|290:254|280:282,1,58.4999973220826,2|0,2:2|0:0,0:0:0:0:
343,348,117717,1,10,3:2:0:0:
411,51,117942,5,2,2:2:0:0:
411,51,118055,1,0,0:0:0:0:
411,51,118168,2,0,P|483:56|469:143,1,175.499991966248,0|2,3:2|2:2,0:0:0:0:
237,76,118619,2,0,P|242:4|329:18,1,175.499991966248,8|0,3:2|0:0,0:0:0:0:
344,98,119070,2,0,P|339:117|332:155,1,58.4999973220826,2|0,3:2|0:0,0:0:0:0:
228,283,119296,5,0,3:2:0:0:
228,283,119408,1,0,3:2:0:0:
154,246,119521,2,0,P|148:217|142:188,1,58.4999973220826,10|0,3:2|0:0,0:0:0:0:
311,278,119747,2,0,P|306:297|299:335,1,58.4999973220826,8|0,3:2|0:0,0:0:0:0:
133,370,119972,6,0,L|100:362,2,22.5,2|0|0,3:2|0:0|0:0,0:0:0:0:
467,245,120874,2,0,L|476:279,2,22.5,10|0|0,2:2|0:0|0:0,0:0:0:0:
393,216,121100,1,0,0:0:0:0:
439,152,121326,1,0,0:0:0:0:
512,181,121551,1,2,2:2:0:0:
36,42,122679,6,0,L|2:29,2,22.5,8|0|0,2:2|0:0|0:0,0:0:0:0:
135,171,122905,2,0,P|199:152|265:136,1,135.000005149842,2|0,3:2|3:2,0:0:0:0:
182,60,123356,1,10,2:2:0:0:
27,179,123581,6,0,L|39:139,1,36,2|8,3:2|2:2,0:0:0:0:
512,328,124484,5,10,2:2:0:0:
395,237,124822,1,2,2:2:0:0:
351,378,125160,1,2,3:2:0:0:
417,305,125386,6,0,L|392:230,2,53.9999983520508,2|0|0,2:2|0:0|0:0,0:0:0:0:
492,220,125837,5,0,3:2:0:0:
501,207,125987,5,0,3:2:0:0:
501,190,126138,5,0,3:2:0:0:
492,175,126288,6,0,L|465:173,2,20.2499993820191,10|0|0,2:2|0:0|0:0,0:0:0:0:
365,52,126514,5,0,3:2:0:0:
314,114,126739,1,10,2:2:0:0:
388,139,126965,1,8,2:2:0:0:
439,79,127190,1,2,0:0:0:0:
164,255,127641,6,0,P|152:237|158:200,2,48,10|2|2,0:0|2:2|2:2,0:0:0:0:
263,310,128093,2,0,P|217:320|182:352,1,96,2|2,2:2|2:2,0:0:0:0:
61,301,128544,2,0,P|96:325|122:320,2,48,10|2|2,0:0|2:2|2:2,0:0:0:0:
249,101,128995,6,0,P|246:127|224:157,2,48,2|0|2,2:2|0:0|2:2,0:0:0:0:
97,47,129446,5,10,0:0:0:0:
125,6,129596,5,2,2:2:0:0:
168,19,129747,5,2,2:2:0:0:
156,103,129897,6,0,P|100:81|7:74,1,144,2|8,2:2|0:0,0:0:0:0:
149,205,130574,1,2,2:2:0:0:
337,31,130799,6,0,L|347:90,1,36,10|0,3:2|0:0,0:0:0:0:
361,144,131025,2,0,L|367:179,1,36,8|0,2:2|0:0,0:0:0:0:
498,191,131250,6,0,L|488:250,1,36,8|0,3:2|0:0,0:0:0:0:
474,304,131476,2,0,L|467:339,1,36,10|0,2:2|0:0,0:0:0:0:
214,365,131702,5,10,3:2:0:0:
214,365,131814,1,0,0:0:0:0:
214,365,131927,2,0,L|283:352,1,53.9999983520508,8|0,2:2|0:0,0:0:0:0:
381,270,132153,5,8,3:2:0:0:
381,270,132265,1,0,0:0:0:0:
381,270,132378,2,0,L|327:260,1,53.9999983520508,10|0,2:2|0:0,0:0:0:0:
111,370,132604,5,10,3:2:0:0:
100,363,132717,5,8,2:2:0:0:
114,343,132829,5,8,3:2:0:0:
84,308,132942,5,8,2:2:0:0:
121,254,133055,5,8,3:2:0:0:
63,190,133168,5,8,2:2:0:0:
109,122,133281,5,10,3:2:0:0:
44,65,133393,5,8,2:2:0:0:
110,3,133506,5,2,0:0:0:0:
339,130,133732,2,0,P|299:157|264:152,1,80.9999975280763,2|0,0:0|0:0,0:0:0:0:
207,203,134070,1,2,0:0:0:0:
207,203,134183,1,2,0:0:0:0:
207,203,134296,1,2,0:0:0:0:
348,119,134408,6,0,P|406:111|437:159,1,121.499996292114,6|0,3:2|0:0,0:0:0:0:
512,189,134634,2,0,P|484:232|448:238,1,80.9999975280763
401,374,134859,2,0,B|364:307|398:268|421:258|436:278|477:208|432:151,1,242.999992584229,10|2,3:2|2:2,0:0:0:0:
336,32,135311,1,2,3:2:0:0:
282,200,135424,1,2,2:2:0:0:
357,143,135536,6,0,P|397:146|436:156,1,80.9999975280763,2|0,2:2|0:0,0:0:0:0:
246,24,135762,2,0,P|171:45|87:58,1,161.999995056153,8|2,3:2|2:2,0:0:0:0:
0,203,136100,5,0,0:0:0:0:
0,203,136213,2,0,P|57:249|148:236,1,161.999995056153,2|0,3:2|0:0,0:0:0:0:
401,374,136664,2,0,P|325:348|245:329,1,161.999995056153,10|0,3:2|0:0,0:0:0:0:
87,163,137115,5,2,3:2:0:0:
169,117,137228,1,2,2:2:0:0:
244,174,137341,2,0,P|234:213|227:253,1,80.9999975280763,2|0,2:2|0:0,0:0:0:0:
89,80,137566,2,0,P|82:40|72:0,1,80.9999975280763,10|0,3:2|0:0,0:0:0:0:
0,203,137792,1,2,2:2:0:0:
261,87,138017,6,0,P|379:112|499:135,1,242.999992584229,0|0,3:2|0:0,0:0:0:0:
494,54,138468,2,0,P|446:59|418:100,1,80.9999975280763,10|0,3:2|0:0,0:0:0:0:
308,197,138694,2,0,P|320:235|328:275,1,80.9999975280763,2|0,2:2|0:0,0:0:0:0:
248,78,138919,5,0,3:2:0:0:
432,205,139145,1,0,0:0:0:0:
254,294,139371,5,10,3:2:0:0:
254,294,139484,2,0,P|210:283|175:275,1,80.9999975280763,2|2,2:2|2:2,0:0:0:0:
88,310,139709,1,2,2:2:0:0:
88,310,139822,2,0,P|212:285|338:274,1,242.999992584229,0|0,3:2|0:0,0:0:0:0:
499,135,140273,6,0,P|508:109|494:133,1,80.9999975280763,10|0,3:2|0:0,0:0:0:0:
416,290,140499,1,2,2:2:0:0:
470,360,140611,2,0,P|459:273|428:199,1,161.999995056153,2|0,2:2|0:0,0:0:0:0:
334,100,140950,5,0,0:0:0:0:
334,100,141062,1,0,3:2:0:0:
403,49,141175,2,0,P|453:34|492:20,1,80.9999975280763,8|0,3:2|0:0,0:0:0:0:
291,167,141401,2,0,P|252:153|213:142,1,80.9999975280763,10|0,2:2|0:0,0:0:0:0:
7,349,141626,6,0,P|70:340|97:270,1,121.499996292114,6|0,3:2|0:0,0:0:0:0:
150,235,141852,2,0,P|202:249|204:295,1,80.9999975280763
293,315,142078,2,0,P|153:278|-12:246,1,297.000009063721,10|2,3:2|2:2,0:0:0:0:
167,91,142529,5,2,3:2:0:0:
11,26,142641,1,2,2:2:0:0:
56,177,142754,2,0,P|71:113|79:84,1,80.9999975280763,2|0,2:2|0:0,0:0:0:0:
206,8,142980,2,0,P|257:70|239:148,1,161.999995056153,8|2,3:2|2:2,0:0:0:0:
163,326,143318,5,0,0:0:0:0:
89,280,143431,2,0,P|168:293|245:318,1,161.999995056153,2|0,3:2|0:0,0:0:0:0:
512,178,143882,2,0,P|445:234|357:209,1,161.999995056153,10|0,3:2|0:0,0:0:0:0:
167,91,144333,1,2,3:2:0:0:
258,64,144446,1,2,2:2:0:0:
304,146,144559,2,0,P|294:185|286:225,1,80.9999975280763,2|0,2:2|0:0,0:0:0:0:
77,107,144784,2,0,P|69:67|59:27,1,80.9999975280763,10|0,3:2|0:0,0:0:0:0:
167,262,145010,5,2,2:2:0:0:
167,262,145123,1,0,0:0:0:0:
167,262,145235,2,0,P|127:269|88:279,1,80.9999975280763,0|0,3:2|0:0,0:0:0:0:
70,193,145461,2,0,P|109:185|148:175,1,80.9999975280763
331,381,145687,6,0,P|342:306|354:220,1,161.999995056153,10|2,3:2|2:2,0:0:0:0:
354,220,146025,1,0,0:0:0:0:
432,323,146138,2,0,P|470:309|509:300,1,80.9999975280763,0|0,3:2|0:0,0:0:0:0:
410,147,146363,2,0,P|370:137|332:124,1,80.9999975280763
152,131,146589,5,10,3:2:0:0:
198,192,146702,1,2,2:2:0:0:
276,193,146814,1,2,2:2:0:0:
388,59,146927,6,0,P|322:42|255:102,1,161.999995056153,2|0,2:2|0:0,0:0:0:0:
106,256,147265,1,2,2:2:0:0:
106,256,147378,1,2,2:2:0:0:
106,256,147491,2,0,P|39:276|13:263,1,80.9999975280763,10|0,3:2|0:0,0:0:0:0:
31,273,147717,5,2,2:2:0:0:
170,197,147829,1,2,2:2:0:0:
170,197,147942,1,2,3:2:0:0:
227,285,148055,2,0,P|224:325|215:364,1,80.9999975280763,2|0,2:2|3:2,0:0:0:0:
351,274,148281,2,0,P|373:241|375:201,1,80.9999975280763,2|8,3:2|3:2,0:0:0:0:
193,123,148507,2,0,P|171:156|169:196,1,80.9999975280763,2|8,3:2|3:2,0:0:0:0:
241,280,148732,1,2,2:2:0:0:
498,71,148844,6,0,P|418:87|338:101,1,161.999995056153,6|2,3:2|2:2,0:0:0:0:
269,175,149183,1,2,2:2:0:0:
373,200,149296,2,0,P|442:222|486:238,1,80.9999975280763,10|0,3:2|0:0,0:0:0:0:
312,14,149521,1,2,2:2:0:0:
304,5,149634,2,0,P|265:18|226:30,1,80.9999975280763,2|0,2:2|3:2,0:0:0:0:
65,183,149859,5,2,2:2:0:0:
0,123,149972,1,2,2:2:0:0:
59,56,150085,2,0,P|98:69|137:81,1,80.9999975280763,2|8,2:2|3:2,0:0:0:0:
229,284,150311,5,2,2:2:0:0:
269,175,150423,1,2,2:2:0:0:
229,284,150536,2,0,P|219:320|210:388,1,80.9999975280763,2|0,2:2|3:2,0:0:0:0:
167,204,150762,5,2,2:2:0:0:
333,255,150874,1,2,2:2:0:0:
167,204,150987,2,0,P|106:219|68:226,1,80.9999975280763,2|8,2:2|3:2,0:0:0:0:
347,124,151213,2,0,P|408:139|446:146,1,80.9999975280763,2|2,2:2|2:2,0:0:0:0:
512,331,151438,5,2,2:2:0:0:
505,322,151551,2,0,P|420:312|359:378,1,161.999995056153,0|2,3:2|2:2,0:0:0:0:
247,259,151890,2,0,P|256:202|264:154,1,80.9999975280763,2|8,2:2|3:2,0:0:0:0:
413,62,152115,2,0,P|422:119|430:167,1,80.9999975280763,2|0,2:2|0:0,0:0:0:0:
257,18,152341,1,0,0:0:0:0:
183,82,152453,5,0,3:2:0:0:
183,82,152566,2,0,B|101:68|116:132|21:119,1,161.999995056153,2|2,2:2|2:2,0:0:0:0:
146,180,152905,5,10,3:2:0:0:
113,250,153017,1,2,2:2:0:0:
39,300,153130,5,2,2:2:0:0:
6,230,153242,1,2,2:2:0:0:
110,382,153356,6,0,P|201:337|286:348,1,161.999995056153,2|2,3:2|2:2,0:0:0:0:
382,378,153694,2,0,P|367:324|355:280,1,80.9999975280763,2|8,2:2|3:2,0:0:0:0:
493,209,153920,2,0,P|478:263|466:307,1,80.9999975280763,2|2,2:2|2:2,0:0:0:0:
269,344,154145,1,2,2:2:0:0:
259,339,154258,2,0,P|215:272|238:195,1,161.999995056153,0|2,3:2|2:2,0:0:0:0:
346,58,154596,5,2,2:2:0:0:
271,34,154709,1,10,3:2:0:0:
217,92,154822,1,2,2:2:0:0:
291,115,154935,1,2,2:2:0:0:
193,17,155047,5,2,2:2:0:0:
193,17,155160,2,0,P|107:12|64:73,1,161.999995056153,0|2,3:2|2:2,0:0:0:0:
0,155,155499,1,0,3:2:0:0:
0,155,155611,2,0,P|40:157|78:171,1,80.9999975280763,10|0,3:2|0:0,0:0:0:0:
424,41,155837,2,0,P|385:54|345:57,1,80.9999975280763,10|0,2:2|0:0,0:0:0:0:
47,368,156514,6,0,P|129:363|184:249,1,198.000006042481,14|2,3:2|2:2,0:0:0:0:
392,262,156852,5,0,0:0:0:0:
384,270,156965,2,0,P|314:265|267:168,1,180,2|2,3:2|2:2,0:0:0:0:
89,127,157303,5,2,2:2:0:0:
97,138,157416,2,0,P|166:133|209:46,1,161.999995056153,10|0,3:2|0:0,0:0:0:0:
209,58,157754,1,2,2:2:0:0:
266,176,157867,6,0,P|341:157|370:157,1,80.9999975280763,2|0,3:2|0:0,0:0:0:0:
119,283,158093,2,0,P|76:297|31:302,1,80.9999975280763,2|0,2:2|0:0,0:0:0:0:
235,295,158318,6,0,P|249:337|254:382,1,80.9999975280763,10|0,3:2|0:0,0:0:0:0:
154,166,158544,2,0,P|132:71|137:-20,1,161.999995056153,2|0,2:2|3:2,0:0:0:0:
361,148,158882,1,0,0:0:0:0:
353,156,158995,6,0,P|308:161|266:176,1,90,2|0,2:2|0:0,0:0:0:0:
31,301,159220,2,0,P|76:296|119:283,1,90,10|0,3:2|0:0,0:0:0:0:
253,373,159446,2,0,P|247:328|232:285,1,90,2|0,2:2|0:0,0:0:0:0:
399,61,159671,6,0,P|465:103|452:204,1,161.999995056153,0|0,3:2|0:0,0:0:0:0:
468,180,160010,1,0,0:0:0:0:
245,62,160123,5,10,3:2:0:0:
300,3,160235,2,0,L|259:189,1,161.999995056153,2|0,2:2|0:0,0:0:0:0:
129,240,160574,5,2,3:2:0:0:
180,299,160686,2,0,L|139:113,1,161.999995056153,2|0,2:2|0:0,0:0:0:0:
0,25,161025,5,8,3:2:0:0:
8,37,161138,2,0,P|49:50|86:62,1,80.9999975280763,2|0,2:2|0:0,0:0:0:0:
173,41,161363,1,2,2:2:0:0:
54,158,161476,1,2,3:2:0:0:
333,384,161702,6,0,P|335:337|359:297,1,80.9999975280763,2|0,2:2|0:0,0:0:0:0:
184,290,161927,2,0,P|223:315|245:356,1,80.9999975280763,10|0,3:2|0:0,0:0:0:0:
337,204,162153,2,0,P|295:225|248:224,1,80.9999975280763,2|0,2:2|0:0,0:0:0:0:
185,146,162378,1,2,3:2:0:0:
439,258,162604,5,0,3:2:0:0:
439,258,162717,1,0,3:2:0:0:
506,188,162829,2,0,P|493:139|495:92,1,80.9999975280763,8|0,3:2|3:2,0:0:0:0:
365,3,163055,2,0,P|378:52|376:99,1,80.9999975280763,8|0,3:2|0:0,0:0:0:0:
334,323,163281,6,0,B|312:359|312:359|374:341|374:341|419:382|419:382|427:322|427:322|427:322|427:322|480:292|480:292|427:267|427:267|427:267|427:267|414:206|414:206|372:249|372:249|372:249|372:249|316:236|316:236|337:290|337:290|240:322|176:249|168:171|211:173|247:136|229:49|179:18|132:10|56:30|13:67|8:121|27:187|108:188|114:151,1,1190.69996366272,6|0,2:2|0:0,0:0:0:0:
113,154,170499,6,0,B|74:184|72:257|157:311|241:244|251:158|241:93|159:116|105:91|128:12|195:-45|260:-50|306:2|301:55|285:72,1,539.999983520508,6|2,2:2|2:2,0:0:0:0:
285,71,175912,1,2,2:2:0:0:
285,71,176814,1,2,2:2:0:0:
396,375,177265,5,10,0:1:0:0:
396,375,177717,6,0,P|445:322|436:251,1,148.50000453186,6|0,3:2|0:0,0:0:0:0:
376,202,177942,2,0,P|369:156|412:139,1,99.0000030212403
502,177,178168,2,0,P|381:178|275:234,1,242.999992584229,10|2,3:2|2:2,0:0:0:0:
73,256,178619,1,2,3:2:0:0:
202,182,178732,1,2,2:2:0:0:
159,361,178845,2,0,P|166:316|175:272,1,90,2|0,2:2|0:0,0:0:0:0:
241,102,179070,2,0,P|155:99|115:174,1,180,8|2,3:2|2:2,0:0:0:0:
287,322,179409,1,0,0:0:0:0:
287,322,179521,6,0,P|346:291|351:219,1,135.000005149842,2|0,3:2|0:0,0:0:0:0:
157,0,179972,2,0,P|227:15|305:31,1,135.000005149842,10|0,3:2|0:0,0:0:0:0:
491,234,180424,1,2,3:2:0:0:
425,280,180536,1,2,2:2:0:0:
354,228,180649,2,0,P|343:195|333:154,1,67.5000025749208,2|0,2:2|0:0,0:0:0:0:
461,68,180875,2,0,P|452:100|441:132,1,67.5000025749208,10|0,3:2|0:0,0:0:0:0:
485,356,181100,1,2,2:2:0:0:
485,356,181213,1,0,0:0:0:0:
485,356,181326,6,0,P|439:318|329:326,1,161.999995056153,0|0,3:2|0:0,0:0:0:0:
105,231,181777,2,0,P|82:214|107:226,1,80.9999975280763,10|0,3:2|0:0,0:0:0:0:
156,383,182003,2,0,P|177:349|172:310,1,80.9999975280763,2|0,2:2|0:0,0:0:0:0:
6,160,182228,5,0,3:2:0:0:
267,75,182454,1,0,0:0:0:0:
105,26,182679,1,10,3:2:0:0:
105,26,182792,2,0,P|115:70|124:109,1,80.9999975280763,2|2,2:2|2:2,0:0:0:0:
231,246,183018,1,2,2:2:0:0:
297,191,183130,6,0,P|244:162|183:179,1,108,0|0,3:2|0:0,0:0:0:0:
125,213,183356,2,0,P|113:237|133:220,1,72,2|0,2:2|0:0,0:0:0:0:
0,56,183582,2,0,P|53:102|123:104,1,144,10|2,3:2|2:2,0:0:0:0:
217,99,183920,2,0,P|208:132|194:186,1,72,2|0,2:2|3:2,0:0:0:0:
194,284,184145,1,0,0:0:0:0:
194,284,184258,2,0,L|273:260,1,72,0|0,0:0|3:2,0:0:0:0:
341,301,184484,1,8,3:2:0:0:
133,220,184709,1,10,2:2:0:0:
512,211,184935,6,0,P|485:160|395:154,1,148.50000453186,6|0,3:2|0:0,0:0:0:0:
357,217,185160,2,0,P|315:202|322:152,1,99.0000030212403
395,65,185386,2,0,P|367:144|340:308,1,242.999992584229,10|2,3:2|2:2,0:0:0:0:
213,376,185837,1,2,3:2:0:0:
125,241,185950,1,2,2:2:0:0:
16,354,186063,2,0,P|70:329|119:322,1,90,2|0,2:2|0:0,0:0:0:0:
340,300,186288,2,0,P|289:220|203:238,1,180,8|2,3:2|2:2,0:0:0:0:
94,161,186627,5,0,0:0:0:0:
125,241,186739,2,0,P|141:175|160:110,1,135.000005149842,2|0,3:2|0:0,0:0:0:0:
355,0,187191,2,0,P|380:96|396:147,1,135.000005149842,10|0,3:2|0:0,0:0:0:0:
373,275,187529,1,2,2:2:0:0:
443,213,187642,2,0,P|479:204|519:197,1,67.5000025749208,2|2,3:2|2:2,0:0:0:0:
309,335,187867,2,0,P|277:327|244:321,1,67.5000025749208,2|0,2:2|0:0,0:0:0:0:
192,162,188093,2,0,P|247:124|312:134,1,135.000005149842,10|2,3:2|2:2,0:0:0:0:
473,128,188431,5,0,0:0:0:0:
407,56,188544,2,0,P|426:134|448:239,1,161.999995056153,0|0,3:2|0:0,0:0:0:0:
304,384,188882,1,0,0:0:0:0:
304,384,188995,2,0,P|279:353|282:313,1,80.9999975280763,10|0,3:2|0:0,0:0:0:0:
233,196,189221,2,0,P|240:169|229:194,1,80.9999975280763,2|0,2:2|0:0,0:0:0:0:
109,306,189446,6,0,P|154:293|196:281,1,80.9999975280763,0|0,3:2|0:0,0:0:0:0:
330,234,189672,1,0,0:0:0:0:
232,41,189897,2,0,B|258:84|233:118|225:111|196:149|232:199,1,161.999995056153,10|2,3:2|2:2,0:0:0:0:
317,300,190236,1,2,2:2:0:0:
317,300,190348,6,0,P|334:252|324:223,1,72,0|0,3:2|0:0,0:0:0:0:
318,144,190574,2,0,P|351:156|387:163,1,72,2|2,2:2|2:2,0:0:0:0:
498,317,190800,2,0,P|446:364|376:361,1,144,10|2,3:2|2:2,0:0:0:0:
175,337,191138,2,0,P|176:275|237:290,1,144,2|0,2:2|0:0,0:0:0:0:
293,378,191476,5,0,3:2:0:0:
293,378,191589,1,0,3:2:0:0:
318,293,191702,2,0,P|325:250|333:211,1,72,8|0,3:2|3:2,0:0:0:0:
356,112,191927,5,8,3:2:0:0:
356,112,192040,1,0,0:0:0:0:
456,173,192153,2,0,P|468:162|456:169,1,54,2|0,2:2|0:0,0:0:0:0:
467,172,192604,6,0,P|394:184|330:222,1,148.50000453186,14|0,3:2|0:0,0:0:0:0:
253,205,192830,2,0,P|218:173|224:126,1,99.0000030212403
272,5,193055,1,2,3:2:0:0:
311,135,193168,1,2,2:2:0:0:
157,79,193281,2,0,P|112:88|67:111,1,90,2|0,2:2|0:0,0:0:0:0:
0,259,193506,2,0,P|72:305|164:245,1,180,8|2,3:2|2:2,0:0:0:0:
266,237,193845,5,0,0:0:0:0:
266,237,193957,2,0,P|222:305|215:386,1,161.999995056153,2|0,3:2|0:0,0:0:0:0:
7,167,194408,2,0,P|79:133|160:137,1,161.999995056153,10|0,3:2|0:0,0:0:0:0:
420,166,194860,1,2,3:2:0:0:
279,44,194972,1,2,2:2:0:0:
379,0,195085,2,0,P|369:40|358:79,1,80.9999975280763,2|0,2:2|0:0,0:0:0:0:
255,201,195311,2,0,P|295:191|334:180,1,80.9999975280763,10|0,3:2|0:0,0:0:0:0:
512,198,195536,1,2,2:2:0:0:
512,198,195649,1,0,0:0:0:0:
512,198,195762,6,0,P|457:263|356:242,1,161.999995056153,0|0,3:2|0:0,0:0:0:0:
191,290,196100,1,0,0:0:0:0:
191,290,196213,2,0,P|167:278|193:287,1,80.9999975280763,10|0,3:2|0:0,0:0:0:0:
296,384,196439,2,0,P|294:344|284:303,1,80.9999975280763,2|0,2:2|0:0,0:0:0:0:
151,136,196664,5,0,3:2:0:0:
299,296,196890,1,0,0:0:0:0:
492,144,197115,1,10,3:2:0:0:
431,84,197228,1,2,2:2:0:0:
349,119,197341,1,2,2:2:0:0:
349,119,197454,2,0,P|334:162|327:192,1,72,2|0,2:2|3:2,0:0:0:0:
195,308,197679,5,0,0:0:0:0:
195,308,197792,2,0,P|181:269|172:236,1,72,2|2,2:2|2:2,0:0:0:0:
129,84,198018,2,0,P|69:121|74:193,1,144,10|2,3:2|2:2,0:0:0:0:
66,353,198356,2,0,P|132:309|202:309,1,144,2|0,2:2|0:0,0:0:0:0:
396,331,198694,2,0,L|405:365,2,36,0|0|0,0:0|0:0|3:2,0:0:0:0:
342,194,198920,2,0,P|283:172|279:235,1,144,8|10,3:2|2:2,0:0:0:0:
318,384,199258,1,0,3:2:0:0:
327,377,199371,6,0,P|373:236|447:108,1,297.000009063721,6|0,3:2|0:0,0:0:0:0:
271,27,199822,2,0,P|250:95|289:156,1,148.50000453186,10|0,3:2|0:0,0:0:0:0:
282,237,200048,2,0,P|328:236|360:189,1,99.0000030212403,0|2,0:0|2:2,0:0:0:0:
433,30,200273,1,2,3:2:0:0:
466,204,200386,1,2,2:2:0:0:
295,145,200499,2,0,P|251:154|209:171,1,90,2|0,2:2|0:0,0:0:0:0:
20,254,200724,2,0,P|66:318|171:319,1,180,8|2,3:2|2:2,0:0:0:0:
300,384,201063,5,0,0:0:0:0:
300,384,201176,2,0,P|308:290|261:210,1,180,0|2,3:2|2:2,0:0:0:0:
195,156,201514,1,0,0:0:0:0:
296,52,201626,2,0,P|298:100|272:138,1,90,10|0,3:2|0:0,0:0:0:0:
97,267,201852,2,0,P|95:218|120:180,1,90,2|0,2:2|0:0,0:0:0:0:
206,69,202078,6,0,P|294:100|378:119,1,180,0|0,3:2|0:0,0:0:0:0:
444,62,202416,1,0,0:0:0:0:
512,328,202529,6,0,P|471:333|415:346,1,90,10|0,3:2|0:0,0:0:0:0:
490,186,202754,2,0,P|446:196|401:202,1,90,2|0,2:2|0:0,0:0:0:0:
203,289,202980,1,0,3:2:0:0:
306,206,203206,5,0,0:0:0:0:
306,206,203318,1,0,0:0:0:0:
347,302,203431,2,0,P|335:340|329:380,1,80.9999975280763,10|0,3:2|0:0,0:0:0:0:
200,177,203656,2,0,P|206:136|217:98,1,80.9999975280763,2|0,2:2|0:0,0:0:0:0:
48,271,203882,5,0,3:2:0:0:
190,379,204108,1,0,0:0:0:0:
405,241,204333,5,10,3:2:0:0:
366,173,204446,1,2,2:2:0:0:
417,115,204559,1,2,2:2:0:0:
359,58,204671,2,0,P|432:90|512:104,1,161.999995056153,2|0,2:2|0:0,0:0:0:0:
470,263,205010,6,0,P|431:268|404:240,1,80.9999975280763,2|0,2:2|0:0,0:0:0:0:
284,115,205236,2,0,P|208:156|222:240,1,161.999995056153,10|2,3:2|2:2,0:0:0:0:
246,384,205574,1,2,3:2:0:0:
179,308,205687,1,0,3:2:0:0:
179,308,205912,5,0,3:2:0:0:
266,284,206025,1,0,3:2:0:0:
354,267,206138,2,0,P|379:253|352:261,1,80.9999975280763,10|0,3:2|0:0,0:0:0:0:
98,327,206363,2,0,P|73:341|100:333,1,80.9999975280763,10|0,3:2|0:0,0:0:0:0:
253,149,206589,6,0,P|247:71|178:35,1,161.999995056153,0|0,3:2|3:2,0:0:0:0:
112,0,206927,1,0,0:0:0:0:
8,175,207040,2,0,P|46:162|85:153,1,80.9999975280763,10|0,3:2|0:0,0:0:0:0:
269,252,207265,2,0,P|230:239|191:230,1,80.9999975280763,2|0,3:2|0:0,0:0:0:0:
106,308,207491,5,0,3:2:0:0:
107,317,207603,1,0,0:0:0:0:
109,327,207716,1,0,3:2:0:0:
111,337,207829,1,0,0:0:0:0:
186,374,207942,5,10,3:2:0:0:
265,357,208055,1,2,2:2:0:0:
344,340,208168,2,0,P|395:354|431:367,1,80.9999975280763,2|2,3:2|2:2,0:0:0:0:
497,184,208393,5,0,3:2:0:0:
468,174,208505,1,0,3:2:0:0:
438,178,208618,1,2,3:2:0:0:
414,196,208731,1,2,3:2:0:0:
362,261,208844,5,10,3:2:0:0:
320,232,208957,1,0,3:2:0:0:
269,252,209070,1,2,3:2:0:0:
223,224,209183,1,2,3:2:0:0:
136,271,209296,5,0,3:2:0:0:
63,249,209408,1,0,3:2:0:0:
30,181,209521,1,0,3:2:0:0:
58,110,209634,1,0,3:2:0:0:
189,62,209747,6,0,L|242:48,2,53.9999983520508,10|0|0,3:2|0:0|0:0,0:0:0:0:
61,101,209972,2,0,L|8:86,2,53.9999983520508,8|0|0,3:2|0:0|0:0,0:0:0:0:
131,178,210198,6,0,P|135:197|139:217,1,40.4999987640381,2|0,2:2|0:0,0:0:0:0:
