osu file format v14

[General]
AudioFilename: audio.mp3
AudioLeadIn: 0
PreviewTime: 203467
Countdown: 0
SampleSet: Soft
StackLeniency: 0.6
Mode: 0
LetterboxInBreaks: 0
WidescreenStoryboard: 1

[Editor]
DistanceSpacing: 0.5
BeatDivisor: 6
GridSize: 16
TimelineZoom: 2.2

[Metadata]
Title:Tenkyuu, Suisei wa Yoru o Mataide
TitleUnicode:天球、彗星は夜を跨いで
Artist:Hoshimachi Suisei
ArtistUnicode:星街すいせい
Creator:captin1
Version:Comet
Source:
Tags:kalibe luna- dark accelerator meiikyuu -aqua agatsu Virtual YouTuber VTuber ホロライブ hololive idol 2nd Original Song Japanese Rock Tenkyu Suichan Sui-chan Hoshimati Hosimachi Hosimati
BeatmapID:2486052
BeatmapSetID:1193099

[Difficulty]
HPDrainRate:5
CircleSize:4.2
OverallDifficulty:9
ApproachRate:9.6
SliderMultiplier:1.8
SliderTickRate:1

[Events]
//Background and Video events
0,0,"suisei tenkyuu.png",0,0
//Break Periods
2,66540,69413
2,138182,141055
2,189922,196577
//Storyboard Layer 0 (Background)
//Storyboard Layer 1 (Fail)
//Storyboard Layer 2 (Pass)
//Storyboard Layer 3 (Foreground)
//Storyboard Layer 4 (Overlay)
//Storyboard Sound Samples

[TimingPoints]
1863,447.761194029851,4,2,1,40,1,0
1863,-133.333333333333,4,2,1,40,0,0
2646,-100,4,2,1,40,0,0
3206,-133.333333333333,4,2,1,40,0,0
3989,-100,4,2,1,40,0,0
4437,-133.333333333333,4,2,1,40,0,0
6228,-100,4,2,1,40,0,0
6788,-133.333333333333,4,2,1,40,0,0
7571,-100,4,2,1,40,0,0
8019,-133.333333333333,4,2,1,40,0,0
11154,-100,4,2,1,40,0,0
11601,-133.333333333333,4,2,1,40,0,0
12945,-133.333333333333,4,2,1,25,0,0
13168,-133.333333333333,4,2,1,30,0,0
13392,-133.333333333333,4,2,1,35,0,0
13616,-133.333333333333,4,2,1,40,0,0
13840,-133.333333333333,4,2,1,45,0,0
14064,-133.333333333333,4,2,1,50,0,0
14288,-133.333333333333,4,2,1,5,0,0
14400,-83.3333333333333,4,2,1,55,0,0
16191,-57.1428571428571,4,2,1,60,0,1
16303,-57.1428571428571,4,2,1,60,0,0
17534,-66.6666666666667,4,2,1,60,0,0
18430,-57.1428571428571,4,2,1,60,0,0
18989,-50,4,2,1,60,0,0
19773,-57.1428571428571,4,2,1,60,0,0
21116,-66.6666666666667,4,2,1,60,0,0
23355,-57.1428571428571,4,2,1,60,0,1
23467,-57.1428571428571,4,2,1,60,0,0
24698,-66.6666666666667,4,2,1,60,0,0
26154,-50,4,2,1,60,0,0
26937,-57.1428571428571,4,2,1,60,0,0
28728,-76.9230769230769,4,2,1,60,0,0
29624,-133.333333333333,4,2,1,40,0,0
30519,-66.6666666666667,4,2,1,45,0,0
31639,-76.9230769230769,4,2,1,45,0,0
34101,-66.6666666666667,4,2,1,45,0,0
34997,-76.9230769230769,4,2,1,45,0,0
36004,-66.6666666666667,4,2,1,45,0,0
38803,-76.9230769230769,4,2,1,45,0,0
39474,-66.6666666666667,4,2,1,45,0,0
40034,-76.9230769230769,4,2,1,45,0,0
41265,-66.6666666666667,4,2,1,45,0,0
43168,-76.9230769230769,4,2,1,45,0,0
44848,-68.9655172413793,4,2,1,50,0,0
59176,-58.8235294117647,4,2,1,60,0,0
66340,-58.8235294117647,4,2,1,40,0,0
69922,-83.3333333333333,4,2,1,60,0,0
70146,-83.3333333333333,4,2,1,20,0,0
70370,-83.3333333333333,4,2,1,30,0,0
70594,-66.6666666666667,4,2,1,40,0,0
70818,-66.6666666666667,4,2,1,50,0,0
71042,-66.6666666666667,4,2,1,60,0,0
71265,-55.5555555555556,4,2,1,70,0,0
71489,-55.5555555555556,4,2,1,80,0,0
71713,-125,4,2,1,30,0,0
73057,-133.333333333333,4,2,1,30,0,0
73504,-52.6315789473684,4,2,1,65,0,1
82460,-41.6666666666667,4,2,1,65,0,1
83131,-45.4545454545455,4,2,1,65,0,1
83467,-52.6315789473684,4,2,1,65,0,1
86154,-47.6190476190476,4,2,1,65,0,1
87721,-47.6190476190476,4,2,1,65,0,0
87833,-52.6315789473684,4,2,1,65,0,1
97236,-83.3333333333333,4,2,1,65,0,1
97571,-66.6666666666667,4,2,1,65,0,1
97907,-111.111111111111,4,2,1,65,0,1
98131,-66.6666666666667,4,2,1,65,0,1
100370,-52.6315789473684,4,2,1,65,0,1
102049,-52.6315789473684,4,2,1,65,0,0
102161,-52.6315789473684,4,2,1,60,0,1
102273,-52.6315789473684,4,2,1,60,0,0
102385,-57.1428571428571,4,2,1,60,0,0
104064,-66.6666666666667,4,2,1,60,0,0
105071,-50,4,2,1,60,0,0
105743,-57.1428571428571,4,2,1,60,0,0
111228,-66.6666666666667,4,2,1,60,0,0
112236,-50,4,2,1,60,0,0
112907,-57.1428571428571,4,2,1,60,0,0
114698,-90.9090909090909,4,2,1,60,0,0
116489,-100,4,2,1,50,0,0
129027,-76.9230769230769,4,2,1,50,0,0
129922,-62.5,4,2,1,50,0,0
130370,-125,4,2,1,50,0,0
130818,-62.5,4,2,1,60,0,0
137982,-62.5,4,2,1,40,0,0
141564,-83.3333333333333,4,2,1,60,0,0
141788,-83.3333333333333,4,2,1,20,0,0
142012,-83.3333333333333,4,2,1,30,0,0
142236,-66.6666666666667,4,2,1,40,0,0
142460,-66.6666666666667,4,2,1,50,0,0
142683,-66.6666666666667,4,2,1,60,0,0
142907,-55.5555555555556,4,2,1,70,0,0
143131,-55.5555555555556,4,2,1,80,0,0
143355,-125,4,2,1,30,0,0
144698,-133.333333333333,4,2,1,30,0,0
145146,-52.6315789473684,4,2,1,65,0,1
154101,-41.6666666666667,4,2,1,65,0,1
154773,-45.4545454545455,4,2,1,65,0,1
155109,-52.6315789473684,4,2,1,65,0,1
157795,-47.6190476190476,4,2,1,65,0,1
159363,-47.6190476190476,4,2,1,65,0,0
159474,-52.6315789473684,4,2,1,65,0,1
168765,-83.3333333333333,4,2,1,65,0,1
169101,-66.6666666666667,4,2,1,65,0,1
169437,-111.111111111111,4,2,1,65,0,1
169773,-66.6666666666667,4,2,1,65,0,1
172012,-52.6315789473684,4,2,1,65,0,1
173803,-55.5555555555556,4,2,1,65,0,0
183430,-71.4285714285714,4,2,1,65,0,0
183765,-100,4,2,1,65,0,0
184213,-55.5555555555556,4,2,1,65,0,0
188131,-47.6190476190476,4,2,1,65,0,0
188803,-41.6666666666667,4,2,1,65,0,0
197086,-133.333333333333,4,2,1,30,0,0
198877,-100,4,2,1,30,0,0
200668,-200,4,2,1,30,0,0
200892,-142.857142857143,4,2,1,30,0,0
201116,-111.111111111111,4,2,1,30,0,0
201340,-90.9090909090909,4,2,1,30,0,0
201564,-76.9230769230769,4,2,1,40,0,0
201788,-66.6666666666667,4,2,1,50,0,0
202012,-58.8235294117647,4,2,1,60,0,0
202236,-52.6315789473684,4,2,1,70,0,0
202460,-52.6315789473684,4,2,1,40,0,0
202683,-52.6315789473684,4,2,1,50,0,0
202907,-52.6315789473684,4,2,1,60,0,0
203131,-52.6315789473684,4,2,1,70,0,0
203579,-52.6315789473684,4,2,1,50,0,0
203915,-133.333333333333,4,2,1,30,0,0
204251,-47.6190476190476,4,2,1,65,0,1
210743,-40,4,2,1,65,0,1
211415,-47.6190476190476,4,2,1,65,0,1
213206,-38.4615384615385,4,2,1,65,0,1
213877,-41.6666666666667,4,2,1,65,0,1
214213,-47.6190476190476,4,2,1,65,0,1
216900,-43.4782608695652,4,2,1,65,0,1
218467,-43.4782608695652,4,2,1,65,0,0
218579,-47.6190476190476,4,2,1,65,0,1
225071,-43.4782608695652,4,2,1,65,0,1
225743,-47.6190476190476,4,2,1,65,0,1
227982,-71.4285714285714,4,2,1,65,0,1
228318,-58.8235294117647,4,2,1,65,0,1
228654,-90.9090909090909,4,2,1,65,0,1
229325,-58.8235294117647,4,2,1,65,0,1
231228,-47.6190476190476,4,2,1,65,0,1
232907,-58.8235294117647,4,2,1,65,0,1
235034,-47.6190476190476,4,2,1,65,0,1
236041,-47.6190476190476,4,2,1,50,0,0
238280,-47.6190476190476,4,2,1,60,0,1
238392,-47.6190476190476,4,2,1,60,0,0

[Colours]
Combo1 : 247,174,208
Combo2 : 162,213,247
Combo3 : 235,226,180
Combo4 : 159,164,240

[HitObjects]
220,298,1863,6,0,P|188:311|144:338,1,67.5000000000002,2|0,2:0|2:0,2:0:0:0:
32,249,2198,2,0,P|64:262|108:289,1,67.5000000000002,2|0,2:0|2:0,2:0:0:0:
292,352,2646,2,0,B|367:325|351:369|437:343,1,135,2|0,2:0|2:0,2:0:0:0:
509,177,3206,2,0,P|466:165|437:152,1,67.5000000000002,2|0,2:0|2:0,2:0:0:0:
461,13,3654,6,0,L|472:89,1,67.5000000000002,2|0,2:0|2:0,2:0:0:0:
385,215,3989,2,0,P|344:198|272:189,1,90,2|0,2:0|2:0,2:0:0:0:
134,170,4437,2,0,P|186:177|223:131,1,101.25,2|0,2:0|2:0,2:0:0:0:
153,71,4997,1,2,2:0:0:0:
60,56,5221,1,0,2:0:0:0:
182,210,5445,6,0,P|169:255|166:299,1,67.5000000000002,2|0,2:0|2:0,2:0:0:0:
89,352,5780,2,0,P|83:318|73:286,1,67.5000000000002,2|0,2:0|2:0,2:0:0:0:
267,224,6228,2,0,B|342:239|324:200|399:218,1,135,2|0,2:0|2:0,2:0:0:0:
471,72,6788,2,0,P|458:117|455:161,1,67.5000000000002,2|0,2:0|2:0,2:0:0:0:
365,312,7236,6,0,L|431:323,1,67.5000000000002,2|0,2:0|2:0,2:0:0:0:
296,356,7571,2,0,P|264:324|219:325,1,90,2|0,2:0|2:0,2:0:0:0:
41,317,8019,2,0,P|79:308|140:283,1,101.25,2|0,2:0|2:0,2:0:0:0:
65,202,8551,2,0,L|61:187,1,8.43750000000002,2|0,2:0|2:0,2:0:0:0:
142,118,8803,1,0,2:0:0:0:
111,12,9027,6,0,L|129:160,1,135,2|0,2:0|2:0,2:0:0:0:
324,94,9698,1,2,2:0:0:0:
286,91,9810,2,0,P|305:113|332:183,1,101.25,0|0,2:0|2:0,2:0:0:0:
278,329,10370,2,0,P|300:342|340:355,1,67.5000000000002,2|0,2:0|2:0,2:0:0:0:
474,173,10818,6,0,L|406:185,1,67.5000000000002,2|0,2:0|2:0,2:0:0:0:
219,269,11154,2,0,P|252:251|305:251,1,90,2|0,2:0|2:0,2:0:0:0:
172,346,11601,2,0,B|133:315|133:315|77:322,1,101.25,2|0,2:0|2:0,2:0:0:0:
278,329,12133,2,0,L|292:334,1,8.43750000000002,2|0,2:0|2:0,2:0:0:0:
397,261,12385,1,0,2:0:0:0:
434,337,12609,1,2,2:0:0:0:
256,192,12721,12,0,14288,2:0:0:0:
159,117,14400,6,0,L|149:61,1,54,0|0,2:0|2:0,2:0:0:0:
242,157,14624,2,0,B|221:217|221:217|240:251|240:251|219:328,1,180,2|0,2:0|2:0,2:0:0:0:
381,186,15071,2,0,P|346:197|316:212,1,54,2|0,2:0|2:0,2:0:0:0:
141,265,15295,2,0,L|28:250,1,108,2|0,2:0|3:0,2:0:0:0:
91,348,15575,1,0,3:0:0:0:
91,348,15631,5,0,3:0:0:0:
172,337,15743,1,0,3:0:0:0:
77,336,15855,1,0,3:0:0:0:
180,352,15967,2,0,L|241:342,1,54,0|0,3:0|2:0,2:0:0:0:
470,334,16191,6,0,P|396:338|356:302,1,118.125,4|0,1:0|2:0,2:0:0:0:
349,323,16415,1,0,2:0:0:0:
382,244,16527,1,0,2:0:0:0:
295,125,16639,2,0,L|308:217,1,78.7500000000001,10|0,2:0|2:0,2:0:0:0:
424,172,16863,1,0,2:0:0:0:
424,172,16974,1,8,2:0:0:0:
250,273,17086,6,0,B|183:267|183:267|171:253|171:253|99:245,1,157.5,2|0,2:0|1:0,2:0:0:0:
67,240,17422,1,0,2:0:0:0:
16,167,17534,2,0,P|54:162|89:146,1,67.5,10|0,2:0|1:0,2:0:0:0:
50,321,17758,2,0,P|88:326|123:342,1,67.5,0|8,2:0|2:0,2:0:0:0:
320,204,17982,5,2,1:2:0:0:
382,296,18094,2,0,L|229:269,1,135,8|0,2:0|1:0,2:0:0:0:
165,213,18374,1,0,2:0:0:0:
165,213,18430,2,0,P|203:206|247:187,1,78.7500000000001,10|0,2:0|1:0,2:0:0:0:
322,45,18654,1,0,2:0:0:0:
368,214,18765,1,8,2:0:0:0:
233,159,18877,5,2,2:0:0:0:
233,159,18989,2,0,B|251:138|251:138|243:72,1,90,8|0,2:0|1:0,2:0:0:0:
83,90,19213,1,0,2:0:0:0:
83,90,19269,1,0,2:0:0:0:
83,90,19325,2,0,L|99:0,1,90,10|0,2:0|1:0,2:0:0:0:
0,156,19549,1,0,2:0:0:0:
174,235,19661,1,8,2:0:0:0:
82,363,19773,6,0,L|67:238,1,118.125,4|0,1:0|2:0,2:0:0:0:
83,230,19997,1,0,2:0:0:0:
1,318,20109,1,0,1:0:0:0:
157,314,20221,2,0,P|194:328|230:347,1,78.7500000000001,10|0,2:0|1:0,2:0:0:0:
442,273,20445,1,0,2:0:0:0:
416,341,20557,1,8,2:0:0:0:
255,244,20668,6,0,P|317:199|391:218,1,157.5,2|0,2:0|1:0,2:0:0:0:
360,115,21004,1,0,2:0:0:0:
498,177,21116,2,0,P|452:165|428:155,1,67.5,10|0,2:0|1:0,2:0:0:0:
356,33,21340,2,0,P|310:45|286:55,1,67.5,0|8,2:0|2:0,2:0:0:0:
124,152,21564,5,2,1:2:0:0:
186,55,21676,2,0,B|221:86|221:86|204:191,1,135,8|0,2:0|1:0,2:0:0:0:
256,244,21956,1,0,2:0:0:0:
256,244,22012,2,0,P|238:292|234:329,1,67.5,10|0,2:0|1:0,2:0:0:0:
51,210,22236,1,0,2:0:0:0:
132,370,22348,1,8,2:0:0:0:
171,276,22460,5,2,2:0:0:0:
171,276,22571,1,8,2:0:0:0:
298,360,22683,2,0,L|385:349,1,67.5,4|0,1:2|2:0,2:0:0:0:
451,260,22907,5,8,2:0:0:0:
364,236,23019,1,8,2:0:0:0:
486,124,23131,5,8,2:0:0:0:
293,163,23243,1,8,2:0:0:0:
419,73,23355,6,0,P|368:33|300:41,1,118.125,4|0,1:0|2:0,2:0:0:0:
310,48,23579,1,0,2:0:0:0:
336,136,23691,1,0,1:0:0:0:
215,54,23803,2,0,L|199:151,1,78.7500000000001,10|0,2:0|1:0,2:0:0:0:
155,335,24027,1,0,2:0:0:0:
155,335,24139,1,8,2:0:0:0:
71,243,24251,6,0,B|135:231|135:231|151:237|151:237|224:222,1,157.5,2|0,2:0|1:0,2:0:0:0:
244,190,24586,1,0,2:0:0:0:
100,141,24698,2,0,P|70:133|30:119,1,67.5,10|0,2:0|1:0,2:0:0:0:
228,303,24922,2,0,P|259:291|292:283,1,67.5,0|8,2:0|2:0,2:0:0:0:
363,165,25146,5,2,1:2:0:0:
465,293,25258,2,0,P|407:293|353:228,1,135,8|0,2:0|1:0,2:0:0:0:
440,178,25538,1,0,2:0:0:0:
440,178,25594,2,0,L|446:94,1,67.5,10|0,2:0|1:0,2:0:0:0:
290,195,25818,1,0,2:0:0:0:
248,43,25930,1,8,2:0:0:0:
117,89,26042,5,2,2:0:0:0:
117,89,26154,2,0,B|160:84|160:84|203:109,1,90,8|0,2:0|1:0,2:0:0:0:
305,304,26377,1,0,2:0:0:0:
305,304,26433,1,0,2:0:0:0:
305,304,26489,2,0,L|202:323,1,90,10|0,2:0|1:0,2:0:0:0:
93,316,26713,1,0,2:0:0:0:
232,184,26825,1,8,2:0:0:0:
305,335,26937,6,0,L|171:313,1,118.125,4|0,1:0|2:0,2:0:0:0:
169,290,27161,1,0,2:0:0:0:
62,325,27273,1,0,1:0:0:0:
161,187,27385,2,0,B|196:207|196:207|234:199,1,78.7500000000001,10|0,2:0|1:0,2:0:0:0:
387,329,27609,1,0,2:0:0:0:
398,255,27721,1,8,2:0:0:0:
279,103,27833,6,0,P|257:175|299:239,1,157.5,2|0,2:0|1:0,2:0:0:0:
359,188,28168,1,0,2:0:0:0:
359,188,28224,1,0,2:0:0:0:
359,188,28280,2,0,L|446:172,1,78.7500000000001,8|8,2:0|1:2,2:0:0:0:
178,156,28504,1,8,1:3:0:0:
167,59,28616,1,8,1:3:0:0:
16,128,28728,6,0,B|-12:184|18:262|61:216|103:282|76:350,1,234,4|0,1:0|2:0,2:0:0:0:
300,358,29624,6,0,L|288:280,1,67.5000000000002,2|0,2:0|2:0,2:0:0:0:
353,237,29960,2,0,L|365:315,1,67.5000000000002,2|0,2:0|2:0,2:0:0:0:
435,318,30295,1,2,2:0:0:0:
435,318,30519,6,0,L|217:343,1,202.5,4|2,1:0|2:0,2:0:0:0:
164,384,30967,1,8,2:0:0:0:
416,181,31191,1,0,2:0:0:0:
416,181,31303,1,8,2:0:0:0:
258,137,31527,1,0,1:0:0:0:
258,137,31639,2,0,P|285:88|299:21,1,117,2|8,1:2|2:0,2:0:0:0:
201,63,31974,2,0,B|129:77|129:77|192:79,1,117,10|0,2:0|2:0,2:0:0:0:
378,96,32310,6,0,B|392:166|392:166|372:195|372:195|388:270,1,175.5,2|2,1:2|1:2,2:0:0:0:
344,332,32758,1,8,2:0:0:0:
462,289,32870,2,0,L|455:351,1,58.5,0|0,1:0|2:0,2:0:0:0:
273,284,33094,1,8,2:0:0:0:
157,360,33318,1,8,2:0:0:0:
157,360,33430,2,0,L|90:349,1,58.5,2|0,1:2|2:0,2:0:0:0:
199,244,33654,1,8,2:0:0:0:
199,244,33765,2,0,L|63:262,1,117,2|0,1:2|2:0,2:0:0:0:
0,57,34101,6,0,P|78:45|127:154,1,202.5,4|2,1:0|2:0,2:0:0:0:
64,184,34549,1,8,2:0:0:0:
64,184,34661,1,0,1:0:0:0:
200,66,34885,1,8,2:0:0:0:
200,66,34997,2,0,L|278:55,1,58.5,0|0,2:0|1:0,2:0:0:0:
451,113,35221,2,0,L|311:95,1,117,2|8,1:2|2:0,2:0:0:0:
178,205,35557,2,0,P|229:175|296:188,1,117,10|8,2:0|2:0,2:0:0:0:
478,322,35892,5,2,1:2:0:0:
478,322,36004,2,0,B|412:343|412:343|342:287,1,135,8|2,2:0|1:2,2:0:0:0:
415,249,36340,2,0,L|404:180,1,67.5,8|0,2:0|1:0,2:0:0:0:
300,350,36676,2,0,B|282:332|282:332|259:339|259:339|162:326,1,135,8|8,2:0|2:0,2:0:0:0:
101,200,37012,2,0,P|56:243|74:334,1,135,2|8,1:2|2:0,2:0:0:0:
285,245,37348,2,0,P|288:179|241:133,1,135,2|0,1:2|2:0,2:0:0:0:
39,120,37683,6,0,B|163:131|94:204|223:207,1,202.5,4|2,1:0|2:0,2:0:0:0:
285,172,38131,1,8,2:0:0:0:
414,18,38355,1,0,2:0:0:0:
414,18,38467,1,8,2:0:0:0:
474,153,38691,1,0,1:0:0:0:
474,153,38803,2,0,L|359:132,1,117,2|8,1:2|2:0,2:0:0:0:
298,278,39139,2,0,P|334:250|412:220,1,117,10|0,2:0|2:0,2:0:0:0:
423,323,39474,6,0,B|341:306|341:306|317:324|317:324|208:300,1,202.5,2|2,1:2|1:2,2:0:0:0:
160,351,39922,1,8,2:0:0:0:
119,255,40034,2,0,L|43:267,1,58.5,0|0,1:0|2:0,2:0:0:0:
185,202,40258,1,8,2:0:0:0:
98,49,40482,1,8,2:0:0:0:
98,49,40594,2,0,L|85:120,1,58.5,2|0,1:2|2:0,2:0:0:0:
248,81,40818,1,8,2:0:0:0:
248,81,40930,2,0,L|268:216,1,117,2|0,1:2|2:0,2:0:0:0:
416,301,41265,6,0,B|381:270|368:217|368:217|340:265|258:290,1,202.5,4|2,1:0|2:0,2:0:0:0:
342,355,41713,1,8,2:0:0:0:
342,355,41825,1,0,1:0:0:0:
196,294,41937,2,0,L|186:225,2,67.5,0|8|0,2:0|2:0|2:0,2:0:0:0:
386,226,42273,1,0,1:0:0:0:
386,226,42385,2,0,B|399:171|399:171|415:165|415:165|429:100,1,135,2|8,1:2|2:0,2:0:0:0:
287,71,42833,2,0,L|277:4,1,67.5,0|8,2:0|2:0,2:0:0:0:
491,67,43057,5,0,1:0:0:0:
491,67,43168,2,0,B|430:56|430:56|383:102,1,117,8|2,2:0|1:2,2:0:0:0:
216,118,43504,1,8,2:0:0:0:
216,118,43616,2,0,B|277:107|277:107|325:153,1,117,0|8,1:0|2:3,2:0:0:0:
390,193,43952,2,0,L|403:263,1,58.5,0|8,2:0|2:3,2:0:0:0:
368,238,44176,2,0,L|355:308,1,58.5,0|8,1:0|2:0,2:0:0:0:
405,348,44400,5,8,2:0:0:0:
280,348,44512,1,8,2:0:0:0:
254,278,44624,1,8,2:0:0:0:
157,314,44736,1,8,2:0:0:0:
89,353,44848,6,0,B|65:238|65:238|86:209|91:156,1,195.75,4|2,1:0|2:0,2:0:0:0:
29,106,45295,2,0,L|42:37,1,65.25,8|0,2:0|2:0,2:0:0:0:
196,91,45519,2,0,L|183:160,1,65.25,0|8,2:0|2:0,2:0:0:0:
197,174,45687,1,0,2:0:0:0:
197,174,45743,1,0,2:0:0:0:
295,211,45855,1,0,1:0:0:0:
398,126,45967,2,0,B|318:153|343:108|264:129,1,130.5,2|8,1:2|2:0,2:0:0:0:
86,259,46303,2,0,B|166:232|141:277|220:256,1,130.5,10|0,2:0|2:0,2:0:0:0:
288,339,46639,5,2,1:2:0:0:
288,339,46751,2,0,B|330:284|330:284|299:221,1,130.5,0|0,2:0|1:0,2:0:0:0:
398,126,47086,2,0,L|386:203,1,65.25,8|0,2:0|1:0,2:0:0:0:
121,353,47422,2,0,B|106:305|106:305|83:287|83:287|64:218,1,130.5,8|8,2:0|2:0,2:0:0:0:
172,17,47758,2,0,B|174:64|154:99|154:99|182:83|211:88,1,130.5,2|8,1:2|2:0,2:0:0:0:
196,287,48094,2,0,P|221:247|190:162,1,130.5,2|0,1:2|2:0,2:0:0:0:
61,105,48430,6,0,B|171:139|129:56|271:99,1,195.75,4|2,1:0|2:0,2:0:0:0:
393,53,48877,2,0,P|359:48|323:38,1,65.25,8|0,2:0|1:0,2:0:0:0:
455,247,49213,1,8,2:0:0:0:
455,247,49325,2,0,P|421:252|385:262,1,65.25,0|0,2:0|1:0,2:0:0:0:
200,170,49549,2,0,B|258:182|258:182|267:193|267:193|328:203,1,130.5,2|8,1:2|2:0,2:0:0:0:
424,353,49885,2,0,P|364:365|305:326,1,130.5,10|8,2:0|2:0,2:0:0:0:
120,330,50221,5,2,1:2:0:0:
57,260,50333,2,0,B|140:246|140:246|188:281,1,130.5,8|2,2:0|1:2,2:0:0:0:
90,180,50668,2,0,L|94:104,1,65.25,8|0,2:0|1:0,2:0:0:0:
366,31,51004,2,0,B|402:83|402:83|356:158,1,130.5,8|8,2:0|2:0,2:0:0:0:
197,79,51340,2,0,B|214:107|214:107|326:83,1,130.5,2|8,1:2|2:0,2:0:0:0:
476,228,51676,2,0,B|459:200|459:200|347:224,1,130.5,2|0,1:2|2:0,2:0:0:0:
376,304,51956,1,0,2:0:0:0:
376,304,52012,6,0,B|256:289|324:225|195:217,1,195.75,4|2,1:0|2:0,2:0:0:0:
174,308,52460,2,0,B|202:326|202:326|218:296,1,65.25,8|0,2:0|2:0,2:0:0:0:
0,348,52795,2,0,L|88:362,1,65.25,8|0,2:0|2:0,2:0:0:0:
96,279,53019,1,0,1:0:0:0:
19,245,53131,2,0,L|40:105,1,130.5,2|8,1:2|2:0,2:0:0:0:
150,12,53467,2,0,B|148:76|192:69|192:148,1,130.5,10|0,2:0|2:0,2:0:0:0:
112,162,53803,5,2,1:2:0:0:
219,61,53915,2,0,L|353:77,1,130.5,0|2,2:0|1:2,2:0:0:0:
484,61,54251,2,0,P|453:45|424:25,1,65.25,8|0,2:0|1:0,2:0:0:0:
474,207,54586,1,8,2:0:0:0:
474,207,54698,2,0,P|439:204|404:197,1,65.25,0|8,2:0|2:0,2:0:0:0:
425,360,54922,2,0,P|375:327|281:319,1,130.5,2|8,1:2|2:0,2:0:0:0:
145,232,55258,1,2,1:2:0:0:
217,296,55370,2,0,L|147:310,1,65.25,0|0,2:0|2:0,2:0:0:0:
0,195,55594,6,0,P|53:141|179:166,1,195.75,4|2,1:0|2:0,2:0:0:0:
236,100,56042,2,0,L|221:24,1,65.25,8|0,2:0|1:0,2:0:0:0:
382,127,56265,1,0,2:0:0:0:
397,139,56377,1,8,2:0:0:0:
412,151,56489,2,0,L|432:82,1,65.25,0|0,2:0|1:0,2:0:0:0:
296,192,56713,2,0,B|305:236|305:236|297:265,1,65.25,2|0,1:2|2:0,2:0:0:0:
464,364,56937,1,8,2:0:0:0:
449,284,57049,1,8,2:0:0:0:
354,338,57161,6,0,B|268:350|268:350|241:323|241:323|152:306,1,195.75,4|8,1:0|2:0,2:0:0:0:
143,50,57721,1,0,1:0:0:0:
27,75,57833,2,0,P|56:90|91:104,1,65.25,8|0,2:0|1:0,2:0:0:0:
23,251,58057,1,0,2:0:0:0:
85,203,58168,1,8,2:0:0:0:
157,231,58280,2,0,P|186:216|221:202,1,65.25,8|8,2:0|2:3,2:0:0:0:
417,261,58504,1,0,1:0:0:0:
320,262,58616,5,8,2:0:0:0:
320,262,58672,1,8,2:0:0:0:
320,262,58728,2,0,L|310:186,1,65.25,8|8,2:0|2:3,2:0:0:0:
373,9,58952,1,0,2:0:0:0:
389,174,59064,1,8,2:0:0:0:
496,104,59176,6,0,B|475:116|475:116|459:102|459:102|336:89,1,153,4|2,1:0|2:0,2:0:0:0:
171,153,59512,1,0,1:0:0:0:
74,60,59624,2,0,P|119:37|211:85,1,153,8|2,2:0|2:0,2:0:0:0:
241,205,59960,1,8,2:0:0:0:
238,235,60071,1,0,2:0:0:0:
168,290,60183,1,8,2:0:0:0:
168,290,60239,1,0,2:0:0:0:
168,290,60295,2,0,L|181:366,1,76.5,2|0,1:2|2:0,2:0:0:0:
351,207,60519,2,0,L|338:288,1,76.5,8|0,2:0|2:0,2:0:0:0:
90,319,60743,6,0,B|239:298|165:377|319:357,1,229.5,4|0,1:0|2:0,2:0:0:0:
396,339,61191,1,2,1:2:0:0:
486,141,61415,2,0,L|328:123,1,153,8|2,2:0|2:0,2:0:0:0:
197,99,61751,1,8,2:0:0:0:
197,99,61807,1,0,2:0:0:0:
197,99,61863,2,0,P|238:85|274:67,1,76.5,0|0,1:0|2:0,2:0:0:0:
340,214,62086,2,0,P|305:197|269:185,1,76.5,2|0,1:2|2:0,2:0:0:0:
194,316,62310,1,8,2:0:0:0:
68,141,62534,1,2,2:0:0:0:
52,216,62646,1,8,2:0:0:0:
36,291,62758,6,0,B|96:281|96:281|124:288|124:288|213:272,1,153,4|2,1:0|2:0,2:0:0:0:
366,251,63094,1,0,1:0:0:0:
419,344,63206,2,0,B|358:334|358:334|330:341|330:341|241:325,1,153,8|2,2:0|2:0,2:0:0:0:
239,208,63542,1,8,2:0:0:0:
231,178,63654,1,0,2:0:0:0:
326,155,63765,1,8,2:0:0:0:
326,155,63821,1,0,2:0:0:0:
326,155,63877,2,0,L|406:132,1,76.5,2|0,1:2|2:0,2:0:0:0:
163,110,64101,2,0,L|83:87,1,76.5,8|0,2:0|2:0,2:0:0:0:
332,38,64325,6,0,B|311:72|311:72|334:196,1,153,4|0,1:0|2:0,2:0:0:0:
469,276,64661,1,0,2:0:0:0:
456,359,64773,2,0,L|361:341,1,76.5,2|0,1:2|2:0,2:0:0:0:
390,237,64997,2,0,P|347:223|264:287,1,153,8|2,2:0|2:0,2:0:0:0:
174,290,65333,1,8,2:0:0:0:
174,290,65389,1,0,2:0:0:0:
174,290,65445,2,0,P|191:335|199:364,1,76.5,0|8,1:0|2:0,2:0:0:0:
110,174,65668,2,0,P|93:219|85:248,1,76.5,2|0,1:2|2:0,2:0:0:0:
197,157,65892,5,8,2:0:0:0:
171,85,66004,1,8,2:0:0:0:
109,69,66116,1,8,2:3:0:0:
74,85,66228,1,8,2:3:0:0:
62,99,66340,1,0,2:0:0:0:
308,231,69922,6,0,L|322:177,1,54,4|0,1:0|2:0,2:0:0:0:
256,121,70146,2,0,L|202:135,1,54,0|0,1:0|2:0,2:0:0:0:
187,222,70370,2,0,L|226:261,1,54,0|0,1:0|2:0,2:0:0:0:
383,224,70594,6,0,L|360:150,1,67.5,0|0,1:0|2:0,2:0:0:0:
220,66,70818,2,0,L|167:122,1,67.5,0|0,1:0|2:0,2:0:0:0:
164,285,71042,2,0,L|240:303,1,67.5,0|0,1:0|2:0,2:0:0:0:
443,170,71265,6,0,L|354:158,1,80.9999999999999,0|0,1:0|2:0,2:0:0:0:
54,208,71489,2,0,L|143:196,1,80.9999999999999,0|0,1:0|2:0,2:0:0:0:
311,352,71713,6,0,L|302:303,1,36,0|0,2:0|2:0,2:0:0:0:
230,300,71937,2,0,L|242:223,1,72,2|0,2:0|2:0,2:0:0:0:
337,247,72273,2,0,L|325:170,1,72,2|0,2:0|2:0,2:0:0:0:
184,148,72609,2,0,L|196:71,1,72,2|0,2:0|2:0,2:0:0:0:
326,176,73057,6,0,L|318:244,1,67.5000000000002,0|0,2:0|2:0,2:0:0:0:
318,243,73504,6,0,B|394:237|367:207|447:207,1,128.25,4|0,1:0|2:0,2:0:0:0:
451,222,73728,1,0,2:0:0:0:
319,149,73840,2,0,P|262:160|219:180,1,85.5,0|8,1:0|2:0,2:0:0:0:
352,326,74064,2,0,B|277:344|277:344|273:359|273:359|172:379,1,171,0|0,2:0|1:0,2:0:0:0:
57,334,74344,1,0,2:0:0:0:
57,334,74400,6,0,P|96:318|139:315,1,85.5,0|8,2:0|2:0,2:0:0:0:
318,243,74624,2,0,B|369:236|413:260|413:260|395:245|392:225,1,128.25,0|0,1:0|2:0,2:0:0:0:
406,211,74848,1,8,2:0:0:0:
429,339,74960,1,0,1:0:0:0:
283,313,75071,1,0,2:0:0:0:
277,345,75183,1,8,2:0:0:0:
161,291,75295,5,4,1:2:0:0:
244,243,75407,2,0,L|219:54,1,171,8|0,2:0|1:0,2:0:0:0:
386,13,75743,2,0,B|437:7|481:55|481:55|445:45|405:65,1,171,8|0,2:0|2:0,2:0:0:0:
285,118,76023,1,0,2:0:0:0:
285,118,76079,6,0,L|295:10,1,85.5,0|0,1:0|2:0,2:0:0:0:
159,113,76303,1,8,2:0:0:0:
297,191,76415,2,0,P|268:228|151:226,1,171,0|8,1:0|2:0,2:0:0:0:
0,210,76751,2,0,B|75:196|75:196|92:202|92:202|177:183,1,171,0|8,1:0|2:0,2:0:0:0:
406,289,77086,6,0,B|341:284|341:284|306:283|282:313,1,128.25,4|0,1:0|2:0,2:0:0:0:
297,329,77310,1,0,2:0:0:0:
216,258,77422,2,0,P|179:267|120:292,1,85.5,0|8,1:0|2:0,2:0:0:0:
396,358,77646,2,0,B|374:251|374:251|406:196,1,171,8|0,2:0|1:0,2:0:0:0:
486,89,77926,1,0,2:0:0:0:
486,89,77982,6,0,B|496:131|496:131|471:175,1,85.5,0|8,2:0|2:0,2:0:0:0:
307,78,78206,2,0,B|329:41|329:41|378:27,1,85.5,0|0,1:0|2:0,2:0:0:0:
467,246,78430,1,8,2:0:0:0:
378,116,78542,2,0,L|189:139,1,171,0|8,1:0|2:0,2:0:0:0:
62,178,78877,5,4,1:2:0:0:
142,88,78989,2,0,P|102:133|133:252,1,171,8|0,2:0|1:0,2:0:0:0:
312,222,79325,2,0,B|417:240|417:240|337:238,1,171,8|0,2:0|2:0,2:0:0:0:
182,368,79661,2,0,B|207:334|207:334|196:254|196:254|227:193,1,171,4|8,1:2|2:0,2:0:0:0:
348,23,79997,1,4,1:2:0:0:
383,153,80109,5,0,2:0:0:0:
383,153,80165,1,0,1:0:0:0:
383,153,80221,1,8,2:0:0:0:
293,123,80333,1,8,2:0:0:0:
462,34,80445,5,0,2:0:0:0:
479,118,80557,1,8,2:0:0:0:
397,257,80668,6,0,B|324:247|324:247|301:258|301:258|217:245,1,171,4|0,1:0|2:0,2:0:0:0:
81,333,81004,2,0,P|119:327|169:304,1,85.5,0|8,1:0|2:0,2:0:0:0:
280,170,81228,2,0,L|263:35,1,128.25,0|0,2:0|2:0,2:0:0:0:
136,72,81452,6,0,B|235:49|213:98|312:73,1,171,0|8,1:0|2:0,2:0:0:0:
479,118,81788,2,0,B|444:90|444:90|382:97,1,85.5,0|0,1:0|2:0,2:0:0:0:
317,286,82012,1,8,2:0:0:0:
421,177,82124,2,0,L|430:269,2,85.5,0|0|8,1:0|2:0|2:0,2:0:0:0:
237,350,82460,6,0,B|159:302|150:368|65:325,1,162,4|0,1:0|2:0,2:0:0:0:
56,320,82683,1,8,2:0:0:0:
121,137,82795,2,0,B|137:73|137:73|185:82|216:136|216:136|204:185,1,216,4|8,1:2|2:0,2:0:0:0:
130,228,83075,1,0,1:0:0:0:
130,228,83131,6,0,B|85:213|79:232|32:230,2,98.9999999999999,4|0|8,1:0|2:0|2:0,2:0:0:0:
255,327,83467,2,0,B|284:302|284:302|312:311|312:311|424:287,1,171,4|8,1:2|2:0,2:0:0:0:
476,109,83803,5,0,1:0:0:0:
497,266,83915,1,8,2:3:0:0:
382,140,84027,5,8,2:3:0:0:
362,217,84139,1,8,2:3:0:0:
298,158,84251,6,0,B|251:145|251:145|217:81|217:81|165:68,1,171,4|0,1:0|2:0,2:0:0:0:
49,167,84586,1,0,1:0:0:0:
159,152,84698,2,0,L|65:136,1,85.5,8|0,2:0|2:0,2:0:0:0:
13,261,84922,1,0,2:0:0:0:
13,261,85034,6,0,B|71:236|119:234|119:234|159:298,1,171,0|8,1:0|2:0,2:0:0:0:
294,247,85370,2,0,P|248:237|202:218,1,85.5,0|0,1:0|2:0,2:0:0:0:
169,366,85594,1,8,2:0:0:0:
346,301,85706,2,0,L|321:107,1,171,0|8,1:0|2:0,2:0:0:0:
412,90,85986,1,0,2:0:0:0:
412,90,86042,5,4,1:0:0:0:
512,240,86154,2,0,B|466:249|434:286|434:286|415:237|376:208,1,189,8|0,2:0|1:0,2:0:0:0:
226,120,86489,2,0,L|329:106,1,94.5,8|0,2:0|2:0,2:0:0:0:
456,170,86713,1,12,2:0:0:0:
370,237,86825,2,0,P|325:218|270:209,1,94.5,0|0,1:0|2:0,2:0:0:0:
45,252,87049,5,8,2:0:0:0:
114,326,87161,2,0,B|140:293|140:293|104:185,1,141.75,4|0,1:2|2:0,2:0:0:0:
84,184,87385,5,8,2:0:0:0:
173,141,87497,1,4,1:0:0:0:
306,293,87609,5,0,2:0:0:0:
174,261,87721,1,8,2:0:0:0:
208,64,87833,6,0,B|285:68|255:108|330:108,1,128.25,4|0,1:0|2:0,2:0:0:0:
341,93,88057,2,0,L|366:8,1,85.5,0|0,2:0|1:0,2:0:0:0:
483,134,88280,2,0,L|469:182,1,42.75,12|0,2:0|2:0,2:0:0:0:
428,293,88392,2,0,B|419:244|419:244|385:205|385:205|405:139,1,171,0|0,2:0|1:0,2:0:0:0:
348,287,88672,1,0,1:0:0:0:
348,287,88728,6,0,P|300:313|325:361,1,85.5,0|8,2:0|2:0,2:0:0:0:
212,149,88952,2,0,L|224:251,1,85.5,0|0,1:0|2:0,2:0:0:0:
177,374,89176,1,8,2:0:0:0:
80,222,89288,2,0,P|150:223|201:306,1,171,0|8,1:0|2:0,2:0:0:0:
102,303,89624,6,0,L|3:287,1,85.5,4|8,1:2|2:0,2:0:0:0:
129,132,89848,2,0,L|30:148,1,85.5,2|0,2:0|1:0,2:0:0:0:
172,227,90071,2,0,B|242:215|242:215|275:227|275:227|340:216,1,171,8|2,2:0|2:0,2:0:0:0:
492,269,90407,2,0,B|428:343|428:343|420:300|397:249,1,171,0|8,1:0|2:0,2:0:0:0:
404,157,90687,1,0,2:0:0:0:
404,157,90743,2,0,L|389:63,1,85.5,2|0,1:2|2:0,2:0:0:0:
496,31,90967,5,8,2:0:0:0:
365,135,91079,2,0,P|347:181|337:226,1,85.5,0|2,1:0|2:0,2:0:0:0:
449,369,91303,1,8,2:0:0:0:
498,281,91415,6,0,B|413:305|413:305|369:286,1,128.25,4|0,1:0|2:0,2:0:0:0:
362,310,91639,1,2,2:0:0:0:
266,193,91751,2,0,P|229:181|167:176,1,85.5,0|8,1:0|2:0,2:0:0:0:
132,345,91974,2,0,P|169:357|231:362,1,85.5,8|2,2:0|2:0,2:0:0:0:
278,271,92198,5,0,1:0:0:0:
289,346,92310,1,0,2:0:0:0:
258,260,92422,1,8,2:0:0:0:
338,220,92534,2,0,B|312:184|312:184|329:46,1,171,2|8,1:2|2:0,2:0:0:0:
466,113,92870,2,0,L|284:88,1,171,0|8,1:0|2:0,2:0:0:0:
244,34,93150,1,0,2:0:0:0:
244,34,93206,5,4,1:2:0:0:
134,131,93318,2,0,B|224:93|207:148|308:104,1,171,8|0,2:0|1:0,2:0:0:0:
189,207,93654,2,0,P|155:167|26:175,1,171,8|8,2:0|2:0,2:0:0:0:
128,272,93989,2,0,L|142:362,1,85.5,4|0,1:2|2:0,2:0:0:0:
43,252,94213,1,8,2:0:0:0:
226,337,94325,2,0,B|266:318|266:318|289:335|289:335|373:320,1,128.25,4|0,1:2|2:0,2:0:0:0:
352,301,94549,5,8,2:0:0:0:
435,328,94661,1,8,2:0:0:0:
503,205,94773,5,0,2:0:0:0:
412,228,94885,1,8,2:0:0:0:
306,82,94997,6,0,P|345:68|436:159,1,171,4|2,1:0|2:0,2:0:0:0:
352,301,95333,2,0,P|312:283|268:273,1,85.5,0|8,1:0|2:0,2:0:0:0:
47,297,95557,2,0,P|103:289|166:236,1,128.25,0|0,2:0|2:0,2:0:0:0:
269,196,95780,6,0,B|181:162|191:225|96:197,1,171,0|8,1:0|2:0,2:0:0:0:
43,150,96116,2,0,L|30:52,1,85.5,2|0,1:2|2:0,2:0:0:0:
297,111,96340,1,8,2:0:0:0:
183,177,96452,2,0,L|209:354,1,171,0|8,1:0|2:0,2:0:0:0:
485,216,96788,5,4,1:0:0:0:
397,234,96900,2,0,P|372:269|356:316,1,85.5,0|8,2:0|2:0,2:0:0:0:
475,123,97124,1,4,1:2:0:0:
384,141,97236,2,0,P|356:152|316:173,1,54,0|8,2:0|2:0,2:0:0:0:
158,37,97460,5,4,1:0:0:0:
240,47,97571,2,0,P|274:75|301:110,1,67.5,0|8,2:0|2:0,2:0:0:0:
144,126,97795,1,4,1:2:0:0:
229,145,97907,2,0,P|234:172|236:191,1,40.5,0|8,2:0|2:0,2:0:0:0:
172,341,98131,6,0,P|170:306|159:253,1,67.5,0|8,1:0|2:3,2:0:0:0:
80,327,98355,2,0,P|76:290|67:239,1,67.5,8|8,2:3|2:3,2:0:0:0:
259,306,98579,6,0,B|327:339|317:292|397:324,1,135,4|0,1:0|2:0,2:0:0:0:
465,303,98915,1,0,1:0:0:0:
510,156,99027,2,0,P|474:149|403:233,1,135,8|0,2:0|2:0,2:0:0:0:
491,296,99363,2,0,L|480:226,1,67.5,0|0,1:0|2:0,2:0:0:0:
388,47,99586,2,0,L|377:117,1,67.5,8|0,2:0|1:0,2:0:0:0:
202,357,99922,5,8,2:0:0:0:
202,357,100034,2,0,B|155:347|155:347|131:301|131:301|91:291,1,135,0|8,1:0|2:0,2:0:0:0:
38,205,100314,1,8,2:0:0:0:
38,205,100370,6,0,L|24:299,1,85.5,4|8,1:0|2:0,2:0:0:0:
206,263,100594,1,8,2:0:0:0:
163,90,100706,1,0,1:0:0:0:
163,90,100818,1,8,2:0:0:0:
119,211,100930,1,8,2:0:0:0:
307,234,101042,6,0,L|289:334,1,85.5,0|8,1:0|2:0,2:0:0:0:
321,344,101210,1,0,2:0:0:0:
321,344,101265,1,8,2:0:0:0:
462,263,101377,2,0,B|398:235|398:235|429:38,1,256.5,4|0,1:0|2:0,2:0:0:0:
427,50,102161,5,4,1:0:0:0:
307,234,102385,2,0,P|293:196|287:158,1,78.7500000000001,0|0,2:0|2:0,2:0:0:0:
355,102,102609,1,10,2:0:0:0:
393,251,102721,2,0,B|314:237|333:304|235:293,1,157.5,0|8,2:0|2:0,2:0:0:0:
76,336,103057,5,2,2:0:0:0:
76,336,103168,1,0,2:0:0:0:
154,283,103280,2,0,L|176:375,1,78.7500000000001,0|0,1:0|2:0,2:0:0:0:
25,253,103504,1,10,2:0:0:0:
165,289,103616,2,0,L|181:120,1,157.5,0|8,1:0|2:0,2:0:0:0:
114,22,103952,5,6,1:2:0:0:
84,138,104064,2,0,B|122:114|122:114|236:128,1,135,8|0,2:0|1:0,2:0:0:0:
429,65,104400,1,10,2:0:0:0:
341,104,104512,2,0,P|305:93|271:71,1,67.5,0|0,1:0|2:0,2:0:0:0:
474,159,104736,1,8,2:0:0:0:
474,159,104792,1,0,2:0:0:0:
474,159,104848,6,0,P|463:199|450:230,1,67.5,2|8,2:0|2:0,2:0:0:0:
348,362,105071,2,0,B|379:338|379:338|359:190,1,180,0|10,1:0|2:0,2:0:0:0:
466,347,105407,2,0,B|359:343|412:286|297:286,1,180,0|8,1:0|2:0,2:0:0:0:
139,358,105743,6,0,P|100:323|121:239,1,118.125,4|0,1:0|2:0,2:0:0:0:
124,241,105967,1,0,2:0:0:0:
38,210,106079,1,0,1:0:0:0:
138,161,106191,2,0,L|121:61,1,78.7500000000001,10|0,2:0|1:0,2:0:0:0:
278,69,106415,1,0,2:0:0:0:
330,126,106527,1,8,2:0:0:0:
398,87,106639,6,0,P|416:127|428:166,1,78.7500000000001,2|0,2:0|2:0,2:0:0:0:
252,88,106863,2,0,B|240:152|240:152|250:172|250:172|236:250,1,157.5,0|10,1:0|2:0,2:0:0:0:
377,355,107198,1,0,1:0:0:0:
362,249,107310,1,0,2:0:0:0:
431,306,107422,1,8,2:0:0:0:
302,362,107534,5,6,1:2:0:0:
302,362,107646,2,0,B|235:351|235:351|218:330|218:330|121:334,1,157.5,8|0,2:0|1:0,2:0:0:0:
81,365,107982,2,0,P|60:329|61:274,1,78.7500000000001,10|0,2:0|1:0,2:0:0:0:
182,155,108206,2,0,P|203:191|202:246,1,78.7500000000001,0|8,2:0|2:0,2:0:0:0:
128,246,108430,5,2,2:0:0:0:
95,108,108542,1,8,2:0:0:0:
282,190,108654,2,0,L|409:174,1,118.125,4|0,1:2|2:0,2:0:0:0:
421,149,108877,5,8,2:0:0:0:
402,247,108989,1,8,2:0:0:0:
275,116,109101,5,8,2:0:0:0:
310,286,109213,1,8,2:0:0:0:
211,160,109325,6,0,B|158:148|158:148|148:137|148:137|85:123,1,118.125,4|0,1:0|2:0,2:0:0:0:
78,142,109549,2,0,L|93:227,1,78.7500000000001,0|0,2:0|1:0,2:0:0:0:
15,278,109773,1,10,2:0:0:0:
167,370,109885,2,0,P|206:334|184:236,1,157.5,0|8,1:0|2:0,2:0:0:0:
64,60,110221,5,2,2:0:0:0:
64,60,110333,1,0,2:0:0:0:
179,109,110445,2,0,L|164:21,1,78.7500000000001,0|0,1:0|2:0,2:0:0:0:
323,91,110668,1,10,2:0:0:0:
257,144,110780,2,0,B|245:185|245:185|259:193|259:193|276:313,1,157.5,0|8,1:0|2:0,2:0:0:0:
438,267,111116,5,2,1:2:0:0:
313,362,111228,2,0,B|347:331|347:331|360:221,1,135,8|0,2:0|1:0,2:0:0:0:
464,49,111564,2,0,L|477:116,1,67.5,10|0,2:0|1:0,2:0:0:0:
416,185,111788,1,0,2:0:0:0:
382,71,111900,1,8,2:0:0:0:
382,71,111956,1,0,2:0:0:0:
382,71,112012,6,0,P|342:54|310:47,1,67.5,2|8,2:0|2:0,2:0:0:0:
74,192,112236,2,0,B|189:168|125:138|237:112,1,180,0|10,1:0|2:0,2:0:0:0:
357,242,112571,2,0,B|316:265|287:300|287:300|252:273|243:220,1,180,0|8,1:0|2:0,2:0:0:0:
32,298,112907,6,0,B|131:315|131:315|126:355,1,118.125,4|0,1:0|2:0,2:0:0:0:
136,353,113131,1,0,2:0:0:0:
227,301,113243,1,0,1:0:0:0:
132,234,113355,2,0,P|121:200|115:148,1,78.7500000000001,10|0,2:0|1:0,2:0:0:0:
272,121,113579,1,0,2:0:0:0:
251,49,113691,1,8,2:0:0:0:
314,10,113803,6,0,P|350:35|395:45,1,78.7500000000001,2|0,2:0|2:0,2:0:0:0:
377,229,114027,1,0,1:0:0:0:
501,131,114139,1,0,1:0:0:0:
501,131,114195,1,0,1:0:0:0:
501,131,114251,2,0,L|410:146,1,78.7500000000001,8|8,2:0|1:2,2:0:0:0:
302,277,114474,1,8,1:3:0:0:
463,316,114586,1,8,1:3:0:0:
323,296,114698,6,0,B|243:320|243:320|229:351|229:351|132:374,1,198,4|0,1:0|2:0,2:0:0:0:
35,184,116489,6,0,L|125:199,1,90,0|2,1:0|2:0,2:0:0:0:
137,216,116825,1,2,2:0:0:0:
150,234,116937,1,0,1:0:0:0:
323,72,117161,1,2,2:0:0:0:
282,54,117273,1,2,2:0:0:0:
237,54,117385,1,0,1:0:0:0:
197,74,117497,1,2,2:0:0:0:
169,109,117609,1,0,2:0:0:0:
244,133,117721,2,0,L|258:235,1,90,2|2,2:0|2:0,2:0:0:0:
236,211,118057,2,0,L|222:313,1,90,2|0,2:0|1:0,2:0:0:0:
413,309,118504,6,0,L|424:358,1,45,2|2,2:0|2:0,2:0:0:0:
338,319,118728,2,0,L|352:217,1,90,0|2,1:0|2:0,2:0:0:0:
384,32,119176,1,0,1:0:0:0:
392,76,119288,1,2,2:0:0:0:
400,120,119400,1,0,2:0:0:0:
408,164,119512,2,0,L|306:147,1,90,2|2,2:0|2:0,2:0:0:0:
253,191,119848,2,0,L|260:242,1,45,2|0,2:0|2:0,2:0:0:0:
82,355,120071,6,0,P|60:323|57:270,1,90,0|2,1:0|2:0,2:0:0:0:
78,267,120407,1,2,2:0:0:0:
99,261,120519,1,0,1:0:0:0:
183,166,120743,1,2,2:0:0:0:
155,131,120855,1,2,2:0:0:0:
115,111,120967,1,0,1:0:0:0:
70,110,121079,1,2,2:0:0:0:
29,128,121191,1,0,2:0:0:0:
64,193,121303,1,2,2:0:0:0:
222,86,121527,1,2,2:0:0:0:
222,86,121639,2,0,L|278:76,1,45,2|0,2:0|2:0,2:0:0:0:
428,52,121863,6,0,B|393:25|393:25|347:33,1,90,0|2,1:0|2:0,2:0:0:0:
374,118,122198,1,2,2:0:0:0:
374,118,122310,2,0,L|386:214,1,90,0|2,1:0|2:0,2:0:0:0:
440,361,122758,2,0,L|448:310,1,45,0|2,1:0|2:0,2:0:0:0:
308,194,123094,1,2,2:0:0:0:
278,227,123206,1,0,1:0:0:0:
236,241,123318,1,2,2:0:0:0:
192,233,123430,1,2,2:0:0:0:
158,205,123542,1,2,2:0:0:0:
205,149,123654,6,0,L|193:53,1,90,0|2,1:0|2:0,2:0:0:0:
175,47,123989,1,2,2:0:0:0:
156,34,124101,1,0,1:0:0:0:
81,183,124325,1,2,2:0:0:0:
48,213,124437,1,2,2:0:0:0:
34,255,124549,1,0,1:0:0:0:
42,299,124661,1,2,2:0:0:0:
70,333,124773,1,0,2:0:0:0:
121,286,124885,2,0,P|161:298|211:326,1,90,2|2,2:0|2:0,2:0:0:0:
224,285,125221,2,0,P|243:279|268:265,1,45,2|0,2:0|2:0,2:0:0:0:
416,286,125445,5,0,1:0:0:0:
416,286,125557,1,0,2:0:0:0:
416,286,125668,1,2,2:0:0:0:
342,319,125780,2,0,L|332:224,1,90,2|0,2:0|2:0,2:0:0:0:
476,176,126116,2,0,L|483:128,1,45,2|2,2:0|2:0,2:0:0:0:
264,149,126340,5,0,1:0:0:0:
264,149,126452,2,0,L|254:99,1,45,2|0,2:0|2:0,2:0:0:0:
386,41,126676,2,0,L|296:31,1,90,2|2,2:0|2:0,2:0:0:0:
178,140,127012,2,0,L|125:125,1,45,2|0,2:0|2:0,2:0:0:0:
40,67,127236,6,0,P|69:93|82:198,1,135,0|2,1:0|2:0,2:0:0:0:
26,227,127683,2,0,L|15:285,1,45,0|0,1:0|2:0,2:0:0:0:
174,264,127907,1,2,2:0:0:0:
149,288,128019,1,2,2:0:0:0:
124,312,128131,2,0,L|131:359,1,45,0|2,1:0|2:0,2:0:0:0:
280,225,128355,2,0,L|273:272,1,45,2|0,2:0|2:0,2:0:0:0:
381,359,128579,1,0,1:0:0:0:
255,287,128803,1,2,2:0:0:0:
473,267,129027,6,0,B|466:241|466:241|479:226|479:226|490:137,1,117,4|0,1:0|1:0,2:0:0:0:
325,49,129474,2,0,L|333:110,1,58.5,0|0,1:0|2:0,2:0:0:0:
409,103,129698,2,0,L|401:42,1,58.5,0|0,1:0|2:0,2:0:0:0:
300,203,129922,2,0,L|290:276,1,72,0|0,1:0|2:0,2:0:0:0:
130,255,130146,5,8,2:3:0:0:
147,226,130221,5,8,2:3:0:0:
180,214,130295,5,8,2:3:0:0:
215,220,130370,6,0,L|198:315,1,72,0|0,1:0|2:0,2:0:0:0:
428,369,130818,6,0,B|411:318|411:318|389:312|389:312|369:237,1,144,4|2,1:0|2:0,2:0:0:0:
477,129,131154,1,0,1:0:0:0:
422,36,131265,2,0,P|391:71|411:170,1,144,8|2,2:0|2:0,2:0:0:0:
296,194,131601,1,8,2:0:0:0:
268,186,131713,1,0,2:0:0:0:
235,262,131825,1,8,2:0:0:0:
235,262,131881,1,0,2:0:0:0:
235,262,131937,2,0,L|158:280,1,72,2|0,1:2|2:0,2:0:0:0:
196,108,132161,2,0,L|119:90,1,72,8|0,2:0|2:0,2:0:0:0:
0,276,132385,6,0,B|129:266|44:187|196:184,1,216,4|0,1:0|2:0,2:0:0:0:
229,113,132833,1,2,1:2:0:0:
361,238,133057,2,0,B|286:219|286:219|267:242|217:277,1,144,8|2,2:0|2:0,2:0:0:0:
151,287,133392,1,8,2:0:0:0:
151,287,133448,1,0,2:0:0:0:
151,287,133504,2,0,P|170:330|180:369,1,72,0|0,2:0|2:0,2:0:0:0:
310,309,133728,1,2,1:2:0:0:
330,150,133952,2,0,L|317:72,1,72,8|0,2:0|2:0,2:0:0:0:
497,113,134176,1,2,2:0:0:0:
417,130,134288,1,8,2:0:0:0:
472,198,134400,6,0,L|463:356,1,144,4|2,1:0|2:0,2:0:0:0:
289,286,134736,1,0,1:0:0:0:
338,225,134848,2,0,P|366:258|358:357,1,144,8|2,2:0|2:0,2:0:0:0:
208,316,135183,1,8,2:0:0:0:
178,310,135295,1,0,2:0:0:0:
106,361,135407,1,8,2:0:0:0:
106,361,135463,1,0,2:0:0:0:
106,361,135519,2,0,L|86:274,1,72,2|0,1:2|2:0,2:0:0:0:
174,127,135743,2,0,L|154:214,1,72,8|0,2:0|2:0,2:0:0:0:
23,110,135967,6,0,P|61:48|205:56,1,216,4|0,1:0|2:0,2:0:0:0:
254,105,136415,1,2,1:2:0:0:
466,270,136639,2,0,B|485:260|485:260|348:230,1,144,8|2,2:0|2:0,2:0:0:0:
310,367,136974,1,8,2:0:0:0:
310,367,137030,1,0,2:0:0:0:
310,367,137086,2,0,L|295:282,1,72,0|8,2:0|2:0,2:0:0:0:
327,69,137310,2,0,P|359:84|395:129,1,72,2|0,1:2|2:0,2:0:0:0:
370,241,137534,5,8,2:0:0:0:
306,208,137646,1,8,2:0:0:0:
252,219,137758,1,8,2:3:0:0:
231,243,137870,1,8,2:3:0:0:
230,260,137982,1,0,2:0:0:0:
40,127,141564,6,0,L|92:114,1,54,4|0,1:0|2:0,2:0:0:0:
92,200,141788,2,0,L|142:218,1,54,0|0,1:0|2:0,2:0:0:0:
94,289,142012,2,0,L|125:332,1,54,0|0,1:0|2:0,2:0:0:0:
152,70,142236,6,0,L|224:51,1,67.5,0|0,1:0|2:0,2:0:0:0:
213,190,142460,2,0,L|278:213,1,67.5,0|0,1:0|2:0,2:0:0:0:
196,323,142683,2,0,L|236:379,1,67.5,0|0,1:0|2:0,2:0:0:0:
320,80,142907,6,0,L|330:-7,1,80.9999999999999,0|0,1:0|2:0,2:0:0:0:
409,303,143131,2,0,L|419:390,1,80.9999999999999,0|0,1:0|2:0,2:0:0:0:
461,142,143355,6,0,L|412:151,1,36,0|0,2:0|2:0,2:0:0:0:
414,223,143579,2,0,L|337:211,1,72,2|0,2:0|2:0,2:0:0:0:
353,114,143915,2,0,L|276:126,1,72,2|0,2:0|2:0,2:0:0:0:
254,274,144251,2,0,L|177:262,1,72,2|0,2:0|2:0,2:0:0:0:
47,201,144698,6,0,L|113:190,1,67.5000000000002,0|0,2:0|2:0,2:0:0:0:
114,190,145146,6,0,B|83:273|143:254|109:349,1,128.25,4|0,1:0|2:0,2:0:0:0:
101,332,145370,1,0,2:0:0:0:
203,208,145482,2,0,P|195:161|177:123,1,85.5,0|8,1:0|2:0,2:0:0:0:
418,80,145706,2,0,P|368:57|270:124,1,171,0|0,2:0|1:0,2:0:0:0:
348,181,145986,1,0,2:0:0:0:
348,181,146042,2,0,L|439:167,1,85.5,0|8,2:0|2:0,2:0:0:0:
413,344,146265,6,0,B|370:320|332:312|332:312|291:335,1,128.25,0|0,1:0|2:0,2:0:0:0:
291,360,146489,1,8,2:0:0:0:
236,244,146601,1,0,1:0:0:0:
165,311,146713,1,0,2:0:0:0:
140,323,146825,1,8,2:0:0:0:
0,185,146937,5,4,1:2:0:0:
81,243,147049,2,0,L|259:209,1,171,8|0,2:0|1:0,2:0:0:0:
404,257,147385,2,0,B|495:278|495:278|490:315|490:315|426:303,1,171,8|0,2:0|2:0,2:0:0:0:
283,230,147721,2,0,P|267:178|266:131,1,85.5,0|0,1:0|2:0,2:0:0:0:
439,80,147945,5,8,2:0:0:0:
349,171,148057,2,0,L|364:70,1,85.5,0|0,1:0|2:0,2:0:0:0:
295,38,148280,1,8,2:0:0:0:
474,185,148392,2,0,B|415:209|415:209|406:231|406:231|310:264,1,171,0|8,1:0|2:0,2:0:0:0:
89,258,148728,6,0,P|142:263|198:336,1,128.25,4|0,1:0|2:0,2:0:0:0:
184,335,148952,1,0,2:0:0:0:
247,225,149064,2,0,L|236:130,1,85.5,0|8,1:0|2:0,2:0:0:0:
33,190,149288,2,0,B|92:180|103:125|103:125|114:42,1,171,8|0,2:0|1:0,2:0:0:0:
29,34,149624,5,0,2:0:0:0:
167,162,149736,1,8,2:0:0:0:
234,98,149848,2,0,L|411:74,1,171,0|8,1:0|2:0,2:0:0:0:
512,145,150183,2,0,B|466:138|466:138|434:170|434:170|355:162,1,171,0|8,1:0|2:0,2:0:0:0:
456,321,150519,5,4,1:2:0:0:
486,237,150631,1,8,2:0:0:0:
476,342,150743,2,0,L|382:354,1,85.5,0|0,2:0|1:0,2:0:0:0:
308,288,150967,2,0,P|248:280|168:355,1,171,8|0,2:0|2:0,2:0:0:0:
91,314,151247,1,0,1:0:0:0:
91,314,151303,2,0,L|68:211,1,85.5,4|0,1:2|2:0,2:0:0:0:
245,108,151527,1,8,2:0:0:0:
162,89,151639,2,0,L|139:192,1,85.5,4|0,1:2|2:0,2:0:0:0:
51,150,151863,5,8,2:0:0:0:
229,193,151974,1,8,2:0:0:0:
138,306,152086,5,0,2:0:0:0:
241,281,152198,1,8,2:0:0:0:
326,361,152310,6,0,L|358:175,1,171,4|0,1:0|2:0,2:0:0:0:
448,34,152646,2,0,B|494:55|494:55|442:64,1,85.5,0|8,1:0|2:0,2:0:0:0:
311,111,152870,2,0,B|217:97|217:97|177:118,1,128.25,0|0,2:0|2:0,2:0:0:0:
182,5,153094,6,0,B|229:89|153:80|208:192,1,171,0|8,1:0|2:0,2:0:0:0:
25,212,153430,2,0,B|53:197|53:197|33:334,1,171,0|8,1:0|2:0,2:0:0:0:
237,330,153765,1,0,1:0:0:0:
114,272,153877,2,0,B|146:253|146:253|213:256,1,85.5,0|8,2:0|2:0,2:0:0:0:
330,334,154101,6,0,B|419:319|377:278|482:249,1,162,4|0,1:0|2:0,2:0:0:0:
487,278,154325,1,8,2:0:0:0:
255,157,154437,2,0,B|227:193|227:193|359:225|359:225|336:173,1,216,4|8,1:2|2:0,2:0:0:0:
428,182,154717,1,0,1:0:0:0:
428,182,154773,6,0,B|437:135|437:135|442:133|442:133|454:78,2,98.9999999999999,4|0|8,1:0|2:0|2:0,2:0:0:0:
302,95,155109,2,0,P|260:130|128:125,1,171,4|8,1:2|2:0,2:0:0:0:
46,92,155445,5,0,1:0:0:0:
209,56,155557,1,8,2:3:0:0:
176,218,155668,5,8,2:3:0:0:
90,201,155780,1,8,2:3:0:0:
113,292,155892,6,0,B|227:281|227:281|273:324,1,171,4|0,1:0|2:0,2:0:0:0:
499,243,156228,1,0,1:0:0:0:
480,335,156340,2,0,L|374:315,1,85.5,8|0,2:0|2:0,2:0:0:0:
308,242,156564,1,0,2:0:0:0:
425,206,156676,6,0,P|382:153|268:172,1,171,0|8,1:0|2:0,2:0:0:0:
202,124,157012,2,0,P|192:79|192:33,1,85.5,0|0,1:0|2:0,2:0:0:0:
290,51,157236,1,8,2:0:0:0:
113,115,157348,2,0,L|84:295,1,171,0|8,1:0|2:0,2:0:0:0:
24,340,157627,1,0,1:0:0:0:
24,340,157683,5,4,1:0:0:0:
168,292,157795,2,0,B|294:313|294:313|215:278,1,189,8|0,2:0|1:0,2:0:0:0:
72,165,158131,2,0,B|47:152|47:152|35:86,1,94.5,8|0,2:0|2:0,2:0:0:0:
0,232,158355,1,12,2:0:0:0:
125,61,158467,6,0,P|178:97|182:215,1,189,0|8,1:0|2:0,2:0:0:0:
110,367,158803,2,0,L|213:348,1,94.5,4|0,1:2|2:0,2:0:0:0:
441,235,159027,5,8,2:0:0:0:
416,339,159139,1,4,1:0:0:0:
299,305,159251,5,0,2:0:0:0:
268,151,159363,1,8,2:0:0:0:
480,115,159474,6,0,B|403:120|435:171|346:169,1,128.25,4|0,1:0|2:0,2:0:0:0:
343,184,159698,2,0,L|328:92,1,85.5,0|0,2:0|1:0,2:0:0:0:
191,120,159922,2,0,L|199:177,1,42.75,12|0,2:0|2:0,2:0:0:0:
106,342,160034,2,0,B|133:306|133:306|108:261|108:261|121:183,1,171,0|0,2:0|1:0,2:0:0:0:
62,72,160314,1,0,1:0:0:0:
62,72,160370,6,0,B|49:94|33:104|33:104|53:107|75:119,1,85.5,0|8,2:0|2:0,2:0:0:0:
221,296,160594,2,0,B|242:273|242:273|325:262,1,85.5,0|0,1:0|2:0,2:0:0:0:
374,192,160818,1,8,2:0:0:0:
482,354,160930,2,0,B|441:324|423:294|423:294|395:329|314:326,1,171,0|8,1:0|2:0,2:0:0:0:
291,178,161265,6,0,L|278:78,1,85.5,4|8,1:2|2:0,2:0:0:0:
456,216,161489,2,0,L|469:116,1,85.5,2|0,2:0|1:0,2:0:0:0:
301,216,161713,2,0,P|251:164|150:173,1,171,8|2,2:0|2:0,2:0:0:0:
59,242,161993,1,0,2:0:0:0:
59,242,162049,2,0,B|46:256|46:256|127:235,1,85.5,0|0,1:0|2:0,2:0:0:0:
77,124,162273,5,8,2:0:0:0:
210,241,162385,2,0,B|193:360|193:360|222:349|259:344,1,171,2|8,1:2|2:0,2:0:0:0:
466,363,162721,2,0,B|363:352|420:310|299:306,1,171,0|8,1:0|2:0,2:0:0:0:
110,239,163057,6,0,P|73:181|90:102,1,128.25,4|0,1:0|2:0,2:0:0:0:
95,135,163280,1,2,2:0:0:0:
165,34,163392,2,0,P|203:46|259:50,1,85.5,0|8,1:0|2:0,2:0:0:0:
449,105,163616,2,0,P|411:117|355:121,1,85.5,8|2,2:0|2:0,2:0:0:0:
173,200,163840,5,0,1:0:0:0:
230,142,163952,1,0,2:0:0:0:
304,173,164064,1,8,2:0:0:0:
216,126,164176,2,0,L|200:297,1,171,2|8,1:2|2:0,2:0:0:0:
412,317,164512,2,0,B|448:328|470:356|470:356|483:303|434:253,1,171,0|8,1:0|2:0,2:0:0:0:
350,257,164792,1,0,1:0:0:0:
350,257,164848,5,4,1:2:0:0:
244,362,164960,2,0,B|212:333|212:333|180:343|180:343|74:331,1,171,8|0,2:0|1:0,2:0:0:0:
0,241,165295,2,0,B|45:233|45:233|69:157|69:157|124:146,1,171,8|10,2:0|2:0,2:0:0:0:
241,248,165631,2,0,P|193:252|147:233,1,85.5,4|0,1:2|2:0,2:0:0:0:
25,85,165855,1,8,2:0:0:0:
209,158,165967,2,0,B|257:152|289:129|289:129|331:158,1,128.25,4|0,1:2|2:0,2:0:0:0:
316,175,166191,5,8,2:0:0:0:
422,151,166303,1,8,2:0:0:0:
497,284,166415,5,0,2:0:0:0:
391,260,166527,1,8,2:0:0:0:
298,357,166639,6,0,B|203:311|226:377|133:339,1,171,4|2,1:0|2:0,2:0:0:0:
51,232,166974,2,0,P|24:274|17:311,1,85.5,0|8,1:0|2:0,2:0:0:0:
181,269,167198,2,0,L|155:134,1,128.25,0|0,2:0|2:0,2:0:0:0:
78,75,167422,6,0,B|49:107|49:107|187:124,1,171,0|8,1:0|2:0,2:0:0:0:
304,25,167758,2,0,P|256:30|215:50,1,85.5,2|0,1:2|2:0,2:0:0:0:
277,255,167982,1,8,2:0:0:0:
349,192,168094,2,0,B|382:272|382:272|355:293|325:353,1,171,0|8,1:0|2:0,2:0:0:0:
245,337,168374,1,0,1:0:0:0:
245,337,168430,6,0,P|194:344|146:363,1,85.5,4|0,1:0|2:0,2:0:0:0:
30,197,168654,1,8,2:0:0:0:
56,276,168765,2,0,P|91:280|125:294,1,54,4|0,1:2|2:0,2:0:0:0:
216,150,168989,5,8,2:0:0:0:
256,234,169101,2,0,P|291:238|325:252,1,67.5,4|0,1:0|2:0,2:0:0:0:
422,83,169325,1,8,2:0:0:0:
413,169,169437,2,0,P|388:172|364:181,1,40.5,4|0,1:2|2:0,2:0:0:0:
246,75,169661,5,8,2:0:0:0:
153,82,169773,2,0,P|163:45|167:13,1,67.5,0|8,1:0|2:3,2:0:0:0:
68,84,169997,2,0,P|78:47|82:15,1,67.5,8|8,2:3|2:3,2:0:0:0:
206,155,170221,6,0,B|174:231|224:216|189:300,1,135,4|0,1:0|2:0,2:0:0:0:
110,318,170557,1,0,1:0:0:0:
282,251,170668,2,0,P|310:290|301:384,1,135,8|0,2:0|2:0,2:0:0:0:
120,233,171004,2,0,L|50:220,1,67.5,0|0,1:0|2:0,2:0:0:0:
296,163,171228,2,0,L|366:150,1,67.5,8|0,2:0|1:0,2:0:0:0:
54,81,171564,1,8,2:0:0:0:
54,81,171676,2,0,B|78:106|78:106|106:98|106:98|183:112,1,135,0|8,1:0|2:0,2:0:0:0:
245,54,171956,1,8,2:0:0:0:
245,54,172012,6,0,L|262:144,1,85.5,4|8,1:0|2:0,2:0:0:0:
433,197,172236,1,8,2:0:0:0:
370,342,172348,1,0,1:0:0:0:
320,243,172460,1,8,2:0:0:0:
320,243,172515,1,0,2:0:0:0:
320,243,172571,1,8,2:0:0:0:
447,327,172683,2,0,L|360:313,1,85.5,0|8,1:0|2:0,2:0:0:0:
220,281,172907,5,8,2:0:0:0:
205,367,173019,1,4,1:0:0:0:
42,321,173131,2,0,B|66:296|66:296|105:300|105:300|149:263,1,128.25,0|0,2:0|1:0,2:0:0:0:
131,251,173355,5,8,2:0:0:0:
72,182,173467,1,8,2:0:0:0:
196,178,173579,5,8,2:0:0:0:
212,68,173691,1,8,2:0:0:0:
90,28,173803,6,0,B|122:62|122:62|106:121|112:176,1,162,4|0,1:0|2:0,2:0:0:0:
256,303,174139,1,0,1:0:0:0:
213,369,174251,2,0,B|288:326|288:326|363:338,1,162,10|0,2:0|2:0,2:0:0:0:
491,252,174586,2,0,L|405:265,1,80.9999999999999,0|0,1:0|2:0,2:0:0:0:
356,121,174810,1,8,2:0:0:0:
439,187,174922,2,0,L|353:200,1,80.9999999999999,2|0,1:2|2:0,2:0:0:0:
178,181,175146,5,8,2:0:0:0:
157,283,175258,1,0,1:0:0:0:
77,240,175370,1,0,2:0:0:0:
70,260,175482,1,8,2:0:0:0:
158,261,175594,6,0,L|248:245,1,80.9999999999999,0|0,1:0|2:0,2:0:0:0:
165,102,175818,2,0,B|142:70|142:70|92:91|92:91|7:74,1,162,2|8,2:0|2:0,2:0:0:0:
253,266,176154,1,2,2:0:0:0:
325,307,176265,2,0,P|350:346|361:379,1,80.9999999999999,0|0,2:0|1:0,2:0:0:0:
178,181,176489,5,2,2:0:0:0:
107,234,176601,2,0,P|54:220|18:206,1,80.9999999999999,8|0,2:0|1:0,2:0:0:0:
336,183,176825,2,0,B|391:149|463:166|463:166|447:174|440:197,1,162,2|0,2:0|1:0,2:0:0:0:
437,335,177161,2,0,B|406:303|406:303|412:256,1,80.9999999999999,2|8,2:0|2:0,2:0:0:0:
277,76,177385,6,0,L|367:90,1,80.9999999999999,0|0,1:0|2:0,2:0:0:0:
497,108,177609,1,0,2:0:0:0:
440,46,177721,1,0,1:0:0:0:
351,111,177833,2,0,P|372:158|376:193,1,80.9999999999999,10|0,2:0|2:0,2:0:0:0:
280,178,178057,5,0,2:0:0:0:
223,254,178168,2,0,P|192:280|139:295,1,80.9999999999999,2|0,1:2|2:0,2:0:0:0:
312,267,178392,1,8,2:0:0:0:
364,334,178504,2,0,P|409:320|443:298,1,80.9999999999999,2|0,1:2|2:0,2:0:0:0:
165,188,178728,1,8,2:0:0:0:
165,188,178840,2,0,L|80:171,2,80.9999999999999,2|0|8,1:2|2:0|2:0,2:0:0:0:
348,83,179176,5,2,1:2:0:0:
244,20,179288,1,8,2:0:0:0:
226,143,179400,1,0,2:0:0:0:
328,98,179512,2,0,L|141:82,1,162,2|0,1:2|2:0,2:0:0:0:
72,288,179848,5,10,2:0:0:0:
114,182,179960,1,0,1:0:0:0:
209,242,180071,1,0,2:0:0:0:
108,273,180183,2,0,L|201:285,2,80.9999999999999,10|4|0,2:0|1:2|2:0,2:0:0:0:
273,366,180519,5,2,1:2:0:0:
323,301,180631,1,8,2:0:0:0:
413,336,180743,1,10,2:0:0:0:
465,256,180855,1,8,2:0:0:0:
465,256,180911,1,8,2:0:0:0:
465,256,180967,6,0,L|436:94,1,162,4|0,1:0|2:0,2:0:0:0:
245,177,181303,1,0,1:0:0:0:
374,174,181415,2,0,B|281:151|348:114|225:93,1,162,10|0,2:0|2:0,2:0:0:0:
160,190,181751,2,0,B|139:300|139:300|168:354,1,162,0|8,1:0|2:0,2:0:0:0:
65,246,182086,2,0,P|52:202|46:160,1,80.9999999999999,2|0,1:2|2:0,2:0:0:0:
161,25,182310,5,8,2:0:0:0:
172,117,182422,1,0,1:0:0:0:
287,69,182534,1,0,2:0:0:0:
277,91,182646,1,8,2:0:0:0:
339,183,182758,6,0,P|383:168|434:163,1,80.9999999999999,4|0,1:0|2:0,2:0:0:0:
434,79,182982,1,8,2:0:0:0:
400,258,183094,2,0,P|434:289|460:332,1,80.9999999999999,4|0,1:2|2:0,2:0:0:0:
357,342,183318,1,8,2:0:0:0:
250,205,183430,6,0,P|254:164|261:136,1,63,4|0,1:0|2:0,2:0:0:0:
339,183,183654,1,8,2:0:0:0:
172,117,183765,2,0,P|169:87|163:67,1,45,4|0,1:2|2:0,2:0:0:0:
16,91,183989,1,8,2:0:0:0:
16,91,184045,1,8,2:0:0:0:
16,91,184101,1,0,1:0:0:0:
84,149,184213,2,0,L|66:318,1,162,8|8,2:3|2:3,2:0:0:0:
308,275,184549,6,0,B|236:251|236:251|181:236|145:276,1,162,4|0,1:0|2:0,2:0:0:0:
147,365,184885,1,0,1:0:0:0:
390,313,184997,2,0,B|408:273|408:273|388:257|388:257|368:164,1,162,10|0,2:0|2:0,2:0:0:0:
457,128,185333,5,2,1:2:0:0:
457,128,185389,1,2,2:0:0:0:
457,128,185445,1,2,2:0:0:0:
339,75,185557,1,10,2:0:0:0:
345,38,185668,1,2,1:2:0:0:
266,156,185780,2,0,L|159:138,1,80.9999999999999,2|8,2:0|2:0,2:0:0:0:
58,200,186004,1,2,1:2:0:0:
152,116,186116,2,0,P|198:104|237:85,1,80.9999999999999,2|0,2:0|2:0,2:0:0:0:
74,59,186340,5,4,1:0:0:0:
40,125,186452,1,2,2:0:0:0:
133,204,186564,1,10,2:0:0:0:
149,276,186676,2,0,L|131:359,1,80.9999999999999,0|0,1:0|1:0,2:0:0:0:
131,355,186844,1,0,1:0:0:0:
131,355,186900,1,8,2:0:0:0:
226,303,187012,5,4,1:0:0:0:
295,338,187124,1,2,2:0:0:0:
371,284,187236,1,10,2:0:0:0:
365,264,187348,2,0,L|464:288,1,80.9999999999999,0|0,1:0|2:0,2:0:0:0:
435,152,187571,5,8,2:0:0:0:
435,152,187627,1,0,1:0:0:0:
435,152,187683,1,8,1:3:0:0:
442,232,187795,1,8,2:3:0:0:
330,191,187907,2,0,L|237:205,1,80.9999999999999,8|0,2:3|1:0,2:0:0:0:
170,331,188075,1,0,1:0:0:0:
170,331,188131,6,0,P|127:306|62:291,2,94.5,8|0|8,2:0|1:0|2:0,2:0:0:0:
275,295,188467,6,0,B|312:275|357:285|357:285|368:305|368:305|404:320|470:310,1,189,4|8,1:0|2:0,2:0:0:0:
165,224,188803,6,0,B|102:212|102:212|62:127|62:127|0:114,1,216,4|8,1:2|2:0,2:0:0:0:
354,73,189139,6,0,B|380:26|439:55|443:104|405:155|340:167,1,216,4|0,1:2|2:0,2:0:0:0:
461,309,197086,6,0,L|353:292,1,101.25,0|0,1:0|2:0,2:0:0:0:
380,196,197534,2,0,L|304:207,1,67.5000000000002,0|0,1:0|2:0,2:0:0:0:
227,356,197982,1,0,1:0:0:0:
191,282,198206,2,0,L|151:278,1,33.7500000000001,0|0,2:0|2:0,2:0:0:0:
29,232,198430,2,0,L|104:220,1,67.5000000000002,0|0,1:0|2:0,2:0:0:0:
321,105,198877,6,0,B|277:65|277:65|247:83|201:90,1,135,0|0,1:0|2:0,2:0:0:0:
56,101,199325,2,0,B|100:109|100:109|136:71,1,90,0|0,1:0|2:0,2:0:0:0:
268,166,199773,2,0,L|287:306,1,135,0|0,1:0|2:0,2:0:0:0:
441,245,200221,1,0,1:0:0:0:
419,329,200445,1,0,2:0:0:0:
205,352,200668,6,0,L|178:360,1,22.5,0|0,1:0|2:0,2:0:0:0:
163,336,200892,2,0,L|132:338,1,31.5,0|0,1:0|2:0,2:0:0:0:
129,306,201116,2,0,L|89:300,1,40.5,0|0,1:0|2:0,2:0:0:0:
105,235,201340,2,0,L|55:217,1,49.5,0|0,1:0|2:0,2:0:0:0:
102,150,201564,6,0,L|52:119,1,58.5,0|0,1:0|2:0,2:0:0:0:
263,166,201788,2,0,L|321:202,1,67.5,0|0,1:0|2:0,2:0:0:0:
189,82,202012,2,0,L|228:17,1,76.5,0|0,1:0|2:0,2:0:0:0:
173,233,202236,2,0,L|125:310,1,85.5,0|0,1:0|2:0,2:0:0:0:
243,303,202460,5,0,1:0:0:0:
249,330,202571,1,0,1:0:0:0:
312,270,202683,5,0,1:0:0:0:
340,313,202795,1,0,1:0:0:0:
383,213,202907,5,0,1:0:0:0:
443,271,203019,1,0,1:0:0:0:
418,126,203131,5,0,1:0:0:0:
512,167,203243,1,0,1:0:0:0:
289,130,203579,5,8,2:3:0:0:
289,130,203654,2,0,L|277:47,1,57,8|0,2:3|1:0,2:0:0:0:
227,25,203803,5,4,1:2:0:0:
183,143,203915,2,0,L|188:186,1,33.7500000000001,0|0,1:0|2:0,2:0:0:0:
187,177,204251,6,0,B|97:156|97:156|35:199,1,141.75,4|0,1:0|2:0,2:0:0:0:
53,216,204474,1,0,2:0:0:0:
204,267,204586,2,0,P|251:251|297:246,1,94.5,0|8,1:0|2:0,2:0:0:0:
478,351,204810,2,0,B|398:335|398:335|381:345|381:345|286:326,1,189,0|0,2:0|1:0,2:0:0:0:
379,251,205090,1,0,1:0:0:0:
379,251,205146,6,0,L|361:140,1,94.5,0|8,2:0|2:0,2:0:0:0:
466,23,205370,2,0,B|467:76|445:126|445:126|438:98|416:79,1,141.75,0|0,1:0|2:0,2:0:0:0:
402,77,205594,1,8,2:0:0:0:
294,118,205706,1,0,1:0:0:0:
235,38,205818,1,0,2:0:0:0:
235,38,205930,1,8,2:0:0:0:
153,76,206042,5,4,1:2:0:0:
224,164,206154,2,0,B|210:233|210:233|184:249|184:249|165:340,1,189,8|0,2:0|1:0,2:0:0:0:
35,199,206489,1,8,2:0:0:0:
118,223,206601,2,0,P|134:267|145:329,1,94.5,0|0,2:0|2:0,2:0:0:0:
251,306,206769,1,0,2:0:0:0:
251,306,206825,6,0,L|353:294,1,94.5,0|0,1:0|2:0,2:0:0:0:
434,163,207049,1,8,2:0:0:0:
460,333,207161,2,0,B|347:300|426:257|288:214,1,189,0|8,1:0|2:0,2:0:0:0:
398,69,207497,2,0,B|418:20|418:20|477:55|477:55|451:122,1,189,0|8,1:0|2:0,2:0:0:0:
291,150,207833,6,0,B|234:165|234:165|192:176|149:140,1,141.75,4|0,1:0|2:0,2:0:0:0:
132,122,208057,1,0,2:0:0:0:
222,74,208168,2,0,B|245:57|245:57|310:68,1,94.5,0|8,1:0|2:0,2:0:0:0:
475,198,208392,2,0,P|446:246|321:244,1,189,8|0,2:0|1:0,2:0:0:0:
245,244,208672,1,0,1:0:0:0:
245,244,208728,6,0,P|220:296|228:337,1,94.5,0|8,2:0|2:0,2:0:0:0:
20,292,208952,2,0,B|85:276|85:276|114:218|114:218|193:199,1,189,0|8,1:0|2:0,2:0:0:0:
49,141,209288,1,0,1:0:0:0:
74,54,209400,1,0,2:0:0:0:
27,122,209512,1,8,2:0:0:0:
120,195,209624,5,4,1:2:0:0:
120,195,209736,2,0,B|159:162|159:162|198:181|198:181|295:158,1,189,8|0,2:0|1:0,2:0:0:0:
435,79,210071,2,0,B|483:107|483:107|417:99,1,94.5,8|0,2:0|2:0,2:0:0:0:
267,120,210295,1,8,2:0:0:0:
344,317,210407,6,0,B|322:292|317:234|317:234|361:209|367:139,1,189,4|8,1:2|2:0,2:0:0:0:
160,45,210743,2,0,B|117:25|117:25|129:108|129:108|169:155,1,168.75,4|0,1:2|2:0,2:0:0:0:
181,142,210967,5,8,2:0:0:0:
149,241,211079,1,8,2:0:0:0:
37,104,211191,5,0,2:0:0:0:
68,271,211303,1,8,2:0:0:0:
230,212,211415,6,0,B|285:231|329:270|329:270|350:250|402:231,1,189,4|0,1:0|2:0,2:0:0:0:
490,362,211751,2,0,P|444:334|402:324,1,94.5,0|8,1:0|2:0,2:0:0:0:
292,144,211974,2,0,B|410:118|410:118|383:138,1,141.75,0|0,2:0|2:0,2:0:0:0:
303,42,212198,6,0,B|258:140|356:105|302:241,1,189,0|8,1:0|2:0,2:0:0:0:
147,331,212534,2,0,P|198:297|326:309,1,189,0|8,1:0|2:0,2:0:0:0:
179,193,212870,1,0,1:0:0:0:
119,252,212982,2,0,L|13:238,1,94.5,0|8,2:0|2:0,2:0:0:0:
243,370,213206,6,0,B|219:357|219:357|395:331,1,175.5,4|0,1:0|2:0,2:0:0:0:
394,350,213430,1,8,2:0:0:0:
454,152,213542,2,0,B|465:118|501:105|501:105|452:77|385:98|360:155,1,234,4|8,1:2|2:0,2:0:0:0:
405,249,213821,1,0,1:0:0:0:
405,249,213877,6,0,B|428:235|428:235|515:249,2,108,4|0|8,1:0|2:0|2:0,2:0:0:0:
266,133,214213,2,0,B|161:163|235:221|112:244,1,189,4|8,1:2|2:0,2:0:0:0:
15,157,214549,5,0,1:0:0:0:
176,134,214661,1,8,2:3:0:0:
47,254,214773,5,8,2:3:0:0:
130,278,214885,1,8,2:3:0:0:
90,358,214997,6,0,B|130:318|130:318|197:310|275:341,1,189,4|0,1:0|2:0,2:0:0:0:
415,215,215333,1,0,1:0:0:0:
334,265,215445,2,0,P|350:303|359:367,1,94.5,8|0,2:0|2:0,2:0:0:0:
499,257,215668,1,0,2:0:0:0:
397,192,215780,6,0,B|425:146|425:146|406:8,1,189,0|8,1:0|2:0,2:0:0:0:
227,33,216116,2,0,P|282:47|324:66,1,94.5,0|0,1:0|2:0,2:0:0:0:
497,63,216340,1,8,2:0:0:0:
317,151,216452,2,0,L|344:360,1,189,0|8,1:0|2:0,2:0:0:0:
267,362,216732,1,0,1:0:0:0:
267,362,216788,5,4,1:0:0:0:
47,285,216900,2,0,B|76:236|80:170|80:170|123:203|186:214,1,207,8|0,2:0|1:0,2:0:0:0:
215,96,217236,2,0,B|289:80|289:80|251:95,1,103.5,8|0,2:0|2:0,2:0:0:0:
85,90,217460,1,8,2:0:0:0:
213,258,217571,2,0,B|250:230|250:230|316:225,1,103.5,0|0,1:0|2:0,2:0:0:0:
379,84,217795,5,8,2:0:0:0:
512,192,217907,2,0,L|351:166,1,155.25,4|0,1:2|2:0,2:0:0:0:
331,149,218131,5,8,2:0:0:0:
382,285,218243,1,4,1:0:0:0:
142,241,218355,5,0,2:0:0:0:
183,64,218467,1,8,2:0:0:0:
286,215,218579,6,0,B|251:295|315:275|282:367,1,141.75,4|0,1:0|2:0,2:0:0:0:
273,366,218803,2,0,L|167:337,1,94.5,0|0,2:0|1:0,2:0:0:0:
366,252,219027,2,0,L|415:239,1,47.25,12|0,2:0|2:0,2:0:0:0:
511,100,219139,2,0,B|474:60|474:60|426:78|426:78|340:62,1,189,0|0,2:0|1:0,2:0:0:0:
180,129,219418,1,0,1:0:0:0:
180,129,219474,6,0,P|236:128|271:170,1,94.5,0|8,2:0|2:0,2:0:0:0:
495,212,219698,2,0,B|446:197|446:197|389:228,1,94.5,0|0,1:0|2:0,2:0:0:0:
281,239,219922,1,8,2:0:0:0:
433,308,220034,2,0,P|382:292|274:370,1,189,0|8,1:0|2:0,2:0:0:0:
59,281,220370,6,0,P|69:329|94:375,1,94.5,4|8,1:2|2:0,2:0:0:0:
184,213,220594,2,0,P|205:254|214:301,1,94.5,2|0,2:0|1:0,2:0:0:0:
48,196,220818,1,8,2:0:0:0:
125,153,220930,2,0,B|108:136|108:136|128:28,1,94.5,0|2,2:0|2:0,2:0:0:0:
356,28,221154,6,0,B|286:49|286:49|274:85|274:85|182:111,1,189,0|8,1:0|2:0,2:0:0:0:
356,115,221433,1,0,2:0:0:0:
356,115,221489,2,0,L|468:137,1,94.5,2|0,1:2|2:0,2:0:0:0:
291,282,221713,1,8,2:0:0:0:
465,281,221825,2,0,B|364:260|425:211|286:196,1,189,0|8,1:0|2:0,2:0:0:0:
189,248,222161,6,0,B|210:352|210:352|243:365,1,141.75,4|0,1:0|2:0,2:0:0:0:
276,362,222385,1,2,2:0:0:0:
114,284,222497,2,0,P|83:302|23:320,1,94.5,0|8,1:0|2:0,2:0:0:0:
179,159,222721,2,0,B|143:167|143:167|59:143,1,94.5,8|2,2:0|2:0,2:0:0:0:
122,41,222945,5,0,1:0:0:0:
189,79,223057,1,0,2:0:0:0:
251,28,223168,1,8,2:0:0:0:
318,66,223280,2,0,B|377:44|426:51|426:51|426:86|405:150,1,189,2|8,1:2|2:0,2:0:0:0:
421,280,223616,2,0,B|349:291|349:291|323:160,1,189,0|8,1:0|2:0,2:0:0:0:
486,209,223952,5,4,1:2:0:0:
379,361,224064,2,0,B|292:354|333:302|238:293,1,141.75,8|0,2:0|2:0,2:0:0:0:
203,351,224288,1,0,1:0:0:0:
203,351,224344,1,0,1:0:0:0:
203,351,224400,2,0,L|103:368,1,94.5,8|0,2:0|2:0,2:0:0:0:
255,145,224624,1,10,2:0:0:0:
35,262,224736,6,0,B|65:290|65:290|140:260,1,94.5,4|0,1:2|2:0,2:0:0:0:
223,234,224960,1,8,2:0:0:0:
138,12,225071,2,0,B|94:104|181:80|139:181,1,155.25,4|0,1:2|2:0,2:0:0:0:
119,172,225295,5,8,2:0:0:0:
34,111,225407,1,8,2:0:0:0:
219,157,225519,5,0,2:0:0:0:
202,54,225631,1,8,2:0:0:0:
297,222,225743,6,0,B|349:210|349:210|401:136|401:136|463:122,1,189,4|2,1:0|2:0,2:0:0:0:
338,299,226079,2,0,B|325:365|325:365|340:338,1,94.5,0|8,1:0|2:0,2:0:0:0:
337,23,226303,2,0,P|292:68|311:149,1,141.75,0|0,2:0|2:0,2:0:0:0:
444,275,226527,6,0,B|485:284|497:247|417:229|335:209|348:178|390:191,1,189,0|8,1:0|2:0,2:0:0:0:
259,329,226863,2,0,B|235:315|235:315|157:337,1,94.5,2|0,1:2|2:0,2:0:0:0:
35,235,227086,2,0,L|17:353,1,94.5,8|0,2:0|1:0,2:0:0:0:
179,146,227310,1,2,2:0:0:0:
200,239,227422,1,8,2:0:0:0:
54,111,227534,5,4,1:0:0:0:
179,146,227646,2,0,P|172:99|151:58,1,94.5,0|8,2:0|2:0,2:0:0:0:
256,33,227870,1,4,1:2:0:0:
339,120,227982,2,0,P|353:92|362:62,1,63,0|8,2:0|2:0,2:0:0:0:
443,280,228206,5,4,1:0:0:0:
319,263,228318,2,0,P|328:300|347:334,1,76.5,0|8,2:0|2:0,2:0:0:0:
238,359,228542,1,4,1:2:0:0:
147,282,228654,2,0,P|136:304|131:329,1,49.5,0|8,2:0|2:0,2:0:0:0:
269,169,228877,5,0,1:0:0:0:
278,205,228989,1,8,2:3:0:0:
242,214,229101,1,8,2:3:0:0:
233,178,229213,1,8,2:3:0:0:
355,167,229325,6,0,B|439:187|396:230|488:246,1,153,4|0,1:0|2:0,2:0:0:0:
382,284,229661,1,0,1:0:0:0:
453,122,229773,2,0,P|383:72|312:95,1,153,8|0,2:0|2:0,2:0:0:0:
107,160,230109,2,0,B|141:177|141:177|209:173,1,76.5,0|0,1:0|2:0,2:0:0:0:
246,48,230333,2,0,B|212:31|212:31|144:35,1,76.5,8|0,2:0|1:0,2:0:0:0:
48,327,230668,5,8,2:0:0:0:
99,263,230780,2,0,L|180:278,1,76.5,0|0,1:0|2:0,2:0:0:0:
232,347,231004,1,8,2:0:0:0:
232,347,231060,1,0,1:0:0:0:
232,347,231116,5,4,1:0:0:0:
314,353,231228,2,0,B|324:300|324:300|281:228|281:228|293:171,1,189,8|0,2:0|1:0,2:0:0:0:
420,261,231564,2,0,B|471:272|471:272|420:274,1,94.5,8|0,2:0|2:0,2:0:0:0:
200,182,231788,1,8,2:0:0:0:
418,144,231900,6,0,B|355:136|335:95|335:95|291:80|247:97,1,189,4|8,1:2|2:0,2:0:0:0:
30,150,232236,1,0,1:0:0:0:
80,78,232348,1,8,2:0:0:0:
80,78,232404,1,8,2:0:0:0:
80,78,232460,1,8,2:0:0:0:
160,117,232571,1,8,2:3:0:0:
75,226,232683,2,0,B|97:262|97:262|68:316,1,94.5,8|8,2:3|2:3,2:0:0:0:
202,331,232907,6,0,B|216:285|268:268|329:309,1,153,4|0,1:0|2:0,2:0:0:0:
442,187,233243,1,0,1:0:0:0:
382,358,233355,2,0,L|359:184,1,153,8|0,2:0|2:0,2:0:0:0:
434,34,233691,2,0,B|465:58|465:58|508:61,1,76.5,0|0,1:0|2:0,2:0:0:0:
293,141,233915,2,0,B|324:117|324:117|367:114,1,76.5,8|0,2:0|1:0,2:0:0:0:
54,60,234251,5,8,2:0:0:0:
115,119,234363,2,0,L|201:111,1,76.5,0|0,1:0|2:0,2:0:0:0:
263,240,234586,1,8,2:0:0:0:
263,240,234642,1,8,2:0:0:0:
263,240,234698,5,4,1:0:0:0:
175,197,234810,1,8,2:0:0:0:
121,357,234922,1,8,2:0:0:0:
17,276,235034,2,0,L|117:263,1,94.5,4|8,1:2|2:0,2:0:0:0:
306,335,235258,5,8,2:0:0:0:
219,305,235370,1,4,1:0:0:0:
312,355,235482,1,8,2:0:0:0:
322,187,235594,1,8,2:0:0:0:
505,224,235706,6,0,B|452:205|404:209|404:209|389:289|389:289|345:290|274:271,1,283.5,4|0,1:2|2:0,2:0:0:0:
256,192,236265,12,0,237833,2:0:0:0:
256,192,238280,5,4,1:0:0:0:
