osu file format v14

[General]
AudioFilename: audio.mp3
AudioLeadIn: 0
PreviewTime:72108
Countdown: 0
SampleSet: Soft
StackLeniency: 0.7
Mode: 0
LetterboxInBreaks: 0
WidescreenStoryboard: 1

[Editor]
Bookmarks:886,15242,29570,43899,58227,72555,101212,115540,129869,144197,172854,188973,196137,203302,237331,249869,251660
DistanceSpacing: 1.8
BeatDivisor: 8
GridSize: 32
TimelineZoom: 2.499999

[Metadata]
Title:Tenkyuu, Suisei wa Yoru o Mataide
TitleUnicode:天球、彗星は夜を跨いで
Artist:Hoshimachi Suisei
ArtistUnicode:星街すいせい
Creator:Amateurre
Version:Matha's Expert
Source:
Tags:vtuber virtual youtuber hololive ホロライブ japanese rock j-rock jrock キタニタツヤ kitani tatsuya wo still stellar suichan hosimati hoshimati hosimachi sui-chan newton- xidorn jiysea flake matha petal midorijeon
BeatmapID:3581968
BeatmapSetID:1600004

[Difficulty]
HPDrainRate:4.8
CircleSize:4
OverallDifficulty:8.5
ApproachRate:9.3
SliderMultiplier:2.2
SliderTickRate:1

[Events]
//Background and Video events
Video,-950,"Tenkyuu.mp4"
0,0,"tenkyuuuuu_amateurre.jpg",0,0
//Break Periods
2,189173,195583
//Storyboard Layer 0 (Background)
//Storyboard Layer 1 (Fail)
//Storyboard Layer 2 (Pass)
//Storyboard Layer 3 (Foreground)
//Storyboard Layer 4 (Overlay)
//Storyboard Sound Samples

[TimingPoints]
914,447.761194029851,4,2,69,40,1,0
914,-125,4,2,69,40,0,0
1025,-125,4,2,2,40,0,0
1697,-71.4285714285714,4,2,2,40,0,0
2033,-125,4,2,2,40,0,0
3040,-71.4285714285714,4,2,2,40,0,0
3824,-125,4,2,2,40,0,0
5279,-71.4285714285714,4,2,2,40,0,0
5615,-125,4,2,2,40,0,0
6622,-71.4285714285714,4,2,2,40,0,0
7406,-125,4,2,2,40,0,0
9421,-166.666666666667,4,2,2,40,0,0
9869,-125,4,2,2,40,0,0
10205,-71.4285714285714,4,2,2,40,0,0
10988,-125,4,2,2,40,0,0
13451,-125,4,2,1,60,0,0
13675,-62.5,4,2,1,60,0,0
14346,-50,4,2,1,60,0,0
15018,-125,4,2,1,60,0,0
15242,-62.5,4,2,1,75,0,0
15690,-62.5,4,2,3,75,0,0
15746,-62.5,4,2,1,75,0,0
16137,-55.5555555555556,4,2,7,75,0,0
16193,-55.5555555555556,4,2,1,75,0,0
16473,-62.5,4,2,1,75,0,0
16585,-62.5,4,2,3,75,0,0
16641,-62.5,4,2,1,75,0,0
17033,-62.5,4,2,3,75,0,0
17089,-62.5,4,2,1,75,0,0
17481,-62.5,4,2,3,75,0,0
17537,-62.5,4,2,1,75,0,0
17928,-55.5555555555556,4,2,7,75,0,0
17984,-55.5555555555556,4,2,1,75,0,0
18264,-62.5,4,2,1,75,0,0
18376,-62.5,4,2,3,75,0,0
18432,-62.5,4,2,1,75,0,0
18600,-50,4,2,1,75,0,0
18824,-62.5,4,2,3,75,0,0
18880,-62.5,4,2,1,75,0,0
19272,-62.5,4,2,3,75,0,0
19328,-62.5,4,2,1,75,0,0
19719,-55.5555555555556,4,2,7,75,0,0
19775,-55.5555555555556,4,2,1,75,0,0
20055,-62.5,4,2,1,75,0,0
20167,-62.5,4,2,3,75,0,0
20223,-62.5,4,2,1,75,0,0
20615,-62.5,4,2,3,75,0,0
20671,-62.5,4,2,1,75,0,0
21063,-62.5,4,2,3,75,0,0
21119,-62.5,4,2,1,75,0,0
21511,-62.5,4,2,7,75,0,0
21567,-62.5,4,2,1,75,0,0
21734,-62.5,4,2,2,75,0,0
22406,-62.5,4,2,1,75,0,0
22854,-62.5,4,2,3,75,0,0
22910,-62.5,4,2,1,75,0,0
23302,-55.5555555555556,4,2,7,75,0,0
23358,-55.5555555555556,4,2,1,75,0,0
23637,-62.5,4,2,1,75,0,0
23749,-62.5,4,2,3,75,0,0
23805,-62.5,4,2,1,75,0,0
24197,-62.5,4,2,3,75,0,0
24253,-62.5,4,2,1,75,0,0
24645,-62.5,4,2,3,75,0,0
24701,-62.5,4,2,1,75,0,0
25093,-55.5555555555556,4,2,7,75,0,0
25149,-55.5555555555556,4,2,1,75,0,0
25428,-62.5,4,2,1,75,0,0
25540,-62.5,4,2,3,75,0,0
25596,-62.5,4,2,1,75,0,0
25764,-50,4,2,1,75,0,0
25988,-62.5,4,2,3,75,0,0
26044,-62.5,4,2,1,75,0,0
26436,-62.5,4,2,3,75,0,0
26492,-62.5,4,2,1,75,0,0
26884,-55.5555555555556,4,2,3,75,0,0
26940,-55.5555555555556,4,2,1,75,0,0
27219,-62.5,4,2,1,75,0,0
27555,-125,4,2,1,75,0,0
28003,-125,4,2,1,50,0,0
28451,-125,4,2,1,50,0,0
29570,-83.3333333333333,4,2,1,70,0,0
30466,-125,4,2,1,70,0,0
30690,-125,4,2,3,70,0,0
30802,-83.3333333333333,4,2,1,70,0,0
31137,-125,4,2,1,70,0,0
31361,-83.3333333333333,4,2,1,70,0,0
32033,-125,4,2,1,70,0,0
32481,-71.4285714285714,4,2,3,70,0,0
32593,-71.4285714285714,4,2,1,70,0,0
33152,-62.5,4,2,3,70,0,0
33264,-62.5,4,2,1,70,0,0
33600,-83.3333333333333,4,2,1,70,0,0
34048,-125,4,2,1,70,0,0
34272,-125,4,2,3,70,0,0
34384,-62.5,4,2,1,70,0,0
34719,-83.3333333333333,4,2,1,70,0,0
35279,-62.5,4,2,1,70,0,0
35615,-125,4,2,1,70,0,0
36063,-62.5,4,2,3,70,0,0
36175,-62.5,4,2,1,70,0,0
36734,-83.3333333333333,4,2,2,70,0,0
36846,-83.3333333333333,4,2,1,70,0,0
37630,-125,4,2,1,70,0,0
37854,-125,4,2,3,70,0,0
37966,-83.3333333333333,4,2,1,70,0,0
38302,-125,4,2,1,70,0,0
38525,-83.3333333333333,4,2,1,70,0,0
39197,-125,4,2,1,70,0,0
39645,-71.4285714285714,4,2,3,70,0,0
39757,-71.4285714285714,4,2,1,70,0,0
40316,-55.5555555555556,4,2,3,70,0,0
40428,-55.5555555555556,4,2,1,70,0,0
40652,-83.3333333333333,4,2,1,70,0,0
40988,-125,4,2,1,70,0,0
41212,-83.3333333333333,4,2,1,70,0,0
41436,-125,4,2,3,70,0,0
41548,-125,4,2,1,70,0,0
41660,-71.4285714285714,4,2,1,70,0,0
41884,-55.5555555555556,4,2,1,70,0,0
42108,-83.3333333333333,4,2,1,70,0,0
42891,-62.5,4,2,1,70,0,0
43227,-83.3333333333333,4,2,1,70,0,0
43899,-62.5,4,2,1,70,0,0
44346,-83.3333333333333,4,2,1,70,0,0
45018,-83.3333333333333,4,2,3,70,0,0
45130,-71.4285714285714,4,2,1,70,0,0
45466,-50,4,2,1,70,0,0
45690,-71.4285714285714,4,2,1,70,0,0
46025,-83.3333333333333,4,2,1,70,0,0
46361,-62.5,4,2,1,70,0,0
46585,-83.3333333333333,4,2,1,70,0,0
46809,-62.5,4,2,3,70,0,0
46921,-62.5,4,2,1,70,0,0
47481,-62.5,4,2,3,70,0,0
47593,-62.5,4,2,1,70,0,0
47928,-83.3333333333333,4,2,1,70,0,0
48376,-62.5,4,2,1,70,0,0
48600,-62.5,4,2,3,70,0,0
48712,-55.5555555555556,4,2,1,70,0,0
49048,-50,4,2,1,70,0,0
49384,-62.5,4,2,1,70,0,0
49719,-83.3333333333333,4,2,1,70,0,0
49943,-125,4,2,1,70,0,0
50167,-83.3333333333333,4,2,1,70,0,0
50391,-62.5,4,2,3,70,0,0
50503,-62.5,4,2,1,70,0,0
51063,-62.5,4,2,2,70,0,0
51175,-62.5,4,2,1,70,0,0
51511,-83.3333333333333,4,2,1,70,0,0
52182,-83.3333333333333,4,2,3,70,0,0
52294,-71.4285714285714,4,2,1,70,0,0
52630,-50,4,2,1,70,0,0
52854,-62.5,4,2,1,70,0,0
53190,-83.3333333333333,4,2,1,70,0,0
53525,-62.5,4,2,1,70,0,0
53749,-83.3333333333333,4,2,1,70,0,0
53973,-62.5,4,2,3,70,0,0
54085,-62.5,4,2,1,70,0,0
54645,-55.5555555555556,4,2,3,70,0,0
54757,-55.5555555555556,4,2,1,70,0,0
54981,-83.3333333333333,4,2,1,70,0,0
55316,-125,4,2,1,70,0,0
55540,-71.4285714285714,4,2,1,70,0,0
55764,-71.4285714285714,4,2,3,70,0,0
55876,-71.4285714285714,4,2,1,70,0,0
56212,-55.5555555555556,4,2,1,70,0,0
56548,-83.3333333333333,4,2,1,70,0,0
56884,-62.5,4,2,2,70,0,0
56996,-62.5,4,2,1,70,0,0
57108,-125,4,2,1,70,0,0
57331,-71.4285714285714,4,2,1,70,0,0
57555,-100,4,2,2,70,0,0
57667,-100,4,2,1,70,0,0
58227,-50,4,2,1,70,0,0
58675,-62.5,4,2,1,70,0,0
58899,-62.5,4,2,6,70,0,0
59010,-62.5,4,2,1,70,0,0
59122,-71.4285714285714,4,2,5,70,0,0
59233,-71.4285714285714,4,2,1,70,0,0
59346,-100,4,2,1,70,0,0
59570,-55.5555555555556,4,2,1,70,0,0
59794,-71.4285714285714,4,2,1,70,0,0
60242,-83.3333333333333,4,2,1,70,0,0
60466,-71.4285714285714,4,2,1,70,0,0
60690,-71.4285714285714,4,2,6,70,0,0
60802,-100,4,2,1,70,0,0
60914,-100,4,2,6,70,0,0
61025,-100,4,2,1,70,0,0
61137,-125,4,2,1,70,0,0
61361,-71.4285714285714,4,2,1,70,0,0
61585,-55.5555555555556,4,2,1,70,0,0
61809,-62.5,4,2,1,70,0,0
62257,-71.4285714285714,4,2,1,70,0,0
62481,-71.4285714285714,4,2,6,70,0,0
62592,-71.4285714285714,4,2,1,70,0,0
62705,-100,4,2,5,70,0,0
62816,-100,4,2,1,70,0,0
62928,-83.3333333333333,4,2,1,70,0,0
63152,-62.5,4,2,1,70,0,0
63824,-83.3333333333333,4,2,1,70,0,0
64048,-62.5,4,2,1,70,0,0
64272,-62.5,4,2,6,70,0,0
64383,-62.5,4,2,1,70,0,0
64496,-71.4285714285714,4,2,6,70,0,0
64607,-71.4285714285714,4,2,1,70,0,0
64719,-100,4,2,1,70,0,0
65391,-100,4,2,1,50,0,0
68973,-71.4285714285714,4,2,1,40,0,0
69197,-125,4,2,1,45,0,0
69421,-100,4,2,1,50,0,0
69645,-83.3333333333333,4,2,1,55,0,0
69869,-100,4,2,1,60,0,0
70093,-83.3333333333333,4,2,1,65,0,0
70316,-71.4285714285714,4,2,1,70,0,0
70540,-71.4285714285714,4,2,1,75,0,0
70764,-71.4285714285714,4,2,1,75,0,0
70988,-88.7745085011614,4,2,1,75,0,0
71324,-62.2267947971938,4,2,1,75,0,0
71660,-52.3477293308862,4,2,1,75,0,0
72555,-62.5,4,2,1,80,0,1
72779,-62.5,4,2,4,80,0,1
72835,-62.5,4,2,1,80,0,1
73115,-45.4545454545455,4,2,1,80,0,1
73227,-45.4545454545455,4,2,2,80,0,1
73283,-45.4545454545455,4,2,1,80,0,1
73451,-100,4,2,1,80,0,1
73675,-50,4,2,4,80,0,1
73731,-50,4,2,1,80,0,1
74011,-62.5,4,2,1,80,0,1
74122,-62.5,4,2,2,80,0,1
74178,-62.5,4,2,1,80,0,1
74346,-50,4,2,1,80,0,1
74570,-50,4,2,2,80,0,1
74626,-50,4,2,1,80,0,1
74794,-62.5,4,2,1,80,0,1
75018,-62.5,4,2,2,80,0,1
75074,-62.5,4,2,1,80,0,1
75130,-100,4,2,1,80,0,1
75466,-45.4545454545455,4,2,4,80,0,1
75522,-45.4545454545455,4,2,1,80,0,1
75914,-100,4,2,4,80,0,1
75970,-100,4,2,1,80,0,1
76137,-62.5,4,2,1,80,0,1
76361,-62.5,4,2,4,80,0,1
76417,-62.5,4,2,1,80,0,1
76697,-45.4545454545455,4,2,1,80,0,1
76809,-45.4545454545455,4,2,2,80,0,1
76865,-45.4545454545455,4,2,1,80,0,1
77033,-100,4,2,1,80,0,1
77257,-50,4,2,4,80,0,1
77313,-50,4,2,1,80,0,1
77593,-62.5,4,2,1,80,0,1
77705,-62.5,4,2,4,80,0,1
77761,-62.5,4,2,1,80,0,1
77928,-50,4,2,1,80,0,1
78152,-50,4,2,2,80,0,1
78208,-50,4,2,1,80,0,1
78376,-62.5,4,2,1,80,0,1
78712,-50,4,2,1,80,0,1
79048,-38.4615384615385,4,2,2,80,0,1
79719,-45.4545454545455,4,2,1,80,0,1
79943,-45.4545454545455,4,2,4,80,0,1
79999,-45.4545454545455,4,2,1,80,0,1
80055,-100,4,2,1,80,0,1
80279,-62.5,4,2,1,80,0,1
80391,-62.5,4,2,2,80,0,1
80447,-62.5,4,2,1,80,0,1
80503,-83.3333333333333,4,2,1,80,0,1
80839,-41.6666666666667,4,2,4,80,0,1
80895,-41.6666666666667,4,2,1,80,0,1
81287,-100,4,2,4,80,0,1
81343,-100,4,2,1,80,0,1
81511,-50,4,2,1,80,0,1
81846,-62.5,4,2,2,80,0,1
82182,-100,4,2,1,80,0,1
82518,-50,4,2,2,80,0,1
82966,-50,4,2,1,80,0,1
83525,-50,4,2,4,80,0,1
83581,-50,4,2,1,80,0,1
83637,-100,4,2,1,80,0,1
83973,-50,4,2,4,80,0,1
84029,-50,4,2,1,80,0,1
84421,-62.5,4,2,4,80,0,1
84477,-62.5,4,2,1,80,0,1
84869,-62.5,4,2,4,80,0,1
84925,-62.5,4,2,1,80,0,1
85316,-62.5,4,2,4,80,0,1
85372,-62.5,4,2,1,80,0,1
85764,-62.5,4,2,4,80,0,1
85820,-62.5,4,2,1,80,0,1
85876,-100,4,2,1,80,0,1
86212,-45.4545454545455,4,2,4,80,0,1
86268,-45.4545454545455,4,2,1,80,0,1
86884,-62.5,4,2,1,80,0,1
87331,-62.5,4,2,2,80,0,1
87443,-45.4545454545455,4,2,1,80,0,1
87779,-100,4,2,1,80,0,1
88003,-50,4,2,1,80,0,1
88339,-62.5,4,2,1,80,0,1
88451,-62.5,4,2,5,80,0,1
88507,-62.5,4,2,1,80,0,1
88675,-50,4,2,1,80,0,1
88899,-50,4,2,6,80,0,1
88955,-50,4,2,1,80,0,1
89122,-62.5,4,2,1,80,0,1
89347,-62.5,4,2,6,80,0,1
89403,-62.5,4,2,1,80,0,1
89458,-100,4,2,1,80,0,1
89794,-45.4545454545455,4,2,5,80,0,1
89851,-45.4545454545455,4,2,1,80,0,1
90242,-100,4,2,5,80,0,1
90299,-100,4,2,1,80,0,1
90466,-62.5,4,2,1,80,0,1
90690,-62.5,4,2,5,80,0,1
90746,-62.5,4,2,1,80,0,1
91025,-45.4545454545455,4,2,1,80,0,1
91138,-45.4545454545455,4,2,6,80,0,1
91194,-45.4545454545455,4,2,1,80,0,1
91361,-100,4,2,1,80,0,1
91585,-50,4,2,5,80,0,1
91642,-50,4,2,1,80,0,1
91921,-62.5,4,2,1,80,0,1
92034,-62.5,4,2,5,80,0,1
92090,-62.5,4,2,1,80,0,1
92257,-50,4,2,1,80,0,1
92481,-50,4,2,6,80,0,1
92537,-50,4,2,1,80,0,1
92705,-62.5,4,2,1,80,0,1
93040,-50,4,2,1,80,0,1
93376,-38.4615384615385,4,2,2,80,0,1
94048,-45.4545454545455,4,2,1,80,0,1
94272,-45.4545454545455,4,2,5,80,0,1
94328,-45.4545454545455,4,2,1,80,0,1
94384,-100,4,2,1,80,0,1
94608,-62.5,4,2,1,80,0,1
94720,-62.5,4,2,6,80,0,1
94776,-62.5,4,2,1,80,0,1
94831,-83.3333333333333,4,2,1,80,0,1
95167,-41.6666666666667,4,2,5,80,0,1
95224,-41.6666666666667,4,2,1,80,0,1
95615,-100,4,2,5,80,0,1
95672,-100,4,2,1,80,0,1
95839,-50,4,2,1,80,0,1
96175,-62.5,4,2,2,80,0,1
96511,-100,4,2,1,80,0,1
96846,-50,4,2,2,80,0,1
97295,-50,4,2,1,80,0,1
98078,-62.5,4,2,3,80,0,1
98190,-62.5,4,2,1,80,0,1
98302,-100,4,2,1,80,0,1
98525,-100,4,2,7,80,0,1
98637,-100,4,2,1,80,0,1
98749,-62.5,4,2,1,80,0,1
99197,-100,4,2,1,80,0,1
99421,-62.5,4,2,2,80,0,1
99533,-62.5,4,2,1,80,0,1
100428,-50,4,2,3,80,0,1
100540,-50,4,2,1,80,0,1
100764,-50,4,2,1,80,0,0
101212,-62.5,4,2,1,75,0,0
101660,-62.5,4,2,3,75,0,0
101716,-62.5,4,2,1,75,0,0
102108,-55.5555555555556,4,2,7,75,0,0
102163,-55.5555555555556,4,2,1,75,0,0
102443,-62.5,4,2,1,75,0,0
102555,-62.5,4,2,3,75,0,0
102611,-62.5,4,2,1,75,0,0
103003,-62.5,4,2,3,75,0,0
103059,-62.5,4,2,1,75,0,0
103451,-62.5,4,2,3,75,0,0
103507,-62.5,4,2,1,75,0,0
103899,-55.5555555555556,4,2,7,75,0,0
103954,-55.5555555555556,4,2,1,75,0,0
104234,-62.5,4,2,1,75,0,0
104346,-62.5,4,2,3,75,0,0
104402,-62.5,4,2,1,75,0,0
104570,-50,4,2,1,75,0,0
104794,-62.5,4,2,3,75,0,0
104850,-62.5,4,2,1,75,0,0
105242,-62.5,4,2,3,75,0,0
105298,-62.5,4,2,1,75,0,0
105690,-55.5555555555556,4,2,7,75,0,0
105745,-55.5555555555556,4,2,1,75,0,0
106025,-62.5,4,2,1,75,0,0
106137,-62.5,4,2,3,75,0,0
106193,-62.5,4,2,1,75,0,0
106585,-62.5,4,2,3,75,0,0
106641,-62.5,4,2,1,75,0,0
107033,-62.5,4,2,3,75,0,0
107089,-62.5,4,2,1,75,0,0
107481,-62.5,4,2,7,75,0,0
107537,-62.5,4,2,1,75,0,0
107704,-62.5,4,2,2,75,0,0
108376,-62.5,4,2,1,75,0,0
108824,-62.5,4,2,3,75,0,0
108880,-62.5,4,2,1,75,0,0
109272,-55.5555555555556,4,2,7,75,0,0
109328,-55.5555555555556,4,2,1,75,0,0
109608,-62.5,4,2,1,75,0,0
109719,-62.5,4,2,3,75,0,0
109775,-62.5,4,2,1,75,0,0
110167,-62.5,4,2,3,75,0,0
110223,-62.5,4,2,1,75,0,0
110615,-62.5,4,2,3,75,0,0
110671,-62.5,4,2,1,75,0,0
111063,-55.5555555555556,4,2,7,75,0,0
111119,-55.5555555555556,4,2,1,75,0,0
111399,-62.5,4,2,1,75,0,0
111510,-62.5,4,2,3,75,0,0
111566,-62.5,4,2,1,75,0,0
111734,-50,4,2,1,75,0,0
111958,-62.5,4,2,3,75,0,0
112014,-62.5,4,2,1,75,0,0
112406,-62.5,4,2,3,75,0,0
112462,-62.5,4,2,1,75,0,0
112854,-55.5555555555556,4,2,7,75,0,0
112910,-55.5555555555556,4,2,1,75,0,0
113190,-62.5,4,2,1,75,0,0
113973,-62.5,4,2,1,50,0,0
114421,-62.5,4,2,1,50,0,0
114645,-125,4,2,1,50,0,0
115540,-100,4,2,2,60,0,0
115652,-100,4,2,1,60,0,0
115988,-71.4285714285714,4,2,1,60,0,0
116436,-100,4,2,1,60,0,0
117331,-166.666666666667,4,2,1,60,0,0
117779,-100,4,2,1,60,0,0
118563,-71.4285714285714,4,2,1,60,0,0
119122,-100,4,2,1,60,0,0
119346,-83.3333333333333,4,2,1,60,0,0
120018,-71.4285714285714,4,2,1,60,0,0
120354,-83.3333333333333,4,2,1,60,0,0
120914,-100,4,2,1,60,0,0
121809,-83.3333333333333,4,2,1,60,0,0
122481,-83.3333333333333,4,2,6,60,0,0
122705,-83.3333333333333,4,2,2,60,0,0
122816,-83.3333333333333,4,2,1,60,0,0
122928,-100,4,2,1,60,0,0
123600,-83.3333333333333,4,2,1,60,0,0
123936,-71.4285714285714,4,2,1,60,0,0
124496,-83.3333333333333,4,2,1,60,0,0
125167,-166.666666666667,4,2,1,60,0,0
125391,-83.3333333333333,4,2,1,60,0,0
126063,-83.3333333333333,4,2,5,60,0,0
126175,-83.3333333333333,4,2,6,60,0,0
126287,-83.3333333333333,4,2,1,60,0,0
127182,-125,4,2,1,60,0,0
127406,-83.3333333333333,4,2,1,60,0,0
127630,-125,4,2,1,60,0,0
127854,-83.3333333333333,4,2,1,60,0,0
128078,-50,4,2,1,60,0,0
128302,-100,4,2,1,60,0,0
128525,-62.5,4,2,1,60,0,0
129421,-250,4,2,1,60,0,0
129869,-50,4,2,1,70,0,0
130541,-50,4,2,6,70,0,0
130652,-50,4,2,1,70,0,0
130764,-71.4285714285714,4,2,5,70,0,0
130875,-71.4285714285714,4,2,1,70,0,0
130988,-100,4,2,1,70,0,0
131212,-55.5555555555556,4,2,1,70,0,0
131436,-71.4285714285714,4,2,1,70,0,0
131884,-83.3333333333333,4,2,1,70,0,0
132108,-71.4285714285714,4,2,1,70,0,0
132332,-71.4285714285714,4,2,6,70,0,0
132443,-100,4,2,1,70,0,0
132556,-100,4,2,6,70,0,0
132667,-100,4,2,1,70,0,0
132779,-125,4,2,1,70,0,0
133003,-71.4285714285714,4,2,1,70,0,0
133227,-55.5555555555556,4,2,1,70,0,0
133899,-71.4285714285714,4,2,1,70,0,0
134123,-71.4285714285714,4,2,6,70,0,0
134234,-71.4285714285714,4,2,1,70,0,0
134346,-125,4,2,5,70,0,0
134458,-125,4,2,1,70,0,0
134570,-71.4285714285714,4,2,1,70,0,0
134794,-55.5555555555556,4,2,1,70,0,0
135018,-71.4285714285714,4,2,1,70,0,0
135466,-125,4,2,1,70,0,0
135690,-62.5,4,2,1,70,0,0
135914,-62.5,4,2,6,70,0,0
136025,-62.5,4,2,1,70,0,0
136137,-83.3333333333333,4,2,6,70,0,0
136249,-83.3333333333333,4,2,1,70,0,0
137033,-83.3333333333333,4,2,1,50,0,0
140615,-45.4545454545455,4,2,1,40,0,0
140839,-125,4,2,1,45,0,0
141063,-83.3333333333333,4,2,1,50,0,0
141287,-62.5,4,2,1,55,0,0
141511,-62.5,4,2,1,60,0,0
141734,-62.5,4,2,1,65,0,0
141958,-62.5,4,2,1,70,0,0
142182,-62.5,4,2,1,75,0,0
142406,-62.5,4,2,1,75,0,0
142630,-77.6500692187434,4,2,1,75,0,0
142966,-43.9952184135191,4,2,1,75,0,0
143302,-34.6356375388303,4,2,1,75,0,0
143749,-250,4,2,1,75,0,0
144197,-62.5,4,2,1,80,0,1
144421,-62.5,4,2,4,80,0,1
144477,-62.5,4,2,1,80,0,1
144757,-45.4545454545455,4,2,1,80,0,1
144869,-45.4545454545455,4,2,2,80,0,1
144925,-45.4545454545455,4,2,1,80,0,1
145093,-100,4,2,1,80,0,1
145316,-50,4,2,4,80,0,1
145373,-50,4,2,1,80,0,1
145652,-62.5,4,2,1,80,0,1
145764,-62.5,4,2,4,80,0,1
145820,-62.5,4,2,1,80,0,1
145988,-50,4,2,1,80,0,1
146212,-50,4,2,2,80,0,1
146268,-50,4,2,1,80,0,1
146436,-62.5,4,2,1,80,0,1
146660,-62.5,4,2,2,80,0,1
146716,-62.5,4,2,1,80,0,1
147108,-45.4545454545455,4,2,4,80,0,1
147164,-45.4545454545455,4,2,1,80,0,1
147555,-100,4,2,4,80,0,1
147612,-100,4,2,1,80,0,1
147779,-62.5,4,2,1,80,0,1
148003,-62.5,4,2,4,80,0,1
148059,-62.5,4,2,1,80,0,1
148339,-45.4545454545455,4,2,1,80,0,1
148451,-45.4545454545455,4,2,2,80,0,1
148507,-45.4545454545455,4,2,1,80,0,1
148675,-100,4,2,1,80,0,1
148899,-50,4,2,4,80,0,1
148955,-50,4,2,1,80,0,1
149122,-62.5,4,2,1,80,0,1
149346,-100,4,2,4,80,0,1
149403,-100,4,2,1,80,0,1
149682,-50,4,2,1,80,0,1
149794,-50,4,2,2,80,0,1
149850,-50,4,2,1,80,0,1
150018,-62.5,4,2,1,80,0,1
150354,-50,4,2,1,80,0,1
150690,-41.6666666666667,4,2,2,80,0,1
151361,-45.4545454545455,4,2,1,80,0,1
151585,-45.4545454545455,4,2,4,80,0,1
151641,-45.4545454545455,4,2,1,80,0,1
151697,-100,4,2,1,80,0,1
151921,-62.5,4,2,1,80,0,1
152033,-62.5,4,2,2,80,0,1
152089,-62.5,4,2,1,80,0,1
152145,-83.3333333333333,4,2,1,80,0,1
152481,-41.6666666666667,4,2,4,80,0,1
152537,-41.6666666666667,4,2,1,80,0,1
152928,-100,4,2,4,80,0,1
152985,-100,4,2,1,80,0,1
153152,-50,4,2,1,80,0,1
153488,-62.5,4,2,2,80,0,1
153824,-100,4,2,1,80,0,1
154160,-50,4,2,2,80,0,1
154608,-50,4,2,1,80,0,1
154943,-45.4545454545455,4,2,1,80,0,1
155167,-45.4545454545455,4,2,4,80,0,1
155223,-45.4545454545455,4,2,1,80,0,1
155279,-62.5,4,2,1,80,0,1
155615,-50,4,2,4,80,0,1
155671,-50,4,2,1,80,0,1
156063,-62.5,4,2,4,80,0,1
156119,-62.5,4,2,1,80,0,1
156511,-62.5,4,2,4,80,0,1
156567,-62.5,4,2,1,80,0,1
156958,-62.5,4,2,4,80,0,1
157014,-62.5,4,2,1,80,0,1
157406,-62.5,4,2,4,80,0,1
157462,-62.5,4,2,1,80,0,1
157518,-100,4,2,1,80,0,1
157854,-45.4545454545455,4,2,4,80,0,1
157910,-45.4545454545455,4,2,1,80,0,1
158525,-62.5,4,2,1,80,0,1
158973,-62.5,4,2,2,80,0,1
159085,-45.4545454545455,4,2,1,80,0,1
159421,-100,4,2,1,80,0,1
159645,-50,4,2,1,80,0,1
159981,-62.5,4,2,1,80,0,1
160093,-62.5,4,2,5,80,0,1
160149,-62.5,4,2,1,80,0,1
160316,-50,4,2,1,80,0,1
160541,-50,4,2,6,80,0,1
160597,-50,4,2,1,80,0,1
160764,-62.5,4,2,1,80,0,1
160989,-62.5,4,2,6,80,0,1
161045,-62.5,4,2,1,80,0,1
161436,-45.4545454545455,4,2,5,80,0,1
161493,-45.4545454545455,4,2,1,80,0,1
161884,-100,4,2,5,80,0,1
161941,-100,4,2,1,80,0,1
162108,-62.5,4,2,1,80,0,1
162332,-62.5,4,2,5,80,0,1
162388,-62.5,4,2,1,80,0,1
162667,-45.4545454545455,4,2,1,80,0,1
162780,-45.4545454545455,4,2,6,80,0,1
162836,-45.4545454545455,4,2,1,80,0,1
163003,-100,4,2,1,80,0,1
163227,-50,4,2,5,80,0,1
163284,-50,4,2,1,80,0,1
163451,-62.5,4,2,1,80,0,1
163675,-100,4,2,5,80,0,1
163732,-100,4,2,1,80,0,1
164011,-50,4,2,1,80,0,1
164123,-50,4,2,6,80,0,1
164179,-50,4,2,1,80,0,1
164346,-62.5,4,2,1,80,0,1
164682,-50,4,2,1,80,0,1
165018,-41.6666666666667,4,2,2,80,0,1
165690,-45.4545454545455,4,2,1,80,0,1
165914,-45.4545454545455,4,2,5,80,0,1
165970,-45.4545454545455,4,2,1,80,0,1
166025,-100,4,2,1,80,0,1
166249,-62.5,4,2,1,80,0,1
166362,-62.5,4,2,6,80,0,1
166418,-62.5,4,2,1,80,0,1
166473,-83.3333333333333,4,2,1,80,0,1
166809,-41.6666666666667,4,2,5,80,0,1
166866,-41.6666666666667,4,2,1,80,0,1
167257,-100,4,2,5,80,0,1
167314,-100,4,2,1,80,0,1
167481,-50,4,2,1,80,0,1
167816,-62.5,4,2,2,80,0,1
168152,-100,4,2,1,80,0,1
168488,-50,4,2,2,80,0,1
168937,-50,4,2,1,80,0,1
169719,-62.5,4,2,3,80,0,1
169832,-62.5,4,2,1,80,0,1
169943,-100,4,2,1,80,0,1
170167,-62.5,4,2,7,80,0,1
170279,-62.5,4,2,1,80,0,1
170391,-100,4,2,1,80,0,1
170615,-62.5,4,2,1,80,0,1
170839,-100,4,2,1,80,0,1
171063,-62.5,4,2,2,80,0,1
171175,-62.5,4,2,1,80,0,1
172070,-50,4,2,3,80,0,1
172182,-50,4,2,1,80,0,1
172406,-50,4,2,1,80,0,0
172854,-45.4545454545455,4,2,1,80,0,1
173078,-45.4545454545455,4,2,2,80,0,1
173190,-45.4545454545455,4,2,1,80,0,1
173302,-62.5,4,2,1,80,0,1
173525,-62.5,4,2,2,80,0,1
173637,-50,4,2,1,80,0,1
173973,-62.5,4,2,4,80,0,1
174085,-62.5,4,2,1,80,0,1
174421,-62.5,4,2,4,80,0,1
174533,-62.5,4,2,1,80,0,1
174869,-62.5,4,2,4,80,0,1
174981,-62.5,4,2,1,80,0,1
175316,-62.5,4,2,2,80,0,1
175428,-62.5,4,2,1,80,0,1
175764,-62.5,4,2,4,80,0,1
175876,-62.5,4,2,1,80,0,1
176212,-62.5,4,2,4,80,0,1
176324,-62.5,4,2,1,80,0,1
176660,-62.5,4,2,4,80,0,1
176772,-62.5,4,2,1,80,0,1
177108,-62.5,4,2,4,80,0,1
177219,-83.3333333333333,4,2,1,80,0,1
177555,-125,4,2,4,80,0,1
177667,-125,4,2,1,80,0,1
177891,-62.5,4,2,1,80,0,1
178003,-62.5,4,2,2,80,0,1
178115,-62.5,4,2,1,80,0,1
178451,-62.5,4,2,4,80,0,1
178563,-50,4,2,1,80,0,1
179234,-62.5,4,2,1,80,0,1
179346,-38.4615384615385,4,2,2,80,0,1
179794,-62.5,4,2,2,80,0,1
180018,-50,4,2,1,80,0,1
180242,-50,4,2,2,80,0,1
180354,-50,4,2,1,80,0,1
180466,-62.5,4,2,1,80,0,1
180690,-62.5,4,2,2,80,0,1
180802,-50,4,2,1,80,0,1
181137,-62.5,4,2,4,80,0,1
181249,-62.5,4,2,1,80,0,1
181585,-62.5,4,2,4,80,0,1
181697,-62.5,4,2,1,80,0,1
181809,-45.4545454545455,4,2,1,80,0,1
182145,-41.6666666666667,4,2,2,80,0,1
182481,-62.5,4,2,1,80,0,1
182816,-62.5,4,2,2,80,0,1
183264,-50,4,2,1,80,0,1
183488,-50,4,2,2,80,0,1
183600,-45.4545454545455,4,2,1,80,0,1
183824,-45.4545454545455,4,2,2,80,0,1
183936,-45.4545454545455,4,2,1,80,0,1
184272,-45.4545454545455,4,2,2,80,0,1
184384,-62.5,4,2,1,80,0,1
184719,-62.5,4,2,4,80,0,1
184831,-62.5,4,2,1,80,0,1
185167,-62.5,4,2,4,80,0,1
185279,-62.5,4,2,1,80,0,1
185391,-62.5,4,2,2,80,0,1
185727,-50,4,2,2,80,0,1
186846,-50,4,2,1,80,0,1
187070,-62.5,4,2,1,80,0,1
187182,-62.5,4,2,2,80,0,1
187518,-62.5,4,2,1,80,0,1
187854,-50,4,2,2,80,0,1
188190,-45.4545454545455,4,2,1,50,0,1
188749,-45.4545454545455,4,2,1,60,0,1
188973,-45.4545454545455,4,2,69,50,0,0
189085,-45.4545454545455,4,2,1,50,0,0
196137,-45.4545454545455,4,2,7,50,0,0
200167,-45.4545454545455,4,2,7,55,0,0
200615,-45.4545454545455,4,2,7,60,0,0
201063,-45.4545454545455,4,2,7,65,0,0
201511,-45.4545454545455,4,2,7,70,0,0
201622,-45.4545454545455,4,2,1,45,0,0
201734,-45.4545454545455,4,2,1,50,0,0
201846,-45.4545454545455,4,2,1,55,0,0
201958,-45.4545454545455,4,2,1,60,0,0
202070,-45.4545454545455,4,2,1,65,0,0
202182,-45.4545454545455,4,2,1,70,0,0
202294,-45.4545454545455,4,2,1,75,0,0
202630,-83.3333333333333,4,2,1,75,0,0
202854,-83.3333333333333,4,2,3,80,0,0
202966,-83.3333333333333,4,2,1,80,0,0
203302,-62.5,4,2,1,80,0,1
203526,-62.5,4,2,4,80,0,1
203582,-62.5,4,2,1,80,0,1
203861,-45.4545454545455,4,2,1,80,0,1
203974,-45.4545454545455,4,2,2,80,0,1
204030,-45.4545454545455,4,2,1,80,0,1
204197,-100,4,2,1,80,0,1
204421,-50,4,2,4,80,0,1
204478,-50,4,2,1,80,0,1
204757,-62.5,4,2,1,80,0,1
204869,-62.5,4,2,4,80,0,1
204925,-62.5,4,2,1,80,0,1
205093,-50,4,2,1,80,0,1
205317,-50,4,2,2,80,0,1
205373,-50,4,2,1,80,0,1
205540,-62.5,4,2,1,80,0,1
205765,-62.5,4,2,2,80,0,1
205821,-62.5,4,2,1,80,0,1
206212,-45.4545454545455,4,2,4,80,0,1
206269,-45.4545454545455,4,2,1,80,0,1
206660,-100,4,2,4,80,0,1
206717,-100,4,2,1,80,0,1
206884,-62.5,4,2,1,80,0,1
207108,-62.5,4,2,4,80,0,1
207164,-62.5,4,2,1,80,0,1
207443,-45.4545454545455,4,2,1,80,0,1
207556,-45.4545454545455,4,2,2,80,0,1
207612,-45.4545454545455,4,2,1,80,0,1
207779,-100,4,2,1,80,0,1
208003,-50,4,2,4,80,0,1
208060,-50,4,2,1,80,0,1
208227,-62.5,4,2,1,80,0,1
208451,-100,4,2,4,80,0,1
208508,-100,4,2,1,80,0,1
208787,-50,4,2,1,80,0,1
208899,-50,4,2,2,80,0,1
208955,-50,4,2,1,80,0,1
209122,-62.5,4,2,1,80,0,1
209458,-50,4,2,1,80,0,1
209794,-41.6666666666667,4,2,2,80,0,1
210466,-45.4545454545455,4,2,1,80,0,1
210690,-45.4545454545455,4,2,4,80,0,1
210746,-45.4545454545455,4,2,1,80,0,1
210802,-100,4,2,1,80,0,1
211025,-62.5,4,2,1,80,0,1
211138,-62.5,4,2,2,80,0,1
211194,-62.5,4,2,1,80,0,1
211249,-83.3333333333333,4,2,1,80,0,1
211585,-41.6666666666667,4,2,4,80,0,1
211642,-41.6666666666667,4,2,1,80,0,1
212033,-100,4,2,4,80,0,1
212090,-100,4,2,1,80,0,1
212257,-41.6666666666667,4,2,1,80,0,1
212593,-55.5555555555556,4,2,2,80,0,1
212928,-83.3333333333333,4,2,1,80,0,1
213264,-50,4,2,2,80,0,1
213713,-50,4,2,1,80,0,1
214048,-45.4545454545455,4,2,1,80,0,1
214272,-45.4545454545455,4,2,4,80,0,1
214328,-45.4545454545455,4,2,1,80,0,1
214384,-62.5,4,2,1,80,0,1
214719,-50,4,2,4,80,0,1
214776,-50,4,2,1,80,0,1
215167,-62.5,4,2,4,80,0,1
215224,-62.5,4,2,1,80,0,1
215616,-62.5,4,2,4,80,0,1
215672,-62.5,4,2,1,80,0,1
216063,-62.5,4,2,4,80,0,1
216119,-62.5,4,2,1,80,0,1
216511,-62.5,4,2,4,80,0,1
216567,-62.5,4,2,1,80,0,1
216622,-100,4,2,1,80,0,1
216958,-45.4545454545455,4,2,4,80,0,1
217015,-45.4545454545455,4,2,1,80,0,1
217630,-62.5,4,2,1,80,0,1
218078,-62.5,4,2,2,80,0,1
218190,-45.4545454545455,4,2,1,80,0,1
218525,-100,4,2,1,80,0,1
218749,-50,4,2,1,80,0,1
219085,-62.5,4,2,1,80,0,1
219198,-62.5,4,2,5,80,0,1
219254,-62.5,4,2,1,80,0,1
219421,-50,4,2,1,80,0,1
219646,-50,4,2,6,80,0,1
219702,-50,4,2,1,80,0,1
219869,-62.5,4,2,1,80,0,1
220094,-62.5,4,2,6,80,0,1
220150,-62.5,4,2,1,80,0,1
220540,-50,4,2,5,80,0,1
220598,-50,4,2,1,80,0,1
220988,-100,4,2,5,80,0,1
221046,-100,4,2,1,80,0,1
221212,-62.5,4,2,1,80,0,1
221437,-62.5,4,2,5,80,0,1
221493,-62.5,4,2,1,80,0,1
221772,-45.4545454545455,4,2,1,80,0,1
221885,-45.4545454545455,4,2,6,80,0,1
221941,-45.4545454545455,4,2,1,80,0,1
222108,-100,4,2,1,80,0,1
222331,-50,4,2,5,80,0,1
222389,-50,4,2,1,80,0,1
222555,-62.5,4,2,1,80,0,1
222779,-100,4,2,5,80,0,1
222837,-100,4,2,1,80,0,1
223115,-50,4,2,1,80,0,1
223228,-50,4,2,6,80,0,1
223284,-50,4,2,1,80,0,1
223451,-62.5,4,2,1,80,0,1
223787,-50,4,2,1,80,0,1
224122,-41.6666666666667,4,2,2,80,0,1
224794,-45.4545454545455,4,2,1,80,0,1
225019,-45.4545454545455,4,2,5,80,0,1
225075,-45.4545454545455,4,2,1,80,0,1
225130,-100,4,2,1,80,0,1
225354,-62.5,4,2,1,80,0,1
225467,-62.5,4,2,6,80,0,1
225523,-62.5,4,2,1,80,0,1
225578,-83.3333333333333,4,2,1,80,0,1
225914,-41.6666666666667,4,2,5,80,0,1
225971,-41.6666666666667,4,2,1,80,0,1
226361,-100,4,2,5,80,0,1
226419,-100,4,2,1,80,0,1
226585,-41.6666666666667,4,2,1,80,0,1
226921,-55.5555555555556,4,2,2,80,0,1
227257,-83.3333333333333,4,2,1,80,0,1
227593,-50,4,2,2,80,0,1
228042,-50,4,2,1,80,0,1
228824,-62.5,4,2,3,80,0,1
228937,-62.5,4,2,1,80,0,1
229048,-100,4,2,1,80,0,1
229272,-62.5,4,2,7,80,0,1
229384,-62.5,4,2,1,80,0,1
229496,-100,4,2,1,80,0,1
229719,-62.5,4,2,1,80,0,1
229943,-100,4,2,1,80,0,1
230167,-100,4,2,2,80,0,1
230279,-50,4,2,2,80,0,1
230615,-62.5,4,2,2,80,0,1
230951,-62.5,4,2,1,80,0,1
231063,-100,4,2,1,80,0,1
231287,-62.5,4,2,1,80,0,1
231958,-50,4,2,1,80,0,1
232406,-62.5,4,2,3,80,0,1
232518,-62.5,4,2,1,80,0,1
232854,-62.5,4,2,7,80,0,1
232966,-62.5,4,2,1,80,0,1
233078,-100,4,2,1,80,0,1
233302,-62.5,4,2,1,80,0,1
233525,-100,4,2,1,80,0,1
233749,-62.5,4,2,2,80,0,1
234757,-50,4,2,3,80,0,1
234869,-50,4,2,1,80,0,1
235093,-50,4,2,1,80,0,0
237331,-62.5,4,2,1,75,0,0
237779,-62.5,4,2,3,75,0,0
237835,-62.5,4,2,1,75,0,0
238227,-55.5555555555556,4,2,7,75,0,0
238282,-55.5555555555556,4,2,1,75,0,0
238563,-62.5,4,2,1,75,0,0
238674,-62.5,4,2,3,75,0,0
238730,-62.5,4,2,1,75,0,0
239122,-62.5,4,2,3,75,0,0
239178,-62.5,4,2,1,75,0,0
239570,-62.5,4,2,3,75,0,0
239626,-62.5,4,2,1,75,0,0
240018,-55.5555555555556,4,2,7,75,0,0
240073,-55.5555555555556,4,2,1,75,0,0
240354,-62.5,4,2,1,75,0,0
240465,-62.5,4,2,3,75,0,0
240521,-62.5,4,2,1,75,0,0
240690,-50,4,2,1,75,0,0
240914,-62.5,4,2,3,75,0,0
240969,-62.5,4,2,1,75,0,0
241361,-62.5,4,2,3,75,0,0
241417,-62.5,4,2,1,75,0,0
241809,-55.5555555555556,4,2,7,75,0,0
241864,-55.5555555555556,4,2,1,75,0,0
242145,-62.5,4,2,1,75,0,0
242256,-62.5,4,2,3,75,0,0
242312,-62.5,4,2,1,75,0,0
242704,-62.5,4,2,3,75,0,0
242760,-62.5,4,2,1,75,0,0
243152,-62.5,4,2,3,75,0,0
243208,-62.5,4,2,1,75,0,0
243600,-62.5,4,2,7,75,0,0
243656,-62.5,4,2,1,75,0,0
243823,-62.5,4,2,2,75,0,0
244495,-62.5,4,2,1,75,0,0
244943,-62.5,4,2,3,75,0,0
244999,-62.5,4,2,1,75,0,0
245391,-55.5555555555556,4,2,7,75,0,0
245447,-55.5555555555556,4,2,1,75,0,0
245727,-62.5,4,2,1,75,0,0
245838,-62.5,4,2,3,75,0,0
245894,-62.5,4,2,1,75,0,0
246286,-62.5,4,2,3,75,0,0
246342,-62.5,4,2,1,75,0,0
246734,-62.5,4,2,3,75,0,0
246790,-62.5,4,2,1,75,0,0
247182,-55.5555555555556,4,2,7,75,0,0
247238,-55.5555555555556,4,2,1,75,0,0
247518,-62.5,4,2,1,75,0,0
247629,-62.5,4,2,3,75,0,0
247685,-62.5,4,2,1,75,0,0
247854,-50,4,2,1,75,0,0
248078,-62.5,4,2,3,75,0,0
248133,-62.5,4,2,1,75,0,0
248525,-62.5,4,2,3,75,0,0
248581,-62.5,4,2,1,75,0,0
248973,-50,4,2,7,75,0,0
249029,-50,4,2,1,75,0,0
249309,-62.5,4,2,1,75,0,0
250092,-62.5,4,2,1,50,0,0
250540,-62.5,4,2,1,50,0,0

[Colours]
Combo1 : 128,128,255
Combo2 : 148,221,245
Combo3 : 94,166,255

[HitObjects]
40,371,914,6,0,L|91:378,1,44,6|0,0:1|0:0,0:0:0:0:
90,371,1137,5,2,0:0:0:0:
10,353,1249,2,0,L|113:367,1,88,2|2,0:0|0:0,0:0:0:0:
186,219,1697,6,0,B|160:205|160:205|127:147|127:147|121:214|121:214|104:237,1,192.5,2|0,0:0|0:0,0:0:0:0:
141,302,2033,2,0,B|152:308|152:308|168:335|168:335|170:304|170:304|178:293,2,88,2|2|2,0:0|0:0|0:0,0:0:0:0:
334,276,2705,6,0,L|385:283,1,44,2|0,0:0|0:0,0:0:0:0:
384,277,2928,5,2,0:0:0:0:
258,279,3040,2,0,B|311:303|311:303|321:334|321:334|389:362,1,154,2|2,0:0|0:0,0:0:0:0:
482,177,3488,6,0,P|469:130|432:209,1,192.5,2|0,0:0|0:0,0:0:0:0:
381,268,3824,2,0,L|473:305,2,88,2|2|2,0:0|0:0|0:0,0:0:0:0:
257,89,4496,6,0,L|257:33,1,44,2|0,0:1|0:0,0:0:0:0:
262,42,4719,5,2,0:0:0:0:
271,121,4831,2,0,L|271:21,1,88,2|2,0:0|0:0,0:0:0:0:
364,105,5279,6,0,B|293:135|293:135|280:173|280:173|197:207,1,192.5,2|0,0:0|0:0,0:0:0:0:
146,125,5615,2,0,B|129:106|129:106|198:127,2,88,2|2|2,0:0|0:0|0:0,0:0:0:0:
144,254,6287,6,0,L|127:204,1,44,2|0,0:0|0:0,0:0:0:0:
123,207,6511,5,2,0:0:0:0:
62,300,6622,2,0,P|116:285|178:373,1,154,2|2,0:0|0:0,0:0:0:0:
353,320,7070,6,0,P|340:367|303:288,1,192.5,2|0,0:0|0:0,0:0:0:0:
295,229,7406,2,0,L|261:131,2,88,2|2|2,0:0|0:0|0:0,0:0:0:0:
271,296,8078,6,0,P|325:311|387:223,1,176,2|0,0:1|0:0,0:0:0:0:
458,193,8749,5,0,0:0:0:0:
383,219,8861,2,0,L|513:251,1,132,2|2,0:0|0:0,0:0:0:0:
441,119,9421,2,0,L|424:53,1,65.9999999999999,2|2,0:0|0:0,0:0:0:0:
309,92,9869,6,0,L|358:106,1,44,2|0,0:0|0:0,0:0:0:0:
358,99,10093,5,2,0:0:0:0:
302,173,10205,2,0,P|248:158|186:246,1,154,2|2,0:0|0:0,0:0:0:0:
7,110,10652,6,0,P|24:155|54:73,1,192.5,2|0,0:0|0:0,0:0:0:0:
131,26,10988,2,0,L|229:41,2,88,2|2|2,0:0|0:0|0:0,0:0:0:0:
72,80,11660,6,0,L|114:261,1,176,2|0,0:0|0:0,0:0:0:0:
256,192,12219,12,0,13339,0:0:0:0:
282,354,13451,6,0,L|307:359,1,22,2|0,0:0|0:0,0:0:0:0:
221,271,13563,2,0,L|199:266,1,22,2|0,0:0|0:0,0:0:0:0:
181,353,13675,6,0,B|241:335|241:335|256:294|256:294|348:265,1,176,2|0,0:0|0:0,0:0:0:0:
416,295,14011,2,0,B|415:273|415:273|376:340,1,88,2|2,0:0|0:0,0:0:0:0:
434,383,14234,5,2,0:0:0:0:
326,263,14346,2,0,B|364:282|367:315|367:315|521:363,1,220,2|0,0:0|0:0,0:0:0:0:
488,266,14682,5,2,0:0:0:0:
416,295,14794,1,2,0:0:0:0:
358,192,14906,5,2,0:0:0:0:
426,221,15018,2,0,L|452:155,1,66,2|0,0:0|0:0,0:0:0:0:
491,91,15242,6,0,B|479:67|479:67|404:88,1,88,12|0,0:1|0:0,0:0:0:0:
274,24,15466,5,2,0:0:0:0:
363,9,15578,2,0,L|325:104,1,88,10|8,0:1|0:2,0:0:0:0:
190,157,15802,5,8,0:1:0:0:
194,144,15914,1,2,0:0:0:0:
206,152,16025,1,10,0:2:0:0:
288,156,16137,6,0,B|211:180|211:180|201:214|201:214|104:243,1,198,2|8,0:3|0:1,0:0:0:0:
32,173,16473,2,0,B|44:149|44:149|119:170,1,88,2|8,0:0|0:2,0:0:0:0:
129,244,16697,5,8,0:1:0:0:
56,324,16809,2,0,B|32:312|32:312|53:237,1,88,2|8,0:0|0:2,0:0:0:0:
135,251,17033,5,8,0:1:0:0:
105,384,17145,1,8,0:2:0:0:
173,332,17257,5,2,0:0:0:0:
168,341,17369,2,0,L|278:323,1,88,10|8,0:1|0:2,0:0:0:0:
380,370,17593,5,8,0:1:0:0:
376,357,17705,1,2,0:0:0:0:
364,365,17816,1,10,0:2:0:0:
262,334,17928,6,0,P|322:360|365:247,1,198,2|8,0:3|0:1,0:0:0:0:
440,178,18264,2,0,B|452:154|452:154|527:175,1,88,2|8,0:0|0:2,0:0:0:0:
370,256,18488,5,8,0:1:0:0:
483,243,18600,2,0,L|304:187,1,165,2|0,0:0|0:0,0:0:0:0:
322,186,18824,6,0,L|350:96,1,88,8|0,0:1|0:0,0:0:0:0:
273,38,19048,5,2,0:0:0:0:
342,97,19160,2,0,L|258:123,1,88,10|8,0:1|0:2,0:0:0:0:
87,73,19384,5,8,0:1:0:0:
79,61,19496,1,2,0:0:0:0:
92,57,19608,1,10,0:2:0:0:
159,1,19719,6,0,B|135:78|135:78|101:88|101:88|72:185,1,198,2|8,0:3|0:1,0:0:0:0:
114,231,20055,2,0,B|102:255|102:255|27:234,1,88,2|8,0:0|0:2,0:0:0:0:
73,158,20279,5,8,0:1:0:0:
186,141,20391,2,0,B|210:153|210:153|189:228,1,88,2|8,0:0|0:2,0:0:0:0:
165,370,20615,5,8,0:1:0:0:
116,242,20727,1,8,0:2:0:0:
208,289,20839,5,2,0:0:0:0:
201,297,20951,2,0,L|308:321,1,88,10|8,0:1|0:2,0:0:0:0:
360,163,21175,5,8,0:1:0:0:
348,154,21287,1,2,0:0:0:0:
343,167,21399,1,10,0:2:0:0:
411,231,21511,6,0,L|304:255,1,88,2|8,0:3|0:2,0:0:0:0:
251,149,21734,5,12,0:1:0:0:
285,85,21846,2,0,L|392:61,1,88,2|8,0:0|0:2,0:0:0:0:
144,17,22070,5,8,0:2:0:0:
113,88,22182,1,10,0:2:0:0:
184,119,22294,1,8,0:2:0:0:
104,83,22406,6,0,L|18:102,1,88,12|0,0:1|0:0,0:0:0:0:
59,214,22630,5,2,0:0:0:0:
146,186,22742,2,0,L|60:205,1,88,10|8,0:1|0:2,0:0:0:0:
237,285,22966,5,8,0:1:0:0:
232,272,23078,1,2,0:0:0:0:
220,281,23190,1,10,0:2:0:0:
131,280,23302,6,0,B|208:304|208:304|218:338|218:338|315:367,1,198,2|8,0:3|0:1,0:0:0:0:
390,296,23637,2,0,B|378:272|378:272|303:293,1,88,2|8,0:0|0:2,0:0:0:0:
291,369,23861,5,8,0:1:0:0:
387,376,23973,2,0,B|411:364|411:364|390:289,1,88,2|8,0:0|0:2,0:0:0:0:
365,180,24197,5,8,0:1:0:0:
469,285,24309,1,8,0:2:0:0:
373,187,24421,5,2,0:0:0:0:
363,193,24533,2,0,L|466:215,1,88,10|8,0:1|0:2,0:0:0:0:
506,91,24757,5,8,0:1:0:0:
494,82,24869,1,2,0:0:0:0:
489,95,24981,1,10,0:2:0:0:
413,127,25093,6,0,P|353:153|310:40,1,198,2|8,0:3|0:1,0:0:0:0:
178,32,25428,2,0,B|166:8|166:8|91:29,1,88,2|8,0:0|0:2,0:0:0:0:
73,108,25652,5,8,0:1:0:0:
19,38,25764,2,0,B|80:57|80:57|88:84|88:84|166:107,1,165,2|0,0:0|0:0,0:0:0:0:
164,113,25988,6,0,L|134:211,1,88,8|0,0:1|0:0,0:0:0:0:
31,321,26212,5,2,0:0:0:0:
11,236,26324,2,0,L|109:266,1,88,10|8,0:1|0:2,0:0:0:0:
214,261,26548,5,8,0:1:0:0:
202,252,26660,1,2,0:0:0:0:
197,265,26772,1,10,0:2:0:0:
145,324,26884,6,0,P|205:355|287:260,1,198,2|8,0:3|0:1,0:0:0:0:
400,378,27219,2,0,B|412:354|412:354|487:375,1,88,10|8,0:2|0:2,0:0:0:0:
431,223,27443,5,8,0:1:0:0:
370,293,27555,2,0,L|360:246,1,44,6|8,0:3|0:1,0:0:0:0:
334,123,27779,5,12,0:2:0:0:
434,0,28451,5,2,0:0:0:0:
435,9,28563,1,2,0:0:0:0:
510,34,28675,6,0,L|366:65,2,132,2|2|2,0:0|0:0|0:0,0:0:0:0:
100,79,29570,6,0,B|123:55|123:55|129:-10|129:-10|157:49|157:49|187:64,1,198,12|0,0:1|0:0,0:0:0:0:
268,77,30018,6,0,L|242:151,1,66,10|0,0:0|0:0,0:0:0:0:
191,72,30242,1,2,0:2:0:0:
243,146,30466,6,0,L|189:146,1,44,2|8,0:2|0:1,0:0:0:0:
102,86,30690,5,8,0:1:0:0:
191,147,30802,2,0,L|139:294,1,132,2|8,0:2|0:2,0:0:0:0:
246,224,31137,2,0,L|290:224,1,44,2|0,0:2|0:0,0:0:0:0:
65,266,31361,6,0,B|137:288|137:288|151:330|151:330|238:359,1,198,10|10,0:1|0:1,0:0:0:0:
275,294,31809,6,0,L|301:219,1,66,8|8,0:2|0:1,0:0:0:0:
139,354,32033,2,0,L|95:354,1,44,2|8,0:2|0:2,0:0:0:0:
282,301,32257,2,0,L|324:316,1,44,2|8,0:2|0:2,0:0:0:0:
479,273,32481,6,0,P|464:222|408:291,1,192.5,8|0,0:1|0:0,0:0:0:0:
404,297,32816,2,0,P|384:373|332:314,1,192.5,8|0,0:1|0:0,0:0:0:0:
487,383,33152,6,0,P|369:323|299:191,1,264,8|0,0:1|0:0,0:0:0:0:
233,188,33600,6,0,P|238:152|266:123,1,66,10|8,0:0|0:1,0:0:0:0:
310,206,33824,1,2,0:2:0:0:
386,200,34048,6,0,P|407:196|429:207,1,44,2|8,0:2|0:1,0:0:0:0:
312,216,34272,1,8,0:1:0:0:
365,123,34384,6,0,P|405:197|391:293,1,176,2|8,0:2|0:2,0:0:0:0:
445,344,34719,2,0,P|415:374|367:382,1,66,2|8,0:2|0:2,0:0:0:0:
387,287,34943,5,10,0:1:0:0:
276,296,35055,2,0,P|305:326|353:334,1,66,8|0,0:2|0:0,0:0:0:0:
386,278,35279,6,0,P|306:311|260:384,1,176,10|8,0:1|0:1,0:0:0:0:
199,281,35615,6,0,L|140:295,1,44,2|8,0:2|0:2,0:0:0:0:
106,346,35839,2,0,P|107:367|121:384,1,44,2|8,0:2|0:2,0:0:0:0:
202,271,36063,6,0,B|212:237|241:227|241:227|216:57,1,220,8|0,0:1|0:0,0:0:0:0:
212,64,36399,2,0,P|183:94|285:108,1,220,8|0,0:1|0:0,0:0:0:0:
380,131,36734,6,0,B|357:107|357:107|351:42|351:42|323:101|323:101|293:116,1,198,12|0,0:1|0:0,0:0:0:0:
352,204,37182,6,0,L|430:220,1,66,10|0,0:0|0:0,0:0:0:0:
387,135,37406,1,2,0:2:0:0:
424,222,37630,6,0,L|449:176,1,44,2|8,0:2|0:1,0:0:0:0:
388,127,37854,5,8,0:1:0:0:
508,237,37966,2,0,B|459:255|459:255|451:279|451:279|383:301,1,132,2|8,0:2|0:2,0:0:0:0:
469,373,38302,2,0,L|524:384,1,44,2|0,0:2|0:0,0:0:0:0:
390,297,38525,6,0,P|356:269|304:373,1,198,10|10,0:1|0:1,0:0:0:0:
385,371,38973,6,0,L|478:390,1,66,8|8,0:2|0:1,0:0:0:0:
327,239,39197,2,0,L|315:184,1,44,2|8,0:2|0:2,0:0:0:0:
271,288,39421,2,0,L|212:299,1,44,2|8,0:2|0:2,0:0:0:0:
75,260,39645,6,0,P|90:209|146:278,1,192.5,8|0,0:1|0:0,0:0:0:0:
150,284,39981,2,0,P|170:360|222:301,1,192.5,8|0,0:1|0:0,0:0:0:0:
53,372,40316,6,0,B|130:348|130:348|140:314|140:314|236:287,1,198,10|0,0:1|0:0,0:0:0:0:
246,156,40652,2,0,B|232:189|232:189|237:147,1,66,2|8,0:2|0:0,0:0:0:0:
232,147,40876,1,8,0:1:0:0:
317,196,40988,6,0,L|365:211,1,44,2|8,0:2|0:0,0:0:0:0:
289,45,41212,2,0,B|273:9|273:9|279:54,1,66,2|8,0:2|0:1,0:0:0:0:
392,144,41436,6,0,L|452:125,1,44,10|0,0:1|0:0,0:0:0:0:
210,70,41660,2,0,B|193:60|193:60|124:79,1,77,10|8,0:2|0:2,0:0:0:0:
322,205,41884,6,0,L|366:58,1,148.5,2|0,0:2|0:0,0:0:0:0:
371,57,42108,6,0,P|418:57|478:0,1,132,10|0,0:1|0:0,0:0:0:0:
316,125,42443,2,0,P|274:76|210:70,1,132,10|8,0:1|0:1,0:0:0:0:
78,124,42779,5,0,0:0:0:0:
47,42,42891,2,0,P|87:73|108:212,1,176,10|4,0:3|0:3,0:0:0:0:
205,268,43227,6,0,P|198:286|150:310,1,66,10|8,0:1|0:2,0:0:0:0:
122,196,43451,1,8,0:2:0:0:
42,219,43563,6,0,P|48:237|96:261,1,66,10|8,0:2|0:2,0:0:0:0:
164,318,43787,1,8,0:2:0:0:
97,375,43899,6,0,P|119:294|261:170,1,264,12|0,0:1|0:0,0:0:0:0:
261,253,44346,6,0,P|281:251|322:276,1,66,10|0,0:0|0:0,0:0:0:0:
251,167,44570,1,2,0:2:0:0:
401,264,44794,5,2,0:2:0:0:
411,267,44906,1,8,0:1:0:0:
409,257,45018,1,8,0:1:0:0:
324,282,45130,6,0,P|391:231|421:152,1,154,2|8,0:2|0:2,0:0:0:0:
419,88,45466,6,0,B|417:75|401:64|401:64|448:66|467:102|431:122|387:146|420:162,1,165,2|0,0:2|0:0,0:0:0:0:
492,192,45690,6,0,P|452:152|318:106,1,192.5,10|0,0:1|0:0,0:0:0:0:
258,174,46025,2,0,P|238:184|204:229,1,66,10|8,0:1|0:2,0:0:0:0:
274,52,46249,5,8,0:1:0:0:
320,112,46361,2,0,P|244:92|185:42,1,132,2|0,0:2|0:0,0:0:0:0:
131,35,46585,2,0,P|111:45|77:90,1,66,2|8,0:2|0:2,0:0:0:0:
27,166,46809,6,0,P|44:106|109:186,1,220,8|0,0:1|0:0,0:0:0:0:
114,193,47145,2,0,P|137:281|197:212,1,220,8|0,0:1|0:0,0:0:0:0:
17,256,47481,6,0,P|105:219|274:176,1,264,8|0,0:1|0:0,0:0:0:0:
317,234,47928,2,0,B|325:242|328:256|328:256|390:277,1,66,10|8,0:0|0:1,0:0:0:0:
459,189,48152,1,2,0:2:0:0:
342,158,48376,6,0,B|352:147|356:129|356:129|437:101,1,88,2|8,0:2|0:1,0:0:0:0:
469,191,48600,1,8,0:1:0:0:
407,38,48712,6,0,P|428:116|476:301,1,247.5,2|0,0:2|0:0,0:0:0:0:
478,282,49048,6,0,B|375:316|375:316|377:353|345:375,1,165,2|0,0:2|0:0,0:0:0:0:
348,361,49272,5,10,0:1:0:0:
501,359,49384,2,0,B|436:334|436:334|427:293|427:293|348:263,1,176,8|10,0:2|0:1,0:0:0:0:
281,321,49719,6,0,L|212:338,1,66,8|8,0:2|0:1,0:0:0:0:
374,263,49943,2,0,L|362:215,1,44,2|8,0:2|0:2,0:0:0:0:
199,257,50167,6,0,B|168:234|168:234|218:249,1,66,2|8,0:2|0:2,0:0:0:0:
287,327,50391,6,0,B|297:293|326:283|326:283|295:115,1,220,8|0,0:1|0:0,0:0:0:0:
293,119,50727,2,0,B|340:90|340:90|227:137|227:137|182:144,1,220,8|0,0:1|0:0,0:0:0:0:
186,56,51063,6,0,P|232:128|406:144,1,264,12|0,0:1|0:0,0:0:0:0:
464,186,51511,6,0,P|486:174|497:123,1,66,10|0,0:0|0:0,0:0:0:0:
393,142,51734,1,2,0:2:0:0:
343,286,51958,5,2,0:2:0:0:
333,289,52070,1,8,0:1:0:0:
335,279,52182,1,8,0:1:0:0:
339,198,52294,6,0,P|345:247|433:298,1,154,2|8,0:2|0:2,0:0:0:0:
503,296,52630,6,0,B|516:294|527:278|527:278|525:325|489:344|469:308|445:264|429:297,1,165,2|0,0:2|0:0,0:0:0:0:
399,384,52854,6,0,P|414:314|471:151,1,220,10|0,0:1|0:0,0:0:0:0:
390,132,53190,2,0,P|384:107|364:51,1,66,10|8,0:1|0:2,0:0:0:0:
463,96,53414,5,8,0:1:0:0:
385,138,53525,2,0,P|335:127|221:87,1,132,2|0,0:2|0:0,0:0:0:0:
205,18,53749,2,0,P|179:17|150:45,1,66,2|8,0:2|0:2,0:0:0:0:
248,107,53973,6,0,P|231:47|166:127,1,220,8|0,0:1|0:0,0:0:0:0:
161,134,54309,2,0,P|138:222|78:153,1,220,8|0,0:1|0:0,0:0:0:0:
15,114,54645,6,0,P|94:131|276:195,1,247.5,10|0,0:1|0:0,0:0:0:0:
253,260,54981,2,0,B|261:268|264:282|264:282|326:303,1,66,2|8,0:2|0:0,0:0:0:0:
428,282,55205,5,8,0:1:0:0:
373,337,55316,2,0,L|389:286,1,44,2|8,0:2|0:0,0:0:0:0:
346,118,55540,6,0,B|324:83|324:83|335:122,1,77,2|8,0:2|0:1,0:0:0:0:
338,226,55764,2,0,B|347:216|351:199|351:199|425:174,1,77,10|0,0:1|0:0,0:0:0:0:
466,79,55988,5,10,0:2:0:0:
459,63,56100,1,8,0:2:0:0:
500,200,56212,6,0,B|428:178|428:178|414:136|414:136|339:111,1,198,14|0,0:1|0:0,0:0:0:0:
217,12,56548,2,0,L|141:33,1,66,8|0,0:0|0:0,0:0:0:0:
330,110,56772,1,8,0:1:0:0:
232,160,56884,6,0,L|262:54,1,88,14|8,0:2|0:1,0:0:0:0:
89,113,57108,2,0,L|130:101,1,44,2|8,0:0|0:0,0:0:0:0:
325,33,57331,6,0,B|352:3|352:3|308:29,1,77,10|8,0:0|0:0,0:0:0:0:
240,164,57555,2,0,L|256:223,1,55,8|8,0:3|0:0,0:0:0:0:
168,307,57779,5,10,0:0:0:0:
97,278,57891,1,8,0:3:0:0:
154,286,58003,5,10,0:0:0:0:
119,300,58115,1,0,0:0:0:0:
156,384,58227,6,0,B|166:350|195:340|195:340|156:174,1,220,14|0,0:1|0:0,0:0:0:0:
151,179,58563,5,8,0:1:0:0:
0,108,58675,2,0,B|41:187|41:187|105:109,1,176,10|2,0:2|0:3,0:0:0:0:
179,100,59011,5,2,0:0:0:0:
174,95,59122,2,0,L|82:112,1,77,2|0,0:3|0:0,0:0:0:0:
92,33,59346,2,0,L|149:22,1,55,10|0,0:1|0:0,0:0:0:0:
338,67,59570,6,0,B|304:-1|304:-1|251:63,1,148.5,10|0,0:2|0:0,0:0:0:0:
249,59,59794,6,0,B|334:89|334:89|343:131|343:131|444:166,1,231,14|0,0:1|0:0,0:0:0:0:
496,106,60242,6,0,B|475:74|475:74|483:131,1,66,10|0,0:1|0:0,0:0:0:0:
407,280,60466,2,0,L|446:157,1,115.5,8|0,0:2|0:0,0:0:0:0:
450,170,60690,5,2,0:3:0:0:
296,197,60802,2,0,L|351:214,1,55,8|2,0:2|0:3,0:0:0:0:
462,365,61025,5,0,0:0:0:0:
455,369,61137,2,0,L|400:352,1,44,10|0,0:1|0:0,0:0:0:0:
213,279,61361,6,0,B|236:242|236:242|227:307,1,77,10|0,0:2|0:0,0:0:0:0:
397,283,61585,2,0,P|373:338|278:309,1,148.5,2|0,0:2|0:0,0:0:0:0:
236,284,61809,6,0,B|165:307|165:307|158:342|158:342|75:371,1,176,14|0,0:1|0:0,0:0:0:0:
72,183,62145,5,8,0:1:0:0:
1,205,62257,2,0,P|25:260|120:231,1,154,10|2,0:2|0:3,0:0:0:0:
189,150,62593,5,2,0:2:0:0:
197,158,62705,2,0,L|177:213,1,55,2|8,0:3|0:2,0:0:0:0:
24,45,62928,2,0,B|6:12|6:12|50:46,1,66,10|0,0:1|0:0,0:0:0:0:
200,146,63152,6,0,B|158:152|143:119|145:116|147:113|131:71|75:88,1,132,10|0,0:2|0:0,0:0:0:0:
86,89,63376,6,0,P|175:103|311:-3,1,264,14|0,0:1|0:0,0:0:0:0:
377,140,63824,6,0,P|354:143|320:117,1,66,10|0,0:1|0:0,0:0:0:0:
210,0,64048,2,0,P|228:69|257:220,1,220,8|0,0:2|0:0,0:0:0:0:
266,221,64384,5,8,0:2:0:0:
317,277,64496,2,0,P|307:311|293:386,1,77,2|0,0:3|0:0,0:0:0:0:
135,244,64719,6,0,P|156:246|187:222,1,55,10|0,0:1|0:0,0:0:0:0:
365,217,64943,5,10,0:2:0:0:
417,271,65055,1,8,0:2:0:0:
449,251,65167,1,10,0:3:0:0:
466,261,65279,1,4,0:3:0:0:
477,257,65391,5,2,0:1:0:0:
0,1,68973,6,0,L|133:28,1,115.5,14|0,0:1|0:0,0:0:0:0:
117,30,69197,2,0,L|166:40,1,44,8|0,0:1|0:0,0:0:0:0:
285,40,69421,6,0,P|262:31|236:54,1,55,10|0,0:2|0:0,0:0:0:0:
162,45,69645,2,0,L|146:119,1,66,10|0,0:2|0:0,0:0:0:0:
0,184,69869,6,0,P|23:193|49:170,1,55,8|0,0:2|0:0,0:0:0:0:
157,134,70093,2,0,L|141:208,1,66,10|0,0:2|0:0,0:0:0:0:
242,358,70316,6,0,P|211:369|178:339,1,77,10|0,0:2|0:0,0:0:0:0:
109,226,70540,2,0,L|90:310,1,77,8|0,0:2|0:0,0:0:0:0:
7,378,70764,5,0,0:0:0:0:
3,370,70876,1,0,0:0:0:0:
0,363,70988,2,0,B|11:365|11:365|12:363|12:363|12:366|12:366|21:368|21:368|23:365|23:365|22:368|22:368|32:370|32:370|33:367|33:367|33:370|33:370|43:372|43:372|44:369|44:369|44:372|44:372|54:375|54:375|55:372|55:372|55:375|55:375|64:377|64:377|65:374|65:374|65:377|65:377|75:379|75:379|76:376|76:376|76:379|76:379|86:382,1,123.909444115436
286,257,71324,6,0,B|279:248|279:248|279:247|279:247|277:247|277:247|271:239|271:239|271:238|271:238|269:238|269:238|263:230|263:230|263:229|263:229|262:229|262:229|255:221|255:221|255:220|255:220|254:219|254:219|247:212|247:212|247:210|247:210|246:210|246:210|239:203|239:203|240:201|240:201|238:201|238:201|232:194|232:194|231:195|231:195|231:196|231:196|228:206|228:206|227:206|227:206|227:208|227:208|224:217|224:217|223:218|223:218|224:219|224:219|221:229|221:229|219:229|219:229|220:230|220:230|217:240|217:240|216:241|216:241|216:242|216:242|213:251|213:251|212:252|212:252|212:253|212:253|209:263|209:263|208:263|208:263|209:265|209:265|206:272,1,176.772723645025
242,358,71660,6,0,B|244:354|245:352|245:352|243:349|243:349|247:349|247:349|248:346|249:345|249:345|247:342|247:342|251:342|251:342|253:339|254:338|254:338|252:335|252:335|255:336|255:336|257:333|258:332|258:332|257:329|257:329|260:329|260:329|262:326|263:325|263:325|262:322|262:322|265:323|265:323|267:320|268:319|268:319|267:316|267:316|270:317|270:317|273:314|274:313|274:313|272:310|272:310|276:311|276:311|278:309|279:308|279:308|278:304|278:304|281:306|281:306|284:303|285:302|285:302|284:299|284:299|287:300|287:300|290:298|291:297|291:297|291:294|291:294|294:295|294:295|296:293|298:292|298:292|297:289|297:289|300:291|300:291|303:289|304:288|304:288|304:284|304:284|307:286|307:286|310:284|311:284|311:284|311:280|311:280|313:282|313:282|316:280|318:280|318:280|318:276|318:276|320:278|320:278|324:277|325:276|325:276|325:273|325:273|328:275|328:275|331:273|332:272|332:272|332:269|332:269|335:271|335:271|338:270|339:269|339:269|340:266|340:266|342:268|342:268|346:267|347:267|347:267|347:263|347:263|350:266|350:266|353:265|355:264|355:264|355:261|355:261|357:264|357:264|361:263|362:262|362:262|363:259|363:259|365:262|365:262|369:261|370:261|370:261|371:257|371:257|373:260|373:260|377:259|378:259|378:259|379:256|379:256|381:259|381:259|384:258|386:258|386:258|387:255|387:255|389:258|389:258|392:258|394:258|394:258|395:254|395:254|397:257|397:257|400:257|402:257|402:257|403:254|403:254|405:257|405:257|408:257|410:257|410:257|411:254|411:254|413:257|413:257|416:257|418:258|418:258|420:255|420:255|421:258|421:258|424:258|426:258|426:258|428:256|428:256|429:259|429:259|432:259|434:259|434:259|436:257|436:257|437:260|437:260|440:261|442:261|442:261|444:258|444:258|444:261|444:261|447:262|450:263|450:263|452:260|452:260|453:264|453:264|457:264|458:265|458:265|460:263|460:263|461:266|461:266|464:267|466:267|466:267|468:265|468:265|468:268|468:268|472:270|473:270|473:270|476:268|476:268|476:271|476:271|479:273|480:273|480:273|485:275|488:278,1,420.266557522287,0|2,0:0|0:0,0:0:0:0:
362,110,72555,6,0,P|337:87|351:29,1,88,14|0,0:1|0:0,0:0:0:0:
449,67,72779,5,2,0:3:0:0:
334,38,72891,2,0,P|353:10|412:15,1,88,10|8,0:1|0:2,0:0:0:0:
508,5,73115,6,0,P|494:58|458:212,1,181.5,2|0,0:0|0:0,0:0:0:0:
468,189,73339,5,10,0:1:0:0:
335,185,73451,2,0,P|365:192|395:199,1,55,2|8,0:0|0:2,0:0:0:0:
505,361,73675,6,0,P|420:339|335:319,1,165,10|0,0:1|0:0,0:0:0:0:
342,311,73899,5,10,0:0:0:0:
271,231,74011,2,0,P|239:261|258:304,1,88,8|2,0:1|0:3,0:0:0:0:
335,316,74234,5,0,0:0:0:0:
240,381,74346,2,0,P|129:352|19:327,1,220,10|2,0:1|0:3,0:0:0:0:
64,202,74682,5,10,0:1:0:0:
110,266,74794,2,0,B|133:249|133:249|148:183,1,88,8|0,0:2|0:0,0:0:0:0:
87,97,75018,5,2,0:3:0:0:
56,197,75130,2,0,B|41:186|41:186|31:143,1,55,10|0,0:1|0:0,0:0:0:0:
194,71,75354,5,8,0:2:0:0:
95,87,75466,2,0,B|169:106|169:106|181:130|181:130|277:153,1,181.5,10|0,0:1|0:0,0:0:0:0:
263,155,75690,5,10,0:0:0:0:
378,104,75802,1,8,0:1:0:0:
289,36,75914,2,0,L|306:103,1,55,2|0,0:3|0:0,0:0:0:0:
471,161,76137,6,0,P|428:166|404:201,1,88,10|0,0:1|0:0,0:0:0:0:
488,267,76361,5,2,0:3:0:0:
395,203,76473,2,0,P|387:245|413:279,1,88,10|8,0:1|0:2,0:0:0:0:
498,384,76697,6,0,P|445:370|291:334,1,181.5,2|0,0:0|0:0,0:0:0:0:
317,332,76921,5,10,0:1:0:0:
227,384,77033,2,0,P|231:367|242:318,1,55,2|8,0:0|0:2,0:0:0:0:
252,156,77257,6,0,P|223:221|121:194,1,165,10|0,0:1|0:0,0:0:0:0:
130,217,77481,5,10,0:0:0:0:
46,242,77593,2,0,P|51:218|66:150,1,88,8|2,0:1|0:3,0:0:0:0:
96,19,77816,5,0,0:0:0:0:
0,31,77928,2,0,P|63:47|247:90,1,220,10|2,0:1|0:3,0:0:0:0:
400,40,78264,5,10,0:1:0:0:
331,0,78376,2,0,B|317:25|317:25|331:91,1,88,8|0,0:2|0:0,0:0:0:0:
346,184,78600,5,14,0:2:0:0:
447,107,78712,2,0,B|358:122|358:122|342:157|342:157|244:174,1,220,8|8,0:1|0:2,0:0:0:0:
172,320,79048,6,0,P|156:255|236:306,1,214.5,14|0,0:1|0:0,0:0:0:0:
335,351,79272,5,10,0:1:0:0:
250,300,79384,1,8,0:0:0:0:
245,384,79496,5,10,0:0:0:0:
344,314,79608,1,8,0:0:0:0:
416,384,79719,6,0,P|431:316|458:205,1,181.5,14|0,0:1|0:0,0:0:0:0:
465,202,79943,5,2,0:3:0:0:
339,205,80055,2,0,P|365:210|386:180,1,55,8|8,0:1|0:2,0:0:0:0:
512,122,80279,2,0,P|471:121|448:72,1,88,2|2,0:2|0:3,0:0:0:0:
308,20,80503,6,0,P|294:63|214:46,1,132,8|8,0:1|0:2,0:0:0:0:
371,80,80839,6,0,P|324:17|209:90,1,198,10|0,0:1|0:0,0:0:0:0:
211,55,81063,5,10,0:2:0:0:
120,102,81175,1,8,0:1:0:0:
78,15,81287,2,0,P|98:19|132:27,1,55,2|0,0:3|0:0,0:0:0:0:
266,124,81511,6,0,B|184:144|184:144|165:186|165:186|62:214,1,220,14|8,0:1|0:0,0:0:0:0:
0,217,81846,6,0,B|65:236|65:236|77:261|77:261|168:286,1,176,14|8,0:1|0:0,0:0:0:0:
222,314,82182,6,0,B|174:327|174:327|166:342|166:342|124:353,1,110,14|8,0:1|0:0,0:0:0:0:
234,224,82518,6,0,P|262:290|412:262,1,220,14|8,0:1|0:0,0:0:0:0:
511,192,82854,5,10,0:1:0:0:
471,150,82966,1,8,0:3:0:0:
512,117,83078,1,6,0:3:0:0:
500,107,83190,1,4,0:3:0:0:
506,102,83302,6,0,P|413:122|321:141,1,165,14|0,0:1|0:0,0:0:0:0:
338,129,83525,5,2,0:3:0:0:
370,0,83637,2,0,P|377:34|384:68,1,55,10|8,0:1|0:2,0:0:0:0:
332,138,83861,5,10,0:1:0:0:
262,101,83973,2,0,P|331:91|412:221,1,220,2|0,0:3|0:0,0:0:0:0:
470,257,84309,5,8,0:2:0:0:
325,225,84421,2,0,P|369:215|414:206,1,88,10|0,0:1|0:0,0:0:0:0:
481,372,84645,2,0,P|435:352|425:297,1,88,10|8,0:0|0:1,0:0:0:0:
250,247,84869,1,2,0:3:0:0:
247,233,84981,1,2,0:2:0:0:
313,309,85093,6,0,P|269:319|224:328,1,88,10|8,0:1|0:2,0:0:0:0:
80,357,85316,5,2,0:3:0:0:
127,224,85428,2,0,B|150:178|150:178|144:223,1,88,10|12,0:1|0:2,0:0:0:0:
153,342,85652,5,2,0:2:0:0:
29,278,85764,1,10,0:2:0:0:
75,364,85876,2,0,L|61:304,1,55,8|0,0:1|0:0,0:0:0:0:
82,142,86100,5,8,0:0:0:0:
0,191,86212,2,0,P|85:180|172:49,1,242,10|10,0:1|0:0,0:0:0:0:
354,107,86548,6,0,B|325:77|325:77|318:-3|318:-3|283:69|283:69|246:88,1,242,8|10,0:1|0:0,0:0:0:0:
292,161,86884,6,0,P|294:178|367:193,1,88,14|0,0:1|0:0,0:0:0:0:
367,101,87108,5,2,0:2:0:0:
364,215,87219,2,0,P|381:215|406:145,1,88,10|12,0:1|0:0,0:0:0:0:
261,84,87443,6,0,P|239:166|210:277,1,181.5,2|0,0:0|0:0,0:0:0:0:
206,266,87667,5,10,0:1:0:0:
344,292,87779,2,0,P|317:284|281:275,1,55,2|8,0:0|0:2,0:0:0:0:
43,130,88003,6,0,P|122:150|202:172,1,165,10|0,0:1|0:0,0:0:0:0:
208,180,88227,5,10,0:0:0:0:
159,52,88339,2,0,P|132:73|138:128,1,88,8|2,0:1|0:3,0:0:0:0:
216,175,88563,5,0,0:0:0:0:
286,123,88675,2,0,P|181:135|130:231,1,220,10|2,0:1|0:3,0:0:0:0:
254,341,89011,5,10,0:1:0:0:
155,350,89122,2,0,B|178:333|178:333|193:267,1,88,8|0,0:2|0:0,0:0:0:0:
220,182,89346,5,2,0:3:0:0:
123,233,89458,2,0,B|106:220|106:220|95:172,1,55,10|0,0:1|0:0,0:0:0:0:
159,52,89682,5,8,0:2:0:0:
80,114,89794,2,0,B|154:95|154:95|166:71|166:71|262:48,1,181.5,10|0,0:1|0:0,0:0:0:0:
250,59,90018,5,10,0:0:0:0:
381,106,90130,1,8,0:1:0:0:
340,0,90242,2,0,L|322:59,1,55,2|8,0:3|0:0,0:0:0:0:
449,151,90466,6,0,P|415:149|373:197,1,88,10|0,0:1|0:0,0:0:0:0:
464,261,90690,5,2,0:3:0:0:
366,187,90802,2,0,P|359:220|400:268,1,88,10|8,0:1|0:2,0:0:0:0:
512,330,91025,6,0,P|423:350|335:373,1,181.5,2|0,0:0|0:0,0:0:0:0:
329,380,91249,5,10,0:1:0:0:
258,264,91361,2,0,P|265:296|274:329,1,55,2|8,0:0|0:2,0:0:0:0:
166,366,91585,6,0,P|103:362|80:258,1,165,10|0,0:1|0:0,0:0:0:0:
81,270,91809,5,10,0:0:0:0:
35,179,91921,2,0,P|81:190|127:201,1,88,8|2,0:1|0:3,0:0:0:0:
219,143,92145,5,0,0:0:0:0:
126,211,92257,2,0,P|242:181|359:154,1,220,10|2,0:1|0:3,0:0:0:0:
457,67,92593,5,10,0:1:0:0:
387,20,92705,2,0,B|369:42|369:42|389:112,1,88,8|0,0:2|0:0,0:0:0:0:
421,242,92928,5,6,0:2:0:0:
500,166,93040,2,0,B|412:188|412:188|399:224|399:224|301:250,1,220,8|8,0:1|0:2,0:0:0:0:
203,285,93376,6,0,B|276:358|276:358|326:229,1,214.5,14|0,0:1|0:0,0:0:0:0:
244,219,93600,5,10,0:1:0:0:
121,299,93712,1,8,0:0:0:0:
194,282,93824,5,10,0:0:0:0:
99,192,93936,1,8,0:0:0:0:
50,257,94048,6,0,P|66:167|86:79,1,181.5,14|0,0:1|0:0,0:0:0:0:
95,75,94272,5,2,0:3:0:0:
201,151,94384,2,0,P|179:149|162:113,1,55,10|8,0:1|0:2,0:0:0:0:
18,45,94608,2,0,P|52:41|79:-14,1,88,2|2,0:2|0:3,0:0:0:0:
263,88,94831,6,0,P|277:45|357:62,1,132,10|8,0:1|0:2,0:0:0:0:
200,28,95167,6,0,P|247:91|362:18,1,198,10|0,0:1|0:0,0:0:0:0:
358,61,95391,5,10,0:2:0:0:
497,98,95503,1,8,0:1:0:0:
445,0,95615,2,0,P|437:32|431:57,1,55,2|0,0:3|0:0,0:0:0:0:
511,171,95839,6,0,B|429:191|429:191|410:233|410:233|307:261,1,220,14|8,0:1|0:0,0:0:0:0:
249,253,96175,6,0,B|314:272|314:272|326:297|326:297|417:322,1,176,14|8,0:1|0:0,0:0:0:0:
472,345,96511,6,0,B|424:358|424:358|416:373|416:373|374:384,1,110,14|8,0:1|0:0,0:0:0:0:
240,262,96846,6,0,P|230:346|109:309,1,220,14|8,0:1|0:0,0:0:0:0:
24,230,97182,5,10,0:1:0:0:
73,187,97294,1,8,0:3:0:0:
33,156,97406,1,6,0:3:0:0:
43,144,97518,1,4,0:3:0:0:
36,140,97630,6,0,P|94:154|257:188,1,220,14|0,0:1|0:0,0:0:0:0:
334,84,97966,5,10,0:1:0:0:
269,25,98078,2,0,P|262:53|244:135,1,88,8|0,0:2|0:0,0:0:0:0:
314,231,98302,2,0,P|342:229|359:193,1,55,2|8,0:0|0:1,0:0:0:0:
470,145,98525,6,0,P|443:138|416:133,1,55,2|8,0:3|0:0,0:0:0:0:
345,84,98749,2,0,P|384:85|408:136,1,88,10|0,0:1|0:0,0:0:0:0:
476,254,98973,6,0,P|429:242|383:233,1,88,10|8,0:2|0:1,0:0:0:0:
340,355,99197,2,0,P|347:324|354:295,1,55,2|8,0:2|0:2,0:0:0:0:
244,193,99421,6,0,B|224:148|224:148|227:193,1,88,10|8,0:1|0:2,0:0:0:0:
263,298,99645,5,8,0:2:0:0:
98,283,99757,2,0,P|145:271|191:262,1,88,10|8,0:1|0:2,0:0:0:0:
314,231,99981,5,8,0:2:0:0:
197,357,100093,2,0,P|185:310|176:264,1,88,10|8,0:1|0:2,0:0:0:0:
93,197,100316,5,10,0:2:0:0:
72,360,100428,2,0,P|120:318|163:51,1,330,8|2,0:1|0:0,0:0:0:0:
176,63,101212,6,0,B|189:37|189:37|258:62,1,88,12|0,0:1|0:0,0:0:0:0:
397,103,101436,5,2,0:0:0:0:
340,32,101548,2,0,L|305:122,1,88,10|8,0:1|0:2,0:0:0:0:
266,235,101772,5,8,0:1:0:0:
253,241,101884,1,2,0:0:0:0:
250,228,101996,1,10,0:2:0:0:
203,163,102108,6,0,B|277:193|277:193|284:228|284:228|378:265,1,198,2|8,0:3|0:1,0:0:0:0:
466,198,102443,6,0,B|453:172|453:172|384:197,1,88,2|8,0:0|0:2,0:0:0:0:
366,264,102667,5,8,0:1:0:0:
464,340,102779,2,0,B|484:319|484:319|439:261,1,88,2|8,0:0|0:2,0:0:0:0:
373,261,103003,5,8,0:1:0:0:
269,384,103115,1,8,0:2:0:0:
390,344,103227,5,2,0:0:0:0:
382,347,103339,2,0,L|294:315,1,88,10|8,0:1|0:2,0:0:0:0:
134,249,103563,5,8,0:1:0:0:
137,236,103675,1,2,0:0:0:0:
150,242,103787,1,10,0:2:0:0:
224,269,103899,6,0,P|202:331|79:295,1,198,2|8,0:3|0:1,0:0:0:0:
0,210,104234,2,0,B|13:184|13:184|81:206,1,88,2|8,0:0|0:2,0:0:0:0:
210,192,104458,5,8,0:1:0:0:
243,106,104570,2,0,B|191:42|191:42|159:118,1,165,2|0,0:0|0:0,0:0:0:0:
151,120,104794,6,0,L|66:91,1,88,8|0,0:1|0:0,0:0:0:0:
300,14,105018,5,2,0:0:0:0:
252,99,105130,2,0,B|264:79|264:79|345:110,1,88,10|8,0:1|0:2,0:0:0:0:
421,180,105354,5,8,0:1:0:0:
418,167,105466,1,2,0:0:0:0:
405,173,105578,1,10,0:2:0:0:
317,190,105690,6,0,B|391:160|391:160|398:125|398:125|492:88,1,198,2|8,0:3|0:1,0:0:0:0:
505,179,106025,6,0,B|493:199|493:199|412:168,1,88,2|8,0:0|0:2,0:0:0:0:
318,197,106249,5,8,0:1:0:0:
417,268,106361,2,0,B|405:248|405:248|324:279,1,88,2|8,0:0|0:2,0:0:0:0:
203,332,106585,5,8,0:1:0:0:
350,382,106697,1,8,0:2:0:0:
266,262,106809,5,2,0:0:0:0:
258,259,106921,2,0,L|289:359,1,88,10|8,0:1|0:2,0:0:0:0:
128,262,107145,5,8,0:1:0:0:
133,248,107257,1,2,0:0:0:0:
144,256,107369,1,10,0:2:0:0:
198,324,107481,6,0,L|102:348,1,88,2|8,0:3|0:2,0:0:0:0:
13,139,107705,5,12,0:1:0:0:
71,188,107816,2,0,L|156:166,1,88,2|8,0:0|0:2,0:0:0:0:
270,38,108040,5,8,0:2:0:0:
197,19,108152,1,10,0:2:0:0:
178,92,108264,1,8,0:2:0:0:
272,47,108376,6,0,L|357:68,1,88,12|0,0:1|0:0,0:0:0:0:
510,105,108600,5,2,0:0:0:0:
444,43,108712,2,0,L|416:151,1,88,10|8,0:1|0:2,0:0:0:0:
314,185,108936,5,8,0:1:0:0:
317,172,109048,1,2,0:0:0:0:
330,178,109160,1,10,0:2:0:0:
431,221,109272,6,0,P|353:204|281:311,1,198,2|8,0:3|0:1,0:0:0:0:
374,361,109608,6,0,B|362:381|362:381|281:350,1,88,2|8,0:0|0:2,0:0:0:0:
275,278,109831,5,8,0:1:0:0:
229,384,109943,2,0,B|206:378|206:378|210:292,1,88,2|8,0:0|0:2,0:0:0:0:
214,190,110167,5,8,0:1:0:0:
119,304,110279,1,8,0:2:0:0:
60,200,110391,5,2,0:0:0:0:
65,210,110503,2,0,L|165:238,1,88,10|8,0:1|0:2,0:0:0:0:
244,48,110727,5,8,0:1:0:0:
231,42,110839,1,2,0:0:0:0:
228,55,110951,1,10,0:2:0:0:
176,118,111063,6,0,B|250:88|250:88|257:53|257:53|351:16,1,198,2|8,0:3|0:1,0:0:0:0:
509,108,111399,2,0,B|496:134|496:134|428:112,1,88,2|8,0:0|0:2,0:0:0:0:
341,30,111622,5,8,0:1:0:0:
437,19,111734,2,0,L|391:199,1,165,2|0,0:0|0:0,0:0:0:0:
400,188,111958,6,0,L|311:164,1,88,8|0,0:1|0:0,0:0:0:0:
246,242,112182,5,2,0:0:0:0:
308,174,112294,2,0,L|332:263,1,88,10|8,0:1|0:2,0:0:0:0:
421,302,112518,5,8,0:1:0:0:
418,287,112630,1,2,0:0:0:0:
405,291,112742,1,10,0:2:0:0:
275,320,112854,6,0,P|340:298|415:392,1,198,2|8,0:3|0:1,0:0:0:0:
475,206,113190,2,0,B|467:183|467:183|392:201,1,88,10|8,0:2|0:2,0:0:0:0:
208,171,113414,5,8,0:1:0:0:
171,219,113525,5,6,0:3:0:0:
104,198,113637,5,8,0:1:0:0:
93,207,113749,5,12,0:2:0:0:
95,9,114421,5,2,0:0:0:0:
91,22,114533,1,2,0:0:0:0:
17,51,114645,6,0,P|57:46|119:118,2,132,2|2|2,0:0|0:0|0:0,0:0:0:0:
125,111,115540,6,0,P|165:116|248:27,1,165,12|0,0:1|0:0,0:0:0:0:
256,32,115988,6,0,P|275:29|315:72,1,77,10|0,0:1|0:0,0:0:0:0:
403,108,116212,1,2,0:0:0:0:
380,13,116436,6,0,P|349:49|315:183,2,165,10|2|2,0:1|0:0|0:0,0:0:0:0:
389,184,117331,6,0,P|402:195|450:207,1,65.9999999999999,10|0,0:1|0:0,0:0:0:0:
446,290,117667,5,2,0:0:0:0:
439,284,117779,2,0,P|385:275|340:243,1,110,8|2,0:1|0:0,0:0:0:0:
231,312,118227,6,0,P|258:307|280:291,1,55,10|0,0:1|0:0,0:0:0:0:
226,237,118451,5,2,0:0:0:0:
208,384,118563,2,0,P|195:331|43:313,1,231,2|0,0:0|0:0,0:0:0:0:
0,116,119122,6,0,P|28:132|69:137,1,55,8|0,0:1|0:0,0:0:0:0:
74,215,119346,2,0,P|81:169|129:82,2,132,2|10|2,0:0|0:1|0:0,0:0:0:0:
232,55,120018,6,0,P|203:86|172:7,1,154,10|0,0:1|0:0,0:0:0:0:
241,50,120354,6,0,P|269:66|301:72,1,66,2|8,0:0|0:1,0:0:0:0:
480,20,120690,5,2,0:0:0:0:
412,166,120914,6,0,P|407:116|354:11,2,165,10|2|2,0:1|0:0|0:0,0:0:0:0:
336,194,121809,6,0,P|388:200|464:255,1,132,10|0,0:1|0:0,0:0:0:0:
464,243,122145,5,2,0:0:0:0:
401,297,122257,2,0,P|373:293|332:263,1,66,8|0,0:1|0:0,0:0:0:0:
268,368,122481,6,0,P|266:349|254:340,1,33
251,333,122593,2,0,P|231:332|221:342,1,33
158,377,122705,5,12,0:1:0:0:
61,261,122928,6,0,P|109:292|166:300,2,110,2|10|2,0:0|0:1|0:0,0:0:0:0:
136,220,123600,6,0,P|142:187|161:160,1,66,10|0,0:1|0:0,0:0:0:0:
104,113,123824,5,0,0:0:0:0:
168,158,123936,2,0,P|161:113|75:188,1,231,2|2,0:0|0:0,0:0:0:0:
212,241,124496,6,0,P|282:227|341:188,1,132,10|0,0:1|0:0,0:0:0:0:
343,199,124831,5,2,0:0:0:0:
291,133,124943,2,0,P|295:97|286:63,1,66,8|0,0:1|0:0,0:0:0:0:
403,152,125167,6,0,P|420:155|435:165,1,32.9999999999999,2|0,0:0|0:0,0:0:0:0:
459,255,125391,2,0,P|388:241|329:202,1,132,10|0,0:1|0:0,0:0:0:0:
332,298,125727,6,0,P|294:305|262:326,1,66,2|8,0:0|0:1,0:0:0:0:
35,192,126063,5,2,0:0:0:0:
182,227,126287,6,0,P|150:197|117:268,1,132,10|0,0:1|0:0,0:0:0:0:
86,336,126622,5,2,0:0:0:0:
25,284,126734,2,0,P|57:314|90:243,1,132,8|2,0:1|0:0,0:0:0:0:
226,157,127182,6,0,P|231:131|244:111,1,44,10|0,0:1|0:0,0:0:0:0:
314,130,127406,6,0,P|341:105|372:92,1,66,2|0,0:0|0:0,0:0:0:0:
189,65,127630,2,0,P|183:39|170:19,1,44,10|0,0:1|0:0,0:0:0:0:
409,160,127854,6,0,P|445:156|478:164,1,66,2|0,0:0|0:0,0:0:0:0:
280,6,128078,6,0,P|273:65|224:184,1,165,8|0,0:1|0:0,0:0:0:0:
228,170,128302,2,0,P|200:158|170:154,1,55,8|0,0:0|0:0,0:0:0:0:
147,222,128525,6,0,P|92:231|42:252,1,88,10|0,0:0|0:0,0:0:0:0:
282,375,128749,2,0,P|336:365|386:344,1,88,10|0,0:0|0:0,0:0:0:0:
169,146,128973,6,0,P|114:136|64:115,1,88,10|0,0:0|0:0,0:0:0:0:
205,359,129197,2,0,P|214:304|235:254,1,88,10|8,0:3|0:1,0:0:0:0:
384,247,129421,6,0,P|358:242|335:232,1,44,10|2,0:2|0:0,0:0:0:0:
333,239,129869,6,0,P|359:296|505:255,1,220,14|0,0:1|0:0,0:0:0:0:
493,272,130205,5,8,0:1:0:0:
477,192,130316,2,0,B|452:164|452:164|448:91|448:91|414:156|414:156|380:171,1,220,10|2,0:2|0:3,0:0:0:0:
294,157,130652,5,2,0:0:0:0:
299,152,130764,2,0,L|391:169,1,77,2|8,0:3|0:0,0:0:0:0:
387,49,130988,2,0,L|311:35,1,55,10|0,0:1|0:0,0:0:0:0:
150,128,131212,6,0,P|140:75|218:97,1,148.5,10|0,0:2|0:0,0:0:0:0:
219,84,131436,6,0,P|174:106|52:-1,1,231,14|0,0:1|0:0,0:0:0:0:
147,26,131884,6,0,B|154:-11|154:-11|120:34,1,66,10|0,0:1|0:0,0:0:0:0:
16,121,132108,2,0,L|42:241,1,115.5,8|0,0:2|0:0,0:0:0:0:
48,236,132331,5,2,0:3:0:0:
176,210,132443,2,0,L|121:221,1,55,8|2,0:2|0:3,0:0:0:0:
36,339,132667,5,0,0:0:0:0:
40,345,132779,2,0,L|94:333,1,44,10|0,0:1|0:0,0:0:0:0:
267,279,133003,6,0,B|275:235|275:235|235:288,1,77,10|0,0:2|0:0,0:0:0:0:
88,343,133227,2,0,P|155:370|198:292,1,148.5,2|0,0:2|0:0,0:0:0:0:
275,275,133451,6,0,B|347:301|347:301|361:337|361:337|454:368,1,198,14|0,0:1|0:0,0:0:0:0:
397,199,133787,5,8,0:1:0:0:
426,278,133899,2,0,P|433:231|511:165,1,154,10|2,0:2|0:3,0:0:0:0:
388,110,134234,5,2,0:2:0:0:
396,118,134346,2,0,L|349:131,1,44,2|8,0:3|0:0,0:0:0:0:
154,63,134570,2,0,B|138:18|138:18|165:45,1,77,10|0,0:1|0:0,0:0:0:0:
349,137,134794,6,0,P|282:150|230:89,1,148.5,10|0,0:2|0:0,0:0:0:0:
236,88,135018,6,0,P|276:97|279:259,1,231,14|0,0:1|0:0,0:0:0:0:
254,320,135466,2,0,P|222:327|199:334,1,44,10|0,0:1|0:0,0:0:0:0:
119,239,135690,6,0,P|89:323|162:376,1,176,8|2,0:2|0:3,0:0:0:0:
204,328,136025,5,8,0:2:0:0:
304,380,136137,2,0,P|338:370|372:363,1,66,2|0,0:3|0:0,0:0:0:0:
488,268,136361,2,0,B|501:230|501:230|478:253,1,66,10|0,0:1|0:0,0:0:0:0:
376,371,136585,5,10,0:2:0:0:
420,310,136697,1,8,0:2:0:0:
394,282,136809,1,10,0:3:0:0:
401,263,136921,1,4,0:3:0:0:
395,253,137033,5,2,0:1:0:0:
496,88,140615,6,0,P|507:37|424:74,1,181.5,14|0,0:1|0:0,0:0:0:0:
415,62,140839,2,0,L|356:72,1,44,8|0,0:1|0:0,0:0:0:0:
183,206,141063,6,0,L|256:193,1,66,10|0,0:2|0:0,0:0:0:0:
297,62,141287,2,0,B|265:17|265:17|275:52,1,88,10|0,0:2|0:0,0:0:0:0:
396,192,141511,6,0,P|354:196|324:154,1,88,8|0,0:2|0:0,0:0:0:0:
267,40,141734,2,0,B|299:-5|299:-5|289:30,1,88,10|0,0:2|0:0,0:0:0:0:
95,143,141958,6,0,L|207:123,1,88,10|0,0:2|0:0,0:0:0:0:
319,272,142182,2,0,P|277:268|247:310,1,88,8|0,0:2|0:0,0:0:0:0:
188,355,142406,5,0,0:0:0:0:
185,361,142518,1,0,0:0:0:0:
182,367,142630,2,0,B|181:361|181:361|183:359|183:359|180:359|180:359|179:354|179:354|182:352|182:352|179:352|179:352|178:347|178:347|181:345|181:345|178:345|178:345|177:340|177:340|179:339|179:339|176:338|176:338|175:333|175:333|178:332|178:332|175:331|175:331|174:326|174:326|177:325|177:325|173:324|173:324|172:320|172:320|175:318|175:318|172:318|172:318|171:313|171:313|174:311|174:311|171:311|171:311|170:306|170:306|172:304|172:304|169:304|169:304|168:299|168:299|171:297|171:297|168:297|168:297|167:292|167:292|170:291|170:291|166:290|166:290|165:285|165:285|168:284|168:284|165:283|165:283|164:280,1,141.661174428738
39,221,142966,6,0,B|40:225|41:228|41:228|39:230|39:230|42:229|42:229|43:233|44:234|44:234|41:236|41:236|45:236|45:236|46:239|47:240|47:240|45:243|45:243|48:242|48:242|50:245|51:246|51:246|49:249|49:249|52:248|52:248|54:251|55:252|55:252|53:254|53:254|56:253|56:253|58:256|59:257|59:257|58:260|58:260|61:258|61:258|63:261|64:262|64:262|63:265|63:265|66:263|66:263|68:265|70:266|70:266|69:269|69:269|71:267|71:267|74:269|75:270|75:270|75:273|75:273|77:271|77:271|80:273|81:274|81:274|81:277|81:277|83:274|83:274|86:276|88:276|88:276|88:280|88:280|90:277|90:277|93:278|94:279|94:279|94:282|94:282|96:279|96:279|100:280|101:281|101:281|101:284|101:284|103:281|103:281|106:282|108:282|108:282|108:285|108:285|110:282|110:282|113:283|115:283|115:283|116:286|116:286|117:283|117:283|120:283|122:283|122:283|123:286|123:286|124:283|124:283|127:283|129:282|129:282|130:285|130:285|131:282|131:282|134:282|136:281|136:281|137:284|137:284|137:281|137:281|141:280|142:280|142:280|144:282|144:282|144:279|144:279|148:278|149:277|149:277|151:280|151:280|151:277|151:277|154:275|155:275|155:275|157:277|157:277|157:274|157:274|160:273|162:271,1,250.02717105775
403,304,143302,6,0,B|407:301|409:299|409:299|411:301|411:301|411:298|411:298|413:296|414:295|414:295|417:297|417:297|416:295|416:295|419:292|420:291|420:291|423:292|423:292|422:289|422:289|424:287|425:286|425:286|428:287|428:287|426:284|426:284|429:282|429:281|429:281|433:281|433:281|430:279|430:279|432:276|432:274|432:274|436:275|436:275|433:272|433:272|435:268|436:267|436:267|439:268|439:268|436:265|436:265|437:261|437:260|437:260|440:260|440:260|439:258|439:258|439:255|439:253|439:253|442:253|442:253|439:251|439:251|439:249|440:247|440:247|443:246|443:246|440:245|440:245|440:242|439:239|439:239|442:239|442:239|439:237|439:237|439:234|439:231|439:231|441:230|441:230|438:229|438:229|437:226|437:225|437:225|440:223|440:223|437:223|437:223|435:220|435:218|435:218|437:216|437:216|434:217|434:217|432:214|432:212|432:212|434:210|434:210|431:211|431:211|429:207|428:206|428:206|429:203|429:203|426:204|426:204|424:202|424:201|424:201|425:198|425:198|422:200|422:200|420:197|418:196|418:196|419:193|419:193|417:194|417:194|414:191|412:191|412:191|414:188|414:188|410:190|410:190|408:188|406:187|406:187|406:184|406:184|404:186|404:186|401:185|400:184|400:184|399:181|399:181|398:184|398:184|394:182|393:182|393:182|392:179|392:179|391:181|391:181|387:181|386:181|386:181|385:178|385:178|384:180|384:180|380:180|379:180|379:180|378:177|378:177|377:180|377:180|372:179|371:180|371:180|369:177|369:177|369:180|369:180|366:181|364:181|364:181|362:178|362:178|362:182|362:182|359:182|357:182|357:182|355:180|355:180|356:183|356:183|352:184|351:185|351:185|349:182|349:182|349:185|349:185|345:188|344:189|344:189|343:186|343:186|343:190|343:190|340:192|339:193|339:193|335:191|335:191|336:193|336:193|334:196|333:197|333:197|330:196|330:196|330:198|330:198|328:201|327:202|327:202|324:200|324:200|326:203|326:203|324:206|323:207|323:207|320:207|320:207|321:209|321:209|320:212|319:214|319:214|316:213|316:213|319:215|319:215|317:219|316:220|316:220|313:219|313:219|315:223|315:223|314:225|314:227|314:227|311:227|311:227|314:229|314:229|312:232|312:234|312:234|309:235|309:235|312:236|312:236|312:239|312:241|312:241|308:242|308:242|311:243|311:243|312:246|312:248|312:248|309:249|309:249|312:250|312:250|313:253|312:255|312:255|310:256|310:256|313:257|313:257|314:262|315:263|315:263|316:268|319:272,1,476.387939488676
302,361,143749,6,0,P|323:362|338:342,1,44,2|2,0:0|0:0,0:0:0:0:
512,163,144197,6,0,P|465:154|438:196,1,88,14|0,0:1|0:0,0:0:0:0:
386,91,144421,5,2,0:3:0:0:
431,181,144533,2,0,P|384:190|357:148,1,88,10|8,0:1|0:2,0:0:0:0:
310,4,144757,6,0,P|298:69|272:192,1,181.5,2|0,0:0|0:0,0:0:0:0:
282,189,144981,5,10,0:1:0:0:
159,82,145093,2,0,P|184:87|238:98,1,55,2|8,0:0|0:2,0:0:0:0:
288,184,145316,6,0,P|210:178|177:248,1,165,10|0,0:1|0:0,0:0:0:0:
168,253,145540,5,10,0:0:0:0:
120,362,145652,2,0,P|168:365|189:321,1,88,8|2,0:1|0:3,0:0:0:0:
175,261,145876,5,0,0:0:0:0:
61,270,145988,2,0,P|134:284|294:317,1,220,10|2,0:1|0:3,0:0:0:0:
431,294,146324,5,10,0:1:0:0:
393,361,146436,2,0,B|382:351|365:347|365:347|346:278,1,88,8|0,0:2|0:0,0:0:0:0:
330,215,146660,5,2,0:3:0:0:
427,283,146772,2,0,B|438:273|455:269|455:269|474:200,1,88,10|0,0:1|0:0,0:0:0:0:
372,99,146996,5,8,0:2:0:0:
456,117,147108,2,0,B|417:116|398:149|398:149|269:118,1,181.5,10|0,0:1|0:0,0:0:0:0:
280,128,147331,5,10,0:0:0:0:
175,35,147443,1,8,0:1:0:0:
250,0,147555,2,0,B|265:28|265:28|246:67,1,55,2|0,0:3|0:0,0:0:0:0:
57,103,147779,6,0,P|86:99|126:150,1,88,10|0,0:1|0:0,0:0:0:0:
210,213,148003,5,2,0:3:0:0:
132,148,148115,2,0,P|161:152|201:101,1,88,10|8,0:1|0:2,0:0:0:0:
34,12,148339,6,0,P|22:89|3:191,1,181.5,2|0,0:0|0:0,0:0:0:0:
9,199,148563,5,10,0:1:0:0:
130,253,148675,2,0,P|105:249|72:243,1,55,2|8,0:0|0:2,0:0:0:0:
62,364,148899,6,0,P|130:383|175:285,1,165,10|0,0:1|0:0,0:0:0:0:
191,313,149122,2,0,P|234:320|277:328,1,88,10|8,0:0|0:1,0:0:0:0:
401,384,149346,2,0,P|374:378|359:351,1,55,2|0,0:3|0:0,0:0:0:0:
326,241,149570,5,10,0:1:0:0:
270,337,149682,2,0,P|346:343|402:205,1,220,8|10,0:0|0:1,0:0:0:0:
324,142,150018,2,0,B|296:98|296:98|351:126,1,88,8|0,0:2|0:0,0:0:0:0:
469,162,150242,6,0,L|421:151,1,44,14|0,0:2|0:0,0:0:0:0:
331,150,150354,2,0,B|390:135|390:135|402:98|402:98|490:75,1,165,8|0,0:1|0:0,0:0:0:0:
469,74,150578,5,8,0:2:0:0:
289,0,150690,2,0,P|290:75|151:67,1,198,14|0,0:1|0:0,0:0:0:0:
71,131,150914,5,10,0:1:0:0:
179,96,151025,1,8,0:0:0:0:
109,62,151137,5,10,0:0:0:0:
173,178,151249,1,8,0:0:0:0:
100,208,151361,6,0,P|160:220|291:255,1,181.5,14|0,0:1|0:0,0:0:0:0:
286,245,151585,5,2,0:3:0:0:
246,361,151697,2,0,P|223:338|231:304,1,55,8|8,0:1|0:2,0:0:0:0:
346,292,151921,2,0,P|388:302|431:311,1,88,2|2,0:2|0:3,0:0:0:0:
445,195,152145,6,0,P|423:155|347:185,1,132,8|8,0:1|0:2,0:0:0:0:
496,124,152481,6,0,P|460:194|334:142,1,198,10|0,0:1|0:0,0:0:0:0:
284,138,152705,5,10,0:2:0:0:
393,103,152816,1,8,0:1:0:0:
320,15,152928,2,0,B|308:41|308:41|335:76,1,55,2|0,0:3|0:0,0:0:0:0:
345,183,153152,6,0,B|276:198|254:129|257:128|259:126|245:49|148:81,1,220,14|8,0:1|0:0,0:0:0:0:
35,147,153488,6,0,B|87:158|103:107|102:104|100:103|111:44|185:69,1,176,14|8,0:1|0:0,0:0:0:0:
194,246,153824,6,0,B|211:216|183:197|181:197|180:198|147:180|176:141,1,110,14|8,0:1|0:0,0:0:0:0:
87,283,154160,6,0,P|143:264|236:383,1,220,14|8,0:1|0:0,0:0:0:0:
394,316,154496,5,10,0:1:0:0:
398,300,154608,1,8,0:3:0:0:
315,282,154719,1,6,0:3:0:0:
311,298,154831,1,4,0:3:0:0:
336,377,154943,6,0,P|358:275|378:192,1,181.5,14|0,0:1|0:0,0:0:0:0:
383,195,155167,5,2,0:3:0:0:
269,141,155279,2,0,P|314:143|337:94,1,88,10|8,0:1|0:2,0:0:0:0:
418,15,155503,5,10,0:1:0:0:
493,65,155615,2,0,P|369:38|268:14,1,220,2|0,0:3|0:0,0:0:0:0:
127,67,155951,5,8,0:2:0:0:
195,29,156063,2,0,B|197:47|214:60|214:60|198:109,1,88,10|0,0:1|0:0,0:0:0:0:
21,162,156287,2,0,P|47:128|89:132,1,88,10|8,0:0|0:1,0:0:0:0:
212,228,156511,1,2,0:3:0:0:
208,245,156622,1,2,0:2:0:0:
147,308,156734,6,0,L|233:329,1,88,10|8,0:1|0:2,0:0:0:0:
398,364,156958,5,2,0:3:0:0:
368,203,157070,2,0,B|351:155|351:155|348:198,1,88,10|12,0:1|0:2,0:0:0:0:
315,349,157294,5,2,0:2:0:0:
457,289,157406,1,10,0:2:0:0:
384,281,157518,2,0,L|445:295,1,55,8|0,0:1|0:0,0:0:0:0:
421,122,157742,5,8,0:0:0:0:
507,169,157854,2,0,P|398:166|319:43,1,242,10|10,0:1|0:0,0:0:0:0:
172,99,158190,6,0,P|141:34|236:77,1,242,8|10,0:1|0:0,0:0:0:0:
273,152,158525,6,0,P|237:149|199:193,1,88,14|0,0:1|0:0,0:0:0:0:
120,263,158749,5,2,0:2:0:0:
194,194,158861,2,0,P|158:196|120:152,1,88,10|12,0:1|0:0,0:0:0:0:
12,272,159085,6,0,P|86:291|211:326,1,181.5,2|0,0:0|0:0,0:0:0:0:
196,315,159309,5,10,0:1:0:0:
284,231,159421,2,0,P|276:257|269:284,1,55,2|8,0:0|0:2,0:0:0:0:
367,377,159645,6,0,P|434:371|426:258,1,165,10|0,0:1|0:0,0:0:0:0:
446,280,159869,5,10,0:0:0:0:
346,180,159981,2,0,P|399:194|453:208,1,88,8|2,0:1|0:3,0:0:0:0:
322,48,160205,5,0,0:0:0:0:
440,59,160316,2,0,P|328:88|217:118,1,220,10|2,0:1|0:3,0:0:0:0:
83,61,160652,5,10,0:1:0:0:
149,15,160764,2,0,B|152:32|168:46|168:46|150:110,1,88,8|0,0:2|0:0,0:0:0:0:
134,169,160988,5,2,0:3:0:0:
34,128,161100,2,0,B|31:145|15:159|15:159|33:223,1,88,10|0,0:1|0:0,0:0:0:0:
179,297,161324,5,8,0:2:0:0:
267,242,161436,2,0,B|228:241|209:274|209:274|80:243,1,181.5,10|0,0:1|0:0,0:0:0:0:
93,252,161660,5,10,0:0:0:0:
8,354,161772,1,8,0:1:0:0:
82,375,161884,2,0,B|93:348|93:348|73:312,1,55,2|8,0:3|0:0,0:0:0:0:
21,213,162108,6,0,P|58:251|93:240,1,88,10|0,0:1|0:0,0:0:0:0:
159,173,162331,5,2,0:3:0:0:
100,247,162443,2,0,P|142:243|166:278,1,88,10|8,0:1|0:2,0:0:0:0:
284,357,162667,6,0,P|302:281|330:175,1,181.5,2|0,0:0|0:0,0:0:0:0:
336,177,162891,5,10,0:1:0:0:
226,134,163003,2,0,P|258:136|277:109,1,55,2|8,0:0|0:2,0:0:0:0:
465,84,163227,6,0,P|394:90|353:-1,1,165,10|0,0:1|0:0,0:0:0:0:
343,8,163451,2,0,P|299:1|249:-9,1,88,10|8,0:0|0:1,0:0:0:0:
122,92,163675,2,0,P|143:75|169:80,1,55,2|0,0:3|0:0,0:0:0:0:
248,0,163899,5,10,0:1:0:0:
269,106,164011,2,0,P|205:113|139:-15,1,220,8|10,0:0|0:1,0:0:0:0:
49,127,164346,2,0,B|2:96|2:96|40:102,1,88,8|0,0:2|0:0,0:0:0:0:
147,177,164570,6,0,P|124:172|107:187,1,44,6|0,0:2|0:0,0:0:0:0:
29,209,164682,2,0,B|93:227|93:227|104:251|104:251|189:272,1,165,8|0,0:1|0:0,0:0:0:0:
181,263,164906,5,8,0:2:0:0:
375,360,165018,2,0,P|304:361|274:229,1,198,14|0,0:1|0:0,0:0:0:0:
351,160,165242,5,10,0:1:0:0:
266,250,165354,1,8,0:0:0:0:
241,168,165466,5,10,0:0:0:0:
368,271,165578,1,8,0:0:0:0:
448,220,165690,6,0,P|371:236|256:263,1,181.5,12|0,0:1|0:0,0:0:0:0:
258,256,165914,5,2,0:3:0:0:
351,160,166025,2,0,P|342:128|334:98,1,55,10|8,0:1|0:2,0:0:0:0:
202,43,166249,2,0,P|222:72|277:63,1,88,2|2,0:2|0:3,0:0:0:0:
435,117,166473,6,0,P|413:77|337:107,1,132,10|8,0:1|0:2,0:0:0:0:
486,46,166809,6,0,P|450:116|324:64,1,198,10|0,0:1|0:0,0:0:0:0:
270,69,167033,5,10,0:2:0:0:
232,179,167145,1,8,0:1:0:0:
138,127,167257,2,0,B|157:108|157:108|195:121,1,55,2|8,0:3|0:0,0:0:0:0:
320,188,167481,6,0,B|251:173|229:242|232:243|234:245|220:322|123:290,1,220,14|8,0:1|0:0,0:0:0:0:
11,222,167816,6,0,B|64:210|81:263|78:264|77:266|88:325|163:300,1,176,14|8,0:1|0:0,0:0:0:0:
175,123,168152,6,0,B|192:152|163:173|162:172|161:171|127:189|157:229,1,110,14|8,0:1|0:0,0:0:0:0:
80,384,168488,6,0,P|122:331|255:389,1,220,14|8,0:1|0:0,0:0:0:0:
402,287,168824,5,10,0:1:0:0:
387,282,168936,1,8,0:3:0:0:
362,357,169048,1,6,0:3:0:0:
377,362,169160,1,4,0:3:0:0:
472,343,169272,6,0,P|386:328|283:224,1,220,12|0,0:1|0:0,0:0:0:0:
285,125,169608,5,10,0:1:0:0:
364,212,169719,2,0,P|357:168|391:103,1,88,8|0,0:2|0:0,0:0:0:0:
232,189,169943,2,0,P|205:196|187:216,1,55,2|8,0:0|0:1,0:0:0:0:
368,23,170167,6,0,P|399:57|444:70,1,88,2|8,0:3|0:0,0:0:0:0:
484,147,170391,2,0,P|457:154|439:174,1,55,10|0,0:1|0:0,0:0:0:0:
198,38,170615,6,0,P|188:8|207:36,1,88,10|8,0:2|0:1,0:0:0:0:
291,135,170839,2,0,P|283:108|263:90,1,55,2|8,0:2|0:2,0:0:0:0:
69,117,171063,6,0,B|16:102|16:102|67:102,1,88,14|8,0:1|0:2,0:0:0:0:
183,123,171287,5,8,0:2:0:0:
78,276,171399,2,0,P|64:225|52:184,1,88,10|8,0:1|0:2,0:0:0:0:
173,136,171622,5,8,0:2:0:0:
210,326,171734,2,0,P|224:275|236:234,1,88,10|8,0:1|0:2,0:0:0:0:
302,215,171958,5,10,0:2:0:0:
124,339,172070,2,0,P|243:363|363:390,1,220,8|8,0:1|0:0,0:0:0:0:
493,341,172406,5,10,0:1:0:0:
422,363,172518,1,8,0:0:0:0:
351,273,172630,5,2,0:0:0:0:
433,288,172742,1,8,0:0:0:0:
344,375,172854,6,0,B|329:340|305:331|305:331|348:138,1,242,12|2,0:1|0:3,0:0:0:0:
475,89,173190,5,8,0:1:0:0:
499,164,173302,2,0,B|458:181|458:181|422:140,1,88,10|0,0:2|0:0,0:0:0:0:
337,1,173525,5,2,0:3:0:0:
256,99,173637,2,0,P|325:115|407:-2,1,220,8|8,0:1|0:2,0:0:0:0:
246,0,173973,6,0,B|233:7|227:27|227:27|157:47,1,88,10|0,0:1|0:0,0:0:0:0:
52,99,174197,5,10,0:2:0:0:
114,128,174309,1,10,0:1:0:0:
89,180,174421,1,2,0:3:0:0:
126,202,174533,1,10,0:2:0:0:
118,226,174645,5,8,0:1:0:0:
242,214,174757,6,0,L|191:198,1,44,2|0,0:0|0:0,0:0:0:0:
45,322,174869,2,0,L|155:303,1,88,2|8,0:3|0:1,0:0:0:0:
316,286,175093,6,0,B|327:266|327:266|321:234,1,44,10|0,0:2|0:0,0:0:0:0:
224,289,175205,2,0,L|205:374,1,88,2|2,0:0|0:3,0:0:0:0:
330,240,175428,6,0,B|319:220|319:220|328:188,1,44,10|0,0:1|0:0,0:0:0:0:
423,131,175540,2,0,L|512:149,1,88,2|8,0:0|0:2,0:0:0:0:
252,98,175764,6,0,L|264:161,1,44,10|0,0:1|0:0,0:0:0:0:
332,197,175876,2,0,B|349:166|349:166|336:112,1,88,2|8,0:0|0:2,0:0:0:0:
297,4,176100,5,10,0:1:0:0:
367,47,176212,2,0,L|429:59,1,44,2|0,0:3|0:0,0:0:0:0:
247,105,176324,2,0,L|184:117,1,44,10|0,0:2|0:0,0:0:0:0:
137,79,176436,6,0,B|130:60|112:49|112:49|112:26|127:-3,1,88,10|0,0:1|0:0,0:0:0:0:
142,157,176660,1,2,0:3:0:0:
139,172,176772,1,10,0:1:0:0:
166,257,176884,6,0,L|70:235,1,88,10|0,0:2|0:0,0:0:0:0:
42,172,177108,5,2,0:3:0:0:
159,330,177219,2,0,L|176:254,1,66,10|0,0:1|0:0,0:0:0:0:
80,348,177443,5,10,0:2:0:0:
242,318,177555,2,0,P|263:330|287:317,1,44,10|0,0:1|0:0,0:0:0:0:
315,234,177779,5,10,0:2:0:0:
343,375,177891,2,0,B|350:356|368:345|368:345|368:322|353:293,1,88,10|2,0:1|0:3,0:0:0:0:
465,169,178115,6,0,P|445:168|430:137,1,44,10|0,0:2|0:0,0:0:0:0:
340,35,178227,5,10,0:1:0:0:
410,13,178339,1,2,0:0:0:0:
395,85,178451,1,2,0:3:0:0:
301,117,178563,6,0,B|232:132|207:66|209:64|212:62|193:-7|107:23,1,220,10|2,0:1|0:0,0:0:0:0:
73,147,178899,5,10,0:2:0:0:
3,120,179011,1,12,0:1:0:0:
60,72,179122,1,2,0:0:0:0:
146,169,179234,6,0,P|166:175|195:155,1,44,8|0,0:2|0:0,0:0:0:0:
190,155,179346,6,0,P|122:151|59:293,1,214.5,12|0,0:1|0:0,0:0:0:0:
57,268,179570,5,10,0:2:0:0:
0,355,179682,1,10,0:2:0:0:
48,275,179794,6,0,L|109:288,1,44,10|0,0:2|0:0,0:0:0:0:
109,327,179906,2,0,L|170:340,1,44,10|0,0:2|0:0,0:0:0:0:
210,283,180018,6,0,B|289:302|289:302|303:345|303:345|411:373,1,220,12|2,0:1|0:3,0:0:0:0:
492,243,180354,5,8,0:1:0:0:
502,169,180466,2,0,B|459:157|459:157|420:205,1,88,10|0,0:2|0:0,0:0:0:0:
312,173,180690,5,2,0:3:0:0:
370,284,180802,2,0,P|389:194|420:46,1,220,8|8,0:1|0:2,0:0:0:0:
352,22,181137,6,0,B|339:29|333:49|333:49|263:69,1,88,10|0,0:1|0:0,0:0:0:0:
164,157,181361,5,10,0:2:0:0:
226,128,181473,1,10,0:1:0:0:
249,180,181585,1,2,0:3:0:0:
290,166,181697,1,10,0:2:0:0:
297,185,181809,6,0,P|234:188|175:312,1,181.5,14|0,0:1|0:0,0:0:0:0:
174,288,182033,5,10,0:2:0:0:
21,222,182145,2,0,B|44:198|44:198|50:133|50:133|78:192|78:192|108:207,1,198,14|0,0:1|0:0,0:0:0:0:
76,273,182369,5,10,0:2:0:0:
51,379,182481,2,0,P|107:358|113:321,1,88,14|0,0:1|0:0,0:0:0:0:
329,261,182705,5,10,0:2:0:0:
198,363,182816,2,0,B|217:359|231:343|231:343|254:347|280:367,1,88,14|0,0:1|0:0,0:0:0:0:
221,208,183040,5,8,0:0:0:0:
283,370,183152,2,0,P|295:351|292:318,1,44,10|0,0:0|0:0,0:0:0:0:
170,278,183264,6,0,P|233:260|470:201,1,275,10|0,0:3|0:0,0:0:0:0:
445,213,183600,6,0,P|480:133|355:163,1,242,12|2,0:1|0:3,0:0:0:0:
299,162,183936,5,8,0:1:0:0:
433,223,184048,2,0,B|357:239|329:166|331:164|335:162|314:86|219:119,1,242,10|2,0:2|0:3,0:0:0:0:
175,154,184384,6,0,P|154:159|132:141,1,44,10|2,0:1|0:0,0:0:0:0:
121,126,184496,5,2,0:0:0:0:
153,60,184608,1,10,0:2:0:0:
100,9,184719,1,10,0:1:0:0:
7,53,184831,6,0,P|21:97|34:145,1,88,2|8,0:0|0:2,0:0:0:0:
161,227,185055,5,10,0:1:0:0:
62,324,185167,2,0,P|104:312|146:298,1,88,2|10,0:3|0:2,0:0:0:0:
342,265,185391,5,12,0:1:0:0:
247,295,185503,1,10,0:2:0:0:
313,335,185615,5,10,0:2:0:0:
237,288,185727,2,0,P|352:315|430:396,1,220,10|10,0:1|0:2,0:0:0:0:
434,140,186063,5,10,0:1:0:0:
500,180,186175,1,10,0:2:0:0:
406,215,186287,5,10,0:2:0:0:
510,187,186399,2,0,P|395:160|317:79,1,220,14|10,0:1|0:2,0:0:0:0:
120,67,186734,5,10,0:0:0:0:
221,23,186846,1,10,0:3:0:0:
135,29,186958,5,6,0:3:0:0:
199,103,187070,2,0,P|233:108|247:134,1,44,10|0,0:1|0:0,0:0:0:0:
319,84,187182,6,0,P|269:122|228:114,1,88,14|8,0:1|0:1,0:0:0:0:
141,149,187406,5,8,0:2:0:0:
295,254,187518,2,0,P|243:218|238:176,1,88,14|0,0:1|0:0,0:0:0:0:
68,173,187742,5,8,0:2:0:0:
253,113,187854,2,0,P|225:172|183:349,1,220,14|8,0:1|0:2,0:0:0:0:
112,341,188190,6,0,B|97:342|80:358|78:379|78:379|7:339|20:219|141:196|199:270|183:333,1,363,14|0,0:1|0:0,0:0:0:0:
256,384,188973,5,6,0:1:0:0:
256,192,196137,5,10,0:1:0:0:
256,192,196585,5,8,0:1:0:0:
256,192,197033,5,10,0:1:0:0:
256,192,197481,5,8,0:1:0:0:
335,192,197928,5,10,0:1:0:0:
177,192,198376,1,8,0:1:0:0:
256,113,198824,5,10,0:1:0:0:
256,271,199272,1,10,0:1:0:0:
503,331,199719,5,10,0:1:0:0:
491,328,199831,1,8,0:2:0:0:
479,325,199943,1,8,0:2:0:0:
467,322,200055,1,8,0:2:0:0:
433,353,200167,5,8,0:1:0:0:
418,355,200279,1,8,0:2:0:0:
403,359,200391,1,8,0:2:0:0:
389,362,200503,1,8,0:2:0:0:
337,308,200615,5,8,0:1:0:0:
340,298,200727,1,8,0:2:0:0:
310,294,200839,5,8,0:2:0:0:
303,280,200951,1,8,0:2:0:0:
283,300,201063,5,8,0:1:0:0:
262,293,201175,1,8,0:2:0:0:
266,318,201287,5,8,0:2:0:0:
237,330,201399,1,8,0:2:0:0:
178,380,201511,5,8,0:1:0:0:
120,373,201622,1,8,0:2:0:0:
95,320,201734,1,8,0:2:0:0:
126,272,201846,1,8,0:2:0:0:
137,274,201958,5,8,0:0:0:0:
176,212,202070,1,8,0:0:0:0:
144,145,202182,1,8,0:0:0:0:
70,136,202294,1,8,0:0:0:0:
27,206,202630,6,0,L|81:218,2,43.9999986572266,8|8|8,0:3|0:3|0:1,0:0:0:0:
209,91,202854,5,10,0:2:0:0:
136,53,202966,2,0,P|190:60|248:11,1,132,8|0,0:1|0:0,0:0:0:0:
448,156,203302,6,0,B|438:145|434:128|434:128|365:109,1,88,14|0,0:1|0:0,0:0:0:0:
297,78,203525,5,2,0:3:0:0:
371,118,203637,2,0,B|361:129|357:146|357:146|288:165,1,88,10|8,0:1|0:2,0:0:0:0:
176,212,203861,6,0,P|251:226|363:254,1,181.5,2|0,0:0|0:0,0:0:0:0:
361,246,204085,5,10,0:1:0:0:
259,369,204197,2,0,P|263:345|271:311,1,55,2|8,0:0|0:2,0:0:0:0:
472,276,204421,6,0,P|434:339|336:309,1,165,10|0,0:1|0:0,0:0:0:0:
342,329,204645,5,10,0:0:0:0:
191,334,204757,2,0,P|217:304|274:315,1,88,8|2,0:1|0:3,0:0:0:0:
346,339,204981,5,0,0:0:0:0:
258,382,205093,2,0,P|166:360|163:229,1,220,10|2,0:1|0:3,0:0:0:0:
173,137,205428,5,10,0:1:0:0:
95,188,205540,2,0,B|109:160|109:160|178:141,1,88,8|0,0:2|0:0,0:0:0:0:
297,162,205764,5,2,0:3:0:0:
224,195,205876,2,0,B|238:222|238:222|307:242,1,88,10|0,0:1|0:0,0:0:0:0:
429,154,206100,5,8,0:2:0:0:
415,241,206212,2,0,B|375:208|375:208|407:66,1,181.5,10|0,0:1|0:0,0:0:0:0:
476,56,206436,5,10,0:0:0:0:
322,0,206548,1,8,0:1:0:0:
393,77,206660,2,0,B|404:52|404:52|390:18,1,55,2|0,0:3|0:0,0:0:0:0:
241,94,206884,6,0,B|231:105|227:122|227:122|158:141,1,88,10|0,0:1|0:0,0:0:0:0:
108,21,207108,5,2,0:3:0:0:
163,142,207219,2,0,B|153:131|149:114|149:114|80:95,1,88,10|8,0:1|0:2,0:0:0:0:
0,210,207443,6,0,P|71:197|119:298,1,181.5,2|0,0:0|0:0,0:0:0:0:
116,286,207667,5,10,0:1:0:0:
202,362,207779,2,0,P|176:366|158:330,1,55,2|8,0:0|0:2,0:0:0:0:
56,330,208003,6,0,P|150:302|245:277,1,165,10|0,0:1|0:0,0:0:0:0:
225,289,208227,2,0,P|207:230|192:172,1,88,10|8,0:0|0:1,0:0:0:0:
373,276,208451,2,0,P|398:271|416:307,1,55,2|0,0:3|0:0,0:0:0:0:
344,379,208675,5,10,0:1:0:0:
229,281,208787,2,0,P|297:295|363:155,1,220,8|10,0:0|0:1,0:0:0:0:
461,51,209122,2,0,B|491:11|491:11|482:64,1,88,8|0,0:2|0:0,0:0:0:0:
307,124,209346,6,0,L|356:110,1,44,14|0,0:2|0:0,0:0:0:0:
497,120,209458,2,0,B|437:96|437:96|424:60|424:60|357:32,1,165,8|0,0:1|0:0,0:0:0:0:
360,28,209682,5,8,0:2:0:0:
298,132,209794,2,0,P|236:144|176:17,1,198,14|0,0:1|0:0,0:0:0:0:
225,3,210018,5,10,0:1:0:0:
88,79,210130,1,8,0:0:0:0:
103,0,210242,5,10,0:0:0:0:
144,141,210354,1,8,0:0:0:0:
224,108,210466,6,0,P|145:123|33:152,1,181.5,14|0,0:1|0:0,0:0:0:0:
36,143,210690,5,2,0:3:0:0:
121,265,210802,2,0,P|140:241|130:208,1,55,8|8,0:1|0:2,0:0:0:0:
3,210,211025,2,0,P|16:261|25:313,1,88,2|2,0:2|0:3,0:0:0:0:
185,349,211249,6,0,P|163:309|87:339,1,132,8|8,0:1|0:2,0:0:0:0:
236,278,211585,6,0,P|200:348|74:296,1,198,10|0,0:1|0:0,0:0:0:0:
23,295,211809,5,10,0:2:0:0:
137,218,211921,1,8,0:1:0:0:
83,135,212033,2,0,B|66:156|66:156|74:192,1,55,2|0,0:3|0:0,0:0:0:0:
227,268,212257,6,0,B|285:280|303:222|301:221|299:220|311:155|392:182,1,198,14|0,0:1|0:0,0:0:0:0:
389,187,212481,1,8,0:0:0:0:
470,111,212593,6,0,B|436:147|470:184|472:183|474:182|516:218|462:265,1,148.5,14|0,0:1|0:0,0:0:0:0:
467,252,212816,1,8,0:0:0:0:
440,333,212928,6,0,B|429:299|393:307|394:308|393:309|356:323|346:273,1,99,14|0,0:1|0:0,0:0:0:0:
352,285,213152,1,8,0:0:0:0:
304,371,213264,6,0,P|314:299|259:153,1,220,14|8,0:1|0:0,0:0:0:0:
151,128,213600,5,10,0:1:0:0:
212,68,213712,1,8,0:3:0:0:
141,113,213824,5,6,0:3:0:0:
222,81,213936,1,4,0:3:0:0:
140,33,214048,6,0,P|186:116|282:149,1,181.5,14|0,0:1|0:0,0:0:0:0:
273,151,214272,5,2,0:3:0:0:
329,51,214384,2,0,P|382:40|417:-5,1,88,10|8,0:1|0:2,0:0:0:0:
470,177,214608,5,10,0:1:0:0:
390,89,214719,2,0,P|433:188|427:297,1,220,2|0,0:3|0:0,0:0:0:0:
356,370,215055,5,8,0:2:0:0:
353,274,215167,2,0,B|335:276|322:293|322:293|273:277,1,88,10|0,0:1|0:0,0:0:0:0:
168,384,215391,2,0,P|154:340|178:309,1,88,10|8,0:0|0:1,0:0:0:0:
255,199,215615,1,2,0:3:0:0:
261,180,215727,1,2,0:2:0:0:
197,134,215839,6,0,L|107:159,1,88,10|8,0:1|0:2,0:0:0:0:
6,185,216063,5,2,0:3:0:0:
95,77,216175,2,0,B|109:27|109:27|80:61,1,88,10|12,0:1|0:2,0:0:0:0:
91,233,216399,5,2,0:2:0:0:
0,108,216511,1,10,0:2:0:0:
128,162,216622,2,0,L|180:147,1,55,8|0,0:1|0:0,0:0:0:0:
304,58,216846,5,8,0:0:0:0:
227,7,216958,2,0,P|252:72|424:68,1,242,10|10,0:1|0:0,0:0:0:0:
491,248,217294,6,0,P|514:185|426:236,1,242,8|10,0:1|0:0,0:0:0:0:
433,303,217630,6,0,B|423:314|419:331|419:331|350:350,1,88,14|0,0:1|0:0,0:0:0:0:
299,235,217854,5,2,0:2:0:0:
355,352,217966,2,0,B|345:341|341:324|341:324|272:305,1,88,10|12,0:1|0:0,0:0:0:0:
177,383,218190,6,0,P|207:262|226:191,1,181.5,2|0,0:0|0:0,0:0:0:0:
217,198,218414,5,10,0:1:0:0:
87,236,218525,2,0,P|118:242|139:217,1,55,2|8,0:0|0:2,0:0:0:0:
293,152,218749,2,0,P|209:153|179:81,1,165,10|0,0:1|0:0,0:0:0:0:
186,80,218973,5,10,0:0:0:0:
48,1,219085,2,0,P|98:23|96:75,1,88,8|2,0:1|0:3,0:0:0:0:
173,81,219309,5,0,0:0:0:0:
44,97,219421,2,0,P|134:67|284:26,1,220,10|2,0:1|0:3,0:0:0:0:
423,49,219757,5,10,0:1:0:0:
353,12,219869,2,0,B|334:33|334:33|360:106,1,88,8|0,0:2|0:0,0:0:0:0:
386,196,220093,5,2,0:3:0:0:
467,123,220205,2,0,B|485:144|485:144|459:217,1,88,10|0,0:1|0:0,0:0:0:0:
340,262,220428,5,8,0:2:0:0:
461,305,220540,2,0,P|395:284|328:359,1,165,10|0,0:1|0:0,0:0:0:0:
269,384,220764,5,10,0:0:0:0:
171,301,220876,1,8,0:1:0:0:
249,256,220988,2,0,B|260:280|260:280|242:313,1,55,2|8,0:3|0:0,0:0:0:0:
111,348,221212,6,0,B|101:337|97:320|97:320|28:301,1,88,10|0,0:1|0:0,0:0:0:0:
129,221,221436,5,2,0:3:0:0:
37,295,221548,2,0,B|32:280|19:269|19:269|36:199,1,88,10|8,0:1|0:2,0:0:0:0:
177,132,221772,6,0,P|87:124|68:32,1,181.5,2|0,0:0|0:0,0:0:0:0:
72,40,221996,5,10,0:1:0:0:
203,41,222108,2,0,P|169:50|148:56,1,55,2|8,0:0|0:2,0:0:0:0:
245,184,222331,6,0,P|371:150|429:134,1,165,10|0,0:1|0:0,0:0:0:0:
409,132,222555,2,0,P|389:58|379:23,1,88,10|8,0:0|0:1,0:0:0:0:
503,196,222779,2,0,P|495:225|462:232,1,55,2|0,0:3|0:0,0:0:0:0:
378,333,223003,5,10,0:1:0:0:
330,246,223115,2,0,P|386:232|475:363,1,220,8|10,0:0|0:1,0:0:0:0:
322,384,223451,2,0,B|269:364|269:364|303:362,1,88,8|0,0:2|0:0,0:0:0:0:
241,201,223675,6,0,L|230:262,1,44,6|0,0:2|0:0,0:0:0:0:
328,238,223787,2,0,B|264:256|264:256|253:280|253:280|170:304,1,165,8|0,0:1|0:0,0:0:0:0:
175,294,224011,5,8,0:2:0:0:
35,212,224122,2,0,P|85:224|165:106,1,198,14|0,0:1|0:0,0:0:0:0:
99,52,224346,5,10,0:1:0:0:
174,116,224458,1,8,0:0:0:0:
69,128,224570,5,10,0:0:0:0:
186,15,224682,1,8,0:0:0:0:
282,72,224794,6,0,P|266:142|240:264,1,181.5,14|0,0:1|0:0,0:0:0:0:
251,258,225018,5,2,0:3:0:0:
122,292,225130,2,0,P|148:297|175:303,1,55,10|8,0:1|0:2,0:0:0:0:
338,343,225354,2,0,P|285:347|267:388,1,88,2|2,0:2|0:3,0:0:0:0:
190,200,225578,6,0,P|212:160|288:190,1,132,10|8,0:1|0:2,0:0:0:0:
139,129,225914,6,0,P|175:199|301:147,1,198,10|0,0:1|0:0,0:0:0:0:
359,204,226137,5,10,0:2:0:0:
288,87,226249,1,8,0:1:0:0:
363,62,226361,2,0,B|379:88|379:88|357:124,1,55,2|8,0:3|0:0,0:0:0:0:
285,194,226585,6,0,B|227:206|209:148|211:147|213:146|201:81|120:108,1,198,14|0,0:1|0:0,0:0:0:0:
123,113,226809,1,8,0:0:0:0:
42,37,226921,6,0,B|76:73|42:110|40:109|38:108|-4:144|50:191,1,148.5,14|0,0:1|0:0,0:0:0:0:
45,178,227145,1,8,0:0:0:0:
72,259,227257,6,0,B|83:225|119:233|118:234|119:235|156:249|166:199,1,99,14|0,0:1|0:0,0:0:0:0:
160,211,227481,1,8,0:0:0:0:
0,280,227593,6,0,P|71:283|175:410,1,220,14|8,0:1|0:0,0:0:0:0:
316,295,227928,5,10,0:1:0:0:
255,355,228040,1,8,0:3:0:0:
326,310,228152,5,6,0:3:0:0:
245,342,228264,1,4,0:3:0:0:
243,255,228376,6,0,P|307:340|413:359,1,220,14|0,0:1|0:0,0:0:0:0:
459,242,228712,5,10,0:1:0:0:
420,351,228824,2,0,P|463:343|492:298,1,88,8|0,0:2|0:0,0:0:0:0:
388,187,229048,2,0,P|379:221|370:245,1,55,2|8,0:0|0:1,0:0:0:0:
312,145,229272,6,0,P|289:108|320:62,1,88,2|8,0:3|0:0,0:0:0:0:
441,131,229496,2,0,P|466:140|493:146,1,55,10|0,0:1|0:0,0:0:0:0:
267,0,229719,6,0,P|225:14|183:25,1,88,10|8,0:2|0:1,0:0:0:0:
384,74,229943,2,0,P|394:48|406:24,1,55,2|8,0:2|0:2,0:0:0:0:
218,189,230167,5,14,0:1:0:0:
304,153,230279,2,0,P|216:159|183:71,1,165,8|0,0:2|0:0,0:0:0:0:
167,98,230503,5,10,0:1:0:0:
54,192,230615,2,0,B|70:195|84:209|84:209|160:188,1,88,8|0,0:2|0:0,0:0:0:0:
256,329,230839,6,0,P|270:268|280:224,1,88,14|14,0:2|0:1,0:0:0:0:
154,271,231063,2,0,L|81:293,1,55,2|10,0:0|0:0,0:0:0:0:
263,339,231287,2,0,L|360:368,1,88,10|8,0:1|0:0,0:0:0:0:
462,307,231511,5,10,0:0:0:0:
512,255,231622,1,8,0:0:0:0:
463,219,231734,1,10,0:3:0:0:
482,202,231846,1,4,0:3:0:0:
474,189,231958,6,0,P|408:189|319:73,1,220,14|0,0:1|0:0,0:0:0:0:
184,6,232294,5,10,0:1:0:0:
247,98,232406,2,0,B|232:91|225:75|225:75|158:95,1,88,8|0,0:2|0:0,0:0:0:0:
49,0,232630,2,0,P|40:45|73:74,1,88,2|8,0:0|0:1,0:0:0:0:
137,174,232854,6,0,P|150:125|165:82,1,88,2|8,0:3|0:0,0:0:0:0:
67,229,233078,2,0,P|32:238|1:253,1,55,10|0,0:1|0:0,0:0:0:0:
224,173,233302,6,0,P|272:192|323:204,1,88,10|8,0:2|0:1,0:0:0:0:
188,380,233525,2,0,P|179:348|169:320,1,55,2|8,0:2|0:2,0:0:0:0:
310,209,233749,6,0,P|291:257|279:308,1,88,14|8,0:1|0:2,0:0:0:0:
340,351,233973,5,8,0:2:0:0:
446,289,234085,2,0,B|431:282|424:266|424:266|357:286,1,88,10|8,0:1|0:2,0:0:0:0:
265,384,234309,5,8,0:2:0:0:
198,254,234421,2,0,P|246:273|297:285,1,88,14|8,0:1|0:2,0:0:0:0:
427,186,234645,5,10,0:2:0:0:
351,361,234757,2,0,P|383:298|322:47,1,330,8|2,0:1|0:0,0:0:0:0:
256,192,235316,12,0,236884,0:0:0:0:
25,55,237331,6,0,B|37:32|37:32|100:54,1,88,12|0,0:1|0:0,0:0:0:0:
238,104,237555,5,2,0:0:0:0:
181,39,237667,2,0,L|144:142,1,88,10|8,0:1|0:2,0:0:0:0:
94,209,237891,5,8,0:1:0:0:
83,201,238003,1,2,0:0:0:0:
78,214,238115,1,10,0:2:0:0:
0,198,238227,6,0,B|72:222|72:222|91:265|91:265|174:292,1,198,2|8,0:3|0:1,0:0:0:0:
283,232,238563,6,0,B|271:209|271:209|208:231,1,88,2|8,0:0|0:2,0:0:0:0:
165,297,238787,5,8,0:1:0:0:
270,374,238899,2,0,B|288:355|288:355|247:302,1,88,2|8,0:0|0:2,0:0:0:0:
172,292,239122,5,8,0:1:0:0:
187,384,239234,1,8,0:2:0:0:
340,290,239346,5,2,0:0:0:0:
345,297,239458,2,0,L|443:327,1,88,10|8,0:1|0:2,0:0:0:0:
445,131,239682,5,8,0:1:0:0:
456,123,239794,1,2,0:0:0:0:
460,137,239906,1,10,0:2:0:0:
512,200,240018,6,0,P|443:217|369:118,1,198,2|8,0:3|0:1,0:0:0:0:
249,19,240354,2,0,B|237:-4|237:-4|174:18,1,88,2|8,0:0|0:2,0:0:0:0:
321,47,240578,5,8,0:1:0:0:
206,89,240690,2,0,P|266:107|380:140,1,165,2|0,0:0|0:0,0:0:0:0:
371,140,240914,6,0,P|343:184|291:179,1,88,8|0,0:1|0:0,0:0:0:0:
169,237,241137,5,2,0:0:0:0:
255,258,241249,2,0,P|245:226|227:165,1,88,10|8,0:1|0:2,0:0:0:0:
55,148,241473,5,8,0:1:0:0:
66,140,241585,1,2,0:0:0:0:
70,154,241697,1,10,0:2:0:0:
162,147,241809,6,0,B|90:171|90:171|71:214|71:214|-12:241,1,198,2|8,0:3|0:1,0:0:0:0:
37,309,242145,6,0,B|49:332|49:332|112:310,1,88,2|8,0:0|0:2,0:0:0:0:
169,237,242369,5,8,0:1:0:0:
179,345,242481,2,0,B|191:322|191:322|254:344,1,88,2|8,0:0|0:2,0:0:0:0:
411,350,242705,5,8,0:1:0:0:
266,262,242816,1,8,0:2:0:0:
332,377,242928,5,2,0:0:0:0:
324,384,243040,2,0,L|345:284,1,88,10|8,0:1|0:2,0:0:0:0:
425,149,243264,5,8,0:1:0:0:
414,140,243376,1,2,0:0:0:0:
409,154,243488,1,10,0:2:0:0:
390,237,243600,6,0,L|476:218,1,88,2|8,0:3|0:2,0:0:0:0:
490,0,243824,5,12,0:1:0:0:
442,58,243936,2,0,L|355:76,1,88,2|8,0:0|0:2,0:0:0:0:
153,103,244160,5,8,0:2:0:0:
211,50,244272,1,10,0:2:0:0:
227,126,244384,1,8,0:2:0:0:
145,108,244496,6,0,B|126:91|126:91|123:24,1,88,12|0,0:1|0:0,0:0:0:0:
143,212,244719,5,2,0:0:0:0:
87,160,244831,2,0,L|0:178,1,88,10|8,0:1|0:2,0:0:0:0:
101,344,245055,5,8,0:1:0:0:
113,351,245167,1,2,0:0:0:0:
117,338,245279,1,10,0:2:0:0:
78,249,245391,6,0,P|100:298|242:279,1,198,2|8,0:3|0:1,0:0:0:0:
351,237,245727,6,0,B|339:214|339:214|276:236,1,88,2|8,0:0|0:2,0:0:0:0:
219,293,245951,1,8,0:1:0:0:
324,377,246063,6,0,B|342:358|342:358|301:305,1,88,2|8,0:0|0:2,0:0:0:0:
224,284,246287,5,8,0:1:0:0:
254,149,246399,1,8,0:2:0:0:
106,177,246511,5,2,0:0:0:0:
103,166,246622,2,0,L|215:193,1,88,10|8,0:1|0:2,0:0:0:0:
331,45,246846,5,8,0:1:0:0:
320,36,246958,1,2,0:0:0:0:
314,48,247070,1,10,0:2:0:0:
231,75,247182,6,0,P|291:64|371:170,1,198,2|8,0:3|0:1,0:0:0:0:
501,217,247518,2,0,B|489:240|489:240|425:220,1,88,2|8,0:0|0:2,0:0:0:0:
280,234,247742,5,8,0:1:0:0:
382,162,247854,2,0,P|405:204|344:291,1,165,2|0,0:0|0:0,0:0:0:0:
335,290,248078,6,0,L|315:384,1,88,8|0,0:1|0:0,0:0:0:0:
217,284,248302,5,2,0:0:0:0:
302,378,248414,2,0,L|215:359,1,88,10|8,0:1|0:2,0:0:0:0:
51,285,248637,5,8,0:1:0:0:
57,273,248749,1,2,0:0:0:0:
68,282,248861,1,10,0:2:0:0:
103,373,248973,6,0,P|104:301|213:194,1,220,2|8,0:3|0:1,0:0:0:0:
271,65,249309,2,0,B|277:45|277:45|202:19,1,88,10|8,0:2|0:2,0:0:0:0:
62,46,249533,5,8,0:1:0:0:
110,83,249645,5,6,0:3:0:0:
89,150,249757,5,8,0:1:0:0:
98,161,249869,5,12,0:2:0:0:
308,196,250540,5,2,0:0:0:0:
317,200,250652,1,2,0:0:0:0:
348,179,250764,5,2,0:0:0:0:
407,236,251100,5,2,0:0:0:0:
512,177,251436,5,2,0:0:0:0:
