osu file format v14

[General]
AudioFilename: audio.mp3
AudioLeadIn: 0
PreviewTime: 2122
Countdown: 0
SampleSet: Soft
StackLeniency: 0.7
Mode: 0
LetterboxInBreaks: 0
WidescreenStoryboard: 1

[Editor]
DistanceSpacing: 0.3
BeatDivisor: 4
GridSize: 16
TimelineZoom: 1.3

[Metadata]
Title:TALALALALALALALALALALALAAAAA LALAAAAAAAAAAAAA
TitleUnicode:TALALALALALALALALALALALAAAAA LALAAAAAAAAAAAAA
Artist:Hoshimachi Suisei
ArtistUnicode:星街すいせい
Creator:KecHik445
Version:bakery's Heavy Insane
Source:
Tags:Ceka Éclair eclair vtuber virtual youtuber hololive female vocal japanese jpop j-pop バーチャルyoutuber ホロライブ japanese pop anime meme れいるか hana87z Creatural gundam hathaway op opening 閃光 Senkou Alexandros NinjaWarotMC OnLoong KPMY _HaxOr_ iaport honigFNA actiol ezio Mahiru Shiina SEApodEErman bakery fujinn
BeatmapID:3617161
BeatmapSetID:1742920

[Difficulty]
HPDrainRate:5
CircleSize:4
OverallDifficulty:8
ApproachRate:9.2
SliderMultiplier:1.82
SliderTickRate:1

[Events]
//Background and Video events
0,0,"bg.png",0,0
Video,880,"video.mp4"
//Break Periods
//Storyboard Layer 0 (Background)
//Storyboard Layer 1 (Fail)
//Storyboard Layer 2 (Pass)
//Storyboard Layer 3 (Foreground)
//Storyboard Layer 4 (Overlay)
//Storyboard Sound Samples

[TimingPoints]
106,288.115246098439,4,2,1,70,1,0
110,-100,4,2,1,50,0,0
2266,-100,4,2,1,70,0,0
2338,-100,4,2,1,50,0,0
2410,-66.6666666666667,4,2,7,80,0,1
2554,-66.6666666666667,4,2,7,70,0,1
2699,-66.6666666666667,4,2,7,80,0,1
4355,-66.6666666666667,4,2,7,70,0,1
4427,-66.6666666666667,4,2,7,80,0,1
4931,-66.6666666666667,4,2,7,70,0,1
5003,-66.6666666666667,4,2,7,80,0,1
6084,-66.6666666666667,4,2,7,70,0,1
6156,-66.6666666666667,4,2,7,80,0,1
6588,-100,4,2,7,80,0,1
8173,-66.6666666666667,4,2,7,80,0,1
8749,-80,4,2,7,80,0,1
9325,-66.6666666666667,4,2,7,80,0,1
10478,-66.6666666666667,4,2,8,80,0,1
11198,-133.333333333333,4,2,7,80,0,1
11414,-133.333333333333,4,2,7,70,0,1
11486,-133.333333333333,4,2,7,80,0,1
12783,-66.6666666666667,4,2,7,80,0,1
15952,-133.333333333333,4,2,7,80,0,1
16168,-133.333333333333,4,2,7,70,0,1
16240,-40,4,2,7,80,0,1
16456,-40,4,2,7,70,0,1
16528,-66.6666666666667,4,2,7,80,0,1
17392,-66.6666666666667,4,2,7,70,0,1
17680,-66.6666666666667,4,2,7,80,0,1
18545,-40,4,2,7,80,0,1
18761,-40,4,2,7,70,0,1
18833,-66.6666666666667,4,2,7,80,0,1
19481,-66.6666666666667,4,2,7,70,0,1
19553,-66.6666666666667,4,2,7,80,0,1
20562,-100,4,2,7,80,0,1
20850,-200,4,2,1,70,0,0
21426,-200,4,2,1,80,0,0
21714,-200,4,2,1,90,0,0
22002,-200,4,2,1,85,0,0
23155,-200,4,2,1,70,0,0
23731,-285.714285714286,4,2,1,70,0,0
29061,-200,4,2,1,70,0,0
29493,-200,4,2,1,5,0,0

[Colours]
Combo1 : 63,120,254
Combo2 : 192,192,192
Combo3 : 162,206,247

[HitObjects]
89,309,1258,6,0,P|134:313|177:328,1,91
88,335,1546,2,0,P|42:339|0:354,1,91
207,251,1834,5,0,0:0:0:0:
219,256,1906,1,0,0:0:0:0:
231,262,1978,1,0,0:0:0:0:
39,168,2122,1,0,0:0:0:0:
56,159,2194,1,0,0:0:0:0:
76,149,2266,1,0,0:0:0:0:
94,142,2338,1,0,0:0:0:0:
119,134,2410,6,0,P|217:105|286:98,1,136.500005207062,6|0,1:3|0:0,0:0:0:0:
469,80,2699,2,0,P|441:139|376:146,1,136.500005207062,10|0,0:3|0:0,0:0:0:0:
164,26,2987,5,2,1:3:0:0:
315,55,3131,1,0,1:0:0:0:
212,179,3275,5,10,0:3:0:0:
394,70,3419,1,0,0:0:0:0:
512,293,3563,6,0,B|503:345|445:343|445:343|465:329|468:308,1,136.500005207062,2|0,1:3|0:0,0:0:0:0:
332,208,3851,2,0,B|311:206|297:186|297:186|295:244|347:254,1,136.500005207062,10|0,0:3|0:0,0:0:0:0:
198,315,4139,2,0,P|263:299|424:270,1,204.750007810593,2|0,1:3|0:0,0:0:0:0:
469,224,4427,1,10,0:3:0:0:
469,224,4715,6,0,B|509:117|401:75|345:163|410:209|431:204,1,204.750007810593,2|0,1:3|0:0,0:0:0:0:
354,345,5003,2,0,P|287:328|220:316,1,136.500005207062,10|0,0:3|0:0,0:0:0:0:
33,317,5292,6,0,B|18:184|126:142|218:240|128:316|74:281,1,273.000010414124,2|10,1:3|0:3,0:0:0:0:
13,152,5724,1,0,0:0:0:0:
243,125,5868,2,0,B|207:151|170:125|170:125|137:89|137:89|93:58|55:95,1,204.750007810593,2|0,1:3|0:0,0:0:0:0:
71,100,6156,1,10,0:3:0:0:
368,11,6300,2,0,P|300:23|234:39,1,136.500005207062,2|0,1:3|0:3,0:0:0:0:
445,143,6588,6,0,P|497:119|466:0,1,182,0|0,1:0|0:0,0:0:0:0:
266,260,7020,5,6,1:3:0:0:
449,158,7164,1,0,0:0:0:0:
244,137,7308,1,10,0:3:0:0:
400,281,7452,1,0,0:0:0:0:
361,85,7596,1,2,1:3:0:0:
256,283,7741,5,0,1:0:0:0:
361,85,7885,1,10,0:3:0:0:
408,298,8029,1,0,0:0:0:0:
64,243,8173,6,0,P|88:305|169:306,1,136.500005207062,2|0,1:3|0:0,0:0:0:0:
72,117,8461,2,0,P|9:141|9:222,1,136.500005207062,10|0,0:3|0:0,0:0:0:0:
191,142,8749,2,0,P|166:79|86:79,1,113.75,2|0,1:3|1:0,0:0:0:0:
143,234,9037,1,10,0:3:0:0:
143,234,9325,6,0,B|179:258|234:222|234:222|278:162|278:162|332:120|381:158,1,273.000010414124,6|10,1:3|0:3,0:0:0:0:
332,317,9757,1,0,0:0:0:0:
190,141,9901,6,0,B|228:111|282:153|282:153|326:213|326:213|380:249|417:225,1,273.000010414124,6|10,1:3|0:3,0:0:0:0:
292,66,10334,1,0,0:0:0:0:
480,178,10478,5,8,0:3:0:0:
378,149,10622,1,8,0:3:0:0:
399,50,10766,1,4,0:3:0:0:
495,72,10910,1,4,0:3:0:0:
476,71,11198,6,0,P|486:137|492:196,1,102.375003905296,12|0,0:2|0:0,0:0:0:0:
480,178,11486,1,0,0:0:0:0:
255,334,11630,5,6,1:3:0:0:
446,298,11774,1,0,0:0:0:0:
141,281,11918,5,14,0:3:0:0:
332,317,12062,1,0,0:0:0:0:
41,207,12206,5,2,1:3:0:0:
255,334,12350,1,0,1:0:0:0:
219,173,12494,1,10,0:3:0:0:
80,373,12639,1,0,0:0:0:0:
403,156,12783,6,0,P|370:99|305:95,1,136.500005207062,2|0,1:3|1:0,0:0:0:0:
23,120,13071,2,0,P|111:93|86:-2,1,136.500005207062,10|0,0:3|0:0,0:0:0:0:
138,286,13359,6,0,B|107:306|116:302|177:380|209:337|207:347|211:306|194:303,1,136.500005207062,2|0,1:3|1:0,0:0:0:0:
273,25,13647,2,0,B|280:34|276:-6|278:3|246:-39|185:38|176:34|207:54,1,136.500005207062,10|0,0:3|0:0,0:0:0:0:
55,227,13935,2,0,P|159:200|350:169,1,273.000010414124,2|10,1:3|0:3,0:0:0:0:
414,26,14367,1,0,0:0:0:0:
321,262,14511,6,0,B|287:262|243:328|316:409|441:330|400:219,1,273.000010414124,2|10,1:3|0:3,0:0:0:0:
304,95,14943,1,0,0:0:0:0:
512,207,15087,6,0,P|456:168|476:103,1,136.500005207062,2|0,1:3|0:0,0:0:0:0:
175,67,15376,2,0,P|209:13|273:25,1,136.500005207062,10|2,0:3|1:3,0:0:0:0:
495,285,15664,5,0,0:3:0:0:
495,285,15808,1,0,1:0:0:0:
322,172,15952,2,0,P|254:183|192:190,1,102.375003905296,10|0,0:3|0:0,0:0:0:0:
0,259,16240,6,0,B|71:258|120:373|120:373|92:263|158:197,1,341.25,6|0,1:3|0:0,0:0:0:0:
82,164,16528,2,0,B|59:158|33:118|33:118|41:162|18:188,1,136.500005207062,10|0,0:3|0:0,0:0:0:0:
215,327,16816,5,2,1:3:0:0:
226,111,16960,1,0,1:0:0:0:
200,335,17104,1,10,0:3:0:0:
450,363,17248,5,6,1:3:0:0:
472,222,17392,2,0,P|367:229|332:385,1,273.000010414124,2|10,1:3|0:0,1:0:0:0:
88,0,17969,6,0,P|112:94|198:86,1,136.500005207062,2|0,1:3|1:0,0:0:0:0:
368,273,18257,2,0,P|434:275|473:222,1,136.500005207062,10|0,0:3|0:0,0:0:0:0:
226,111,18545,6,0,B|276:62|248:-47|248:-47|297:67|368:66,1,341.25,6|0,1:3|0:0,0:0:0:0:
342,141,18833,2,0,B|322:162|330:206|330:206|304:166|281:160,1,136.500005207062,10|0,0:3|0:0,0:0:0:0:
459,34,19121,6,0,P|477:93|427:146,1,136.500005207062,2|0,1:3|1:0,0:0:0:0:
93,148,19409,2,0,P|140:103|184:115,1,68.250002603531,10|0,0:3|0:0,0:0:0:0:
291,70,19553,6,0,P|263:204|243:339,1,273.000010414124,4|0,1:3|1:0,0:0:0:0:
417,384,19985,1,10,0:3:0:0:
359,291,20130,1,0,0:0:0:0:
243,339,20274,1,2,1:3:0:0:
162,285,20418,1,0,1:0:0:0:
16,326,20562,2,0,P|61:328|105:337,1,91,10|0,0:3|0:0,0:0:0:0:
460,227,20850,6,0,P|414:229|399:232,1,45.5,4|0,1:2|0:0,0:0:0:0:
197,144,21138,5,0,1:0:0:0:
246,338,21282,1,0,3:0:0:0:
363,165,21426,1,8,0:0:0:0:
149,268,21570,1,8,0:0:0:0:
354,297,21714,1,8,0:0:0:0:
292,94,21858,1,8,0:0:0:0:
252,337,22002,5,12,0:0:0:0:
292,94,22146,1,12,0:0:0:0:
292,94,22578,5,12,0:0:0:0:
252,337,22722,1,12,0:0:0:0:
292,94,23155,6,0,P|306:40|329:7,1,91
252,337,23731,6,0,B|387:333|480:171|501:11|274:-129|50:-77|-71:130|9:297|203:397|281:385|416:318|505:77|258:-66|113:170|205:185|239:188,1,1146.59996500855,14|0,0:0|0:0,0:0:0:0:
500,50,29061,6,0,B|451:52|451:52|428:78|428:78|356:78,1,136.5,0|0,1:0|0:0,0:0:0:0:
