osu file format v14

[General]
AudioFilename: audio.mp3
AudioLeadIn: 0
PreviewTime: 2122
Countdown: 0
SampleSet: Soft
StackLeniency: 0.7
Mode: 0
LetterboxInBreaks: 0
WidescreenStoryboard: 1

[Editor]
Bookmarks: 14367,29133
DistanceSpacing: 0.6
BeatDivisor: 4
GridSize: 4
TimelineZoom: 1.3

[Metadata]
Title:TALALALALALALALALALALALAAAAA LALAAAAAAAAAAAAA
TitleUnicode:TALALALALALALALALALALALAAAAA LALAAAAAAAAAAAAA
Artist:Hoshimachi Suisei
ArtistUnicode:星街すいせい
Creator:KecHik445
Version:Honig's Insane
Source:
Tags:Ceka Éclair eclair vtuber virtual youtuber hololive female vocal japanese jpop j-pop バーチャルyoutuber ホロライブ japanese pop anime meme れいるか hana87z Creatural gundam hathaway op opening 閃光 Senkou Alexandros NinjaWarotMC OnLoong KPMY _HaxOr_ iaport honigFNA actiol ezio Mahiru Shiina SEApodEErman bakery fujinn
BeatmapID:3631228
BeatmapSetID:1742920

[Difficulty]
HPDrainRate:5
CircleSize:3.8
OverallDifficulty:7.5
ApproachRate:9
SliderMultiplier:1.7
SliderTickRate:1

[Events]
//Background and Video events
0,0,"bg.png",0,0
Video,880,"video.mp4"
//Break Periods
//Storyboard Layer 0 (Background)
//Storyboard Layer 1 (Fail)
//Storyboard Layer 2 (Pass)
//Storyboard Layer 3 (Foreground)
//Storyboard Layer 4 (Overlay)
//Storyboard Sound Samples

[TimingPoints]
106,288.115246098439,4,2,1,70,1,0
1258,-133.333333333333,4,2,1,50,0,0
1834,-125,4,2,1,70,0,0
2410,-100,4,2,7,80,0,1
10478,-100,4,2,8,80,0,1
11198,-100,4,2,7,80,0,1
11630,-100,4,2,7,80,0,1
20850,-90.9090909090909,4,2,1,70,0,0
21426,-90.9090909090909,4,2,1,80,0,0
21714,-90.9090909090909,4,2,1,90,0,0
22002,-90.9090909090909,4,2,1,85,0,0
23155,-333.333333333334,4,2,1,70,0,0
23443,-333.333333333334,4,2,1,5,0,0
23731,-222.222222222222,4,2,1,70,0,0

[Colours]
Combo1 : 63,120,254
Combo2 : 192,192,192
Combo3 : 162,206,247

[HitObjects]
71,49,1258,6,0,L|62:133,1,63.7500024318696,6|0,1:2|0:0,0:0:0:0:
178,93,1546,2,0,L|185:160,1,63.7500024318696,6|0,0:0|0:0,0:0:0:0:
83,222,1834,2,0,L|49:218,3,34,8|8|8|8,0:0|0:0|0:0|0:0,0:0:0:0:
165,261,2122,1,8,0:0:0:0:
185,257,2194,1,8,0:0:0:0:
204,252,2266,1,8,0:0:0:0:
224,249,2338,1,8,0:0:0:0:
249,244,2410,6,0,B|308:237|308:237|354:267|354:267|411:260,1,170,4|10,0:0|0:0,0:0:0:0:
280,322,2843,1,0,1:2:0:0:
381,185,2987,2,0,L|371:94,1,85,2|2,1:2|1:2,0:0:0:0:
142,107,3275,1,10,0:0:0:0:
249,244,3419,1,2,1:2:0:0:
299,60,3563,6,0,P|257:42|213:50,1,85,6|0,0:0|0:0,0:0:0:0:
88,177,3851,2,0,P|129:194|173:186,1,85,10|0,0:0|0:0,0:0:0:0:
76,28,4139,2,0,P|48:63|44:107,1,85,2|0,1:2|0:0,0:0:0:0:
172,187,4427,1,10,0:2:0:0:
4,251,4571,1,0,0:0:0:0:
127,94,4715,6,0,L|108:265,1,170,6|8,0:2|0:0,0:0:0:0:
208,377,5148,1,2,1:2:0:0:
277,223,5292,6,0,B|367:192|348:272|439:241,1,170,2|8,1:2|0:0,0:0:0:0:
512,158,5724,1,0,1:2:0:0:
417,84,5868,6,0,L|408:168,1,85,0|0,1:2|0:0,0:0:0:0:
307,294,6156,1,10,0:2:0:0:
231,121,6300,2,0,P|275:109|317:122,1,85,2|0,1:2|1:2,0:0:0:0:
375,246,6588,1,2,1:2:0:0:
167,236,6732,2,0,L|158:151,1,85,8|2,0:0|0:0,0:0:0:0:
314,30,7020,5,6,0:0:0:0:
249,218,7164,1,2,1:2:0:0:
149,42,7308,1,10,0:0:0:0:
350,142,7452,1,2,0:0:0:0:
143,187,7596,2,0,P|97:183|62:156,1,85,2|0,1:2|1:0,0:0:0:0:
104,28,7885,2,0,P|130:63|133:108,1,85,10|2,0:0|1:2,0:0:0:0:
55,245,8173,6,0,L|66:155,1,85,2|0,1:2|0:0,0:0:0:0:
213,144,8461,2,0,L|223:228,1,85,10|0,0:2|0:0,0:0:0:0:
38,253,8749,6,0,L|49:163,1,85,2|0,1:2|0:0,0:0:0:0:
261,268,9037,1,10,0:2:0:0:
132,135,9181,1,0,0:0:0:0:
189,330,9325,6,0,B|155:363|155:363|95:318|129:255,1,170,6|8,0:0|0:0,0:0:0:0:
228,130,9757,1,2,1:2:0:0:
315,266,9901,6,0,B|403:231|387:312|477:278,1,170,6|8,1:2|0:0,0:0:0:0:
315,149,10334,1,2,0:0:0:0:
347,338,10478,5,10,0:3:0:0:
413,150,10622,1,8,0:3:0:0:
264,326,10766,1,8,0:3:0:0:
228,122,10910,1,8,0:3:0:0:
408,278,11054,1,8,0:3:0:0:
168,246,11198,2,0,P|128:223|107:184,1,85,6|0,0:0|0:0,0:0:0:0:
150,26,11486,1,2,0:0:0:0:
279,154,11630,6,0,L|189:165,1,85,6|2,0:0|1:2,0:0:0:0:
144,16,11918,2,0,L|233:27,1,85,10|2,0:0|1:2,0:0:0:0:
430,145,12206,1,2,1:2:0:0:
311,0,12350,1,2,1:2:0:0:
282,179,12494,1,10,0:2:0:0:
406,33,12639,1,2,1:2:0:0:
366,223,12783,6,0,L|376:307,1,85,6|0,0:0|0:0,0:0:0:0:
192,180,13071,2,0,L|181:264,1,85,10|0,0:0|0:0,0:0:0:0:
296,358,13359,2,0,P|250:362|211:342,1,85,2|0,1:2|1:0,0:0:0:0:
79,219,13647,1,10,0:2:0:0:
270,281,13791,1,0,0:0:0:0:
85,383,13935,6,0,B|92:320|92:320|71:277|71:277|78:218,1,170,6|8,0:0|0:0,0:0:0:0:
165,85,14367,1,2,1:2:0:0:
255,235,14511,6,0,P|313:259|399:209,1,170,2|8,1:2|0:0,0:0:0:0:
457,72,14943,5,0,1:2:0:0:
306,92,15087,6,0,L|316:176,1,85,6|0,0:0|1:0,0:0:0:0:
468,251,15376,2,0,L|478:166,1,85,10|0,0:0|1:0,0:0:0:0:
287,269,15664,1,2,1:2:0:0:
393,134,15808,1,0,0:0:0:0:
421,323,15952,1,10,0:2:0:0:
316,176,16096,1,0,0:0:0:0:
228,333,16240,6,0,B|140:298|156:379|66:345,1,170,6|8,0:0|0:0,0:0:0:0:
11,251,16672,1,0,1:2:0:0:
67,176,16816,2,0,P|108:161|152:171,1,85,2|2,1:2|0:0,0:0:0:0:
230,255,17104,1,0,1:0:0:0:
323,91,17248,6,0,B|346:123|370:130|370:130|338:242,1,170,4|0,0:0|0:0,0:0:0:0:
177,47,17681,2,0,L|261:37,1,85,8|0,0:0|0:0,0:0:0:0:
370,132,17969,1,2,1:2:0:0:
199,128,18113,1,0,0:0:0:0:
359,47,18257,1,10,0:2:0:0:
249,200,18401,1,0,0:0:0:0:
177,47,18545,6,0,B|114:40|114:40|71:61|71:61|12:54,1,170,6|10,0:2|0:2,0:0:0:0:
0,146,18977,1,0,0:0:0:0:
126,121,19121,1,0,1:2:0:0:
42,232,19265,5,0,1:0:0:0:
12,54,19409,1,10,0:0:0:0:
202,163,19553,1,6,0:2:0:0:
22,245,19697,6,0,L|33:155,1,85,0|0,0:0|1:0,0:0:0:0:
191,73,19985,2,0,L|202:163,1,85,10|0,0:2|0:0,0:0:0:0:
342,244,20274,2,0,P|309:216|268:210,1,85,0|0,1:2|0:0,0:0:0:0:
197,326,20562,2,0,P|238:319|270:292,1,85,8|0,0:2|0:0,0:0:0:0:
433,141,20850,6,0,L|421:234,1,93.5000028533936,6|0,0:0|0:0,0:0:0:0:
273,210,21138,5,10,1:2:0:0:
353,57,21282,1,0,1:0:0:0:
339,287,21426,5,10,1:2:0:0:
254,94,21570,1,0,1:0:0:0:
207,298,21714,1,10,1:2:0:0:
334,147,21858,1,0,1:0:0:0:
131,245,22002,5,14,1:2:0:0:
389,221,22146,1,8,0:0:0:0:
274,117,22578,5,8,1:2:0:0:
154,311,22723,1,8,0:0:0:0:
147,326,23155,6,0,L|138:276,1,50.9999984436036,2|0,0:0|0:0,0:0:0:0:
157,190,23731,5,6,0:2:0:0:
256,192,23803,12,0,29133,1:2:0:0:
