osu file format v14

[General]
AudioFilename: audio.mp3
AudioLeadIn: 0
PreviewTime: 91745
Countdown: 0
SampleSet: Soft
StackLeniency: 0.3
Mode: 0
LetterboxInBreaks: 0
WidescreenStoryboard: 1

[Editor]
Bookmarks: 25762,66211,102616,118121,118796,118964,119133,119217,119301,119385,119470,119554,119638,119807,119891,120060,120144,120228,120397,120481,120650,120734,120902,120987,121155,121239,121408,121492,121661,121745,121914,121998,122166,122251,122419,122503,122672,122841,123009,123093,123178,123262,123346,123430,123515,123599,123768,123852,123936,124105,124189,124273,124357,124526,124610,124694,124863,124947,125032,125200,125284,125369,125537,125621,125706,125874,125959,126043,126127,126296,126380,126464,126548,126717,126801,126885,126970,127054,127138,127307,127391,127475,127560,127728,127812,127897,128065,128150,128234,128402,128487,128655,128739,128824,128992,129077,129245,129329,129498,129582,152503,153178,174077,195650,222532,263739,279245,283290,284638,293908
DistanceSpacing: 0.2
BeatDivisor: 4
GridSize: 4
TimelineZoom: 3.299999

[Metadata]
Title:Stellar Stellar
TitleUnicode:Stellar Stellar
Artist:Hoshimachi Suisei
ArtistUnicode:星街すいせい
Creator:ImWater
Version:Kard's Insane
Source:
Tags:vtuber virtual youtuber female vocals vocalist idol hololive ホロライブ jp japanese j pop jpop j-pop dnb drum n bass and taku inoue inotaku still stellar stellarstellar suichan hosimati hoshimati hosimachi sui-chan Celektus [[Pause]] SHOGUNMOON00999 Kardshark Sweets
BeatmapID:3548101
BeatmapSetID:1680549

[Difficulty]
HPDrainRate:3.8
CircleSize:4.2
OverallDifficulty:7.7
ApproachRate:9
SliderMultiplier:1.5
SliderTickRate:1

[Events]
//Background and Video events
0,0,"ninomae_inanis.jpg",0,0
//Break Periods
2,42142,43870
2,66411,68139
2,118996,126285
2,166187,168083
2,222816,230106
//Storyboard Layer 0 (Background)
//Storyboard Layer 1 (Fail)
//Storyboard Layer 2 (Pass)
//Storyboard Layer 3 (Foreground)
//Storyboard Layer 4 (Overlay)
//Storyboard Sound Samples

[TimingPoints]
6886,337.078651685393,4,2,1,10,1,0
7054,-100,4,2,1,12,0,0
7223,-100,4,2,1,14,0,0
7391,-100,4,2,1,16,0,0
7560,-100,4,2,1,18,0,0
7728,-100,4,2,1,20,0,0
7897,-100,4,2,1,22,0,0
8065,-100,4,2,1,24,0,0
8234,-100,4,2,1,26,0,0
8402,-100,4,2,1,28,0,0
8571,-100,4,2,1,30,0,0
8739,-100,4,2,1,32,0,0
8908,-100,4,2,1,34,0,0
9077,-100,4,2,1,36,0,0
9245,-100,4,2,1,38,0,0
9414,-100,4,2,1,40,0,0
9582,-100,4,2,1,60,0,0
10256,-100,4,2,1,90,0,0
14385,-100,4,2,2,90,0,0
14470,-100,4,2,1,90,0,0
14807,-100,4,2,2,90,0,0
14891,-100,4,2,1,90,0,0
16071,-100,4,2,1,40,0,0
16324,-100,4,2,1,90,0,0
16408,-100,4,2,1,45,0,0
16661,-100,4,2,1,90,0,0
16745,-100,4,2,1,50,0,0
16998,-100,4,2,1,90,0,0
17082,-100,4,2,1,55,0,0
17335,-100,4,2,1,90,0,0
17419,-100,4,2,1,60,0,0
17672,-100,4,2,1,90,0,0
18852,-100,4,2,1,65,0,0
18936,-100,4,2,1,70,0,0
19020,-100,4,2,1,90,0,0
20032,-100,4,2,2,90,0,0
20116,-100,4,2,3,90,0,0
20369,-100,4,2,1,90,0,0
20706,-100,4,2,1,50,0,0
20790,-100,4,2,1,12,0,0
20874,-100,4,2,1,14,0,0
21043,-100,4,2,1,50,0,0
21127,-100,4,2,1,16,0,0
21211,-100,4,2,1,18,0,0
21380,-100,4,2,1,50,0,0
21464,-100,4,2,1,20,0,0
21548,-100,4,2,1,22,0,0
21717,-100,4,2,1,50,0,0
21801,-100,4,2,1,24,0,0
21885,-100,4,2,1,26,0,0
22054,-100,4,2,1,50,0,0
22138,-100,4,2,1,28,0,0
22223,-100,4,2,1,30,0,0
22391,-100,4,2,1,32,0,0
22560,-100,4,2,1,34,0,0
22728,-100,4,2,1,50,0,0
22812,-100,4,2,1,36,0,0
22897,-100,4,2,1,38,0,0
23065,-100,4,2,1,50,0,0
23150,-100,4,2,1,40,0,0
23234,-100,4,2,1,42,0,0
23402,-100,4,2,1,44,0,0
23571,-100,4,2,1,46,0,0
23739,-100,4,2,1,50,0,0
23824,-100,4,2,1,48,0,0
23908,-100,4,2,1,50,0,0
24077,-100,4,2,1,52,0,0
24245,-100,4,2,1,54,0,0
24414,-100,4,2,1,56,0,0
24582,-100,4,2,1,58,0,0
24751,-100,4,2,1,60,0,0
24919,-100,4,2,1,62,0,0
25088,-100,4,2,1,64,0,0
25256,-100,4,2,1,66,0,0
25425,-100,4,2,1,68,0,0
25593,-100,4,2,1,70,0,0
25762,-200,4,2,3,70,0,0
25930,-200,4,2,3,30,0,0
35874,-133.333333333333,4,2,3,30,0,0
36211,-133.333333333333,4,2,3,30,0,0
37054,-133.333333333333,4,2,1,30,0,0
37223,-133.333333333333,4,2,3,30,0,0
37812,-133.333333333333,4,2,1,30,0,0
37897,-133.333333333333,4,2,3,30,0,0
38150,-133.333333333333,4,2,1,30,0,0
38234,-133.333333333333,4,2,3,30,0,0
38402,-133.333333333333,4,2,1,30,0,0
38739,-133.333333333333,4,2,3,30,0,0
38824,-133.333333333333,4,2,1,30,0,0
38908,-133.333333333333,4,2,3,30,0,0
39077,-133.333333333333,4,2,3,45,0,0
39161,-133.333333333333,4,2,1,45,0,0
39245,-133.333333333333,4,2,3,45,0,0
39329,-133.333333333333,4,2,3,30,0,0
39666,-133.333333333333,4,2,2,30,0,0
39751,-133.333333333333,4,2,1,32,0,0
39835,-133.333333333333,4,2,2,32,0,0
39919,-133.333333333333,4,2,1,34,0,0
40003,-133.333333333333,4,2,2,34,0,0
40088,-133.333333333333,4,2,1,36,0,0
40172,-133.333333333333,4,2,2,36,0,0
40256,-133.333333333333,4,2,1,38,0,0
40341,-133.333333333333,4,2,2,38,0,0
40425,-133.333333333333,4,2,1,40,0,0
40593,-133.333333333333,4,2,1,42,0,0
40678,-133.333333333333,4,2,2,42,0,0
40762,-133.333333333333,4,2,2,44,0,0
40930,-133.333333333333,4,2,1,46,0,0
41015,-133.333333333333,4,2,2,46,0,0
41099,-133.333333333333,4,2,1,48,0,0
41183,-133.333333333333,4,2,2,48,0,0
41268,-100,4,2,1,50,0,0
41352,-100,4,2,2,50,0,0
41436,-100,4,2,2,52,0,0
41605,-100,4,2,1,54,0,0
41689,-100,4,2,2,54,0,0
41773,-100,4,2,1,56,0,0
41942,-100,4,2,1,60,0,0
44470,-133.333333333333,4,2,1,60,0,0
45987,-133.333333333333,4,2,3,40,0,0
46155,-133.333333333333,4,2,3,17,0,0
46492,-133.333333333333,4,2,3,40,0,0
46661,-133.333333333333,4,2,3,17,0,0
46998,-133.333333333333,4,2,3,40,0,0
47335,-133.333333333333,4,2,1,50,0,0
47672,-100,4,2,4,50,0,0
48178,-100,4,2,1,50,0,0
48346,-100,4,2,4,50,0,0
48852,-100,4,2,1,50,0,0
49020,-100,4,2,4,50,0,0
49357,-100,4,2,1,50,0,0
49694,-100,4,2,4,50,0,0
49863,-100,4,2,2,50,0,0
50284,-100,4,2,4,50,0,0
50874,-100,4,2,1,50,0,0
51043,-100,4,2,4,50,0,0
51548,-100,4,2,1,50,0,0
51717,-100,4,2,4,50,0,0
52223,-100,4,2,1,50,0,0
52391,-100,4,2,4,50,0,0
52560,-100,4,2,1,50,0,0
53065,-100,4,2,4,50,0,0
53234,-100,4,2,1,50,0,0
53739,-100,4,2,4,50,0,0
54245,-100,4,2,1,50,0,0
54414,-100,4,2,4,50,0,0
54751,-100,4,2,1,50,0,0
55088,-100,4,2,4,50,0,0
55256,-100,4,2,1,50,0,0
55593,-100,4,2,2,50,0,0
55678,-100,4,2,1,50,0,0
55762,-100,4,2,4,50,0,0
55930,-100,4,2,1,50,0,0
56436,-100,4,2,4,50,0,0
56942,-100,4,2,1,50,0,0
57110,-100,4,2,4,50,0,0
57447,-100,4,2,1,50,0,0
58121,-100,4,2,1,60,0,0
58459,-100,4,2,4,60,0,0
58627,-100,4,2,1,60,0,0
59301,-100,4,2,2,60,0,0
59470,-100,4,2,1,60,0,0
59807,-100,4,2,4,60,0,0
60312,-100,4,2,1,60,0,0
60481,-100,4,2,4,60,0,0
60650,-100,4,2,2,60,0,0
60734,-100,4,2,1,60,0,0
61155,-100,4,2,4,60,0,0
61661,-100,4,2,1,60,0,0
61829,-100,4,2,4,60,0,0
61998,-100,4,2,1,60,0,0
63852,-100,4,2,4,60,0,0
64020,-100,4,2,1,60,0,0
64526,-100,4,2,4,60,0,0
64694,-100,4,2,2,60,0,0
64779,-100,4,2,1,60,0,0
65200,-100,4,2,4,60,0,0
65284,-100,4,2,1,60,0,0
65369,-100,4,2,1,30,0,0
65453,-100,4,2,1,60,0,0
65537,-100,4,2,1,50,0,0
65621,-100,4,2,1,40,0,0
65706,-100,4,2,1,30,0,0
65959,-100,4,2,1,40,0,0
66127,-100,4,2,1,50,0,0
66211,-100,4,2,1,60,0,0
66717,-100,4,2,3,25,0,0
67223,-100,4,2,3,60,0,0
67307,-100,4,2,3,25,0,0
67728,-100,4,2,3,60,0,0
67812,-100,4,2,3,25,0,0
68234,-100,4,2,3,60,0,0
68318,-100,4,2,3,25,0,0
68571,-100,4,2,3,40,0,0
68908,-100,4,2,3,20,0,0
69020,-100,4,2,2,20,0,0
69077,-100,4,2,1,25,0,0
69245,-100,4,2,2,30,0,0
69301,-100,4,2,1,30,0,0
69470,-100,4,2,1,35,0,0
69582,-100,4,2,1,40,0,0
69694,-100,4,2,2,40,0,0
69751,-100,4,2,1,45,0,0
69807,-100,4,2,2,45,0,0
69835,-100,4,2,1,45,0,0
69919,-100,4,2,2,50,0,0
70003,-100,4,2,1,50,0,0
70032,-100,4,2,2,50,0,0
70088,-100,4,2,1,55,0,0
70256,-100,4,2,1,60,0,0
70678,-100,4,2,1,40,0,0
70762,-100,4,2,1,50,0,0
70846,-100,4,2,1,60,0,0
70930,-100,4,2,1,100,0,0
73290,-100,4,2,2,100,0,0
73374,-100,4,2,1,100,0,0
73627,-100,4,2,2,100,0,0
73711,-100,4,2,1,100,0,0
74301,-100,4,2,1,35,0,0
74385,-100,4,2,1,40,0,0
74470,-100,4,2,1,45,0,0
74554,-100,4,2,1,50,0,0
74638,-100,4,2,1,55,0,0
74723,-100,4,2,1,60,0,0
74807,-100,4,2,1,65,0,0
74891,-100,4,2,1,70,0,0
74975,-66.6666666666667,4,2,3,100,0,0
75312,-66.6666666666667,4,2,1,100,0,0
75481,-76.9230769230769,4,2,1,100,0,0
75650,-100,4,2,1,100,0,0
75902,-100,4,2,1,60,0,0
75987,-100,4,2,1,70,0,0
76155,-100,4,2,1,100,0,0
76998,-133.333333333333,4,2,1,100,0,0
77672,-100,4,2,1,45,0,0
77756,-100,4,2,1,50,0,0
77841,-100,4,2,1,55,0,0
77925,-100,4,2,1,60,0,0
78009,-100,4,2,1,65,0,0
78093,-100,4,2,1,70,0,0
78178,-100,4,2,3,75,0,0
78262,-100,4,2,3,80,0,0
78346,-100,4,2,1,100,0,0
78683,-100,4,2,3,100,0,0
78852,-100,4,2,1,100,0,0
79273,-100,4,2,3,60,0,0
79357,-100,4,2,3,100,0,0
79694,-100,4,2,1,100,0,0
80032,-100,4,2,3,100,0,0
80116,-100,4,2,1,100,0,0
80369,-100,4,2,1,45,0,0
80453,-100,4,2,1,50,0,0
80537,-100,4,2,1,55,0,0
80621,-100,4,2,1,60,0,0
80706,-100,4,2,1,65,0,0
80790,-100,4,2,1,70,0,0
80874,-100,4,2,1,75,0,0
80959,-100,4,2,1,80,0,0
81043,-100,4,2,1,100,0,0
81211,-100,4,2,1,50,0,0
81296,-100,4,2,1,60,0,0
81380,-100,4,2,1,100,0,0
81464,-100,4,2,2,50,0,0
81548,-100,4,2,1,100,0,0
81717,-100,4,2,3,100,0,0
81885,-100,4,2,3,50,0,0
81970,-100,4,2,3,100,0,0
82054,-100,4,2,1,50,0,0
82138,-100,4,2,3,100,0,0
82223,-100,4,2,3,50,0,0
82391,-100,4,2,1,100,0,0
82812,-100,4,2,1,70,0,0
82897,-100,4,2,1,60,0,0
82981,-100,4,2,1,50,0,0
83065,-100,4,2,1,100,0,0
83234,-100,4,2,1,50,0,0
83318,-100,4,2,1,100,0,0
83402,-100,4,2,1,50,0,0
83487,-100,4,2,1,100,0,0
83571,-100,4,2,1,50,0,0
83739,-100,4,2,1,100,0,0
84077,-100,4,2,5,100,0,0
84245,-100,4,2,1,100,0,0
84414,-100,4,2,5,100,0,0
84582,-100,4,2,1,100,0,0
84751,-100,4,2,5,100,0,0
84919,-100,4,2,1,100,0,0
85003,-100,4,2,1,15,0,0
85088,-100,4,2,1,20,0,0
85172,-100,4,2,1,25,0,0
85256,-100,4,2,1,30,0,0
85341,-100,4,2,1,35,0,0
85425,-100,4,2,1,40,0,0
85509,-100,4,2,1,45,0,0
85593,-100,4,2,1,50,0,0
85678,-100,4,2,1,55,0,0
85762,-100,4,2,1,60,0,0
85846,-100,4,2,1,65,0,0
85930,-100,4,2,1,70,0,0
86015,-100,4,2,1,75,0,0
86099,-100,4,2,1,80,0,0
86183,-100,4,2,1,85,0,0
86268,-100,4,2,1,90,0,0
86352,-100,4,2,1,95,0,0
86436,-200,4,2,6,100,0,0
89133,-200,4,2,2,30,0,0
89470,-100,4,2,6,50,0,0
89638,-100,4,2,6,25,0,0
89807,-100,4,2,6,50,0,0
89891,-100,4,2,6,17,0,0
89975,-100,4,2,6,50,0,0
90060,-100,4,2,6,30,0,0
90228,-100,4,2,6,17,0,0
90481,-100,4,2,6,40,0,0
90650,-100,4,2,6,20,0,0
90818,-100,4,2,6,50,0,0
91155,-133.333333333333,4,2,1,70,0,0
91324,-133.333333333333,4,2,2,70,0,0
91829,-66.6666666666667,4,2,4,100,0,1
92166,-66.6666666666667,4,2,1,100,0,1
92672,-66.6666666666667,4,2,4,100,0,1
92841,-66.6666666666667,4,2,1,100,0,1
93009,-66.6666666666667,4,2,2,100,0,1
93093,-66.6666666666667,4,2,4,100,0,1
93515,-66.6666666666667,4,2,1,100,0,1
94020,-66.6666666666667,4,2,4,100,0,1
94189,-66.6666666666667,4,2,1,100,0,1
94357,-66.6666666666667,4,2,2,100,0,1
94442,-66.6666666666667,4,2,4,100,0,1
94863,-66.6666666666667,4,2,1,100,0,1
95369,-66.6666666666667,4,2,4,100,0,1
95537,-66.6666666666667,4,2,1,100,0,1
95706,-66.6666666666667,4,2,2,100,0,1
95790,-66.6666666666667,4,2,4,100,0,1
96043,-66.6666666666667,4,2,2,100,0,1
96127,-66.6666666666667,4,2,1,100,0,1
97138,-66.6666666666667,4,2,3,100,0,1
97223,-66.6666666666667,4,2,4,100,0,1
97560,-66.6666666666667,4,2,1,100,0,1
98065,-66.6666666666667,4,2,4,100,0,1
98234,-66.6666666666667,4,2,1,100,0,1
98571,-66.6666666666667,4,2,4,100,0,1
98908,-66.6666666666667,4,2,1,100,0,1
99414,-66.6666666666667,4,2,4,100,0,1
99582,-66.6666666666667,4,2,1,100,0,1
99919,-66.6666666666667,4,2,4,100,0,1
100256,-66.6666666666667,4,2,1,100,0,1
100762,-66.6666666666667,4,2,7,100,0,1
101689,-66.6666666666667,4,2,1,100,0,1
102110,-66.6666666666667,4,2,7,100,0,1
102616,-66.6666666666667,4,2,4,100,0,1
102953,-66.6666666666667,4,2,1,100,0,1
103459,-66.6666666666667,4,2,4,100,0,1
103627,-66.6666666666667,4,2,1,100,0,1
103796,-66.6666666666667,4,2,2,100,0,1
103880,-66.6666666666667,4,2,4,100,0,1
104301,-66.6666666666667,4,2,1,100,0,1
104807,-66.6666666666667,4,2,4,100,0,1
104975,-66.6666666666667,4,2,1,100,0,1
105144,-66.6666666666667,4,2,2,100,0,1
105228,-66.6666666666667,4,2,4,100,0,1
105650,-66.6666666666667,4,2,1,100,0,1
106155,-66.6666666666667,4,2,4,100,0,1
106324,-66.6666666666667,4,2,1,100,0,1
106492,-66.6666666666667,4,2,2,100,0,1
106577,-66.6666666666667,4,2,4,100,0,1
106829,-66.6666666666667,4,2,1,100,0,1
107166,-66.6666666666667,4,2,6,100,0,1
107447,-66.6666666666667,4,2,2,100,0,1
107672,-66.6666666666667,4,2,6,100,0,1
107897,-66.6666666666667,4,2,2,100,0,1
108009,-100,4,2,4,100,0,1
108683,-100,4,2,7,100,0,1
110369,-100,4,2,1,100,0,1
110706,-100,4,2,7,100,0,1
111043,-100,4,2,1,100,0,1
111211,-100,4,2,4,100,0,1
111380,-100,4,2,1,100,0,1
111717,-100,4,2,4,100,0,1
111885,-100,4,2,1,100,0,1
112223,-100,4,2,7,100,0,1
112897,-100,4,2,3,100,0,1
113402,-100,4,2,4,100,0,1
114077,-100,4,2,7,100,0,1
115930,-100,4,2,1,100,0,1
116099,-100,4,2,4,100,0,1
116268,-100,4,2,1,100,0,1
116605,-100,4,2,4,100,0,1
116773,-100,4,2,1,100,0,1
117110,-100,4,2,4,100,0,1
117279,-100,4,2,1,100,0,1
117447,-100,4,2,5,100,0,1
117700,-100,4,2,2,100,0,1
117784,-100,4,2,4,100,0,1
117953,-100,4,2,1,100,0,1
118459,-66.6666666666667,4,2,2,100,0,0
118796,-66.6666666666667,4,2,4,100,0,0
119133,-66.6666666666667,4,2,2,25,0,0
126885,-66.6666666666667,4,2,1,20,0,0
127054,-66.6666666666667,4,2,1,22,0,0
127223,-66.6666666666667,4,2,1,24,0,0
127391,-66.6666666666667,4,2,6,26,0,0
127560,-66.6666666666667,4,2,1,28,0,0
127728,-66.6666666666667,4,2,6,30,0,0
127897,-66.6666666666667,4,2,6,32,0,0
128065,-66.6666666666667,4,2,1,34,0,0
128234,-66.6666666666667,4,2,6,36,0,0
128402,-66.6666666666667,4,2,6,38,0,0
128571,-66.6666666666667,4,2,6,40,0,0
128739,-66.6666666666667,4,2,6,42,0,0
128908,-66.6666666666667,4,2,6,44,0,0
129077,-66.6666666666667,4,2,6,46,0,0
129245,-66.6666666666667,4,2,6,48,0,0
129414,-66.6666666666667,4,2,6,50,0,0
129582,-66.6666666666667,4,2,3,30,0,0
129624,-200,4,2,3,30,0,0
131099,-200,4,2,2,30,0,0
131268,-200,4,2,1,30,0,0
131436,-200,4,2,2,30,0,0
131605,-200,4,2,1,30,0,0
131942,-100,4,2,1,30,0,0
132110,-100,4,2,2,30,0,0
132194,-100,4,2,1,30,0,0
134133,-100,4,2,2,30,0,0
134217,-100,4,2,1,30,0,0
135818,-100,4,2,2,30,0,0
135987,-100,4,2,1,30,0,0
136829,-100,4,2,2,30,0,0
136998,-100,4,2,1,30,0,0
137841,-100,4,2,2,30,0,0
138178,-100,4,2,1,30,0,0
139694,-100,4,2,7,30,0,0
139863,-100,4,2,1,30,0,0
143234,-100,4,2,2,30,0,0
143571,-100,4,2,1,30,0,0
145593,-100,4,2,2,30,0,0
145678,-100,4,2,1,30,0,0
147784,-100,4,2,2,30,0,0
147953,-100,4,2,1,30,0,0
151380,-100,4,2,1,35,0,0
151605,-100,4,2,1,40,0,0
151829,-100,4,2,1,45,0,0
152054,-100,4,2,1,50,0,0
152279,-100,4,2,1,55,0,0
152503,-100,4,2,1,60,0,0
152756,-100,4,2,1,65,0,0
153009,-100,4,2,3,70,0,0
153178,-100,4,2,1,100,0,0
155874,-151.515151515152,4,2,2,100,0,0
155959,-151.515151515152,4,2,1,100,0,0
156043,-151.515151515152,4,2,1,100,0,0
156127,-151.515151515152,4,2,1,100,0,0
156211,-151.515151515152,4,2,1,100,0,0
156296,-151.515151515152,4,2,2,100,0,0
156380,-100,4,2,2,100,0,0
156464,-100,4,2,1,100,0,0
157223,-66.6666666666667,4,2,3,100,0,0
157391,-66.6666666666667,4,2,2,100,0,0
157560,-66.6666666666667,4,2,1,100,0,0
157728,-66.6666666666667,4,2,1,80,0,0
157812,-66.6666666666667,4,2,1,90,0,0
157897,-66.6666666666667,4,2,1,100,0,0
158065,-66.6666666666667,4,2,2,100,0,0
158150,-66.6666666666667,4,2,1,100,0,0
159245,-133.333333333333,4,2,1,100,0,0
159919,-100,4,2,1,60,0,0
160003,-100,4,2,1,70,0,0
160088,-100,4,2,1,80,0,0
160172,-100,4,2,1,90,0,0
160256,-100,4,2,1,100,0,0
160425,-100,4,2,1,70,0,0
160593,-100,4,2,3,100,0,0
160762,-100,4,2,1,70,0,0
160846,-100,4,2,1,100,0,0
160930,-100,4,2,1,100,0,0
161183,-100,4,2,6,100,0,0
161268,-100,4,2,1,100,0,0
161717,-100,4,2,2,70,0,0
161773,-100,4,2,1,100,0,0
161829,-100,4,2,2,70,0,0
161857,-100,4,2,1,100,0,0
161885,-100,4,2,2,100,0,0
161942,-100,4,2,1,100,0,0
162953,-100,4,2,3,100,0,0
163627,-100,4,2,1,100,0,0
164133,-100,4,2,1,100,0,0
164217,-100,4,2,1,60,0,0
164301,-100,4,2,1,70,0,0
164385,-100,4,2,1,80,0,0
164470,-100,4,2,1,100,0,0
164638,-100,4,2,3,100,0,0
164723,-100,4,2,1,100,0,0
165650,-100,4,2,3,100,0,0
165987,-100,4,2,1,60,0,0
166492,-100,4,2,2,60,0,0
166998,-100,4,2,1,60,0,0
173402,-100,4,2,1,30,0,0
173571,-100,4,2,2,30,0,0
174077,-100,4,2,4,100,0,0
174751,-100,4,2,1,100,0,0
175088,-100,4,2,4,100,0,0
175256,-100,4,2,1,100,0,0
175762,-100,4,2,4,100,0,0
176099,-100,4,2,1,100,0,0
176773,-100,4,2,4,100,0,0
177447,-100,4,2,1,100,0,0
177784,-100,4,2,4,100,0,0
177953,-100,4,2,1,100,0,0
178459,-100,4,2,4,100,0,0
178627,-100,4,2,1,100,0,0
179470,-100,4,2,4,100,0,0
180144,-100,4,2,1,100,0,0
180481,-100,4,2,4,100,0,0
180650,-100,4,2,1,100,0,0
181155,-100,4,2,4,100,0,0
181324,-100,4,2,1,100,0,0
182166,-100,4,2,4,100,0,0
182841,-100,4,2,1,100,0,0
183178,-100,4,2,4,100,0,0
183346,-100,4,2,1,100,0,0
183852,-100,4,2,7,100,0,0
184526,-100,4,2,3,100,0,0
184694,-100,4,2,1,100,0,0
184779,-100,4,2,3,100,0,0
184863,-100,4,2,4,100,0,0
185537,-100,4,2,1,100,0,0
185874,-100,4,2,4,100,0,0
186043,-100,4,2,1,100,0,0
186548,-100,4,2,4,100,0,0
186885,-100,4,2,1,100,0,0
187560,-100,4,2,4,100,0,0
188234,-100,4,2,1,100,0,0
188402,-100,4,2,4,100,0,0
188739,-100,4,2,1,100,0,0
188908,-100,4,2,4,100,0,0
189077,-100,4,2,1,100,0,0
190256,-100,4,2,4,100,0,0
190930,-100,4,2,7,100,0,0
191436,-100,4,2,1,100,0,0
191773,-100,4,2,7,100,0,0
192616,-100,4,2,1,100,0,0
192953,-100,4,2,4,100,0,0
193121,-100,4,2,1,100,0,0
193459,-100,4,2,4,100,0,0
193627,-100,4,2,1,100,0,0
193964,-100,4,2,4,100,0,0
194133,-100,4,2,1,100,0,0
194470,-100,4,2,4,100,0,0
194807,-100,4,2,1,100,0,0
195144,-100,4,2,2,70,0,0
195565,-100,4,2,4,70,0,0
195650,-100,4,2,4,100,0,0
196324,-100,4,2,1,100,0,0
196661,-100,4,2,4,100,0,0
196829,-100,4,2,1,100,0,0
197166,-100,4,2,4,100,0,0
197672,-100,4,2,1,100,0,0
197841,-100,4,2,4,100,0,0
198178,-100,4,2,1,100,0,0
198346,-100,4,2,4,100,0,0
199020,-100,4,2,1,100,0,0
199189,-100,4,2,2,100,0,0
199273,-100,4,2,4,100,0,0
199470,-100,4,2,2,100,0,0
199526,-100,4,2,1,100,0,0
199582,-100,4,2,2,100,0,0
199610,-100,4,2,1,100,0,0
199751,-100,4,2,2,100,0,0
199779,-100,4,2,1,100,0,0
199807,-100,4,2,2,100,0,0
199863,-100,4,2,4,100,0,0
199919,-100,4,2,2,100,0,0
199947,-100,4,2,1,100,0,0
199975,-100,4,2,2,100,0,0
200032,-100,4,2,4,100,0,0
200088,-100,4,2,2,100,0,0
200116,-100,4,2,1,100,0,0
200144,-100,4,2,2,100,0,0
200200,-100,4,2,1,100,0,0
200256,-100,4,2,2,100,0,0
200284,-100,4,2,1,100,0,0
200312,-100,4,2,2,100,0,0
200369,-100,4,2,1,100,0,0
200537,-100,4,2,4,100,0,0
200874,-100,4,2,1,100,0,0
201043,-100,4,2,4,100,0,0
201717,-100,4,2,1,100,0,0
202054,-100,4,2,4,100,0,0
202223,-100,4,2,2,100,0,0
202391,-100,4,2,4,100,0,0
203065,-100,4,2,1,100,0,0
203234,-100,4,2,4,100,0,0
203402,-100,4,2,2,100,0,0
203487,-100,4,2,1,100,0,0
203739,-100,4,2,4,100,0,0
203908,-100,4,2,1,100,0,0
204245,-100,4,2,7,100,0,0
204751,-100,4,2,4,100,0,0
204919,-100,4,2,1,100,0,0
205172,-100,4,2,6,100,0,0
205256,-100,4,2,4,100,0,0
205593,-100,4,2,3,100,0,0
205762,-100,4,2,1,100,0,0
206099,-100,4,2,2,100,0,0
206352,-100,4,2,4,100,0,0
207054,-100,4,2,2,100,0,0
207110,-100,4,2,1,100,0,0
207279,-100,4,2,2,100,0,0
207335,-100,4,2,4,100,0,0
207532,-100,4,2,2,100,0,0
207560,-100,4,2,1,100,0,0
207616,-100,4,2,2,100,0,0
207672,-100,4,2,1,100,0,0
207700,-100,4,2,2,100,0,0
207784,-100,4,2,4,100,0,0
208178,-100,4,2,2,100,0,0
208206,-100,4,2,1,100,0,0
208234,-100,4,2,2,100,0,0
208290,-100,4,2,1,100,0,0
208346,-100,4,2,2,100,0,0
208374,-100,4,2,1,100,0,0
208402,-100,4,2,2,100,0,0
208459,-100,4,2,1,100,0,0
208515,-100,4,2,2,100,0,0
208543,-100,4,2,1,100,0,0
208571,-100,4,2,2,100,0,0
208627,-100,4,2,4,100,0,0
208683,-100,4,2,2,100,0,0
208711,-100,4,2,1,100,0,0
208739,-100,4,2,2,100,0,0
208796,-100,4,2,1,100,0,0
208852,-100,4,2,2,100,0,0
208880,-100,4,2,1,100,0,0
208908,-100,4,2,2,100,0,0
208964,-100,4,2,1,100,0,0
209020,-100,4,2,2,100,0,0
209048,-100,4,2,1,100,0,0
209077,-100,4,2,2,100,0,0
209133,-100,4,2,4,100,0,0
209189,-100,4,2,2,100,0,0
209217,-100,4,2,1,100,0,0
209245,-100,4,2,2,100,0,0
209301,-100,4,2,1,100,0,0
209357,-100,4,2,2,100,0,0
209385,-100,4,2,1,100,0,0
209414,-100,4,2,2,100,0,0
209470,-100,4,2,1,100,0,0
209638,-100,4,2,4,100,0,0
209807,-100,4,2,1,100,0,0
209863,-100,4,2,2,100,0,0
209891,-100,4,2,1,100,0,0
209919,-100,4,2,2,100,0,0
209975,-100,4,2,1,100,0,0
210032,-100,4,2,2,100,0,0
210060,-100,4,2,1,100,0,0
210088,-100,4,2,2,100,0,0
210144,-100,4,2,4,100,0,0
210481,-100,4,2,1,100,0,0
210650,-100,4,2,5,100,0,0
210987,-100,4,2,1,100,0,0
211324,-100,4,2,4,100,0,0
211408,-100,4,2,1,100,0,0
211829,-100,4,2,4,100,0,0
212279,-100,4,2,2,100,0,0
212335,-100,4,2,4,100,0,0
212391,-100,4,2,2,100,0,0
212419,-100,4,2,1,100,0,0
212841,-100,4,2,4,100,0,0
213009,-100,4,2,3,100,0,0
213234,-100,4,2,2,100,0,0
213262,-100,4,2,1,100,0,0
213290,-100,4,2,2,100,0,0
213346,-100,4,2,1,100,0,0
213402,-100,4,2,2,100,0,0
213430,-100,4,2,1,100,0,0
213459,-100,4,2,2,100,0,0
213515,-100,4,2,4,100,0,0
213571,-100,4,2,2,100,0,0
213599,-100,4,2,1,100,0,0
213627,-100,4,2,2,100,0,0
213683,-100,4,2,1,100,0,0
213739,-100,4,2,2,100,0,0
213768,-100,4,2,1,100,0,0
213796,-100,4,2,2,100,0,0
213852,-100,4,2,4,100,0,0
213908,-100,4,2,2,100,0,0
213936,-100,4,2,1,100,0,0
213964,-100,4,2,2,100,0,0
214020,-100,4,2,1,100,0,0
214077,-100,4,2,2,100,0,0
214105,-100,4,2,1,100,0,0
214133,-100,4,2,2,100,0,0
214189,-100,4,2,4,100,0,0
214245,-100,4,2,2,100,0,0
214273,-100,4,2,1,100,0,0
214301,-100,4,2,2,100,0,0
214357,-100,4,2,1,100,0,0
214414,-100,4,2,2,100,0,0
214442,-100,4,2,1,100,0,0
214526,-100,4,2,4,100,0,0
214694,-100,4,2,1,100,0,0
214919,-100,4,2,2,100,0,0
214947,-100,4,2,1,100,0,0
214975,-100,4,2,2,100,0,0
215032,-100,4,2,4,100,0,0
215088,-100,4,2,2,100,0,0
215116,-100,4,2,1,100,0,0
215144,-100,4,2,2,100,0,0
215200,-100,4,2,1,100,0,0
215256,-100,4,2,2,100,0,0
215284,-100,4,2,1,100,0,0
215312,-100,4,2,2,100,0,0
215369,-100,4,2,7,100,0,0
215425,-100,4,2,2,100,0,0
215453,-100,4,2,1,100,0,0
215481,-100,4,2,2,100,0,0
215537,-100,4,2,4,100,0,0
215593,-100,4,2,2,100,0,0
215621,-100,4,2,1,100,0,0
215650,-100,4,2,2,100,0,0
215706,-100,4,2,1,100,0,0
215762,-100,4,2,2,100,0,0
215790,-100,4,2,1,100,0,0
215818,-100,4,2,2,100,0,0
215874,-100,4,2,3,100,0,0
215987,-100,4,2,2,100,0,0
216043,-100,4,2,4,100,0,0
216099,-100,4,2,2,100,0,0
216127,-100,4,2,1,100,0,0
216155,-100,4,2,2,100,0,0
216211,-100,4,2,1,100,0,0
216268,-100,4,2,2,100,0,0
216296,-100,4,2,1,100,0,0
216324,-100,4,2,2,100,0,0
216380,-100,4,2,1,100,0,0
216773,-100,4,2,2,100,0,0
216801,-100,4,2,1,100,0,0
216829,-100,4,2,2,100,0,0
216885,-100,4,2,1,100,0,0
217223,-100,4,2,1,60,0,0
221605,-100,4,2,2,40,0,0
222532,-100,4,2,8,40,0,0
222616,-100,4,2,8,40,0,0
232391,-100,4,2,2,40,0,0
232728,-100,4,2,1,40,0,0
232897,-100,4,2,2,40,0,0
233402,-100,4,2,1,60,0,0
233739,-66.6666666666667,4,2,1,100,0,1
234245,-66.6666666666667,4,2,4,100,0,1
234414,-66.6666666666667,4,2,1,100,0,1
234751,-66.6666666666667,4,2,4,100,0,1
235088,-66.6666666666667,4,2,1,100,0,1
235593,-66.6666666666667,4,2,4,100,0,1
235762,-66.6666666666667,4,2,1,100,0,1
235930,-66.6666666666667,4,2,2,100,0,1
236015,-66.6666666666667,4,2,4,100,0,1
236099,-66.6666666666667,4,2,4,100,0,1
236436,-66.6666666666667,4,2,1,100,0,1
236942,-66.6666666666667,4,2,4,100,0,1
237110,-66.6666666666667,4,2,1,100,0,1
237447,-66.6666666666667,4,2,4,100,0,1
237784,-66.6666666666667,4,2,1,100,0,1
238459,-66.6666666666667,4,2,7,100,0,1
238627,-66.6666666666667,4,2,3,100,0,1
238796,-66.6666666666667,4,2,4,100,0,1
239133,-66.6666666666667,4,2,1,100,0,1
239638,-66.6666666666667,4,2,4,100,0,1
239807,-66.6666666666667,4,2,1,100,0,1
239975,-66.6666666666667,4,2,2,100,0,1
240060,-66.6666666666667,4,2,4,100,0,1
240481,-66.6666666666667,4,2,1,100,0,1
240987,-66.6666666666667,4,2,4,100,0,1
241155,-66.6666666666667,4,2,1,100,0,1
241324,-66.6666666666667,4,2,2,100,0,1
241408,-66.6666666666667,4,2,4,100,0,1
241829,-66.6666666666667,4,2,1,100,0,1
242335,-66.6666666666667,4,2,4,100,0,1
242503,-66.6666666666667,4,2,1,100,0,1
242841,-66.6666666666667,4,2,4,100,0,1
243178,-66.6666666666667,4,2,1,100,0,1
243683,-66.6666666666667,4,2,7,100,0,1
244020,-66.6666666666667,4,2,3,100,0,1
244189,-66.6666666666667,4,2,4,100,0,1
244526,-66.6666666666667,4,2,1,100,0,1
245032,-66.6666666666667,4,2,4,100,0,1
245200,-66.6666666666667,4,2,1,100,0,1
245537,-66.6666666666667,4,2,4,100,0,1
245706,-66.6666666666667,4,2,1,100,0,1
246380,-66.6666666666667,4,2,4,100,0,1
246548,-66.6666666666667,4,2,1,100,0,1
246885,-66.6666666666667,4,2,4,100,0,1
247223,-66.6666666666667,4,2,1,100,0,1
247728,-66.6666666666667,4,2,4,100,0,1
247897,-66.6666666666667,4,2,1,100,0,1
248234,-66.6666666666667,4,2,4,100,0,1
248402,-66.6666666666667,4,2,2,100,0,1
248459,-66.6666666666667,4,2,1,100,0,1
248739,-66.6666666666667,4,2,2,100,0,1
248796,-66.6666666666667,4,2,7,100,0,1
249245,-66.6666666666667,4,2,3,100,0,1
249329,-66.6666666666667,4,2,2,100,0,1
249357,-66.6666666666667,4,2,1,100,0,1
249414,-66.6666666666667,4,2,2,100,0,1
249470,-66.6666666666667,4,2,1,100,0,1
249498,-66.6666666666667,4,2,2,100,0,1
249582,-100,4,2,4,100,0,1
250256,-100,4,2,7,100,0,1
251942,-100,4,2,1,100,0,1
252279,-100,4,2,4,100,0,1
252363,-100,4,2,2,100,0,1
252447,-100,4,2,4,100,0,1
252953,-100,4,2,1,100,0,1
253290,-100,4,2,4,100,0,1
253459,-100,4,2,1,100,0,1
253796,-100,4,2,4,100,0,1
253964,-100,4,2,1,100,0,1
254638,-100,4,2,3,100,0,1
254975,-100,4,2,4,100,0,1
255650,-100,4,2,7,100,0,1
256155,-100,4,2,1,100,0,1
256492,-100,4,2,7,100,0,1
257335,-100,4,2,1,100,0,1
257672,-100,4,2,4,100,0,1
257841,-100,4,2,1,100,0,1
258178,-100,4,2,4,100,0,1
258346,-100,4,2,1,100,0,1
258515,-100,4,2,2,100,0,1
258599,-100,4,2,4,100,0,1
258852,-100,4,2,1,100,0,1
259189,-100,4,2,4,100,0,1
259526,-100,4,2,1,100,0,1
260032,-100,4,2,2,100,0,1
260369,-100,4,2,4,60,0,0
260453,-100,4,2,1,10,0,0
260537,-100,4,2,1,12,0,0
260706,-100,4,2,1,14,0,0
260874,-100,4,2,1,16,0,0
261043,-100,4,2,1,18,0,0
261211,-100,4,2,1,20,0,0
261380,-100,4,2,1,22,0,0
261548,-100,4,2,1,24,0,0
261717,-100,4,2,1,26,0,0
261885,-100,4,2,1,28,0,0
262054,-100,4,2,1,30,0,0
262223,-100,4,2,1,32,0,0
262391,-100,4,2,1,34,0,0
262560,-100,4,2,1,36,0,0
262728,-100,4,2,1,38,0,0
262897,-100,4,2,1,40,0,0
263065,-100,4,2,1,60,0,0
263402,-100,4,2,2,60,0,0
263739,-100,4,2,1,90,0,0
267363,-100,4,2,1,70,0,0
267447,-100,4,2,1,90,0,0
267869,-100,4,2,2,90,0,0
267953,-100,4,2,1,90,0,0
268964,-100,4,2,3,90,0,0
269133,-100,4,2,1,90,0,0
270144,-100,4,2,1,60,0,0
270481,-100,4,2,1,90,0,0
270565,-100,4,2,3,90,0,0
270818,-100,4,2,1,90,0,0
271745,-100,4,2,6,90,0,0
271829,-100,4,2,1,90,0,0
272166,-100,4,2,3,90,0,0
272419,-100,4,2,1,90,0,0
273402,-100,4,2,6,90,0,0
273430,-100,4,2,1,90,0,0
273459,-100,4,2,6,90,0,0
273515,-100,4,2,1,90,0,0
273599,-100,4,2,3,90,0,0
273852,-100,4,2,1,90,0,0
275284,-100,4,2,2,90,0,0
275369,-100,4,2,1,90,0,0
276548,-100,4,2,3,90,0,0
276717,-100,4,2,7,90,0,0
277223,-100,4,2,1,90,0,0
277307,-100,4,2,6,90,0,0
277391,-100,4,2,1,90,0,0
277812,-100,4,2,6,90,0,0
277897,-100,4,2,1,90,0,0
278234,-100,4,2,7,90,0,0
278402,-100,4,2,1,90,0,0
278571,-100,4,2,3,90,0,0
278655,-100,4,2,2,90,0,0
278739,-100,4,2,1,90,0,0
279245,-100,4,2,1,60,0,0
279666,-100,4,2,1,12,0,0
279919,-100,4,2,1,14,0,0
280088,-100,4,2,1,16,0,0
280256,-100,4,2,1,60,0,0
280425,-100,4,2,1,20,0,0
280593,-100,4,2,1,60,0,0
280762,-100,4,2,1,24,0,0
280930,-100,4,2,1,26,0,0
281099,-100,4,2,1,28,0,0
281268,-100,4,2,1,60,0,0
281436,-100,4,2,1,30,0,0
281605,-100,4,2,1,32,0,0
281773,-100,4,2,1,34,0,0
281942,-133.333333333333,4,2,1,60,0,0
282110,-133.333333333333,4,2,1,38,0,0
282279,-133.333333333333,4,2,1,40,0,0
282447,-133.333333333333,4,2,1,42,0,0
282616,-133.333333333333,4,2,1,44,0,0
282784,-133.333333333333,4,2,1,46,0,0
282953,-133.333333333333,4,2,1,48,0,0
283121,-133.333333333333,4,2,1,75,0,0
283459,-133.333333333333,4,2,1,54,0,0
283627,-133.333333333333,4,2,1,56,0,0
283796,-133.333333333333,4,2,1,58,0,0
283964,-133.333333333333,4,2,1,75,0,0
284301,-133.333333333333,4,2,1,64,0,0
284470,-133.333333333333,4,2,1,66,0,0
284638,425.531914893616,4,2,1,75,1,0
284638,-133.333333333333,4,2,1,75,0,0
285276,309.278350515464,4,2,1,60,1,0
285430,424.929178470255,4,2,1,90,1,0
286492,337.078651685393,4,2,1,50,1,0
286660,337.078651685393,4,2,1,50,1,0
287334,337.078651685393,4,2,1,50,1,0
293908,-133.333333333333,4,2,1,50,0,0
294075,-133.333333333333,4,2,1,10,0,0

[Colours]
Combo1 : 74,156,255
Combo2 : 157,255,255

[HitObjects]
125,116,9582,6,0,B|81:75|136:22|222:38|229:169|131:193,1,262.5,2|2,2:3|2:2,0:0:0:0:
125,192,10256,5,14,2:2:0:0:
217,338,10593,1,0,3:3:0:0:
339,217,10930,5,0,3:3:0:0:
421,345,11268,1,2,3:2:0:0:
444,51,11605,6,0,L|283:79,1,150,2|2,3:2|3:2,0:0:0:0:
161,171,12279,2,0,L|328:202,1,150,2|2,3:2|3:2,0:0:0:0:
426,355,12953,6,0,P|406:302|424:217,1,112.5,2|2,3:2|2:2,0:0:0:0:
425,235,13290,1,8,2:2:0:0:
287,340,13543,1,0,1:1:0:0:
270,330,13627,2,0,P|208:328|164:356,1,112.5,0|8,3:3|2:2,0:0:0:0:
125,358,13964,2,0,L|88:237,1,112.5,8|0,2:2|1:1,0:0:0:0:
171,225,14301,5,8,2:2:0:0:
223,158,14470,1,8,2:2:0:0:
198,73,14638,1,8,2:2:0:0:
359,271,14975,6,0,P|432:244|446:173,1,150,6|4,3:2|2:3,0:0:0:0:
383,134,15481,1,4,2:3:0:0:
444,67,15650,6,0,L|280:46,1,150,6|0,3:2|3:3,0:0:0:0:
202,232,16324,6,0,L|223:68,1,150,0|0,3:3|3:3,0:0:0:0:
0,17,16998,6,0,L|164:38,1,150,2|0,3:3|3:3,0:0:0:0:
97,302,17672,6,0,L|101:218,1,75,4|0,3:2|1:1,0:0:0:0:
87,209,17925,1,8,2:2:0:0:
75,193,18009,1,8,2:2:0:0:
200,358,18178,6,0,L|196:274,1,75,4|0,2:3|3:3,0:0:0:0:
210,265,18431,1,8,2:2:0:0:
222,249,18515,1,8,2:2:0:0:
324,281,18683,6,0,L|328:197,1,75,0|8,3:3|2:2,0:0:0:0:
314,188,18936,1,8,2:2:0:0:
302,172,19020,1,8,3:2:0:0:
425,331,19189,6,0,L|440:365,4,37.5,8|8|4|4|4,2:3|2:3|3:3|2:3|2:3,0:0:0:0:
437,245,19694,5,8,3:2:0:0:
467,224,19778,1,4,2:3:0:0:
477,188,19862,1,8,2:2:0:0:
463,155,19946,1,4,2:3:0:0:
431,137,20031,1,4,3:3:0:0:
398,119,20117,1,4,2:3:0:0:
384,85,20201,1,4,2:3:0:0:
394,50,20285,1,4,2:3:0:0:
425,29,20369,1,4,3:2:0:0:
256,192,20537,12,0,25593,1:1:0:0:
125,100,25762,5,2,3:3:0:0:
237,154,26099,6,0,P|254:122|250:78,1,75,2|2,2:2|2:2,0:0:0:0:
176,44,26605,1,0,2:2:0:0:
125,100,26773,1,0,2:2:0:0:
131,111,26942,1,2,2:2:0:0:
96,231,27110,6,0,L|109:278,1,37.5,2|2,2:2|2:2,0:0:0:0:
122,339,27447,1,2,2:2:0:0:
192,367,27616,1,0,0:0:0:0:
296,267,27784,6,0,L|334:275,1,37.5,2|2,2:2|2:2,0:0:0:0:
261,337,28121,1,2,2:2:0:0:
296,267,28290,2,0,L|283:190,1,75,2|2,2:2|2:2,0:0:0:0:
323,132,28796,1,0,0:0:0:0:
328,125,28964,1,0,2:2:0:0:
239,21,29133,6,0,L|246:63,1,37.5,0|2,2:2|2:2,0:0:0:0:
362,41,29470,2,0,L|324:48,1,37.5,2|2,2:2|2:2,0:0:0:0:
159,26,29807,6,0,L|111:32,1,37.5,2|2,2:2|2:2,0:0:0:0:
46,26,30144,1,2,2:2:0:0:
37,97,30312,1,2,2:2:0:0:
139,191,30481,6,0,L|146:230,1,37.5,2|2,2:2|2:2,0:0:0:0:
108,125,30818,1,2,2:2:0:0:
145,227,30987,2,0,L|222:215,1,75,2|2,2:2|2:2,0:0:0:0:
289,259,31492,1,0,0:0:0:0:
301,255,31661,1,0,2:2:0:0:
410,113,31829,6,0,P|409:94|402:76,1,37.5,0|2,2:2|2:2,0:0:0:0:
325,53,32166,2,0,P|310:41|292:37,1,37.5,2|2,2:2|2:2,0:0:0:0:
228,77,32503,5,2,2:2:0:0:
154,53,32672,2,0,L|116:51,2,37.5,2|2|2,2:2|2:2|2:2,0:0:0:0:
50,110,33178,2,0,B|14:88|45:66|14:47,1,75,2|2,2:2|2:2,0:0:0:0:
127,133,33683,1,2,2:3:0:0:
71,250,33852,5,0,0:0:0:0:
134,306,34020,2,0,L|130:348,2,37.5,2|2|0,2:2|2:2|2:2,0:0:0:0:
202,238,34526,5,0,2:2:0:0:
262,321,34694,2,0,L|258:363,2,37.5,0|0|0,2:2|2:2|2:2,0:0:0:0:
333,226,35200,5,2,2:2:0:0:
390,336,35369,2,0,L|386:378,2,37.5,0|2|2,2:2|2:2|2:2,0:0:0:0:
464,214,35874,6,0,P|435:187|420:142,1,84.3750032186509,2|0,2:3|2:2,0:0:0:0:
459,79,36211,1,8,2:2:0:0:
459,79,36296,1,8,2:2:0:0:
459,79,36380,1,10,2:2:0:0:
324,29,36548,6,0,L|258:46,1,56.2500021457673,2|0,2:3|0:0,0:0:0:0:
190,18,36885,1,10,2:2:0:0:
275,128,37054,1,0,1:1:0:0:
275,128,37138,1,0,1:1:0:0:
275,128,37223,2,0,L|269:167,2,28.1250010728836,10|0|0,2:2|0:0|2:2,0:0:0:0:
184,210,37560,1,0,2:2:0:0:
272,326,37728,6,0,L|266:273,2,28.1250010728836,10|0|10,2:2|1:1|2:2,0:0:0:0:
380,247,38065,1,10,2:2:0:0:
380,247,38150,1,0,1:1:0:0:
380,247,38234,2,0,L|377:278,2,28.1250010728836,10|8|2,2:2|2:2|1:2,0:0:0:0:
468,180,38571,5,2,2:2:0:0:
458,153,38655,1,0,1:1:0:0:
437,135,38739,1,10,2:2:0:0:
410,130,38823,1,0,1:1:0:0:
384,139,38908,1,10,2:2:0:0:
299,81,39077,5,10,2:2:0:0:
278,62,39161,1,0,1:1:0:0:
269,36,39245,2,0,L|278:1,2,28.1250010728836,8|8|2,2:2|2:2|2:2,0:0:0:0:
159,148,39582,6,0,L|175:208,1,56.2500021457673,0|0,2:2|2:2,0:0:0:0:
331,262,39919,1,0,2:2:0:0:
289,361,40088,1,2,2:2:0:0:
214,330,40256,2,0,L|182:321,3,28.1250010728836,2|0|2|0,2:2|2:3|2:2|2:3,0:0:0:0:
162,300,40593,6,0,B|110:304|131:358|73:360,1,112.500004291535,2|2,2:2|2:2,0:0:0:0:
8,291,41099,1,2,2:2:0:0:
52,186,41268,6,0,B|92:179|123:203|123:203|105:165|118:133,1,150,2|0,2:2|2:2,0:0:0:0:
47,110,41773,1,0,2:3:0:0:
47,110,41857,1,0,2:3:0:0:
47,110,41942,1,4,3:2:0:0:
303,88,44470,5,0,2:2:0:0:
283,178,44638,1,0,2:2:0:0:
303,88,45143,5,0,2:2:0:0:
283,178,45312,2,0,P|335:198|341:304,1,168.750006437302,0|0,2:2|2:2,0:0:0:0:
132,331,45987,5,8,2:2:0:0:
81,267,46155,2,0,P|87:247|92:242,2,28.1250010728836,8|8|8,2:2|2:2|2:2,0:0:0:0:
262,238,46493,5,8,2:2:0:0:
233,314,46661,2,0,P|212:318|205:316,2,28.1250010728836,8|8|8,2:2|2:2|2:2,0:0:0:0:
117,172,46998,5,8,2:2:0:0:
197,159,47166,2,0,P|211:174|213:181,2,28.1250010728836,0|0|4,0:0|2:2|3:2,0:0:0:0:
277,30,47672,6,0,L|366:38,1,75,10|0,2:2|2:2,0:0:0:0:
468,128,48009,1,2,2:2:0:0:
383,118,48178,1,0,3:3:0:0:
338,190,48346,2,0,L|358:282,1,75,8|2,2:2|2:2,0:0:0:0:
421,334,48683,5,2,2:2:0:0:
292,320,48852,1,2,3:2:0:0:
419,346,49020,5,10,2:2:0:0:
290,332,49189,1,2,2:2:0:0:
149,308,49357,2,0,L|173:205,1,75,2|2,3:2|2:2,0:0:0:0:
152,217,49610,1,0,3:3:0:0:
139,201,49694,2,0,L|116:99,1,75,10|2,2:2|3:2,0:0:0:0:
84,61,50032,5,0,3:3:0:0:
73,71,50200,1,2,2:2:0:0:
186,20,50369,1,8,2:2:0:0:
280,99,50537,1,0,2:2:0:0:
235,213,50706,5,0,2:2:0:0:
221,205,50874,1,2,3:2:0:0:
355,243,51043,1,10,2:2:0:0:
333,362,51211,1,2,2:2:0:0:
201,361,51380,6,0,L|105:371,1,75,2|2,2:2|3:2,0:0:0:0:
111,250,51717,2,0,L|32:235,1,75,10|2,2:2|2:2,0:0:0:0:
60,148,52054,5,2,2:2:0:0:
24,60,52223,1,2,3:2:0:0:
72,146,52391,5,10,2:2:0:0:
131,27,52560,1,2,3:2:0:0:
184,120,52728,6,0,L|271:140,1,75,0|2,3:3|2:3,0:0:0:0:
393,153,53065,1,8,2:2:0:0:
270,248,53234,1,0,3:3:0:0:
383,165,53402,5,2,2:3:0:0:
313,26,53571,1,2,2:2:0:0:
397,168,53739,5,10,2:2:0:0:
475,15,53908,1,2,2:2:0:0:
487,23,53992,1,0,2:2:0:0:
500,32,54077,2,0,L|476:119,1,75,2|2,2:2|3:2,0:0:0:0:
412,173,54414,2,0,L|447:273,1,75,10|2,2:2|2:2,0:0:0:0:
454,250,54666,1,0,2:2:0:0:
472,255,54751,5,2,3:2:0:0:
361,295,54919,1,0,2:2:0:0:
304,181,55088,1,10,2:2:0:0:
191,214,55256,2,0,P|161:219|147:226,1,37.5,2|0,3:3|0:0,0:0:0:0:
107,292,55425,6,0,P|104:246|57:176,1,112.5,4|0,3:2|2:2,0:0:0:0:
52,187,55762,1,10,2:2:0:0:
193,145,55930,1,0,3:3:0:0:
90,85,56099,5,0,2:2:0:0:
100,91,56268,1,0,3:3:0:0:
207,12,56436,1,8,2:2:0:0:
329,95,56605,1,2,2:2:0:0:
460,22,56773,6,0,P|439:104|437:131,1,112.5,2|0,2:2|0:0,0:0:0:0:
448,140,57110,1,10,2:2:0:0:
338,235,57279,2,0,P|336:253|347:283,1,37.5,2|0,2:2|0:0,0:0:0:0:
410,316,57447,5,0,3:3:0:0:
511,233,57616,1,2,3:2:0:0:
340,147,57784,1,0,1:1:0:0:
302,151,57868,1,0,1:1:0:0:
265,156,57952,1,2,1:2:0:0:
228,161,58036,1,0,1:1:0:0:
191,165,58121,6,0,P|163:210|159:246,1,75,4|0,3:2|2:2,0:0:0:0:
79,157,58459,1,8,2:2:0:0:
160,239,58627,2,0,P|181:271|183:312,2,75,0|0|0,3:3|2:2|3:3,0:0:0:0:
114,360,59133,1,4,3:2:0:0:
274,295,59301,5,2,2:2:0:0:
425,368,59470,2,0,P|457:312|450:259,1,112.5,2|0,2:2|0:0,0:0:0:0:
434,259,59807,1,10,2:2:0:0:
323,192,59975,6,0,L|413:184,1,75,2|0,2:2|2:2,0:0:0:0:
253,70,60312,2,0,L|261:160,1,75,2|8,3:2|2:2,0:0:0:0:
375,0,60650,2,0,L|285:8,1,75,2|0,2:2|2:2,0:0:0:0:
445,122,60986,5,0,3:3:0:0:
438,47,61155,2,0,L|445:122,1,75,8|0,2:2|2:2,0:0:0:0:
323,192,61492,5,0,2:2:0:0:
468,308,61661,1,0,3:3:0:0:
461,233,61830,2,0,L|467:307,1,75,8|2,2:2|3:2,0:0:0:0:
336,371,62166,6,0,P|301:333|235:315,1,112.5,6|0,3:2|0:0,0:0:0:0:
219,293,62503,2,0,B|195:300|195:300|178:316,1,37.5,10|0,2:2|3:3,0:0:0:0:
138,373,62672,1,10,2:2:0:0:
52,264,62841,5,0,3:3:0:0:
161,180,63009,1,2,1:2:0:0:
173,145,63093,1,0,1:1:0:0:
165,109,63177,1,0,1:1:0:0:
137,84,63261,1,0,1:1:0:0:
100,79,63346,2,0,P|90:64|95:39,1,37.5,2|0,1:2|1:1,0:0:0:0:
166,0,63515,6,0,P|210:0|248:13,1,75,4|0,3:2|0:0,0:0:0:0:
316,83,63852,1,8,2:2:0:0:
307,109,64020,1,0,3:3:0:0:
411,66,64189,6,0,P|444:94|465:128,1,75,0|0,2:2|2:2,0:0:0:0:
472,225,64526,1,12,2:2:0:0:
448,240,64694,1,2,2:2:0:0:
370,344,64863,6,0,P|376:300|358:264,1,75,2|0,2:2|3:3,0:0:0:0:
290,247,65200,2,0,P|290:224|292:197,1,37.5,10|0,2:2|3:3,0:0:0:0:
218,271,65369,2,0,P|208:244|203:229,1,37.5,10|8,2:2|2:2,0:0:0:0:
203,346,65537,5,8,2:2:0:0:
173,368,65621,1,8,2:2:0:0:
136,374,65705,1,10,2:2:0:0:
101,363,65789,1,0,1:1:0:0:
75,337,65874,1,0,1:1:0:0:
64,301,65958,1,8,2:2:0:0:
71,265,66042,1,10,2:2:0:0:
94,236,66126,1,8,2:2:0:0:
128,220,66211,1,2,2:3:0:0:
499,122,68739,5,8,2:2:0:0:
451,197,68908,6,0,L|467:270,1,75,2|2,2:3|2:3,0:0:0:0:
380,215,69133,6,0,L|396:288,1,75,2|2,2:3|2:3,0:0:0:0:
315,168,69357,6,0,L|326:119,1,50,2|2,2:3|2:3,0:0:0:0:
244,150,69582,6,0,L|260:76,1,75,2|2,2:3|2:3,0:0:0:0:
173,175,69863,6,0,L|194:268,1,75,2|2,3:3|2:3,0:0:0:0:
102,210,70088,6,0,L|117:269,1,50,2|0,3:3|2:2,0:0:0:0:
162,319,70256,6,0,P|223:353|273:239,1,225,2|0,2:2|1:1,0:0:0:0:
245,171,70846,5,0,1:1:0:0:
189,118,70930,2,0,P|183:64|316:51,1,225,14|0,2:2|1:1,0:0:0:0:
418,178,71520,5,0,1:1:0:0:
418,178,71605,2,0,P|392:249|389:334,1,150,14|0,2:2|3:3,0:0:0:0:
94,206,72279,6,0,P|120:135|123:50,1,150,10|0,2:2|1:1,0:0:0:0:
206,20,72784,5,2,1:3:0:0:
206,20,72869,1,0,1:1:0:0:
206,20,72953,2,0,P|256:48|333:54,2,112.5,2|2|2,1:2|2:2|3:3,0:0:0:0:
214,158,73627,6,0,P|257:140|312:142,1,75,2|0,2:2|2:2,0:0:0:0:
294,144,73880,1,2,2:2:0:0:
300,152,73964,1,2,2:3:0:0:
478,46,74133,2,0,P|451:65|442:80,1,37.5,0|2,0:0|2:2,0:0:0:0:
396,129,74301,5,0,1:1:0:0:
395,166,74385,1,0,1:1:0:0:
394,203,74469,1,0,1:1:0:0:
393,241,74553,1,0,1:1:0:0:
395,282,74638,2,0,P|408:300|424:326,3,37.5,0|0|2|0,1:1|1:1|1:2|1:1,0:0:0:0:
310,225,74975,6,0,B|253:194|208:250|230:270|184:321|118:277,1,225.000008583069,4|4,3:2|2:3,0:0:0:0:
12,209,75481,6,0,P|21:180|35:162,1,48.7499977684022,4|4,2:3|2:3,0:0:0:0:
84,105,75650,2,0,B|168:94|66:-13|-52:30|9:89,1,225,14|4,2:2|2:2,0:0:0:0:
213,226,76324,6,0,B|170:260|249:289|319:217|264:207,1,150,0|6,0:0|2:3,0:0:0:0:
216,153,76829,1,2,1:2:0:0:
275,88,76998,6,0,P|269:52|252:25,1,56.2500021457673,2|0,1:2|3:3,0:0:0:0:
355,79,77335,2,0,P|349:45|351:20,1,56.2500021457673,2|0,3:2|1:1,0:0:0:0:
429,204,77672,6,0,P|413:217|395:240,3,37.5,0|0|2|0,1:1|1:1|1:2|1:1,0:0:0:0:
391,263,78009,5,4,2:3:0:0:
363,237,78093,1,4,2:3:0:0:
329,222,78177,1,4,2:3:0:0:
292,219,78261,1,4,2:3:0:0:
256,228,78346,1,6,3:2:0:0:
43,289,78683,5,8,2:2:0:0:
177,298,78852,1,0,3:3:0:0:
86,177,79020,2,0,P|81:155|99:60,1,112.5,2|8,2:3|2:2,0:0:0:0:
115,59,79357,2,0,L|196:71,1,75,2|2,2:3|2:3,0:0:0:0:
253,126,79694,5,4,3:2:0:0:
335,68,79863,2,0,L|329:22,2,37.5,2|0|8,2:3|2:2|2:2,0:0:0:0:
245,217,80200,5,8,2:3:0:0:
353,185,80369,2,0,L|347:139,2,37.5,0|0|0,1:1|1:1|1:1,0:0:0:0:
241,305,80706,5,2,1:2:0:0:
274,301,80790,1,0,1:1:0:0:
307,298,80874,1,2,1:2:0:0:
340,295,80958,1,0,1:1:0:0:
373,292,81043,1,4,3:2:0:0:
230,201,81380,6,0,L|243:153,3,37.5,8|8|0|0,2:2|2:2|1:1|1:1,0:0:0:0:
190,100,81717,2,0,L|237:88,3,37.5,6|0|0|4,2:3|2:2|2:2|2:3,0:0:0:0:
269,21,82054,1,10,2:2:0:0:
380,140,82223,2,0,P|465:129|465:33,1,187.5,2|0,2:3|3:3,0:0:0:0:
401,2,82728,5,10,2:2:0:0:
401,2,82812,1,8,2:2:0:0:
401,2,82897,1,2,1:2:0:0:
341,72,83065,2,0,L|348:110,2,37.5,2|0|0,2:3|0:0|1:1,0:0:0:0:
269,21,83402,1,8,2:2:0:0:
269,21,83487,1,0,3:3:0:0:
269,21,83571,1,2,1:2:0:0:
151,148,83739,6,0,L|79:107,1,75,6|0,3:2|3:3,0:0:0:0:
223,199,84077,2,0,L|151:240,1,75,10|2,2:2|3:2,0:0:0:0:
303,162,84414,2,0,L|303:244,1,75,10|0,2:2|3:3,0:0:0:0:
310,74,84751,1,10,2:2:0:0:
375,111,84919,1,0,3:3:0:0:
512,185,85088,6,0,L|496:349,1,150,0|0,1:1|1:1,0:0:0:0:
411,323,85593,2,0,L|425:173,1,150,0|0,1:1|1:1,0:0:0:0:
473,99,86099,5,0,1:1:0:0:
438,83,86183,1,0,1:1:0:0:
404,67,86267,1,0,1:1:0:0:
370,51,86351,1,0,1:1:0:0:
336,36,86436,6,0,L|281:48,4,56.25,6|0|0|0|0,3:2|0:0|0:0|0:0|0:0,0:0:0:0:
256,192,87784,12,2,89133,2:3:0:0:
53,135,89470,6,0,L|94:140,1,37.5,8|0,2:2|0:0,0:0:0:0:
182,155,89638,1,8,2:2:0:0:
182,155,89723,1,8,2:2:0:0:
182,155,89807,1,8,2:2:0:0:
56,218,89975,6,0,L|97:223,1,37.5,8|8,2:2|2:2,0:0:0:0:
185,238,90143,1,8,2:2:0:0:
185,238,90228,1,8,2:2:0:0:
185,238,90312,1,8,2:2:0:0:
59,301,90481,6,0,L|100:306,1,37.5,8|0,2:2|0:0,0:0:0:0:
188,321,90649,1,8,2:2:0:0:
188,321,90734,1,8,2:2:0:0:
188,321,90818,6,0,L|303:328,1,112.5,10|0,2:2|0:0,0:0:0:0:
380,309,91155,2,0,L|367:279,1,28.1250010728836,10|0,2:2|0:0,0:0:0:0:
297,244,91324,2,0,L|318:132,1,112.500004291535,2|2,2:2|2:2,0:0:0:0:
247,77,91829,6,0,B|170:111|170:111|235:164,1,168.750006437302,6|0,3:2|2:2,0:0:0:0:
309,218,92166,2,0,P|321:251|306:282,1,56.2500021457673,10|0,2:2|0:0,0:0:0:0:
245,331,92335,1,0,1:1:0:0:
318,134,92503,6,0,P|373:138|424:163,1,112.500004291535,2|0,2:2|3:3,0:0:0:0:
379,337,92841,2,0,P|341:348|312:346,1,56.2500021457673,10|0,2:2|0:0,0:0:0:0:
245,331,93009,6,0,L|129:309,1,112.500004291535,2|0,2:2|3:3,0:0:0:0:
22,154,93346,2,0,L|141:120,1,112.500004291535,2|8,2:2|2:2,0:0:0:0:
247,318,93683,6,0,L|131:296,1,112.500004291535,2|0,1:2|2:2,0:0:0:0:
24,141,94020,2,0,L|143:107,1,112.500004291535,2|8,3:2|2:2,0:0:0:0:
269,84,94357,2,0,P|261:60|276:30,1,56.2500021457673,2|0,2:2|2:2,0:0:0:0:
345,17,94526,6,0,B|411:71|411:71|321:119,1,168.750006437302,2|0,3:2|0:0,0:0:0:0:
288,173,94863,2,0,P|276:207|282:233,1,56.2500021457673,10|0,2:2|2:2,0:0:0:0:
346,284,95032,1,0,1:1:0:0:
346,284,95116,1,0,1:1:0:0:
346,284,95200,5,2,2:2:0:0:
232,360,95369,1,0,3:3:0:0:
152,235,95537,1,10,2:2:0:0:
23,314,95706,6,0,L|-5:204,1,112.500004291535,2|0,2:2|3:3,0:0:0:0:
267,145,96043,2,0,L|239:255,1,112.500004291535,2|8,2:2|2:2,0:0:0:0:
78,166,96380,5,2,1:2:0:0:
70,138,96464,1,0,1:1:0:0:
63,111,96548,1,0,1:1:0:0:
55,84,96632,1,0,0:0:0:0:
48,57,96717,2,0,L|72:6,1,56.2500021457673,8|8,2:3|2:3,0:0:0:0:
171,51,96885,2,0,L|145:102,2,56.2500021457673,8|4|4,2:2|2:3|2:3,0:0:0:0:
310,20,97223,6,0,B|375:22|377:75|368:72|370:120|453:114,1,168.750006437302,6|0,3:2|0:0,0:0:0:0:
502,32,97560,2,0,L|434:46,1,56.2500021457673,10|0,2:2|2:2,0:0:0:0:
302,102,97728,1,0,1:1:0:0:
302,102,97812,1,0,1:1:0:0:
302,102,97897,5,2,2:2:0:0:
336,193,98065,1,0,3:3:0:0:
422,236,98234,2,0,L|404:293,1,56.2500021457673,10|0,2:2|2:2,0:0:0:0:
399,293,98402,6,0,L|270:287,1,112.500004291535,2|0,2:2|3:3,0:0:0:0:
442,150,98739,2,0,L|330:145,1,112.500004291535,2|8,2:2|2:2,0:0:0:0:
275,287,99077,6,0,L|146:281,1,112.500004291535,2|0,1:2|2:2,0:0:0:0:
318,144,99414,2,0,L|206:139,1,112.500004291535,2|8,3:2|2:2,0:0:0:0:
148,281,99751,6,0,P|132:252|106:238,1,56.2500021457673,2|0,2:2|2:2,0:0:0:0:
35,194,99919,2,0,P|77:153|101:38,1,168.750006437302,2|0,3:2|2:2,0:0:0:0:
87,41,100256,1,8,2:2:0:0:
158,0,100425,6,0,P|174:29|200:43,1,56.2500021457673,2|0,1:2|1:1,0:0:0:0:
271,87,100593,2,0,P|229:128|205:243,1,168.750006437302,2|0,2:2|2:2,0:0:0:0:
221,242,100930,1,8,2:2:0:0:
311,321,101099,1,0,0:0:0:0:
435,277,101268,6,0,P|418:259|385:253,3,56.2500021457673,0|0|8|8,3:3|2:2|2:3|2:3,0:0:0:0:
337,178,101605,6,0,P|379:140|495:120,1,168.750006437302,8|0,2:2|1:1,0:0:0:0:
477,34,101942,2,0,P|455:10|410:4,1,56.2500021457673,8|8,2:3|2:3,0:0:0:0:
317,10,102110,6,0,L|336:177,1,168.750006437302,8|4,3:3|2:3,0:0:0:0:
388,252,102447,2,0,L|374:316,1,56.2500021457673,4|4,2:3|2:3,0:0:0:0:
261,369,102616,6,0,B|219:367|219:367|197:279|197:279|235:259,1,168.750006437302,6|0,3:2|2:2,0:0:0:0:
296,298,102953,1,10,2:2:0:0:
135,374,103121,2,0,L|115:300,1,56.2500021457673,0|0,1:1|1:1,0:0:0:0:
122,244,103290,1,2,2:2:0:0:
122,244,103374,1,0,1:1:0:0:
122,244,103459,1,0,3:3:0:0:
188,115,103627,2,0,P|172:95|134:82,1,56.2500021457673,10|0,2:2|0:0,0:0:0:0:
106,77,103796,6,0,L|226:41,1,112.500004291535,2|0,2:2|3:3,0:0:0:0:
374,133,104133,2,0,P|342:185|282:165,1,112.500004291535,2|8,2:2|2:2,0:0:0:0:
112,88,104470,6,0,L|232:52,1,112.500004291535,2|0,1:2|2:2,0:0:0:0:
380,144,104807,2,0,P|348:196|288:176,1,112.500004291535,2|8,3:2|2:2,0:0:0:0:
385,0,105144,6,0,P|413:5|449:25,1,56.2500021457673,2|0,2:2|2:2,0:0:0:0:
487,98,105312,2,0,L|474:225,1,112.500004291535,2|0,3:2|2:2,0:0:0:0:
407,315,105650,6,0,L|385:246,1,56.2500021457673,14|0,2:2|2:2,0:0:0:0:
310,236,105818,1,0,1:1:0:0:
310,236,105902,1,0,1:1:0:0:
310,236,105987,1,2,2:2:0:0:
228,325,106155,1,0,3:3:0:0:
123,255,106324,2,0,P|138:208|136:180,1,56.2500021457673,14|0,2:2|0:0,0:0:0:0:
154,171,106492,6,0,L|98:54,1,112.500004291535,2|0,2:2|3:3,0:0:0:0:
205,16,106829,2,0,P|250:30|223:94,1,112.500004291535,10|8,2:2|2:2,0:0:0:0:
168,170,107166,6,0,L|112:53,1,112.500004291535,2|4,2:2|2:3,0:0:0:0:
219,15,107503,2,0,P|264:29|237:93,1,112.500004291535,0|4,0:0|2:3,0:0:0:0:
274,217,107784,2,0,P|300:242|337:244,1,75.000002861023,0|4,0:0|2:3,0:0:0:0:
399,201,108009,6,0,P|433:118|485:80,1,150,6|0,3:2|2:2,0:0:0:0:
442,13,108515,1,0,3:3:0:0:
352,0,108683,2,0,P|365:24|382:76,1,75,8|0,2:2|0:0,0:0:0:0:
480,217,109020,6,0,P|468:269|412:348,1,150,0|0,3:3|0:0,0:0:0:0:
338,302,109526,1,0,3:3:0:0:
287,373,109694,2,0,P|243:354|218:324,1,75,8|0,3:2|2:2,0:0:0:0:
128,278,110032,2,0,L|154:163,1,112.5,8|0,2:2|0:0,0:0:0:0:
177,159,110369,6,0,P|165:124|155:119,1,37.5,2|0,1:2|1:1,0:0:0:0:
90,93,110537,2,0,P|72:64|157:36,1,150,10|4,2:2|2:3,0:0:0:0:
277,116,111043,6,0,L|321:122,1,37.5,10|0,2:2|2:2,0:0:0:0:
408,94,111211,2,0,L|384:246,1,150,2|0,3:2|1:1,0:0:0:0:
369,347,111716,5,2,3:2:0:0:
512,363,111885,2,0,L|351:333,1,150,0|8,1:1|3:3,0:0:0:0:
254,283,112391,6,0,P|236:286|210:302,1,37.5,4|4,2:3|2:3,0:0:0:0:
145,351,112560,2,0,P|104:273|47:244,1,150,4|4,2:3|2:3,0:0:0:0:
42,148,113065,5,4,2:3:0:0:
148,17,113234,1,4,2:3:0:0:
238,172,113402,6,0,L|390:202,1,150,6|0,3:2|2:2,0:0:0:0:
470,164,113908,1,0,3:3:0:0:
419,43,114077,2,0,L|401:129,1,75,8|0,2:2|0:0,0:0:0:0:
458,255,114414,6,0,B|444:305|397:302|403:294|345:297|353:361,1,150,0|0,3:3|2:2,0:0:0:0:
428,380,114919,1,4,2:3:0:0:
497,338,115088,1,4,3:3:0:0:
276,305,115425,6,0,P|264:334|278:379,1,75,8|0,2:2|3:3,0:0:0:0:
345,262,115762,1,8,2:3:0:0:
274,164,115930,2,0,B|235:149|209:195|220:202|193:243|149:228,1,150,0|0,1:1|1:1,0:0:0:0:
143,223,116352,1,0,1:1:0:0:
141,209,116436,1,2,2:2:0:0:
52,268,116605,6,0,P|77:282|103:331,1,75,2|0,3:2|1:1,0:0:0:0:
97,335,116857,1,0,1:1:0:0:
89,346,116942,1,4,2:3:0:0:
64,194,117110,6,0,L|40:79,1,112.5,2|0,3:2|1:1,0:0:0:0:
57,66,117447,1,4,2:2:0:0:
217,170,117616,5,0,3:3:0:0:
232,82,117784,2,0,L|155:96,1,75,8|6,3:3|1:2,0:0:0:0:
181,14,118121,1,8,2:2:0:0:
181,14,118459,6,0,L|231:62,1,56.2500021457673,2|0,2:2|0:0,0:0:0:0:
350,69,118627,2,0,L|300:117,1,56.2500021457673
255,190,118796,1,6,3:2:0:0:
256,192,126885,12,12,129245,2:3:0:0:
285,106,129582,5,2,3:3:0:0:
409,124,129919,6,0,P|414:93|400:51,1,75,2|2,2:2|2:2,0:0:0:0:
317,36,130425,1,0,2:2:0:0:
285,106,130593,1,0,2:2:0:0:
291,122,130762,1,2,2:2:0:0:
234,194,130930,6,0,L|226:236,1,37.5,2|2,2:2|2:2,0:0:0:0:
291,296,131268,1,2,2:2:0:0:
218,349,131436,1,2,2:2:0:0:
113,278,131605,6,0,L|69:275,1,37.5,2|2,2:2|2:2,0:0:0:0:
19,326,131942,2,0,L|39:215,1,112.5,2|0,2:3|2:2,0:0:0:0:
28,193,132279,6,0,P|23:151|86:108,1,112.5,4|0,3:2|0:0,0:0:0:0:
144,147,132616,1,2,3:3:0:0:
281,30,132953,6,0,L|252:182,1,150,8|2,2:2|2:3,0:0:0:0:
300,244,133459,1,0,3:3:0:0:
381,245,133627,6,0,P|435:225|448:203,1,75,2|2,3:2|2:2,0:0:0:0:
365,335,133964,1,2,2:3:0:0:
281,351,134133,1,2,2:2:0:0:
203,285,134301,6,0,B|165:302|168:344|168:344|164:303|123:289,1,150,10|2,2:2|2:3,0:0:0:0:
170,54,134975,6,0,P|205:73|223:108,1,75,0|2,3:3|2:2,0:0:0:0:
310,100,135312,2,0,P|312:131|291:185,1,75,2|0,3:3|2:2,0:0:0:0:
65,170,135650,2,0,L|85:7,1,150,8|2,2:2|2:3,0:0:0:0:
13,16,136155,1,2,3:2:0:0:
1,86,136324,5,2,3:2:0:0:
65,170,136492,1,2,2:2:0:0:
157,204,136661,1,2,2:3:0:0:
74,278,136829,1,2,2:2:0:0:
32,371,136998,1,10,2:2:0:0:
162,208,137335,5,2,2:3:0:0:
287,327,137672,6,0,L|365:348,1,75,0|2,3:3|2:2,0:0:0:0:
433,303,138009,2,0,L|456:391,1,75,2|0,3:3|2:2,0:0:0:0:
505,258,138346,1,8,2:2:0:0:
398,163,138683,5,2,2:3:0:0:
398,163,138852,1,2,3:2:0:0:
489,101,139020,2,0,P|503:67|510:21,1,75,2|0,3:3|2:2,0:0:0:0:
442,0,139357,1,2,2:3:0:0:
323,70,139526,6,0,P|308:37|272:-10,1,75,2|10,2:2|2:2,0:0:0:0:
202,92,139863,2,0,P|180:121|158:176,1,75,2|2,2:2|2:3,0:0:0:0:
353,171,140200,1,2,2:3:0:0:
282,186,140369,2,0,P|318:189|376:181,1,75,0|0,3:3|0:0,0:0:0:0:
114,326,140706,6,0,P|75:334|39:354,1,75,2|0,3:3|2:2,0:0:0:0:
138,244,141043,2,0,P|182:264|270:337,1,150,10|2,2:2|2:3,0:0:0:0:
213,384,141548,1,2,3:2:0:0:
316,259,141717,6,0,L|340:182,1,75,2|2,3:2|2:2,0:0:0:0:
284,118,142054,1,2,2:3:0:0:
285,112,142223,1,2,2:2:0:0:
419,214,142391,2,0,L|518:174,1,75,10|0,2:2|2:2,0:0:0:0:
485,112,142728,1,2,2:3:0:0:
486,38,142897,1,2,2:2:0:0:
359,6,143065,6,0,L|350:113,1,75,0|2,3:3|2:2,0:0:0:0:
279,117,143402,2,0,L|289:209,1,75,2|0,3:3|2:2,0:0:0:0:
339,250,143739,1,8,2:2:0:0:
162,133,144077,5,2,2:3:0:0:
87,157,144245,1,2,3:2:0:0:
51,224,144414,2,0,P|71:274|104:306,1,75,2|0,3:2|0:0,0:0:0:0:
166,304,144751,1,2,2:3:0:0:
250,289,144919,2,0,P|326:314|303:386,2,150,2|2|2,2:2|2:2|2:2,0:0:0:0:
348,209,145762,6,0,P|405:209|463:234,1,112.5,0|0,3:3|0:0,0:0:0:0:
464,233,146099,2,0,P|470:178|503:106,1,112.5,2|0,3:3|0:0,0:0:0:0:
494,117,146436,2,0,P|448:74|383:44,1,112.5,8|0,2:2|0:0,0:0:0:0:
386,50,146773,1,2,2:3:0:0:
290,113,146942,1,2,3:2:0:0:
163,33,147110,6,0,P|176:80|177:166,1,112.5,2|0,3:2|0:0,0:0:0:0:
190,169,147447,2,0,P|181:195|159:226,1,37.5,2|0,2:3|0:0,0:0:0:0:
65,265,147616,2,0,L|192:302,1,112.5,2|0,2:2|0:0,0:0:0:0:
188,331,147953,2,0,L|316:303,1,112.5,2|0,2:2|0:0,0:0:0:0:
327,229,148290,1,2,2:2:0:0:
386,288,148459,6,0,L|396:332,2,37.5,2|2|0,2:2|2:2|0:0,0:0:0:0:
256,192,149133,12,2,150987,2:2:0:0:
62,169,151155,6,0,L|79:256,1,50,10|8,2:2|2:2,0:0:0:0:
145,207,151380,6,0,L|135:157,1,50,10|8,2:2|2:2,0:0:0:0:
200,105,151604,6,0,L|209:55,1,50,10|8,2:2|2:2,0:0:0:0:
283,67,151829,6,0,L|266:154,1,50,10|8,2:2|2:2,0:0:0:0:
338,169,152054,6,0,L|347:218,1,50,10|8,2:2|2:2,0:0:0:0:
421,207,152279,6,0,L|412:158,1,50,10|8,2:2|2:2,0:0:0:0:
458,94,152503,6,0,L|474:44,2,50,10|8|8,2:3|2:3|2:3,0:0:0:0:
245,359,153009,5,4,2:3:0:0:
259,346,153093,1,4,2:3:0:0:
265,332,153178,2,0,P|261:280|122:273,1,225,12|0,2:2|2:2,0:0:0:0:
104,341,153768,5,0,2:2:0:0:
46,287,153852,2,0,B|1:242|48:169|60:224|138:126|75:87,1,225,14|2,2:2|2:3,0:0:0:0:
5,21,154442,5,0,2:2:0:0:
19,15,154526,2,0,P|88:2|263:2,1,225,2|2,1:2|2:3,0:0:0:0:
388,22,155116,5,8,2:2:0:0:
401,34,155200,2,0,P|408:55|379:150,2,112.5,2|8|6,3:2|2:3|2:3,0:0:0:0:
239,158,155874,6,0,P|227:179|222:203,1,49.499999848938,2|0,2:2|1:1,0:0:0:0:
230,210,156127,1,2,1:2:0:0:
241,213,156211,1,0,1:1:0:0:
341,348,156380,2,0,P|326:335|316:309,1,37.5,0|2,0:0|1:2,0:0:0:0:
317,236,156548,5,0,1:1:0:0:
351,221,156632,1,0,1:1:0:0:
386,207,156716,1,0,1:1:0:0:
420,192,156801,1,0,1:1:0:0:
456,179,156885,2,0,P|474:190|493:211,3,37.5,2|0|0|0,1:2|1:1|1:1|1:1,0:0:0:0:
389,119,157223,6,0,B|336:67|363:-15|507:9|466:78|409:71,1,225.000008583069,4|8,3:2|2:3,0:0:0:0:
273,85,157728,6,0,P|291:58|282:32,1,56.2500021457673,0|0,1:1|1:1,0:0:0:0:
199,54,157897,2,0,B|126:18|112:130|42:67|42:67|79:59|91:-3,1,225.000008583069,12|0,2:2|1:1,0:0:0:0:
169,131,158402,6,0,P|191:161|173:194,1,56.2500021457673,2|0,3:3|0:0,0:0:0:0:
177,250,158571,2,0,B|250:286|264:174|334:237|334:237|297:245|285:307,1,225.000008583069,0|0,0:0|3:3,0:0:0:0:
367,315,159077,1,2,2:2:0:0:
415,244,159245,6,0,P|415:217|394:191,1,56.2500021457673,10|2,2:2|3:3,0:0:0:0:
445,134,159582,2,0,P|421:116|390:114,1,56.2500021457673,2|2,3:3|2:3,0:0:0:0:
309,91,159919,6,0,L|315:53,3,37.5,0|0|2|0,1:1|1:1|1:2|1:1,0:0:0:0:
320,25,160256,1,2,2:3:0:0:
282,31,160340,1,4,2:3:0:0:
245,37,160424,1,2,1:2:0:0:
208,43,160508,1,0,2:2:0:0:
171,49,160593,1,6,3:2:0:0:
79,153,160846,5,2,1:3:0:0:
86,158,160930,1,8,2:2:0:0:
175,207,161099,2,0,L|163:295,1,75,4|4,2:3|2:3,0:0:0:0:
280,155,161436,5,8,2:2:0:0:
369,204,161605,2,0,L|357:292,1,75,10|2,2:2|2:2,0:0:0:0:
369,302,161857,1,0,2:2:0:0:
388,318,161942,6,0,P|448:325|478:306,1,75,4|8,2:2|2:3,0:0:0:0:
285,288,162194,1,8,2:3:0:0:
275,290,162279,2,0,P|240:312|231:331,3,37.5,0|0|2|0,1:1|1:1|1:3|1:1,0:0:0:0:
166,359,162616,5,8,2:3:0:0:
160,321,162700,1,8,2:3:0:0:
154,284,162784,1,4,2:3:0:0:
148,247,162868,1,4,2:3:0:0:
143,210,162953,1,4,2:3:0:0:
137,173,163037,1,4,2:3:0:0:
131,136,163121,1,4,2:3:0:0:
126,99,163205,1,4,2:3:0:0:
120,62,163290,1,4,3:2:0:0:
338,143,163627,5,8,2:2:0:0:
411,91,163796,1,8,2:2:0:0:
408,84,163880,1,0,1:1:0:0:
330,59,164048,1,8,2:2:0:0:
324,62,164133,1,0,1:1:0:0:
422,174,164301,5,2,1:2:0:0:
418,211,164385,1,0,1:1:0:0:
414,248,164469,1,10,2:2:0:0:
410,285,164553,1,0,2:2:0:0:
406,323,164638,1,4,3:2:0:0:
272,264,164891,5,0,1:1:0:0:
285,260,164975,1,2,1:2:0:0:
173,360,165144,6,0,L|143:281,1,75,10|8,2:2|2:3,0:0:0:0:
131,281,165397,1,4,2:3:0:0:
114,272,165481,2,0,L|122:222,1,37.5,8|4,2:2|2:3,0:0:0:0:
186,165,165650,1,4,2:3:0:0:
125,90,165818,1,4,2:3:0:0:
41,128,165987,1,6,3:2:0:0:
256,192,168683,12,0,171043,0:0:0:0:
256,192,171380,12,0,173065,0:0:0:0:
145,333,174077,6,0,P|138:244|87:88,1,225,6|0,3:2|2:2,0:0:0:0:
0,58,174751,1,10,2:2:0:0:
212,200,175088,5,2,3:2:0:0:
294,99,175256,2,0,L|398:108,1,75,2|0,1:2|0:0,0:0:0:0:
464,7,175593,2,0,L|389:0,1,75,2|0,1:2|3:3,0:0:0:0:
302,105,175930,6,0,L|406:114,1,75,2|8,2:2|2:2,0:0:0:0:
472,13,176268,2,0,L|397:6,1,75,2|0,2:2|2:2,0:0:0:0:
362,206,176605,1,2,1:2:0:0:
462,309,176773,6,0,P|373:282|236:281,1,225,2|0,3:2|0:0,0:0:0:0:
136,343,177447,1,10,2:2:0:0:
246,185,177784,5,2,3:2:0:0:
278,96,177953,2,0,P|262:49|227:36,1,75,2|0,1:2|2:2,0:0:0:0:
117,117,178290,2,0,P|133:164|168:177,1,75,2|0,1:2|3:3,0:0:0:0:
288,92,178627,6,0,P|272:45|237:32,1,75,2|8,1:2|2:2,0:0:0:0:
107,121,178964,2,0,P|123:168|158:181,1,75,2|0,1:2|1:1,0:0:0:0:
139,22,179301,1,10,2:2:0:0:
50,52,179470,6,0,P|94:136|124:276,1,225,6|0,3:2|2:2,0:0:0:0:
74,330,180144,1,10,2:2:0:0:
277,257,180481,5,2,3:2:0:0:
378,286,180650,2,0,P|412:302|441:331,1,75,2|0,1:2|0:0,0:0:0:0:
512,200,180987,2,0,P|468:218|443:241,1,75,2|0,1:2|3:3,0:0:0:0:
378,276,181324,6,0,P|412:292|441:321,1,75,2|8,1:2|2:2,0:0:0:0:
512,190,181661,2,0,P|468:208|443:231,1,75,2|0,2:2|2:2,0:0:0:0:
399,130,181998,5,2,1:2:0:0:
338,81,182166,2,0,P|414:50|472:100,1,150,2|0,3:2|2:2,0:0:0:0:
326,159,182672,5,2,2:2:0:0:
314,236,182840,2,0,P|249:185|263:110,1,150,10|0,2:2|3:3,0:0:0:0:
175,83,183346,1,0,1:1:0:0:
57,137,183515,6,0,L|81:233,1,75,0|0,0:0|1:1,0:0:0:0:
62,224,183768,1,0,1:1:0:0:
49,237,183852,2,0,L|41:362,1,112.5,8|4,3:3|2:3,0:0:0:0:
122,374,184189,2,0,L|186:391,3,37.5,8|4|4|4,2:2|2:3|2:3|2:3,0:0:0:0:
225,336,184526,2,0,L|270:318,3,37.5,4|4|8|4,2:3|2:3|2:2|2:3,0:0:0:0:
249,245,184863,6,0,B|328:230|362:299|322:291|360:357|438:335,1,225,6|0,3:2|2:2,0:0:0:0:
422,173,185537,2,0,B|369:172|349:196|349:196,1,75,10|0,2:2|2:2,0:0:0:0:
485,248,185874,1,2,3:2:0:0:
485,110,186043,6,0,L|467:3,1,75,2|0,1:2|0:0,0:0:0:0:
267,75,186380,2,0,L|285:182,1,75,2|0,1:2|3:3,0:0:0:0:
497,110,186717,6,0,L|479:3,1,75,2|8,2:2|2:2,0:0:0:0:
255,75,187054,2,0,L|273:182,1,75,2|0,2:2|2:2,0:0:0:0:
281,226,187391,1,2,1:2:0:0:
211,270,187560,6,0,B|134:272|108:203|142:221|107:146|27:161,1,225,2|0,3:2|2:2,0:0:0:0:
52,376,188234,2,0,B|100:376|122:331|122:331,1,75,10|0,2:2|3:3,0:0:0:0:
0,278,188571,1,6,2:2:0:0:
58,84,188739,6,0,L|154:67,1,75,6|0,1:2|3:3,0:0:0:0:
298,0,189077,2,0,P|284:46|248:64,1,75,6|12,1:2|2:2,0:0:0:0:
67,91,189414,6,0,L|163:74,1,75,2|4,1:2|2:3,0:0:0:0:
307,7,189751,2,0,P|293:53|257:71,1,75,0|4,0:0|2:3,0:0:0:0:
197,10,190088,1,0,0:0:0:0:
387,35,190256,6,0,P|360:105|359:209,1,150,6|0,3:2|2:2,0:0:0:0:
414,231,190762,1,0,3:3:0:0:
467,171,190930,2,0,B|481:164|499:166|499:166|485:150|461:150,1,75,8|0,2:2|0:0,0:0:0:0:
353,299,191268,6,0,P|268:310|131:355,1,225,0|0,3:3|3:3,0:0:0:0:
65,292,191942,2,0,P|24:324|5:350,1,75,0|0,3:3|2:2,0:0:0:0:
142,240,192279,2,0,P|124:175|88:72,1,150,8|2,2:2|2:2,0:0:0:0:
86,93,192700,1,0,1:1:0:0:
73,95,192784,1,8,2:2:0:0:
234,158,192953,6,0,P|296:149|404:118,1,150,2|4,3:2|2:3,0:0:0:0:
374,34,193459,1,2,3:2:0:0:
195,7,193627,2,0,P|215:67|233:158,1,150,8|2,2:2|3:2,0:0:0:0:
335,217,194133,2,0,P|309:284|295:380,1,150,2|8,1:2|3:3,0:0:0:0:
386,366,194638,5,4,3:3:0:0:
473,302,194807,1,2,1:2:0:0:
425,192,194975,2,0,P|403:128|358:40,1,150,12|2,2:2|2:2,0:0:0:0:
439,13,195481,1,0,0:0:0:0:
498,123,195650,1,6,3:2:0:0:
256,192,195987,12,2,198346,3:2:0:0:
94,259,198852,5,2,3:2:0:0:
47,176,199020,2,0,P|75:151|99:122,1,75,8|2,2:2|2:2,0:0:0:0:
71,44,199357,1,2,3:2:0:0:
233,166,199694,6,0,L|223:216,3,37.5,2|0|2|0,2:2|2:2|3:2|2:2,0:0:0:0:
248,228,200032,2,0,L|268:286,3,37.5,2|0|2|0,3:2|2:2|2:2|2:2,0:0:0:0:
281,282,200369,5,10,2:2:0:0:
385,244,200537,1,2,3:2:0:0:
413,122,200706,1,2,2:2:0:0:
310,53,200874,1,2,1:2:0:0:
173,69,201043,6,0,B|105:73|64:128|40:175|126:260|40:175,1,225,6|2,3:2|3:2,0:0:0:0:
59,68,201717,2,0,P|103:96|159:162,1,112.5,8|0,2:2|0:0,0:0:0:0:
159,158,202054,1,2,3:2:0:0:
170,328,202223,6,0,P|187:278|274:237,1,150,2|0,2:2|3:3,0:0:0:0:
359,193,202728,2,0,P|400:212|427:249,1,75,0|8,3:3|2:3,0:0:0:0:
388,326,203065,1,8,2:2:0:0:
419,233,203234,2,0,P|394:139|385:63,1,150,2|2,3:2|1:2,0:0:0:0:
298,35,203739,5,0,3:3:0:0:
241,127,203908,2,0,L|280:124,2,37.5,0|0|4,1:1|1:1|2:3,0:0:0:0:
174,210,204245,5,0,3:3:0:0:
61,150,204414,2,0,B|-39:152|149:137,1,150,8|6,2:2|3:2,0:0:0:0:
196,79,204919,2,0,B|243:77|237:138|219:136|229:183|279:176,1,150,2|2,1:2|3:2,0:0:0:0:
348,118,205425,1,4,3:3:0:0:
173,281,205762,6,0,B|207:348|207:348|195:253,1,150,12|2,2:2|2:2,0:0:0:0:
163,206,206268,1,2,2:2:0:0:
90,322,206436,6,0,L|342:333,1,225,6|0,3:2|3:3,0:0:0:0:
334,255,207110,6,0,B|375:264|375:264|408:323|408:323|447:336,2,150,10|2|8,2:2|3:2|2:3,0:0:0:0:
300,180,207953,1,4,3:3:0:0:
300,180,208037,1,4,2:3:0:0:
300,180,208121,1,2,3:2:0:0:
268,12,208459,6,0,B|227:21|227:21|194:80|194:80|155:93,1,150,10|2,2:2|1:2,0:0:0:0:
131,16,208964,1,10,2:2:0:0:
286,95,209133,6,0,L|441:115,1,150,2|0,3:2|1:1,0:0:0:0:
488,53,209638,1,2,3:2:0:0:
381,187,209807,2,0,P|385:231|426:258,1,75,10|2,2:2|2:3,0:0:0:0:
496,251,210144,2,0,L|257:306,1,225,2|2,3:2|3:3,0:0:0:0:
266,310,210734,1,0,2:2:0:0:
257,320,210818,1,6,3:3:0:0:
96,157,211155,5,10,2:2:0:0:
172,208,211324,2,0,L|206:188,5,37.5,2|2|2|2|2|2,3:2|1:2|1:2|1:2|1:2|1:2,0:0:0:0:
239,103,211829,6,0,B|308:111|325:162|325:162|309:111|356:57,1,225,6|0,3:2|3:3,0:0:0:0:
486,154,212503,2,0,P|437:160|416:177,1,75,10|0,2:2|0:0,0:0:0:0:
357,234,212841,6,0,P|390:273|439:384,1,150,2|2,3:2|2:2,0:0:0:0:
210,227,213346,1,2,1:2:0:0:
186,238,213515,6,0,P|161:209|125:128,1,112.5,2|0,3:2|1:1,0:0:0:0:
117,114,213852,2,0,P|153:107|242:116,1,112.5,2|0,3:2|1:1,0:0:0:0:
258,116,214189,2,0,P|245:151|192:223,1,112.5,2|0,3:2|1:1,0:0:0:0:
105,249,214526,6,0,B|139:352|263:280|281:373,2,225,6|2|2,3:2|3:2|3:2,0:0:0:0:
155,183,215706,1,2,1:3:0:0:
79,70,216043,5,6,3:2:0:0:
133,16,216211,2,0,P|188:31|226:109,1,112.5,6|4,2:2|2:3,0:0:0:0:
250,146,216548,2,0,P|297:168|377:136,1,112.5,10|0,2:2|2:2,0:0:0:0:
380,87,216885,5,2,2:2:0:0:
393,52,216969,1,2,2:2:0:0:
418,24,217053,1,2,2:2:0:0:
452,8,217137,1,2,2:2:0:0:
489,6,217222,1,6,1:2:0:0:
256,192,217391,12,6,222616,2:2:0:0:
256,192,230706,12,2,232728,2:2:0:0:
75,226,233402,6,0,B|33:263|33:263|43:323,1,112.5,2|0,2:2|2:2,0:0:0:0:
117,371,233739,2,0,B|180:316|180:316|150:209,1,168.750006437302,14|0,2:2|1:1,0:0:0:0:
129,164,234077,1,2,2:2:0:0:
129,164,234161,1,0,1:1:0:0:
129,164,234245,1,0,3:3:0:0:
263,287,234414,2,0,P|298:293|344:277,1,56.2500021457673,10|0,2:2|0:0,0:0:0:0:
459,141,234582,6,0,L|431:250,1,112.500004291535,2|0,2:2|3:3,0:0:0:0:
264,43,234919,2,0,P|271:106|325:130,1,112.500004291535,2|8,2:2|2:2,0:0:0:0:
445,139,235256,6,0,L|417:248,1,112.500004291535,2|0,1:2|2:2,0:0:0:0:
250,41,235593,2,0,P|257:104|311:128,1,112.500004291535,2|8,3:2|2:2,0:0:0:0:
390,75,235930,2,0,B|368:55|368:55|341:54,1,56.2500021457673,2|0,2:2|2:2,0:0:0:0:
218,114,236099,6,0,B|148:160|148:160|65:98,1,168.750006437302,2|0,3:2|0:0,0:0:0:0:
151,49,236436,1,10,2:2:0:0:
14,176,236605,1,0,1:1:0:0:
14,176,236689,1,0,1:1:0:0:
14,176,236773,1,2,2:2:0:0:
154,316,236942,6,0,P|166:296|208:277,1,56.2500021457673,0|0,3:3|2:2,0:0:0:0:
234,213,237110,2,0,P|268:213|302:231,1,56.2500021457673,10|0,2:2|2:2,0:0:0:0:
370,234,237279,6,0,L|359:385,1,112.500004291535,2|0,2:2|3:3,0:0:0:0:
455,351,237616,2,0,L|463:238,1,112.500004291535,2|8,2:2|2:2,0:0:0:0:
361,231,237953,6,0,L|350:382,1,112.500004291535,2|0,1:2|2:2,0:0:0:0:
464,354,238290,2,0,L|472:241,1,112.500004291535,8|12,2:3|2:2,0:0:0:0:
502,144,238627,1,4,2:3:0:0:
411,91,238796,6,0,P|365:75|346:2,1,112.500004291535,6|0,3:2|0:0,0:0:0:0:
309,144,239133,2,0,P|269:210|156:222,1,168.750006437302,10|0,2:2|1:1,0:0:0:0:
120,189,239470,1,2,2:2:0:0:
120,189,239554,1,0,1:1:0:0:
120,189,239638,1,0,3:3:0:0:
186,76,239807,2,0,P|197:57|170:16,1,56.2500021457673,10|0,2:2|0:0,0:0:0:0:
163,21,239975,6,0,L|53:41,1,112.500004291535,2|0,2:2|3:3,0:0:0:0:
192,155,240312,2,0,L|324:132,1,112.500004291535,2|8,2:2|2:2,0:0:0:0:
297,5,240650,6,0,L|187:25,1,112.500004291535,2|0,1:2|2:2,0:0:0:0:
326,139,240987,2,0,L|436:119,1,112.500004291535,2|8,3:2|2:2,0:0:0:0:
490,15,241324,1,2,2:2:0:0:
435,126,241492,6,0,P|423:201|483:357,1,225.000008583069,2|8,3:2|2:2,0:0:0:0:
334,289,241998,1,2,1:2:0:0:
242,362,242166,6,0,B|134:348|214:303|86:286,1,168.750006437302,2|0,2:2|0:0,0:0:0:0:
65,288,242503,2,0,B|173:274|93:229|221:212,1,168.750006437302,12|0,2:2|2:2,0:0:0:0:
234,199,242841,5,0,3:3:0:0:
286,30,243009,1,8,2:3:0:0:
67,80,243178,2,0,P|164:91|238:115,1,168.750006437302,14|0,2:2|1:1,0:0:0:0:
327,161,243515,6,0,P|356:144|390:130,1,56.2500021457673,8|8,2:3|2:3,0:0:0:0:
486,92,243683,2,0,P|454:80|390:66,1,56.2500021457673,8|8,3:3|2:3,0:0:0:0:
418,2,243852,5,8,2:2:0:0:
410,57,243936,1,4,2:3:0:0:
402,113,244020,1,4,2:3:0:0:
395,169,244104,1,4,2:3:0:0:
387,224,244189,1,6,3:2:0:0:
186,355,244526,6,0,P|132:331|165:212,1,168.750006437302,10|0,2:2|1:1,0:0:0:0:
214,238,244863,1,2,2:2:0:0:
275,99,245032,1,0,3:3:0:0:
145,41,245200,2,0,L|47:59,1,56.2500021457673,10|0,2:2|2:2,0:0:0:0:
64,184,245369,6,0,P|21:150|27:97,1,112.500004291535,2|0,2:2|3:3,0:0:0:0:
115,255,245706,2,0,L|66:402,1,112.500004291535,2|8,1:2|2:2,0:0:0:0:
84,180,246043,6,0,P|41:146|47:93,1,112.500004291535,2|0,1:2|2:2,0:0:0:0:
135,251,246380,2,0,L|86:398,1,112.500004291535,2|8,3:2|2:2,0:0:0:0:
14,297,246717,1,2,2:2:0:0:
210,347,246885,6,0,P|267:314|408:288,1,168.750006437302,6|0,3:2|2:2,0:0:0:0:
434,335,247223,1,10,2:2:0:0:
358,131,247391,5,0,1:1:0:0:
335,124,247475,1,0,1:1:0:0:
312,116,247560,2,0,L|283:29,1,56.2500021457673,2|0,2:2|1:1,0:0:0:0:
402,1,247728,2,0,L|380:60,1,56.2500021457673,0|0,3:3|2:2,0:0:0:0:
443,123,247897,1,14,2:2:0:0:
374,222,248065,6,0,P|286:231|216:253,1,112.500004291535,2|0,2:2|3:3,0:0:0:0:
87,165,248402,2,0,P|128:128|191:142,1,112.500004291535,2|8,2:2|2:3,0:0:0:0:
367,237,248739,6,0,P|279:246|209:268,1,112.500004291535,2|4,2:2|2:3,0:0:0:0:
80,180,249076,2,0,P|121:143|184:157,1,112.500004291535,0|4,0:0|2:3,0:0:0:0:
171,319,249357,2,0,P|164:289|129:246,1,75.000002861023,4|4,2:3|2:3,0:0:0:0:
75,201,249582,6,0,B|23:128|103:91|55:27|55:27|2:37,1,225,6|0,3:2|3:3,0:0:0:0:
153,31,250256,6,0,P|221:36|308:66,1,150,8|0,2:2|3:3,0:0:0:0:
395,24,250762,6,0,P|423:122|425:178,1,150,0|0,2:2|3:3,0:0:0:0:
350,218,251268,1,0,3:2:0:0:
172,346,251605,6,0,P|212:320|265:318,1,75,8|0,2:2|3:3,0:0:0:0:
332,300,251942,1,2,1:2:0:0:
413,357,252110,2,0,P|451:336|410:246,1,150,10|0,2:2|2:2,0:0:0:0:
281,95,252616,6,0,L|255:48,1,37.5,4|0,2:3|2:2,0:0:0:0:
352,136,252784,2,0,L|322:315,1,150,2|0,3:2|1:1,0:0:0:0:
191,249,253290,6,0,P|165:241|141:252,1,37.5,2|0,3:2|2:2,0:0:0:0:
75,244,253459,2,0,P|79:178|161:123,1,150,0|8,1:1|3:3,0:0:0:0:
208,85,253964,5,10,2:2:0:0:
58,38,254133,2,0,L|223:63,1,150,2|4,1:2|2:3,0:0:0:0:
288,123,254638,2,0,L|343:109,1,37.5,4|4,2:3|2:3,0:0:0:0:
363,105,254807,1,4,2:3:0:0:
418,35,254975,5,6,3:2:0:0:
423,38,255481,5,0,3:3:0:0:
383,121,255650,2,0,L|227:162,1,150,8|0,2:2|3:3,0:0:0:0:
168,216,256155,2,0,P|154:288|240:331,1,150,0|0,1:1|3:3,0:0:0:0:
288,340,256661,1,0,3:3:0:0:
62,264,256998,6,0,L|74:181,1,75,8|0,2:2|3:3,0:0:0:0:
72,93,257335,6,0,L|54:48,1,37.5,2|0,2:2|2:2,0:0:0:0:
175,29,257503,2,0,P|193:93|118:138,1,150,2|0,1:2|1:1,0:0:0:0:
72,189,258009,5,2,2:2:0:0:
118,345,258178,2,0,P|162:301|255:292,1,150,2|8,3:2|2:3,0:0:0:0:
335,301,258683,6,0,P|350:319|359:347,1,37.5,2|8,3:2|2:3,0:0:0:0:
297,222,258852,2,0,B|346:162|272:133|342:55,1,150,2|4,1:2|3:3,0:0:0:0:
408,46,259357,5,2,3:2:0:0:
240,79,259526,2,0,P|269:11|359:10,1,150,2|0,1:2|0:0,0:0:0:0:
408,46,260032,5,2,2:2:0:0:
479,97,260200,1,0,0:0:0:0:
414,243,260369,1,6,3:2:0:0:
256,192,260706,12,2,263402,2:2:0:0:
59,75,263739,5,14,2:2:0:0:
125,232,264077,1,0,2:2:0:0:
276,35,264414,1,0,2:2:0:0:
327,196,264751,1,2,2:3:0:0:
482,118,265088,6,0,L|316:106,1,150,2|2,2:3|2:3,0:0:0:0:
243,357,265762,2,0,L|398:318,1,150,2|2,2:3|2:2,0:0:0:0:
176,218,266436,6,0,P|124:264|108:317,1,112.5,2|2,2:3|2:2,0:0:0:0:
121,314,266773,1,8,2:2:0:0:
54,118,267110,5,2,2:3:0:0:
90,108,267194,1,0,0:0:0:0:
127,105,267278,1,0,0:0:0:0:
164,109,267362,1,8,2:2:0:0:
200,119,267447,1,8,2:2:0:0:
291,176,267616,1,8,2:2:0:0:
382,125,267784,1,8,2:3:0:0:
385,25,267953,1,8,2:2:0:0:
484,0,268121,1,8,2:2:0:0:
310,292,268459,5,6,3:2:0:0:
256,192,268796,12,0,270818,1:1:0:0:
170,294,271155,6,0,P|154:245|126:210,1,75,4|0,3:2|1:1,0:0:0:0:
117,218,271408,1,8,2:2:0:0:
92,221,271492,1,8,2:2:0:0:
141,362,271661,6,0,P|157:313|185:278,1,75,4|0,2:3|1:1,0:0:0:0:
194,286,271914,1,8,2:2:0:0:
219,289,271998,1,8,2:2:0:0:
352,306,272166,6,0,P|401:322|436:350,1,75,4|0,2:3|2:2,0:0:0:0:
428,359,272419,1,0,1:1:0:0:
425,384,272503,1,8,2:2:0:0:
283,334,272672,6,0,P|332:318|367:290,1,75,8|8,2:3|2:3,0:0:0:0:
359,281,272925,1,8,2:3:0:0:
356,256,273009,1,8,2:3:0:0:
209,215,273178,5,8,2:2:0:0:
183,188,273262,1,4,2:3:0:0:
179,151,273346,1,8,2:2:0:0:
199,120,273430,1,0,2:2:0:0:
233,108,273515,1,4,2:3:0:0:
267,95,273600,1,4,2:3:0:0:
287,64,273684,1,4,2:3:0:0:
283,27,273768,1,4,2:3:0:0:
257,1,273852,1,6,3:2:0:0:
256,192,274189,12,8,276211,2:2:0:0:
58,369,276549,5,4,2:3:0:0:
48,332,276633,1,4,2:3:0:0:
38,296,276717,1,10,2:2:0:0:
29,260,276801,1,0,0:0:0:0:
20,224,276885,2,0,P|59:191|91:182,1,75,8|4,2:2|2:3,0:0:0:0:
221,260,277223,2,0,P|164:249|141:231,1,75,2|8,2:3|2:2,0:0:0:0:
166,149,277560,1,0,2:2:0:0:
166,149,277644,1,0,0:0:0:0:
166,149,277728,1,6,2:3:0:0:
291,106,277897,6,0,L|276:50,3,37.5,8|8|0|0,2:2|2:2|2:2|1:1,0:0:0:0:
254,49,278234,2,0,P|299:13|338:13,1,75,10|0,2:2|1:1,0:0:0:0:
405,22,278487,1,8,2:2:0:0:
418,44,278571,2,0,L|400:140,1,75,6|8,2:3|2:2,0:0:0:0:
243,197,278908,5,8,2:2:0:0:
278,186,278992,1,0,1:1:0:0:
313,197,279076,1,8,2:2:0:0:
337,226,279160,1,8,2:2:0:0:
341,263,279245,1,4,3:2:0:0:
128,308,280593,6,0,P|116:232|84:156,1,150,2|0,1:2|1:1,0:0:0:0:
243,211,281268,2,0,P|267:105|305:40,1,150,2|0,1:2|1:1,0:0:0:0:
489,378,281942,6,0,P|419:195|394:1,1,393.750015020371,2|2,1:2|1:2,0:0:0:0:
500,107,283290,5,2,1:2:0:0:
396,82,283459,1,0,1:1:0:0:
155,121,283964,5,2,1:2:0:0:
75,47,284133,1,2,1:2:0:0:
166,262,285276,5,0,3:3:0:0:
166,262,285353,1,0,3:3:0:0:
166,262,285430,1,8,2:2:0:0:
256,192,286661,12,0,294075,0:0:0:0:
