osu file format v14

[General]
AudioFilename: audio.mp3
AudioLeadIn: 0
PreviewTime: 91745
Countdown: 0
SampleSet: Soft
StackLeniency: 0.3
Mode: 0
LetterboxInBreaks: 0
WidescreenStoryboard: 1

[Editor]
Bookmarks: 9582,25762,41942,70256,91829,118121,118796,118964,119133,119217,119301,119385,119470,119554,119638,119807,119891,120060,120144,120228,120397,120481,120650,120734,120902,120987,121155,121239,121408,121492,121661,121745,121914,121998,122166,122251,122419,122503,122672,122841,123009,123093,123178,123262,123346,123430,123515,123599,123768,123852,123936,124105,124189,124273,124357,124526,124610,124694,124863,124947,125032,125200,125284,125369,125537,125621,125706,125874,125959,126043,126127,126296,126380,126464,126548,126717,126801,126885,126970,127054,127138,127307,127391,127475,127560,127728,127812,127897,128065,128150,128234,128402,128487,128655,128739,128824,128992,129077,129245,129329,129498,129582,152503,153178,174077,195650,222532,263739,279245,283290,284638,293908
DistanceSpacing: 0.2
BeatDivisor: 2
GridSize: 4
TimelineZoom: 2.799999

[Metadata]
Title:Stellar Stellar
TitleUnicode:Stellar Stellar
Artist:Hoshimachi Suisei
ArtistUnicode:星街すいせい
Creator:ImWater
Version:Cinderella
Source:
Tags:vtuber virtual youtuber female vocals vocalist idol hololive ホロライブ jp japanese j pop jpop j-pop dnb drum n bass and taku inoue inotaku still stellar stellarstellar suichan hosimati hoshimati hosimachi sui-chan Celektus [[Pause]] SHOGUNMOON00999 Kardshark Sweets
BeatmapID:3433242
BeatmapSetID:1680549

[Difficulty]
HPDrainRate:5.5
CircleSize:4
OverallDifficulty:8.7
ApproachRate:9.6
SliderMultiplier:1.75
SliderTickRate:1

[Events]
//Background and Video events
0,0,"ninomae_inanis.jpg",0,0
//Break Periods
2,118996,127782
//Storyboard Layer 0 (Background)
//Storyboard Layer 1 (Fail)
//Storyboard Layer 2 (Pass)
//Storyboard Layer 3 (Foreground)
//Storyboard Layer 4 (Overlay)
//Storyboard Sound Samples

[TimingPoints]
6886,337.078651685393,4,2,1,10,1,0
7054,-100,4,2,1,12,0,0
7223,-100,4,2,1,14,0,0
7391,-100,4,2,1,16,0,0
7560,-100,4,2,1,18,0,0
7728,-100,4,2,1,20,0,0
7897,-100,4,2,1,22,0,0
8065,-100,4,2,1,24,0,0
8234,-100,4,2,1,26,0,0
8402,-100,4,2,1,28,0,0
8571,-100,4,2,1,30,0,0
8739,-100,4,2,1,32,0,0
8908,-100,4,2,1,34,0,0
9077,-100,4,2,1,36,0,0
9245,-100,4,2,1,38,0,0
9414,-100,4,2,1,40,0,0
9582,-55.5555555555556,4,2,1,60,0,0
10256,-55.5555555555556,4,2,1,90,0,0
10930,-166.666666666667,4,2,1,90,0,0
11268,-125,4,2,1,90,0,0
11605,-66.6666666666667,4,2,1,90,0,0
11942,-125,4,2,1,90,0,0
13290,-100,4,2,1,90,0,0
14385,-100,4,2,2,90,0,0
14470,-100,4,2,1,90,0,0
14807,-100,4,2,2,90,0,0
14891,-100,4,2,1,90,0,0
14975,-66.6666666666667,4,2,1,90,0,0
15312,-100,4,2,1,90,0,0
15650,-55.5555555555556,4,2,1,90,0,0
16071,-55.5555555555556,4,2,1,40,0,0
16155,-100,4,2,1,40,0,0
16324,-125,4,2,1,90,0,0
16408,-125,4,2,1,45,0,0
16661,-125,4,2,1,90,0,0
16745,-125,4,2,1,50,0,0
16998,-125,4,2,1,90,0,0
17082,-125,4,2,1,55,0,0
17335,-125,4,2,1,90,0,0
17419,-125,4,2,1,60,0,0
17672,-100,4,2,1,90,0,0
18852,-100,4,2,1,65,0,0
18936,-100,4,2,1,70,0,0
19020,-100,4,2,1,90,0,0
20032,-100,4,2,2,90,0,0
20116,-100,4,2,3,90,0,0
20369,-166.666666666667,4,2,1,90,0,0
20706,-166.666666666667,4,2,1,50,0,0
20790,-166.666666666667,4,2,1,12,0,0
20874,-166.666666666667,4,2,1,14,0,0
21043,-166.666666666667,4,2,1,50,0,0
21127,-166.666666666667,4,2,1,16,0,0
21211,-166.666666666667,4,2,1,18,0,0
21380,-166.666666666667,4,2,1,50,0,0
21464,-166.666666666667,4,2,1,20,0,0
21548,-166.666666666667,4,2,1,22,0,0
21717,-125,4,2,1,50,0,0
21801,-125,4,2,1,24,0,0
21885,-125,4,2,1,26,0,0
22054,-100,4,2,1,50,0,0
22138,-100,4,2,1,28,0,0
22223,-100,4,2,1,30,0,0
22391,-100,4,2,1,32,0,0
22560,-100,4,2,1,34,0,0
22728,-125,4,2,1,50,0,0
22812,-125,4,2,1,36,0,0
22897,-125,4,2,1,38,0,0
23065,-100,4,2,1,50,0,0
23150,-100,4,2,1,40,0,0
23234,-100,4,2,1,42,0,0
23402,-100,4,2,1,44,0,0
23571,-100,4,2,1,46,0,0
23739,-100,4,2,1,50,0,0
23824,-100,4,2,1,48,0,0
23908,-100,4,2,1,50,0,0
24077,-100,4,2,1,52,0,0
24245,-100,4,2,1,54,0,0
24414,-100,4,2,1,56,0,0
24582,-100,4,2,1,58,0,0
24751,-100,4,2,1,60,0,0
24919,-100,4,2,1,62,0,0
25088,-100,4,2,1,64,0,0
25256,-100,4,2,1,66,0,0
25425,-100,4,2,1,68,0,0
25593,-100,4,2,1,70,0,0
25762,-133.333333333333,4,2,3,70,0,0
25930,-133.333333333333,4,2,3,30,0,0
27110,-100,4,2,3,30,0,0
28290,-83.3333333333333,4,2,3,30,0,0
30144,-100,4,2,3,30,0,0
32166,-83.3333333333333,4,2,3,30,0,0
33683,-100,4,2,3,30,0,0
36211,-100,4,2,3,30,0,0
36548,-83.3333333333333,4,2,3,30,0,0
37054,-83.3333333333333,4,2,1,30,0,0
37223,-66.6666666666667,4,2,3,30,0,0
37812,-66.6666666666667,4,2,1,30,0,0
37897,-66.6666666666667,4,2,3,30,0,0
38150,-66.6666666666667,4,2,1,30,0,0
38234,-66.6666666666667,4,2,3,30,0,0
38402,-66.6666666666667,4,2,1,30,0,0
38739,-66.6666666666667,4,2,3,30,0,0
38824,-66.6666666666667,4,2,1,30,0,0
38908,-66.6666666666667,4,2,3,30,0,0
39077,-66.6666666666667,4,2,3,45,0,0
39161,-66.6666666666667,4,2,1,45,0,0
39245,-66.6666666666667,4,2,3,45,0,0
39329,-66.6666666666667,4,2,3,30,0,0
39414,-83.3333333333333,4,2,3,30,0,0
39582,-66.6666666666667,4,2,3,30,0,0
39666,-66.6666666666667,4,2,2,30,0,0
39751,-66.6666666666667,4,2,3,32,0,0
39835,-66.6666666666667,4,2,2,32,0,0
39919,-100,4,2,3,34,0,0
40003,-100,4,2,2,34,0,0
40088,-100,4,2,3,36,0,0
40172,-100,4,2,2,36,0,0
40256,-100,4,2,1,38,0,0
40341,-100,4,2,2,38,0,0
40425,-100,4,2,1,40,0,0
40593,-100,4,2,1,42,0,0
40678,-100,4,2,2,42,0,0
40762,-100,4,2,2,44,0,0
40930,-100,4,2,1,46,0,0
41015,-100,4,2,2,46,0,0
41099,-100,4,2,1,48,0,0
41183,-100,4,2,2,48,0,0
41268,-76.9230769230769,4,2,1,50,0,0
41352,-76.9230769230769,4,2,2,50,0,0
41436,-76.9230769230769,4,2,2,52,0,0
41605,-76.9230769230769,4,2,1,54,0,0
41689,-76.9230769230769,4,2,2,54,0,0
41773,-76.9230769230769,4,2,1,56,0,0
41942,-156.25,4,2,1,60,0,0
45987,-100,4,2,3,40,0,0
46155,-100,4,2,3,17,0,0
46492,-100,4,2,3,40,0,0
46661,-100,4,2,3,17,0,0
46998,-66.6666666666667,4,2,3,40,0,0
47335,-83.3333333333333,4,2,1,50,0,0
47672,-83.3333333333333,4,2,4,50,0,0
48178,-83.3333333333333,4,2,1,50,0,0
48346,-83.3333333333333,4,2,4,50,0,0
48852,-83.3333333333333,4,2,1,50,0,0
49020,-83.3333333333333,4,2,4,50,0,0
49357,-83.3333333333333,4,2,1,50,0,0
49694,-83.3333333333333,4,2,4,50,0,0
49863,-83.3333333333333,4,2,2,50,0,0
50032,-66.6666666666667,4,2,2,50,0,0
50284,-66.6666666666667,4,2,4,50,0,0
50369,-83.3333333333333,4,2,4,50,0,0
50874,-83.3333333333333,4,2,1,50,0,0
51043,-83.3333333333333,4,2,4,50,0,0
51548,-83.3333333333333,4,2,1,50,0,0
51717,-83.3333333333333,4,2,4,50,0,0
52223,-83.3333333333333,4,2,1,50,0,0
52391,-83.3333333333333,4,2,4,50,0,0
52560,-83.3333333333333,4,2,1,50,0,0
53065,-83.3333333333333,4,2,4,50,0,0
53234,-83.3333333333333,4,2,1,50,0,0
53739,-83.3333333333333,4,2,4,50,0,0
54245,-83.3333333333333,4,2,1,50,0,0
54414,-83.3333333333333,4,2,4,50,0,0
54751,-83.3333333333333,4,2,1,50,0,0
55088,-83.3333333333333,4,2,4,50,0,0
55256,-83.3333333333333,4,2,1,50,0,0
55425,-55.5555555555556,4,2,1,50,0,0
55593,-55.5555555555556,4,2,2,50,0,0
55678,-55.5555555555556,4,2,1,50,0,0
55762,-66.6666666666667,4,2,4,50,0,0
55930,-66.6666666666667,4,2,1,50,0,0
56099,-83.3333333333333,4,2,1,50,0,0
56436,-83.3333333333333,4,2,4,50,0,0
56773,-66.6666666666667,4,2,4,50,0,0
56942,-66.6666666666667,4,2,1,50,0,0
57110,-66.6666666666667,4,2,4,50,0,0
57447,-66.6666666666667,4,2,1,50,0,0
58121,-83.3333333333333,4,2,1,60,0,0
58459,-83.3333333333333,4,2,4,60,0,0
58627,-83.3333333333333,4,2,1,60,0,0
59301,-83.3333333333333,4,2,2,60,0,0
59470,-83.3333333333333,4,2,1,60,0,0
59807,-83.3333333333333,4,2,4,60,0,0
60312,-83.3333333333333,4,2,1,60,0,0
60481,-66.6666666666667,4,2,4,60,0,0
60650,-66.6666666666667,4,2,2,60,0,0
60734,-66.6666666666667,4,2,1,60,0,0
60818,-83.3333333333333,4,2,1,60,0,0
61155,-83.3333333333333,4,2,4,60,0,0
61661,-83.3333333333333,4,2,1,60,0,0
61829,-83.3333333333333,4,2,4,60,0,0
61998,-83.3333333333333,4,2,1,60,0,0
63515,-66.6666666666667,4,2,1,60,0,0
63768,-66.6666666666667,4,2,1,60,0,0
63852,-66.6666666666667,4,2,4,60,0,0
64020,-66.6666666666667,4,2,1,60,0,0
64189,-83.3333333333333,4,2,1,60,0,0
64526,-66.6666666666667,4,2,4,60,0,0
64694,-66.6666666666667,4,2,2,60,0,0
64779,-66.6666666666667,4,2,1,60,0,0
64863,-83.3333333333333,4,2,1,60,0,0
65200,-83.3333333333333,4,2,4,60,0,0
65284,-83.3333333333333,4,2,1,60,0,0
65369,-83.3333333333333,4,2,1,30,0,0
65453,-83.3333333333333,4,2,1,60,0,0
65537,-83.3333333333333,4,2,1,50,0,0
65621,-83.3333333333333,4,2,1,40,0,0
65706,-83.3333333333333,4,2,1,30,0,0
65959,-83.3333333333333,4,2,1,40,0,0
66127,-83.3333333333333,4,2,1,50,0,0
66211,-100,4,2,1,60,0,0
66717,-100,4,2,3,35,0,0
67223,-100,4,2,3,60,0,0
67307,-100,4,2,3,35,0,0
67728,-100,4,2,3,60,0,0
67812,-100,4,2,3,35,0,0
68234,-100,4,2,3,60,0,0
68318,-100,4,2,3,35,0,0
68571,-100,4,2,3,40,0,0
68908,-166.666666666667,4,2,3,20,0,0
69020,-166.666666666667,4,2,2,20,0,0
69077,-166.666666666667,4,2,1,25,0,0
69133,-100,4,2,1,25,0,0
69245,-100,4,2,2,30,0,0
69301,-100,4,2,1,30,0,0
69470,-100,4,2,1,35,0,0
69582,-100,4,2,1,40,0,0
69694,-100,4,2,2,40,0,0
69751,-100,4,2,1,45,0,0
69807,-100,4,2,2,45,0,0
69835,-83.3333333333333,4,2,1,45,0,0
69919,-83.3333333333333,4,2,2,50,0,0
70003,-83.3333333333333,4,2,1,50,0,0
70032,-83.3333333333333,4,2,2,50,0,0
70088,-66.6666666666667,4,2,1,55,0,0
70256,-500,4,2,1,60,0,0
70678,-500,4,2,1,40,0,0
70762,-500,4,2,1,50,0,0
70846,-500,4,2,1,60,0,0
70930,-50,4,2,1,100,0,0
73206,-40,4,2,1,100,0,0
73290,-40,4,2,2,100,0,0
73374,-40,4,2,1,100,0,0
73459,-66.6666666666667,4,2,1,100,0,0
73627,-66.6666666666667,4,2,2,100,0,0
73711,-66.6666666666667,4,2,1,100,0,0
74301,-125,4,2,1,35,0,0
74385,-125,4,2,1,40,0,0
74470,-125,4,2,1,45,0,0
74554,-125,4,2,1,50,0,0
74638,-125,4,2,1,55,0,0
74723,-125,4,2,1,60,0,0
74807,-125,4,2,1,65,0,0
74891,-125,4,2,1,70,0,0
74975,-200,4,2,3,100,0,0
75312,-200,4,2,1,100,0,0
75481,-40,4,2,1,100,0,0
75902,-40,4,2,1,60,0,0
75987,-50,4,2,1,70,0,0
76155,-50,4,2,1,100,0,0
77672,-50,4,2,1,45,0,0
77756,-50,4,2,1,50,0,0
77841,-50,4,2,1,55,0,0
77925,-50,4,2,1,60,0,0
78009,-50,4,2,1,65,0,0
78093,-50,4,2,1,70,0,0
78178,-50,4,2,3,75,0,0
78262,-50,4,2,3,80,0,0
78346,-50,4,2,1,100,0,0
78683,-50,4,2,3,100,0,0
78852,-50,4,2,1,100,0,0
79273,-50,4,2,3,60,0,0
79357,-50,4,2,3,100,0,0
79694,-33.3333333333333,4,2,1,100,0,0
80032,-50,4,2,3,100,0,0
80116,-50,4,2,1,100,0,0
80200,-33.3333333333333,4,2,1,100,0,0
80369,-33.3333333333333,4,2,1,45,0,0
80453,-33.3333333333333,4,2,1,50,0,0
80537,-50,4,2,1,55,0,0
80621,-50,4,2,1,60,0,0
80706,-50,4,2,1,65,0,0
80790,-50,4,2,1,70,0,0
80874,-50,4,2,1,75,0,0
80959,-50,4,2,1,80,0,0
81043,-40,4,2,1,100,0,0
81211,-40,4,2,1,50,0,0
81296,-40,4,2,1,60,0,0
81380,-40,4,2,1,100,0,0
81464,-40,4,2,2,50,0,0
81548,-40,4,2,1,100,0,0
81717,-40,4,2,3,100,0,0
81885,-40,4,2,3,50,0,0
81970,-40,4,2,3,100,0,0
82054,-40,4,2,1,50,0,0
82138,-40,4,2,3,100,0,0
82223,-40,4,2,3,50,0,0
82391,-40,4,2,1,100,0,0
82812,-40,4,2,1,70,0,0
82897,-40,4,2,1,60,0,0
82981,-40,4,2,1,50,0,0
83065,-40,4,2,1,100,0,0
83234,-40,4,2,1,50,0,0
83318,-40,4,2,1,100,0,0
83402,-40,4,2,1,50,0,0
83487,-40,4,2,1,100,0,0
83571,-40,4,2,1,50,0,0
83739,-40,4,2,1,100,0,0
84077,-40,4,2,5,100,0,0
84245,-40,4,2,1,100,0,0
84414,-40,4,2,5,100,0,0
84582,-40,4,2,1,100,0,0
84751,-40,4,2,5,100,0,0
84919,-40,4,2,1,100,0,0
85003,-40,4,2,1,15,0,0
85088,-40,4,2,1,20,0,0
85172,-40,4,2,1,25,0,0
85256,-40,4,2,1,30,0,0
85341,-40,4,2,1,35,0,0
85425,-40,4,2,1,40,0,0
85509,-40,4,2,1,45,0,0
85593,-40,4,2,1,50,0,0
85678,-40,4,2,1,55,0,0
85762,-40,4,2,1,60,0,0
85846,-40,4,2,1,65,0,0
85930,-40,4,2,1,70,0,0
86015,-40,4,2,1,75,0,0
86099,-40,4,2,1,80,0,0
86183,-40,4,2,1,85,0,0
86268,-133.333333333333,4,2,1,90,0,0
86352,-133.333333333333,4,2,1,95,0,0
86436,-232.558139534884,4,2,6,100,0,0
89133,-232.558139534884,4,2,2,30,0,0
89470,-232.558139534884,4,2,6,50,0,0
89638,-232.558139534884,4,2,6,25,0,0
89807,-232.558139534884,4,2,6,50,0,0
89891,-232.558139534884,4,2,6,17,0,0
89975,-232.558139534884,4,2,6,50,0,0
90060,-232.558139534884,4,2,6,30,0,0
90228,-232.558139534884,4,2,6,17,0,0
90481,-232.558139534884,4,2,6,40,0,0
90650,-232.558139534884,4,2,6,20,0,0
90818,-232.558139534884,4,2,6,50,0,0
91155,-232.558139534884,4,2,1,70,0,0
91324,-232.558139534884,4,2,2,70,0,0
91829,-33.3333333333333,4,2,4,100,0,0
92166,-50,4,2,1,100,0,0
92672,-50,4,2,4,100,0,0
92841,-40,4,2,1,100,0,0
93009,-40,4,2,2,100,0,0
93093,-40,4,2,4,100,0,0
93178,-66.6666666666667,4,2,4,100,0,0
93515,-40,4,2,1,100,0,0
94020,-50,4,2,4,100,0,0
94189,-40,4,2,1,100,0,0
94357,-40,4,2,2,100,0,0
94442,-40,4,2,4,100,0,0
94526,-50,4,2,4,100,0,0
94863,-50,4,2,1,100,0,0
95200,-66.6666666666667,4,2,1,100,0,0
95369,-66.6666666666667,4,2,4,100,0,0
95537,-50,4,2,1,100,0,0
95706,-50,4,2,2,100,0,0
95790,-50,4,2,4,100,0,0
95874,-40,4,2,4,100,0,0
96043,-40,4,2,2,100,0,0
96127,-40,4,2,1,100,0,0
96211,-66.6666666666667,4,2,1,100,0,0
97138,-66.6666666666667,4,2,3,100,0,0
97223,-66.6666666666667,4,2,4,100,0,0
97560,-50,4,2,1,100,0,0
98065,-50,4,2,4,100,0,0
98234,-50,4,2,1,100,0,0
98571,-40,4,2,4,100,0,0
98908,-66.6666666666667,4,2,1,100,0,0
99414,-66.6666666666667,4,2,4,100,0,0
99582,-66.6666666666667,4,2,1,100,0,0
99919,-50,4,2,4,100,0,0
100256,-66.6666666666667,4,2,1,100,0,0
100762,-66.6666666666667,4,2,7,100,0,0
100930,-50,4,2,7,100,0,0
101268,-40,4,2,7,100,0,0
101436,-66.6666666666667,4,2,7,100,0,0
101689,-66.6666666666667,4,2,1,100,0,0
102110,-66.6666666666667,4,2,7,100,0,0
102616,-33.3333333333333,4,2,4,100,0,0
102953,-50,4,2,1,100,0,0
103459,-50,4,2,4,100,0,0
103627,-40,4,2,1,100,0,0
103796,-40,4,2,2,100,0,0
103880,-40,4,2,4,100,0,0
103964,-66.6666666666667,4,2,4,100,0,0
104301,-66.6666666666667,4,2,1,100,0,0
104807,-50,4,2,4,100,0,0
104975,-40,4,2,1,100,0,0
105144,-40,4,2,2,100,0,0
105228,-40,4,2,4,100,0,0
105312,-66.6666666666667,4,2,4,100,0,0
105650,-50,4,2,1,100,0,0
106155,-50,4,2,4,100,0,0
106324,-50,4,2,1,100,0,0
106492,-50,4,2,2,100,0,0
106577,-50,4,2,4,100,0,0
106829,-50,4,2,1,100,0,0
107166,-50,4,2,6,100,0,0
107447,-50,4,2,2,100,0,0
107672,-50,4,2,6,100,0,0
107897,-50,4,2,2,100,0,0
108009,-66.6666666666667,4,2,4,100,0,0
108683,-40,4,2,7,100,0,0
109526,-83.3333333333333,4,2,7,100,0,0
110032,-40,4,2,7,100,0,0
110369,-40,4,2,1,100,0,0
110537,-66.6666666666667,4,2,1,100,0,0
110706,-66.6666666666667,4,2,7,100,0,0
111043,-66.6666666666667,4,2,1,100,0,0
111211,-66.6666666666667,4,2,4,100,0,0
111380,-66.6666666666667,4,2,1,100,0,0
111717,-66.6666666666667,4,2,4,100,0,0
111885,-66.6666666666667,4,2,1,100,0,0
112223,-66.6666666666667,4,2,7,100,0,0
112728,-40,4,2,7,100,0,0
112897,-40,4,2,3,100,0,0
112981,-66.6666666666667,4,2,3,100,0,0
113402,-66.6666666666667,4,2,4,100,0,0
114077,-40,4,2,7,100,0,0
115930,-40,4,2,1,100,0,0
116099,-66.6666666666667,4,2,4,100,0,0
116268,-66.6666666666667,4,2,1,100,0,0
116605,-66.6666666666667,4,2,4,100,0,0
116773,-66.6666666666667,4,2,1,100,0,0
117110,-66.6666666666667,4,2,4,100,0,0
117279,-66.6666666666667,4,2,1,100,0,0
117447,-66.6666666666667,4,2,5,100,0,0
117700,-66.6666666666667,4,2,2,100,0,0
117784,-66.6666666666667,4,2,4,100,0,0
117953,-66.6666666666667,4,2,1,100,0,0
118121,-66.6666666666667,4,2,1,100,0,0
118206,-50,4,2,1,100,0,0
118459,-50,4,2,2,100,0,0
118796,-50,4,2,4,100,0,0
119133,-50,4,2,2,25,0,0
126885,-50,4,2,1,20,0,0
127054,-50,4,2,1,22,0,0
127223,-50,4,2,1,24,0,0
127391,-50,4,2,6,26,0,0
127560,-50,4,2,1,28,0,0
127728,-50,4,2,6,30,0,0
127897,-50,4,2,6,32,0,0
128065,-50,4,2,1,34,0,0
128234,-50,4,2,6,36,0,0
128402,-50,4,2,6,38,0,0
128571,-50,4,2,6,40,0,0
128739,-50,4,2,6,42,0,0
128908,-50,4,2,6,44,0,0
129077,-50,4,2,6,46,0,0
129245,-50,4,2,6,48,0,0
129414,-50,4,2,6,50,0,0
129582,-133.333333333333,4,2,3,30,0,0
131099,-133.333333333333,4,2,2,30,0,0
131268,-133.333333333333,4,2,1,30,0,0
131436,-133.333333333333,4,2,2,30,0,0
131605,-133.333333333333,4,2,1,30,0,0
132110,-133.333333333333,4,2,2,30,0,0
132194,-133.333333333333,4,2,1,30,0,0
132279,-100,4,2,1,30,0,0
134133,-100,4,2,2,30,0,0
134217,-100,4,2,1,30,0,0
134301,-100,4,2,1,30,0,0
135818,-100,4,2,2,30,0,0
135987,-100,4,2,1,30,0,0
136829,-100,4,2,2,30,0,0
136998,-100,4,2,1,30,0,0
137841,-100,4,2,2,30,0,0
138178,-100,4,2,1,30,0,0
139694,-100,4,2,7,30,0,0
139863,-100,4,2,1,30,0,0
143234,-100,4,2,2,30,0,0
143571,-100,4,2,1,30,0,0
145593,-100,4,2,2,30,0,0
145678,-100,4,2,1,30,0,0
147784,-100,4,2,2,30,0,0
147953,-100,4,2,1,30,0,0
151380,-100,4,2,1,35,0,0
151605,-100,4,2,1,40,0,0
151829,-100,4,2,1,45,0,0
152054,-100,4,2,1,50,0,0
152279,-100,4,2,1,55,0,0
152503,-66.6666666666667,4,2,1,60,0,0
152756,-66.6666666666667,4,2,1,65,0,0
153009,-66.6666666666667,4,2,3,70,0,0
153178,-50,4,2,1,100,0,0
155200,-66.6666666666667,4,2,1,100,0,0
155453,-66.6666666666667,4,2,1,100,0,0
155874,-66.6666666666667,4,2,2,100,0,0
155959,-66.6666666666667,4,2,1,70,0,0
156043,-66.6666666666667,4,2,1,80,0,0
156127,-66.6666666666667,4,2,1,90,0,0
156211,-50,4,2,1,100,0,0
156296,-50,4,2,2,100,0,0
156464,-50,4,2,1,100,0,0
156548,-125,4,2,1,100,0,0
157223,-200,4,2,3,100,0,0
157391,-200,4,2,2,100,0,0
157560,-200,4,2,1,100,0,0
157728,-40,4,2,1,80,0,0
157812,-40,4,2,1,90,0,0
157897,-40,4,2,1,100,0,0
158065,-40,4,2,2,100,0,0
158150,-40,4,2,1,100,0,0
158234,-50,4,2,1,100,0,0
159245,-50,4,2,1,100,0,0
159919,-50,4,2,1,60,0,0
160003,-50,4,2,1,70,0,0
160088,-50,4,2,1,80,0,0
160172,-50,4,2,1,90,0,0
160256,-50,4,2,1,100,0,0
160425,-50,4,2,1,70,0,0
160593,-33.3333333333333,4,2,3,100,0,0
160762,-33.3333333333333,4,2,1,70,0,0
160846,-33.3333333333333,4,2,1,80,0,0
160930,-50,4,2,1,100,0,0
161099,-33.3333333333333,4,2,1,100,0,0
161183,-33.3333333333333,4,2,6,100,0,0
161268,-33.3333333333333,4,2,1,100,0,0
161436,-50,4,2,1,100,0,0
161717,-50,4,2,2,70,0,0
161773,-50,4,2,1,70,0,0
161829,-50,4,2,2,70,0,0
161857,-50,4,2,1,70,0,0
161885,-50,4,2,2,100,0,0
161942,-66.6666666666667,4,2,1,100,0,0
162447,-50,4,2,1,100,0,0
162953,-50,4,2,3,100,0,0
163290,-50,4,2,3,100,0,0
163627,-50,4,2,1,100,0,0
164133,-50,4,2,1,50,0,0
164217,-50,4,2,1,60,0,0
164301,-50,4,2,1,70,0,0
164385,-50,4,2,1,80,0,0
164470,-50,4,2,1,100,0,0
164638,-50,4,2,3,100,0,0
164723,-50,4,2,1,100,0,0
165144,-40,4,2,1,100,0,0
165481,-50,4,2,1,100,0,0
165650,-50,4,2,3,100,0,0
165987,-285.714285714286,4,2,1,60,0,0
166492,-285.714285714286,4,2,2,60,0,0
166998,-285.714285714286,4,2,1,60,0,0
167335,-83.3333333333333,4,2,1,60,0,0
167841,-125,4,2,1,60,0,0
168346,-83.3333333333333,4,2,1,60,0,0
168683,-232.558139534884,4,2,1,60,0,0
173402,-232.558139534884,4,2,1,30,0,0
173571,-232.558139534884,4,2,2,30,0,0
174077,-250,4,2,4,100,0,0
174751,-66.6666666666667,4,2,1,100,0,0
175088,-66.6666666666667,4,2,4,100,0,0
175256,-50,4,2,1,100,0,0
175762,-50,4,2,4,100,0,0
176099,-166.666666666667,4,2,1,100,0,0
176773,-50,4,2,4,100,0,0
177110,-100,4,2,4,100,0,0
177447,-250,4,2,1,100,0,0
177784,-250,4,2,4,100,0,0
177953,-100,4,2,1,100,0,0
178459,-50,4,2,4,100,0,0
178627,-50,4,2,1,100,0,0
178796,-100,4,2,1,100,0,0
179470,-50,4,2,4,100,0,0
180144,-125,4,2,1,100,0,0
180481,-66.6666666666667,4,2,4,100,0,0
180650,-66.6666666666667,4,2,1,100,0,0
180987,-50,4,2,1,100,0,0
181155,-50,4,2,4,100,0,0
181324,-50,4,2,1,100,0,0
181492,-166.666666666667,4,2,1,100,0,0
181998,-100,4,2,1,100,0,0
182166,-50,4,2,4,100,0,0
182841,-50,4,2,1,100,0,0
183178,-50,4,2,4,100,0,0
183346,-66.6666666666667,4,2,1,100,0,0
183683,-40,4,2,1,100,0,0
183852,-40,4,2,7,100,0,0
184526,-40,4,2,3,100,0,0
184694,-40,4,2,1,100,0,0
184779,-40,4,2,3,100,0,0
184863,-250,4,2,4,100,0,0
185537,-66.6666666666667,4,2,1,100,0,0
185874,-66.6666666666667,4,2,4,100,0,0
186043,-125,4,2,1,100,0,0
186380,-125,4,2,1,100,0,0
186548,-125,4,2,4,100,0,0
186885,-40,4,2,1,100,0,0
187560,-40,4,2,4,100,0,0
188234,-100,4,2,1,100,0,0
188402,-100,4,2,4,100,0,0
188571,-40,4,2,4,100,0,0
188739,-40,4,2,1,100,0,0
188908,-250,4,2,4,100,0,0
189077,-250,4,2,1,100,0,0
190256,-50,4,2,4,100,0,0
190930,-166.666666666667,4,2,7,100,0,0
191436,-166.666666666667,4,2,1,100,0,0
191773,-166.666666666667,4,2,7,100,0,0
192616,-166.666666666667,4,2,1,100,0,0
192953,-50,4,2,4,100,0,0
193121,-50,4,2,1,100,0,0
193459,-50,4,2,4,100,0,0
193627,-50,4,2,1,100,0,0
193964,-50,4,2,4,100,0,0
194133,-50,4,2,1,100,0,0
194470,-50,4,2,4,100,0,0
194807,-50,4,2,1,100,0,0
194975,-250,4,2,1,100,0,0
195144,-250,4,2,2,70,0,0
195565,-250,4,2,4,70,0,0
195650,-250,4,2,4,100,0,0
196324,-250,4,2,1,100,0,0
196661,-250,4,2,4,100,0,0
196829,-250,4,2,1,100,0,0
196998,-66.6666666666667,4,2,1,100,0,0
197166,-66.6666666666667,4,2,4,100,0,0
197503,-50,4,2,4,100,0,0
197672,-50,4,2,1,100,0,0
197841,-66.6666666666667,4,2,4,100,0,0
198178,-66.6666666666667,4,2,1,100,0,0
198346,-55.5555555555556,4,2,4,100,0,0
198852,-50,4,2,4,100,0,0
199020,-50,4,2,1,100,0,0
199189,-50,4,2,2,100,0,0
199273,-50,4,2,4,100,0,0
199357,-66.6666666666667,4,2,4,100,0,0
199470,-66.6666666666667,4,2,2,100,0,0
199526,-66.6666666666667,4,2,1,100,0,0
199582,-66.6666666666667,4,2,2,100,0,0
199610,-66.6666666666667,4,2,1,100,0,0
199751,-66.6666666666667,4,2,2,100,0,0
199779,-66.6666666666667,4,2,1,100,0,0
199807,-66.6666666666667,4,2,2,100,0,0
199863,-66.6666666666667,4,2,4,100,0,0
199919,-66.6666666666667,4,2,2,100,0,0
199947,-66.6666666666667,4,2,1,100,0,0
199975,-66.6666666666667,4,2,2,100,0,0
200032,-66.6666666666667,4,2,4,100,0,0
200088,-66.6666666666667,4,2,2,100,0,0
200116,-66.6666666666667,4,2,1,100,0,0
200144,-66.6666666666667,4,2,2,100,0,0
200200,-66.6666666666667,4,2,1,100,0,0
200256,-66.6666666666667,4,2,2,100,0,0
200284,-66.6666666666667,4,2,1,100,0,0
200312,-66.6666666666667,4,2,2,100,0,0
200369,-50,4,2,1,100,0,0
200537,-66.6666666666667,4,2,4,100,0,0
200874,-83.3333333333333,4,2,1,100,0,0
201043,-50,4,2,4,100,0,0
201717,-66.6666666666667,4,2,1,100,0,0
202054,-50,4,2,4,100,0,0
202223,-50,4,2,2,100,0,0
202391,-50,4,2,4,100,0,0
202728,-66.6666666666667,4,2,4,100,0,0
203065,-66.6666666666667,4,2,1,100,0,0
203234,-66.6666666666667,4,2,4,100,0,0
203402,-66.6666666666667,4,2,2,100,0,0
203487,-66.6666666666667,4,2,1,100,0,0
203739,-50,4,2,4,100,0,0
203908,-50,4,2,1,100,0,0
204245,-50,4,2,7,100,0,0
204751,-50,4,2,4,100,0,0
204919,-50,4,2,1,100,0,0
205172,-50,4,2,6,100,0,0
205256,-50,4,2,4,100,0,0
205593,-50,4,2,3,100,0,0
205762,-333.333333333333,4,2,1,100,0,0
206099,-333.333333333333,4,2,2,100,0,0
206352,-333.333333333333,4,2,4,100,0,0
206436,-50,4,2,4,100,0,0
206773,-50,4,2,4,100,0,0
207054,-50,4,2,2,100,0,0
207110,-50,4,2,1,100,0,0
207279,-50,4,2,2,100,0,0
207335,-50,4,2,4,100,0,0
207532,-50,4,2,2,100,0,0
207560,-50,4,2,1,100,0,0
207616,-50,4,2,2,100,0,0
207672,-50,4,2,1,100,0,0
207700,-50,4,2,2,100,0,0
207784,-55.5555555555556,4,2,4,100,0,0
208178,-55.5555555555556,4,2,2,100,0,0
208206,-55.5555555555556,4,2,1,100,0,0
208234,-55.5555555555556,4,2,2,100,0,0
208290,-55.5555555555556,4,2,1,100,0,0
208346,-55.5555555555556,4,2,2,100,0,0
208374,-55.5555555555556,4,2,1,100,0,0
208402,-55.5555555555556,4,2,2,100,0,0
208459,-55.5555555555556,4,2,1,100,0,0
208515,-55.5555555555556,4,2,2,100,0,0
208543,-55.5555555555556,4,2,1,100,0,0
208571,-55.5555555555556,4,2,2,100,0,0
208627,-55.5555555555556,4,2,4,100,0,0
208683,-55.5555555555556,4,2,2,100,0,0
208711,-55.5555555555556,4,2,1,100,0,0
208739,-55.5555555555556,4,2,2,100,0,0
208796,-55.5555555555556,4,2,1,100,0,0
208852,-55.5555555555556,4,2,2,100,0,0
208880,-55.5555555555556,4,2,1,100,0,0
208908,-55.5555555555556,4,2,2,100,0,0
208964,-55.5555555555556,4,2,1,100,0,0
209020,-55.5555555555556,4,2,2,100,0,0
209048,-55.5555555555556,4,2,1,100,0,0
209077,-55.5555555555556,4,2,2,100,0,0
209133,-55.5555555555556,4,2,4,100,0,0
209189,-55.5555555555556,4,2,2,100,0,0
209217,-55.5555555555556,4,2,1,100,0,0
209245,-55.5555555555556,4,2,2,100,0,0
209301,-55.5555555555556,4,2,1,100,0,0
209357,-55.5555555555556,4,2,2,100,0,0
209385,-55.5555555555556,4,2,1,100,0,0
209414,-55.5555555555556,4,2,2,100,0,0
209470,-50,4,2,1,100,0,0
209638,-50,4,2,4,100,0,0
209807,-50,4,2,1,100,0,0
209863,-50,4,2,2,100,0,0
209891,-50,4,2,1,100,0,0
209919,-50,4,2,2,100,0,0
209975,-50,4,2,1,100,0,0
210032,-50,4,2,2,100,0,0
210060,-50,4,2,1,100,0,0
210088,-50,4,2,2,100,0,0
210144,-66.6666666666667,4,2,4,100,0,0
210481,-50,4,2,1,100,0,0
210650,-50,4,2,5,100,0,0
210818,-40,4,2,5,100,0,0
210987,-40,4,2,1,100,0,0
211155,-66.6666666666667,4,2,1,100,0,0
211324,-66.6666666666667,4,2,4,100,0,0
211408,-66.6666666666667,4,2,1,100,0,0
211829,-83.3333333333333,4,2,4,100,0,0
212279,-83.3333333333333,4,2,2,100,0,0
212335,-83.3333333333333,4,2,4,100,0,0
212391,-83.3333333333333,4,2,2,100,0,0
212419,-83.3333333333333,4,2,1,100,0,0
212841,-66.6666666666667,4,2,4,100,0,0
213009,-66.6666666666667,4,2,3,100,0,0
213234,-66.6666666666667,4,2,2,100,0,0
213262,-66.6666666666667,4,2,1,100,0,0
213290,-66.6666666666667,4,2,2,100,0,0
213346,-66.6666666666667,4,2,1,100,0,0
213402,-66.6666666666667,4,2,2,100,0,0
213430,-66.6666666666667,4,2,1,100,0,0
213459,-66.6666666666667,4,2,2,100,0,0
213515,-66.6666666666667,4,2,4,100,0,0
213571,-66.6666666666667,4,2,2,100,0,0
213599,-66.6666666666667,4,2,1,100,0,0
213627,-66.6666666666667,4,2,2,100,0,0
213683,-66.6666666666667,4,2,1,100,0,0
213739,-66.6666666666667,4,2,2,100,0,0
213768,-66.6666666666667,4,2,1,100,0,0
213796,-66.6666666666667,4,2,2,100,0,0
213852,-66.6666666666667,4,2,4,100,0,0
213908,-66.6666666666667,4,2,2,100,0,0
213936,-66.6666666666667,4,2,1,100,0,0
213964,-66.6666666666667,4,2,2,100,0,0
214020,-66.6666666666667,4,2,1,100,0,0
214077,-66.6666666666667,4,2,2,100,0,0
214105,-66.6666666666667,4,2,1,100,0,0
214133,-66.6666666666667,4,2,2,100,0,0
214189,-66.6666666666667,4,2,4,100,0,0
214245,-66.6666666666667,4,2,2,100,0,0
214273,-66.6666666666667,4,2,1,100,0,0
214301,-66.6666666666667,4,2,2,100,0,0
214357,-66.6666666666667,4,2,1,100,0,0
214414,-66.6666666666667,4,2,2,100,0,0
214442,-66.6666666666667,4,2,1,100,0,0
214526,-33.3333333333333,4,2,4,100,0,0
214694,-33.3333333333333,4,2,1,100,0,0
214863,-50,4,2,1,100,0,0
214919,-50,4,2,2,100,0,0
214947,-50,4,2,1,100,0,0
214975,-50,4,2,2,100,0,0
215032,-66.6666666666667,4,2,4,100,0,0
215088,-66.6666666666667,4,2,2,100,0,0
215116,-66.6666666666667,4,2,1,100,0,0
215144,-66.6666666666667,4,2,2,100,0,0
215200,-66.6666666666667,4,2,1,100,0,0
215256,-66.6666666666667,4,2,2,100,0,0
215284,-66.6666666666667,4,2,1,100,0,0
215312,-66.6666666666667,4,2,2,100,0,0
215369,-66.6666666666667,4,2,7,100,0,0
215425,-66.6666666666667,4,2,2,100,0,0
215453,-66.6666666666667,4,2,1,100,0,0
215481,-66.6666666666667,4,2,2,100,0,0
215537,-66.6666666666667,4,2,4,100,0,0
215593,-66.6666666666667,4,2,2,100,0,0
215621,-66.6666666666667,4,2,1,100,0,0
215650,-66.6666666666667,4,2,2,100,0,0
215706,-66.6666666666667,4,2,1,100,0,0
215762,-66.6666666666667,4,2,2,100,0,0
215790,-66.6666666666667,4,2,1,100,0,0
215818,-66.6666666666667,4,2,2,100,0,0
215874,-66.6666666666667,4,2,3,100,0,0
215987,-66.6666666666667,4,2,2,100,0,0
216043,-66.6666666666667,4,2,4,100,0,0
216099,-66.6666666666667,4,2,2,100,0,0
216127,-66.6666666666667,4,2,1,100,0,0
216155,-66.6666666666667,4,2,2,100,0,0
216211,-66.6666666666667,4,2,1,100,0,0
216268,-66.6666666666667,4,2,2,100,0,0
216296,-66.6666666666667,4,2,1,100,0,0
216324,-66.6666666666667,4,2,2,100,0,0
216380,-66.6666666666667,4,2,1,100,0,0
216773,-66.6666666666667,4,2,2,100,0,0
216801,-66.6666666666667,4,2,1,100,0,0
216829,-66.6666666666667,4,2,2,100,0,0
216885,-66.6666666666667,4,2,1,100,0,0
217223,-66.6666666666667,4,2,1,60,0,0
221605,-66.6666666666667,4,2,2,40,0,0
222532,-66.6666666666667,4,2,8,40,0,0
222616,-100,4,2,8,40,0,0
232391,-100,4,2,2,40,0,0
232728,-500,4,2,1,40,0,0
232897,-500,4,2,2,40,0,0
233402,-500,4,2,1,60,0,0
233739,-33.3333333333333,4,2,1,100,0,0
234077,-40,4,2,1,100,0,0
234245,-40,4,2,4,100,0,0
234414,-40,4,2,1,100,0,0
234582,-50,4,2,1,100,0,0
234751,-40,4,2,4,100,0,0
235088,-40,4,2,1,100,0,0
235256,-100,4,2,1,100,0,0
235593,-100,4,2,4,100,0,0
235762,-125,4,2,1,100,0,0
235930,-125,4,2,2,100,0,0
236015,-125,4,2,4,100,0,0
236099,-40,4,2,4,100,0,0
236436,-31.25,4,2,1,100,0,0
236773,-31.25,4,2,1,100,0,0
236942,-31.25,4,2,4,100,0,0
237110,-50,4,2,1,100,0,0
237279,-40,4,2,1,100,0,0
237447,-40,4,2,4,100,0,0
237784,-40,4,2,1,100,0,0
237953,-50,4,2,1,100,0,0
238459,-50,4,2,7,100,0,0
238627,-50,4,2,3,100,0,0
238796,-33.3333333333333,4,2,4,100,0,0
239133,-40,4,2,1,100,0,0
239638,-50,4,2,4,100,0,0
239807,-33.3333333333333,4,2,1,100,0,0
239975,-33.3333333333333,4,2,2,100,0,0
240060,-33.3333333333333,4,2,4,100,0,0
240144,-66.6666666666667,4,2,4,100,0,0
240481,-50,4,2,1,100,0,0
240987,-50,4,2,4,100,0,0
241155,-100,4,2,1,100,0,0
241324,-100,4,2,2,100,0,0
241408,-100,4,2,4,100,0,0
241492,-50,4,2,4,100,0,0
241829,-50,4,2,1,100,0,0
242335,-50,4,2,4,100,0,0
242503,-250,4,2,1,100,0,0
242841,-250,4,2,4,100,0,0
243178,-100,4,2,1,100,0,0
243346,-66.6666666666667,4,2,1,100,0,0
243683,-66.6666666666667,4,2,7,100,0,0
244020,-50,4,2,3,100,0,0
244189,-333.333333333333,4,2,4,100,0,0
244526,-33.3333333333333,4,2,1,100,0,0
244863,-40,4,2,1,100,0,0
245032,-40,4,2,4,100,0,0
245200,-40,4,2,1,100,0,0
245369,-50,4,2,1,100,0,0
245537,-166.666666666667,4,2,4,100,0,0
245706,-166.666666666667,4,2,1,100,0,0
245874,-40,4,2,1,100,0,0
246380,-40,4,2,4,100,0,0
246548,-40,4,2,1,100,0,0
246717,-66.6666666666667,4,2,1,100,0,0
246885,-40,4,2,4,100,0,0
247223,-66.6666666666667,4,2,1,100,0,0
247560,-50,4,2,1,100,0,0
247728,-50,4,2,4,100,0,0
247897,-50,4,2,1,100,0,0
248234,-50,4,2,4,100,0,0
248402,-50,4,2,2,100,0,0
248459,-50,4,2,1,100,0,0
248739,-50,4,2,2,100,0,0
248796,-50,4,2,7,100,0,0
249245,-50,4,2,3,100,0,0
249329,-50,4,2,2,100,0,0
249357,-50,4,2,1,100,0,0
249414,-50,4,2,2,100,0,0
249470,-50,4,2,1,100,0,0
249498,-50,4,2,2,100,0,0
249582,-76.9230769230769,4,2,4,100,0,0
250088,-66.6666666666667,4,2,4,100,0,0
250256,-50,4,2,7,100,0,0
251268,-125,4,2,7,100,0,0
251605,-50,4,2,7,100,0,0
251942,-50,4,2,1,100,0,0
252279,-50,4,2,4,100,0,0
252363,-50,4,2,2,100,0,0
252447,-50,4,2,4,100,0,0
252784,-125,4,2,4,100,0,0
252953,-50,4,2,1,100,0,0
253290,-125,4,2,4,100,0,0
253459,-50,4,2,1,100,0,0
253796,-50,4,2,4,100,0,0
253964,-100,4,2,1,100,0,0
254638,-100,4,2,3,100,0,0
254807,-50,4,2,3,100,0,0
254975,-50,4,2,4,100,0,0
255650,-66.6666666666667,4,2,7,100,0,0
255987,-50,4,2,7,100,0,0
256155,-66.6666666666667,4,2,1,100,0,0
256492,-66.6666666666667,4,2,7,100,0,0
256661,-166.666666666667,4,2,7,100,0,0
257335,-166.666666666667,4,2,1,100,0,0
257672,-50,4,2,4,100,0,0
257841,-50,4,2,1,100,0,0
258178,-50,4,2,4,100,0,0
258346,-50,4,2,1,100,0,0
258515,-50,4,2,2,100,0,0
258599,-50,4,2,4,100,0,0
258683,-40,4,2,4,100,0,0
258852,-40,4,2,1,100,0,0
259189,-40,4,2,4,100,0,0
259526,-40,4,2,1,100,0,0
259694,-500,4,2,1,100,0,0
260032,-500,4,2,2,100,0,0
260369,-500,4,2,4,60,0,0
260453,-500,4,2,1,10,0,0
260537,-500,4,2,1,12,0,0
260706,-500,4,2,1,14,0,0
260874,-500,4,2,1,16,0,0
261043,-500,4,2,1,18,0,0
261211,-500,4,2,1,20,0,0
261380,-500,4,2,1,22,0,0
261548,-500,4,2,1,24,0,0
261717,-500,4,2,1,26,0,0
261885,-500,4,2,1,28,0,0
262054,-500,4,2,1,30,0,0
262223,-500,4,2,1,32,0,0
262391,-500,4,2,1,34,0,0
262560,-500,4,2,1,36,0,0
262728,-500,4,2,1,38,0,0
262897,-500,4,2,1,40,0,0
263065,-500,4,2,1,60,0,0
263402,-500,4,2,2,60,0,0
263739,-55.5555555555556,4,2,1,90,0,0
264414,-125,4,2,1,90,0,0
265088,-66.6666666666667,4,2,1,90,0,0
265425,-125,4,2,1,90,0,0
266773,-83.3333333333333,4,2,1,90,0,0
267363,-83.3333333333333,4,2,1,70,0,0
267447,-83.3333333333333,4,2,1,90,0,0
267869,-83.3333333333333,4,2,2,90,0,0
267953,-83.3333333333333,4,2,1,90,0,0
268459,-55.5555555555556,4,2,1,90,0,0
268880,-66.6666666666667,4,2,1,90,0,0
268964,-66.6666666666667,4,2,3,90,0,0
269133,-55.5555555555556,4,2,1,90,0,0
270144,-55.5555555555556,4,2,1,60,0,0
270481,-55.5555555555556,4,2,1,90,0,0
270565,-55.5555555555556,4,2,3,90,0,0
270818,-55.5555555555556,4,2,1,90,0,0
271155,-83.3333333333333,4,2,1,90,0,0
271745,-83.3333333333333,4,2,6,90,0,0
271829,-83.3333333333333,4,2,1,90,0,0
272166,-83.3333333333333,4,2,3,90,0,0
272419,-83.3333333333333,4,2,1,90,0,0
273178,-55.5555555555556,4,2,1,90,0,0
273402,-55.5555555555556,4,2,6,90,0,0
273430,-55.5555555555556,4,2,1,90,0,0
273459,-55.5555555555556,4,2,6,90,0,0
273515,-55.5555555555556,4,2,1,90,0,0
273599,-55.5555555555556,4,2,3,90,0,0
273852,-66.6666666666667,4,2,1,90,0,0
274526,-66.6666666666667,4,2,1,90,0,0
275200,-66.6666666666667,4,2,1,90,0,0
275284,-66.6666666666667,4,2,2,90,0,0
275369,-66.6666666666667,4,2,1,90,0,0
275537,-66.6666666666667,4,2,1,90,0,0
276548,-83.3333333333333,4,2,3,90,0,0
276717,-83.3333333333333,4,2,7,90,0,0
277223,-55.5555555555556,4,2,1,90,0,0
277307,-55.5555555555556,4,2,6,90,0,0
277391,-55.5555555555556,4,2,1,90,0,0
277812,-55.5555555555556,4,2,6,90,0,0
277897,-55.5555555555556,4,2,1,90,0,0
278234,-66.6666666666667,4,2,7,90,0,0
278402,-66.6666666666667,4,2,1,90,0,0
278571,-66.6666666666667,4,2,3,90,0,0
278655,-66.6666666666667,4,2,2,90,0,0
278739,-66.6666666666667,4,2,1,90,0,0
279245,-100,4,2,1,60,0,0
279582,-83.3333333333333,4,2,1,60,0,0
280593,-83.3333333333333,4,2,1,60,0,0
280762,-83.3333333333333,4,2,1,24,0,0
280930,-83.3333333333333,4,2,1,26,0,0
281099,-83.3333333333333,4,2,1,28,0,0
281268,-83.3333333333333,4,2,1,60,0,0
281436,-83.3333333333333,4,2,1,30,0,0
281605,-83.3333333333333,4,2,1,32,0,0
281773,-83.3333333333333,4,2,1,34,0,0
281942,-83.3333333333333,4,2,1,60,0,0
282110,-83.3333333333333,4,2,1,38,0,0
282279,-83.3333333333333,4,2,1,40,0,0
282447,-83.3333333333333,4,2,1,42,0,0
282616,-83.3333333333333,4,2,1,44,0,0
282784,-83.3333333333333,4,2,1,46,0,0
282953,-83.3333333333333,4,2,1,48,0,0
283121,-83.3333333333333,4,2,1,75,0,0
283459,-83.3333333333333,4,2,1,54,0,0
283627,-83.3333333333333,4,2,1,56,0,0
283796,-83.3333333333333,4,2,1,58,0,0
283964,-83.3333333333333,4,2,1,75,0,0
284301,-83.3333333333333,4,2,1,64,0,0
284470,-83.3333333333333,4,2,1,66,0,0
284554,-125,4,2,1,66,0,0
284638,425.531914893616,4,2,1,75,1,0
284638,-66.6666666666667,4,2,1,75,0,0
285276,309.278350515464,4,2,1,60,1,0
285430,424.929178470255,4,2,1,90,1,0
286492,337.078651685393,4,2,1,50,1,0
286660,337.078651685393,4,2,1,50,1,0
286661,-227.272727272727,4,2,1,50,0,0
287334,337.078651685393,4,2,1,50,1,0
293908,-217.391304347826,4,2,1,50,0,0
294075,-217.391304347826,4,2,1,10,0,0

[Colours]
Combo1 : 74,156,255
Combo2 : 157,255,255

[HitObjects]
256,192,6885,12,2,9582,2:3:0:0:
262,35,9919,5,2,2:2:0:0:
318,38,10004,1,2,2:2:0:0:
350,66,10089,1,2,2:2:0:0:
361,93,10173,1,2,2:2:0:0:
345,176,10256,6,0,B|386:174|424:116|412:74|343:124|356:-50|483:-57|528:52|451:74,1,314.999990386963,14|0,2:2|3:3,0:0:0:0:
361,93,10762,1,0,2:2:0:0:
361,93,10930,2,0,L|297:107,1,52.4999983978272,0|0,3:3|2:2,0:0:0:0:
3,230,11268,6,0,P|54:227|83:285,1,105,2|0,3:2|2:2,0:0:0:0:
81,356,11605,2,0,B|52:303|98:264|104:267|112:272|163:236|124:161,1,196.875007510186,2|0,3:2|2:2,0:0:0:0:
125,108,11942,2,0,B|100:104|85:76|85:76|90:106|79:128,1,105,2|0,3:2|2:2,0:0:0:0:
159,255,12279,5,2,3:2:0:0:
163,263,12363,1,2,2:2:0:0:
174,271,12447,1,2,2:2:0:0:
191,275,12532,1,2,2:2:0:0:
212,269,12616,1,2,3:2:0:0:
231,252,12700,1,2,2:2:0:0:
243,225,12784,1,2,2:2:0:0:
268,201,12869,1,2,2:2:0:0:
306,192,12953,1,2,3:2:0:0:
346,201,13037,1,2,2:2:0:0:
376,243,13121,1,2,2:2:0:0:
373,295,13206,1,2,2:2:0:0:
330,360,13290,6,0,L|244:342,1,87.5,8|0,2:2|1:1,0:0:0:0:
231,345,13543,1,0,1:1:0:0:
220,348,13627,1,0,3:3:0:0:
446,271,13880,5,8,2:2:0:0:
457,265,13964,2,0,L|475:179,1,87.5,8|8,2:2|2:2,0:0:0:0:
485,171,14217,1,0,1:1:0:0:
496,164,14301,2,0,B|506:120|506:120|480:73,1,87.5,8|8,2:2|2:2,0:0:0:0:
276,145,14638,6,0,B|303:140|303:140|321:64|321:64|348:57,1,131.25,8|8,2:2|2:3,0:0:0:0:
417,128,14975,2,0,B|364:146|331:105|336:100|343:94|296:39|232:82,1,196.875007510186,6|0,3:2|2:2,0:0:0:0:
104,21,15312,6,0,P|115:39|119:61,1,43.75,4|4,2:3|2:3,0:0:0:0:
177,113,15481,2,0,P|166:131|162:153,1,43.75,4|4,2:3|2:3,0:0:0:0:
122,306,15650,6,0,B|148:243|90:136|-79:168|-49:303|27:331|82:251,1,314.999990386963,6|0,3:2|3:3,0:0:0:0:
152,237,16071,1,0,1:1:0:0:
163,233,16155,2,0,L|214:218,1,43.75,0|0,1:1|1:1,0:0:0:0:
414,276,16324,5,0,3:3:0:0:
399,334,16408,1,0,1:1:0:0:
349,360,16492,1,0,1:1:0:0:
297,352,16577,1,0,1:1:0:0:
268,314,16661,5,0,3:3:0:0:
264,271,16745,1,0,1:1:0:0:
279,235,16829,1,0,1:1:0:0:
301,209,16914,1,0,1:1:0:0:
328,197,16998,5,2,3:3:0:0:
345,178,17082,1,0,1:1:0:0:
351,157,17166,1,0,1:1:0:0:
347,140,17251,1,0,1:1:0:0:
339,129,17335,5,0,3:3:0:0:
354,169,17419,1,0,1:1:0:0:
389,194,17503,1,0,1:1:0:0:
432,196,17587,1,0,1:1:0:0:
469,173,17672,6,0,L|489:83,1,87.5,4|0,3:2|1:1,0:0:0:0:
423,47,17925,1,8,2:2:0:0:
415,42,18009,2,0,L|405:-3,1,43.75,8|0,2:2|2:3,0:0:0:0:
339,129,18178,6,0,L|249:109,1,87.5,4|0,2:3|3:3,0:0:0:0:
213,175,18431,1,8,2:2:0:0:
208,183,18515,2,0,L|163:193,1,43.75,8|0,2:2|2:3,0:0:0:0:
6,344,18683,5,0,3:3:0:0:
14,346,18768,1,8,2:2:0:0:
22,348,18851,1,8,2:2:0:0:
30,350,18936,1,8,2:2:0:0:
104,335,19020,5,8,3:2:0:0:
131,301,19104,1,0,2:2:0:0:
127,258,19188,1,8,2:3:0:0:
96,229,19273,1,8,2:3:0:0:
93,220,19357,5,4,3:3:0:0:
91,212,19441,1,4,2:3:0:0:
89,204,19525,1,4,2:3:0:0:
87,196,19610,1,4,2:3:0:0:
32,144,19694,5,8,3:2:0:0:
34,136,19778,1,4,2:3:0:0:
36,128,19862,1,8,2:2:0:0:
38,120,19947,1,4,2:3:0:0:
105,60,20032,5,4,3:3:0:0:
117,64,20116,1,4,2:3:0:0:
117,77,20200,1,4,2:3:0:0:
105,81,20284,1,4,2:3:0:0:
97,70,20369,5,4,3:2:0:0:
423,214,20706,6,0,P|374:222|344:272,2,104.999996795654,2|2|2,1:2|1:2|1:2,0:0:0:0:
344,265,21717,6,0,P|296:248|282:186,1,105,2|0,1:2|1:1,0:0:0:0:
396,101,22054,2,0,P|363:158|344:279,1,175,2|0,1:2|1:1,0:0:0:0:
488,368,22560,5,2,1:2:0:0:
490,359,22644,1,2,1:2:0:0:
492,349,22728,2,0,P|469:304|412:291,1,104.999996795654,2|0,1:2|1:1,0:0:0:0:
359,340,23065,5,2,1:2:0:0:
348,342,23149,1,0,1:1:0:0:
337,344,23234,2,0,L|285:354,1,43.75,0|0,1:1|1:1,0:0:0:0:
230,305,23402,5,0,1:1:0:0:
219,303,23486,1,0,1:1:0:0:
208,301,23571,2,0,L|156:291,1,43.75,0|0,1:1|1:1,0:0:0:0:
100,163,23739,5,2,1:2:0:0:
98,157,23824,1,0,1:1:0:0:
96,151,23908,1,0,1:1:0:0:
94,145,23992,1,0,1:1:0:0:
91,135,24077,5,0,1:1:0:0:
94,122,24162,1,0,1:1:0:0:
103,112,24246,1,0,1:1:0:0:
123,106,24330,1,0,1:1:0:0:
142,114,24415,1,2,1:2:0:0:
159,136,24499,1,0,1:1:0:0:
165,164,24583,1,0,1:1:0:0:
151,197,24667,1,0,1:1:0:0:
121,217,24752,5,0,1:1:0:0:
91,248,24836,1,0,1:1:0:0:
80,289,24920,1,0,1:1:0:0:
94,337,25004,1,0,1:1:0:0:
132,367,25089,1,2,1:2:0:0:
188,369,25173,1,0,1:1:0:0:
237,331,25257,1,0,1:1:0:0:
246,270,25341,1,0,1:1:0:0:
283,219,25426,5,0,1:1:0:0:
347,192,25510,1,0,1:1:0:0:
415,208,25594,1,0,1:1:0:0:
455,272,25679,1,0,1:1:0:0:
444,353,25762,6,0,L|361:381,1,65.6250025033952,2|0,3:3|2:2,0:0:0:0:
512,216,26099,2,0,L|477:61,1,131.25000500679,2|2,2:2|2:2,0:0:0:0:
512,0,26605,1,0,2:2:0:0:
361,4,26773,6,0,L|439:21,1,65.6250025033952,0|2,2:2|2:2,0:0:0:0:
512,311,27110,6,0,P|452:293|441:257,1,87.5,2|2,2:2|2:2,0:0:0:0:
394,113,27447,2,0,L|240:79,1,131.25,2|0,2:2|2:2,0:0:0:0:
155,0,27784,2,0,L|187:109,1,87.5,2|2,2:2|2:2,0:0:0:0:
352,17,28121,1,2,2:2:0:0:
211,166,28290,6,0,P|219:195|286:203,1,104.999996795654,2|0,2:2|2:2,0:0:0:0:
354,184,28627,2,0,B|302:159|266:218|274:225|280:231|255:295|188:275,1,209.999993591309,2|0,2:2|2:2,0:0:0:0:
344,381,29133,6,0,L|233:356,1,104.999996795654,0|2,2:2|2:2,0:0:0:0:
32,145,29470,6,0,P|17:193|52:230,1,104.999996795654,2|2,2:2|2:2,0:0:0:0:
123,161,29807,1,2,2:2:0:0:
120,171,29975,1,2,2:2:0:0:
0,329,30144,1,2,2:2:0:0:
107,384,30312,6,0,L|83:268,1,87.5,2|2,2:2|2:2,0:0:0:0:
109,65,30650,2,0,L|131:179,1,87.5,2|2,2:2|2:2,0:0:0:0:
295,189,30987,6,0,L|122:160,2,175,2|2|0,2:2|2:2|2:2,0:0:0:0:
474,148,31829,1,0,2:2:0:0:
480,144,31998,1,2,2:2:0:0:
481,63,32166,6,0,P|409:81|412:137,1,104.999996795654,2|2,2:2|2:2,0:0:0:0:
512,244,32503,6,0,L|380:224,1,104.999996795654,2|2,2:2|2:2,0:0:0:0:
298,76,32841,1,2,2:2:0:0:
292,70,33009,1,2,2:2:0:0:
203,206,33178,5,2,2:2:0:0:
118,240,33346,1,2,2:2:0:0:
211,212,33515,5,2,2:2:0:0:
15,280,33683,2,0,P|16:361|95:379,1,175,2|2,2:3|2:2,0:0:0:0:
212,125,34189,2,0,P|155:133|141:163,1,87.5,2|0,2:2|2:2,0:0:0:0:
179,290,34442,1,0,2:2:0:0:
186,296,34526,6,0,L|172:398,1,87.5,0|0,2:2|2:2,0:0:0:0:
43,194,34863,2,0,L|57:92,1,87.5,0|0,2:2|2:2,0:0:0:0:
206,204,35116,1,0,2:2:0:0:
211,212,35200,6,0,L|268:224,3,43.75,2|0|0|0,2:2|2:2|2:2|2:2,0:0:0:0:
54,107,35537,2,0,L|-3:95,1,43.75,2|0,2:2|2:2,0:0:0:0:
146,129,35706,6,0,L|129:192,3,43.75,2|0|2|0,2:2|2:2|2:3|2:2,0:0:0:0:
234,105,36043,2,0,L|251:42,1,43.75,2|0,2:2|2:2,0:0:0:0:
299,145,36211,5,8,2:2:0:0:
338,153,36296,1,8,2:2:0:0:
365,186,36380,1,10,2:2:0:0:
369,227,36464,1,0,2:2:0:0:
342,269,36548,6,0,P|274:266|188:348,1,157.499995193482,2|0,2:3|2:2,0:0:0:0:
324,353,36885,2,0,P|371:375|396:331,1,104.999996795654,10|0,2:2|1:1,0:0:0:0:
457,206,37138,1,0,1:1:0:0:
463,199,37223,6,0,P|446:131|474:61,1,131.25000500679,10|0,2:2|2:2,0:0:0:0:
512,295,37560,2,0,P|457:281|402:303,1,65.6250025033952,0|0,2:2|2:2,0:0:0:0:
232,100,37728,5,10,2:2:0:0:
222,103,37812,1,0,1:1:0:0:
212,106,37897,2,0,P|199:182|266:176,1,131.25000500679,10|10,2:2|2:2,0:0:0:0:
350,280,38234,2,0,L|331:193,1,65.6250025033952,10|8,2:2|2:2,0:0:0:0:
334,88,38402,5,2,1:2:0:0:
339,97,38487,1,0,1:1:0:0:
343,106,38571,2,0,P|316:142|298:145,1,65.6250025033952,2|0,2:2|1:1,0:0:0:0:
212,106,38739,2,0,P|167:100|155:86,1,65.6250025033952,10|0,2:2|1:1,0:0:0:0:
139,2,38908,1,10,2:2:0:0:
27,310,39077,5,10,2:2:0:0:
63,317,39161,1,0,1:1:0:0:
111,299,39245,1,8,2:2:0:0:
146,239,39329,1,8,2:2:0:0:
105,169,39414,2,0,L|84:98,1,52.4999983978272,2|0,2:2|2:2,0:0:0:0:
2,84,39582,6,0,L|54:260,1,131.25000500679,0|0,2:3|2:2,0:0:0:0:
197,327,39919,2,0,L|90:307,1,87.5,0|2,2:3|2:2,0:0:0:0:
0,384,40256,1,2,2:2:0:0:
306,241,40425,6,0,L|292:291,1,43.75,0|0,2:3|2:3,0:0:0:0:
196,318,40593,2,0,L|371:302,1,175,2|2,2:2|2:2,0:0:0:0:
197,327,41099,1,2,2:2:0:0:
475,312,41268,6,0,B|496:241|428:215|422:221|415:230|340:191|391:106,1,227.499989585877,2|2,2:2|2:2,0:0:0:0:
463,128,41773,1,0,2:2:0:0:
458,139,41857,1,0,2:2:0:0:
453,150,41942,1,4,3:2:0:0:
256,192,42026,12,0,44470,2:2:0:0:
257,121,44638,6,0,L|208:132,5,28,0|0|0|0|0|0,2:2|2:2|2:2|2:2|2:2|2:2,0:0:0:0:
167,83,45144,2,0,L|118:72,1,28,0|0,2:2|2:2,0:0:0:0:
31,53,45312,6,0,L|20:4,3,28,0|0|0|0,2:2|2:2|2:2|2:2,0:0:0:0:
74,116,45650,5,0,2:2:0:0:
69,136,45734,1,0,2:2:0:0:
64,156,45818,1,0,2:2:0:0:
60,177,45902,1,0,2:2:0:0:
5,236,45987,2,0,L|14:278,1,43.75,8|0,2:2|2:2,0:0:0:0:
120,376,46155,5,8,2:2:0:0:
171,367,46239,1,8,2:2:0:0:
196,320,46324,1,8,2:2:0:0:
183,269,46408,1,8,2:2:0:0:
142,236,46492,2,0,L|99:245,1,43.75,8|8,2:2|2:2,0:0:0:0:
271,339,46661,5,8,2:2:0:0:
273,347,46745,1,8,2:2:0:0:
275,355,46829,2,0,L|317:364,1,43.75,8|0,2:2|2:2,0:0:0:0:
471,262,46998,6,0,B|409:280|386:221|392:216|399:209|364:153|294:186,1,196.875007510186,8|0,2:2|2:2,0:0:0:0:
247,218,47335,2,0,P|266:253|338:238,1,104.999996795654,4|0,3:2|2:2,0:0:0:0:
463,188,47672,6,0,B|497:152|497:152|487:84,1,104.999996795654,10|0,2:2|2:2,0:0:0:0:
326,27,48009,1,2,2:2:0:0:
416,123,48178,1,0,3:3:0:0:
315,28,48346,2,0,L|213:49,1,104.999996795654,8|2,2:2|2:2,0:0:0:0:
141,237,48683,5,2,2:2:0:0:
119,134,48852,1,2,3:2:0:0:
241,269,49020,1,10,2:2:0:0:
62,307,49189,1,2,2:2:0:0:
269,353,49357,5,2,3:2:0:0:
179,334,49526,1,2,2:2:0:0:
281,349,49694,2,0,L|383:327,1,104.999996795654,10|2,2:2|3:2,0:0:0:0:
340,79,50032,6,0,B|354:151|354:151|393:175|393:175|412:269,1,196.875007510186,0|0,3:3|2:2,0:0:0:0:
422,102,50369,2,0,B|458:67|458:67|512:76,1,104.999996795654,8|0,2:2|2:2,0:0:0:0:
324,224,50706,2,0,B|269:232|269:232|233:198,1,104.999996795654,0|2,2:2|3:2,0:0:0:0:
214,25,51043,5,10,2:2:0:0:
187,125,51211,1,2,2:2:0:0:
19,143,51380,2,0,B|62:177|62:177|110:165,1,104.999996795654,2|2,2:2|3:2,0:0:0:0:
283,94,51717,5,10,2:2:0:0:
112,58,51885,1,2,2:2:0:0:
233,198,52054,5,2,2:2:0:0:
110,165,52223,1,2,3:2:0:0:
145,275,52391,5,10,2:2:0:0:
145,275,52560,1,2,3:2:0:0:
376,302,52728,6,0,B|431:310|431:310|467:276,1,104.999996795654,0|2,3:3|2:3,0:0:0:0:
355,158,53065,1,8,2:2:0:0:
298,326,53234,2,0,B|323:375|323:375|372:384,1,104.999996795654,0|2,3:3|2:3,0:0:0:0:
402,225,53571,1,2,2:2:0:0:
232,277,53739,5,10,2:2:0:0:
220,300,53823,1,0,2:2:0:0:
208,324,53907,1,2,2:2:0:0:
217,347,53991,1,0,2:2:0:0:
228,371,54077,5,2,2:2:0:0:
376,302,54245,1,2,3:2:0:0:
188,211,54414,1,10,2:2:0:0:
250,68,54582,5,2,2:2:0:0:
262,91,54666,1,0,2:2:0:0:
274,115,54750,1,2,3:2:0:0:
265,138,54834,1,0,2:2:0:0:
254,162,54920,1,0,2:2:0:0:
82,90,55088,2,0,L|187:117,1,104.999996795654,10|2,2:2|3:3,0:0:0:0:
431,172,55425,6,0,B|345:190|345:190|313:247|313:247|224:264,1,236.249992790222,4|0,3:2|2:2,0:0:0:0:
217,267,55762,1,10,2:2:0:0:
254,162,55930,1,0,3:3:0:0:
405,353,56099,6,0,B|427:306|427:306|401:259,1,104.999996795654,0|0,2:2|3:3,0:0:0:0:
146,224,56436,2,0,B|124:271|124:271|149:317,1,104.999996795654,8|2,2:2|2:2,0:0:0:0:
268,354,56773,6,0,L|305:81,1,262.500010013581,2|10,2:2|2:2,0:0:0:0:
317,258,57279,2,0,B|309:219|309:219|261:202|261:202|254:162,1,131.25000500679,2|0,2:2|3:3,0:0:0:0:
303,93,57616,1,2,3:2:0:0:
506,48,57784,5,0,1:1:0:0:
479,55,57869,1,0,1:1:0:0:
445,72,57954,1,2,1:2:0:0:
405,107,58037,1,0,1:1:0:0:
373,163,58121,6,0,P|400:207|474:199,1,104.999996795654,4|0,3:2|2:2,0:0:0:0:
504,157,58459,1,8,2:2:0:0:
377,323,58627,6,0,P|428:327|465:262,1,104.999996795654,0|0,3:3|2:2,0:0:0:0:
449,213,58965,1,0,3:3:0:0:
493,376,59133,6,0,P|417:322|296:308,1,209.999993591309,4|2,3:2|2:2,0:0:0:0:
230,333,59638,1,0,3:3:0:0:
220,337,59807,1,10,2:2:0:0:
244,253,59975,6,0,P|239:201|304:164,1,104.999996795654,2|0,2:2|2:2,0:0:0:0:
340,213,60312,1,2,3:2:0:0:
174,76,60481,6,0,P|228:152|241:269,1,196.875007510186,8|0,2:2|2:2,0:0:0:0:
169,281,60818,6,0,P|117:285|80:220,1,104.999996795654,0|0,2:2|3:3,0:0:0:0:
96,172,61156,1,8,2:2:0:0:
37,371,61324,6,0,P|3:331|33:263,1,104.999996795654,0|0,2:2|2:2,0:0:0:0:
83,248,61662,1,0,3:3:0:0:
0,120,61829,6,0,L|111:93,1,104.999996795654,8|2,2:2|3:2,0:0:0:0:
230,18,62166,2,0,B|306:38|306:38|328:96|328:96|425:120,1,209.999993591309,6|10,3:2|2:2,0:0:0:0:
490,6,62672,6,0,L|387:30,1,104.999996795654,10|0,2:2|3:3,0:0:0:0:
247,104,63009,5,2,1:2:0:0:
237,142,63093,1,0,1:1:0:0:
228,180,63177,1,0,1:1:0:0:
219,218,63261,1,0,1:1:0:0:
209,257,63346,1,2,1:2:0:0:
199,296,63430,1,0,1:1:0:0:
189,335,63515,6,0,P|274:344|298:248,1,196.875007510186,4|0,3:2|2:2,0:0:0:0:
230,216,63852,1,8,2:2:0:0:
119,279,64020,1,0,3:3:0:0:
119,279,64189,2,0,P|63:277|37:222,1,104.999996795654,0|0,2:2|2:2,0:0:0:0:
60,58,64526,6,0,P|145:49|169:145,1,196.875007510186,12|0,2:2|2:2,0:0:0:0:
118,200,64863,2,0,P|62:202|36:257,1,104.999996795654,2|0,2:2|3:3,0:0:0:0:
189,335,65200,5,10,2:2:0:0:
233,354,65284,1,0,3:3:0:0:
279,340,65368,1,10,2:2:0:0:
305,299,65452,1,8,2:2:0:0:
300,252,65537,1,8,2:2:0:0:
295,205,65621,1,8,2:2:0:0:
321,164,65705,1,10,2:2:0:0:
367,150,65789,1,0,1:1:0:0:
412,170,65873,5,0,1:1:0:0:
415,180,65959,1,8,2:2:0:0:
418,190,66043,1,10,2:2:0:0:
421,199,66127,1,8,2:2:0:0:
423,209,66211,6,0,B|364:276|296:190|301:185|306:180|271:118|198:159,1,262.499991989136,2|8,2:3|2:2,0:0:0:0:
190,167,66801,1,8,2:2:0:0:
179,175,66885,6,0,L|168:230,3,43.75,8|8|8|8,2:2|2:2|2:2|2:2,0:0:0:0:
95,38,67223,5,8,2:2:0:0:
97,50,67307,1,0,2:2:0:0:
99,62,67391,1,8,2:2:0:0:
101,74,67475,1,8,2:2:0:0:
103,86,67560,2,0,L|114:141,1,43.75,8|0,2:2|2:2,0:0:0:0:
0,249,67728,5,8,2:2:0:0:
38,230,67812,1,8,2:2:0:0:
81,236,67896,1,8,2:2:0:0:
113,265,67980,1,0,2:2:0:0:
123,307,68065,1,8,2:2:0:0:
110,349,68150,1,8,2:2:0:0:
75,375,68234,2,0,L|27:367,1,43.75,8|8,2:2|2:2,0:0:0:0:
174,222,68402,5,8,2:2:0:0:
183,231,68487,1,8,2:2:0:0:
192,240,68571,2,0,L|240:232,1,43.75,8|0,2:2|2:2,0:0:0:0:
371,336,68739,5,8,2:2:0:0:
380,327,68824,1,0,2:2:0:0:
389,318,68908,2,0,L|447:337,1,52.4999983978272,2|0,2:3|2:2,0:0:0:0:
346,250,69133,6,0,P|315:221|319:172,1,87.5,2|0,2:3|2:2,0:0:0:0:
367,118,69357,2,0,L|433:97,1,58.3333333333333,2|2,2:3|2:3,0:0:0:0:
207,43,69582,6,0,L|242:154,1,87.5,2|0,2:3|2:2,0:0:0:0:
235,232,69863,2,0,P|186:244|166:296,1,104.999996795654,2|0,3:3|2:2,0:0:0:0:
220,349,70088,2,0,L|265:361,2,43.7500016689301,2|2|0,3:3|2:3|2:2,0:0:0:0:
86,294,70256,6,0,P|78:282|57:261,1,43.75,2|0,2:2|1:1,0:0:0:0:
27,384,70762,5,0,1:1:0:0:
27,384,70846,1,0,1:1:0:0:
27,384,70930,2,0,P|174:266|335:230,1,350,14|0,2:2|3:3,0:0:0:0:
337,313,71352,6,0,P|379:325|415:350,1,87.5,0|0,2:2|1:1,0:0:0:0:
95,124,71520,1,0,1:1:0:0:
95,124,71605,2,0,P|101:249|243:257,1,262.5,14|0,2:2|2:2,0:0:0:0:
405,250,71942,2,0,P|461:206|442:151,1,87.5,0|0,3:3|2:2,0:0:0:0:
250,102,72110,6,0,P|244:145|233:188,1,87.5,0|0,2:2|2:2,0:0:0:0:
293,384,72279,2,0,P|318:211|361:42,1,350,10|0,2:2|1:1,0:0:0:0:
0,48,72784,5,2,1:3:0:0:
14,63,72869,1,0,1:1:0:0:
36,67,72953,6,0,P|122:55|299:2,1,262.5,2|2,1:2|2:2,0:0:0:0:
459,0,73290,2,0,P|436:69|409:193,1,109.375,8|0,2:2|2:2,0:0:0:0:
481,214,73459,6,0,P|504:252|382:264,1,196.875007510186,2|0,3:3|2:2,0:0:0:0:
303,321,73796,2,0,P|305:283|322:232,1,65.6250025033952,0|2,2:2|2:2,0:0:0:0:
115,175,73964,2,0,P|109:265|87:392,1,196.875007510186,2|2,2:3|2:2,0:0:0:0:
82,368,74301,5,0,1:1:0:0:
93,353,74385,1,0,1:1:0:0:
116,335,74470,1,0,1:1:0:0:
153,312,74554,1,0,1:1:0:0:
209,295,74638,1,0,1:1:0:0:
282,288,74723,1,0,1:1:0:0:
369,289,74807,1,2,1:2:0:0:
470,317,74891,1,0,1:1:0:0:
477,328,74975,6,0,P|487:300|517:233,1,87.5,4|4,3:2|2:3,0:0:0:0:
137,237,75481,5,4,2:3:0:0:
137,237,75565,1,4,2:3:0:0:
137,237,75650,2,0,B|61:179|105:86|204:37|271:100|251:211|155:168,1,328.125,14|0,2:2|1:1,0:0:0:0:
14,208,75987,6,0,P|26:248|35:308,1,87.5,0|0,1:1|2:2,0:0:0:0:
123,334,76155,2,0,P|100:211|50:39,1,262.5,4|4,2:2|2:3,0:0:0:0:
258,249,76492,6,0,P|213:271|223:340,1,87.5,4|4,2:3|2:3,0:0:0:0:
448,374,76661,6,0,P|343:315|168:312,1,262.5,6|0,2:3|3:3,0:0:0:0:
357,384,76998,6,0,P|337:333|351:289,1,87.5,2|0,1:2|1:1,0:0:0:0:
482,95,77166,2,0,P|441:80|395:109,1,87.5,0|0,3:3|2:2,0:0:0:0:
475,239,77335,1,2,3:2:0:0:
229,8,77503,5,0,1:1:0:0:
199,38,77588,1,0,2:2:0:0:
191,86,77672,1,0,1:1:0:0:
207,130,77756,1,0,1:1:0:0:
257,158,77841,1,2,1:2:0:0:
295,200,77925,1,0,1:1:0:0:
299,241,78009,1,4,2:3:0:0:
284,275,78093,1,4,2:3:0:0:
274,289,78178,1,4,2:3:0:0:
259,288,78262,1,4,2:3:0:0:
259,289,78346,6,0,P|305:98|384:22,1,262.5,6|0,3:2|2:2,0:0:0:0:
234,0,78683,2,0,P|186:50|70:57,1,175,8|0,2:2|3:3,0:0:0:0:
0,115,79020,2,0,P|26:221|68:123,1,262.5,2|8,2:3|2:2,0:0:0:0:
0,115,79357,6,0,P|14:184|17:219,1,87.5,2|2,2:3|2:3,0:0:0:0:
177,189,79526,2,0,P|163:120|160:85,1,87.5,2|2,2:3|2:3,0:0:0:0:
21,365,79694,6,0,B|14:373|14:373|19:310|139:206|255:333,1,262.500010013581,4|2,3:2|2:3,0:0:0:0:
376,374,79947,1,0,2:2:0:0:
393,384,80032,2,0,P|452:318|426:260,1,87.5,8|0,2:2|3:3,0:0:0:0:
269,119,80200,6,0,P|248:192|398:284,1,262.500010013581,8|0,2:3|1:1,0:0:0:0:
292,384,80453,1,0,1:1:0:0:
281,384,80537,2,0,P|287:324|335:309,1,87.5,0|0,1:1|1:1,0:0:0:0:
512,34,80706,5,2,1:2:0:0:
470,38,80790,1,0,1:1:0:0:
415,67,80874,1,2,1:2:0:0:
373,133,80959,1,0,1:1:0:0:
350,215,81043,6,0,P|237:164|55:152,1,218.75,4|0,3:2|1:1,0:0:0:0:
82,219,81296,2,0,P|112:271|163:253,1,109.375,0|8,1:1|2:2,0:0:0:0:
0,0,81548,5,0,1:1:0:0:
18,9,81633,1,0,1:1:0:0:
49,43,81717,1,6,2:3:0:0:
60,88,81801,1,0,2:2:0:0:
45,146,81885,2,0,P|9:181|21:264,1,109.375,0|0,2:2|2:3,0:0:0:0:
128,366,82054,2,0,P|178:336|293:389,1,109.375,10|0,2:2|2:3,0:0:0:0:
0,374,82223,5,2,2:3:0:0:
0,374,82307,1,2,2:3:0:0:
0,374,82391,2,0,P|148:333|178:134,1,328.125,4|0,3:2|3:3,0:0:0:0:
98,208,82728,2,0,P|105:250|175:244,1,109.375,10|8,2:2|2:2,0:0:0:0:
376,279,82897,5,2,1:2:0:0:
376,279,82981,1,0,1:1:0:0:
376,279,83065,2,0,P|277:165|337:-34,1,328.125,2|0,2:3|3:3,0:0:0:0:
472,139,83402,2,0,P|433:139|393:208,1,109.375,8|0,2:2|3:3,0:0:0:0:
512,326,83571,5,2,1:2:0:0:
512,326,83655,1,0,1:1:0:0:
512,326,83739,2,0,P|376:341|292:402,1,218.75,6|0,3:2|3:3,0:0:0:0:
48,300,84077,5,10,2:2:0:0:
159,376,84245,1,2,3:2:0:0:
206,128,84414,5,10,2:2:0:0:
255,289,84582,1,0,3:3:0:0:
512,0,84751,5,10,2:2:0:0:
451,195,84919,1,0,3:3:0:0:
501,378,85088,5,0,1:1:0:0:
497,370,85172,1,0,1:1:0:0:
487,357,85256,1,0,1:1:0:0:
472,340,85341,1,0,1:1:0:0:
456,325,85425,1,0,1:1:0:0:
428,300,85509,1,0,1:1:0:0:
402,274,85593,1,0,1:1:0:0:
360,237,85678,1,0,1:1:0:0:
319,207,85762,1,0,1:1:0:0:
274,175,85846,1,0,1:1:0:0:
218,140,85930,1,0,1:1:0:0:
157,106,86015,1,0,1:1:0:0:
93,78,86099,1,0,1:1:0:0:
20,51,86183,1,0,1:1:0:0:
6,57,86268,6,0,L|25:102,1,32.8125012516976,0|0,1:1|1:1,0:0:0:0:
119,337,86436,6,0,B|185:235|185:235|307:260|307:260|228:171|228:171|299:80|299:80|181:117|181:117|113:25|113:25|115:144|115:144|8:187|8:187|120:207|120:207,1,1053.50001607513,6|10,3:2|2:2,0:0:0:0:
7,185,91829,6,0,B|-38:243|-3:318|-3:318|82:158|299:227,1,393.750015020371,6|0,3:2|2:2,0:0:0:0:
358,178,92166,6,0,B|311:175|287:221|287:221|290:170|255:144,1,175,10|0,2:2|1:1,0:0:0:0:
306,27,92419,1,0,1:1:0:0:
317,21,92503,2,0,P|339:58|327:99,1,87.5,2|0,2:2|1:1,0:0:0:0:
205,207,92672,1,0,3:3:0:0:
497,252,92841,6,0,B|524:270|537:334|537:334|496:293|424:257|361:257|361:257|383:271|389:309,1,328.125,10|0,2:2|2:2,0:0:0:0:
316,319,93178,2,0,P|332:377|390:362,1,131.25000500679,0|2,3:3|2:2,0:0:0:0:
512,15,93515,5,8,2:2:0:0:
457,10,93599,1,0,2:2:0:0:
405,23,93683,1,2,1:2:0:0:
360,53,93767,1,0,1:1:0:0:
329,98,93852,1,0,2:2:0:0:
216,306,94020,6,0,P|169:295|159:248,1,87.5,2|0,3:2|2:2,0:0:0:0:
82,77,94189,2,0,B|134:26|242:44|259:147|259:147|210:186|236:250,1,328.125,8|0,2:2|2:2,0:0:0:0:
306,211,94526,2,0,P|360:247|353:162,1,175,2|0,3:2|2:2,0:0:0:0:
13,0,94863,5,10,2:2:0:0:
25,11,94947,1,0,2:2:0:0:
36,24,95032,1,0,1:1:0:0:
48,46,95116,1,0,1:1:0:0:
61,75,95200,1,2,2:2:0:0:
75,118,95284,1,0,1:1:0:0:
84,172,95369,6,0,P|75:203|63:263,1,65.6250025033952,0|0,3:3|2:2,0:0:0:0:
234,314,95537,2,0,B|272:265|257:199|197:163|142:178|119:249|177:264,1,262.5,10|0,2:2|2:2,0:0:0:0:
22,335,95874,6,0,P|148:299|386:251,1,328.125,0|0,3:3|2:2,0:0:0:0:
511,384,96211,2,0,P|480:363|441:354,1,65.6250025033952,8|0,2:2|2:2,0:0:0:0:
379,190,96380,1,2,1:2:0:0:
420,230,96464,1,0,1:1:0:0:
414,287,96548,1,0,1:1:0:0:
473,30,96717,5,8,2:3:0:0:
479,48,96801,1,8,2:3:0:0:
481,77,96885,1,8,2:2:0:0:
471,114,96970,1,4,2:3:0:0:
440,150,97054,1,4,2:3:0:0:
385,167,97138,1,4,2:3:0:0:
323,146,97223,6,0,P|288:140|247:110,1,65.6250025033952,6|0,3:2|2:2,0:0:0:0:
59,198,97391,1,0,2:2:0:0:
240,271,97560,6,0,P|224:242|216:184,1,87.5,10|0,2:2|2:2,0:0:0:0:
186,2,97728,1,0,1:1:0:0:
186,2,97812,1,0,1:1:0:0:
186,2,97897,2,0,P|170:98|123:184,1,175,2|0,2:2|3:3,0:0:0:0:
81,329,98150,5,0,2:2:0:0:
81,329,98234,2,0,P|109:313|164:305,1,87.5,10|0,2:2|2:2,0:0:0:0:
436,373,98402,1,2,2:2:0:0:
436,373,98487,1,0,2:2:0:0:
436,373,98571,6,0,P|324:328|412:218,1,218.75,0|2,3:3|2:2,0:0:0:0:
464,88,98824,1,0,2:2:0:0:
464,88,98908,2,0,L|481:11,1,65.6250025033952,8|0,2:2|2:2,0:0:0:0:
315,160,99077,1,2,1:2:0:0:
332,164,99161,1,0,1:1:0:0:
348,167,99245,6,0,L|425:150,1,65.6250025033952,0|0,2:2|1:1,0:0:0:0:
505,304,99414,2,0,L|440:289,1,65.6250025033952,2|0,3:2|2:2,0:0:0:0:
180,137,99582,5,8,2:2:0:0:
142,127,99666,1,0,2:2:0:0:
98,148,99751,1,2,2:2:0:0:
71,218,99835,1,0,2:2:0:0:
151,265,99919,6,0,P|129:165|43:29,1,262.5,2|0,3:2|2:2,0:0:0:0:
202,0,100256,6,0,P|177:31|161:89,1,65.6250025033952,8|0,2:2|2:2,0:0:0:0:
2,192,100425,2,0,P|39:206|82:248,1,65.6250025033952,2|0,1:2|1:1,0:0:0:0:
311,303,100593,5,2,2:2:0:0:
311,303,100678,2,0,P|304:259|228:249,1,131.25000500679,0|0,1:1|2:2,0:0:0:0:
78,376,100930,6,0,P|186:299|351:323,1,262.5,8|0,2:2|2:2,0:0:0:0:
351,383,101268,2,0,P|390:363|376:288,1,109.375,0|0,3:3|2:2,0:0:0:0:
289,31,101436,5,8,2:3:0:0:
285,18,101520,1,8,2:3:0:0:
280,7,101605,5,8,2:2:0:0:
221,0,101689,1,0,1:1:0:0:
186,47,101773,1,0,1:1:0:0:
199,104,101857,1,0,1:1:0:0:
256,124,101942,2,0,P|283:108|322:108,1,65.6250025033952,8|8,2:3|2:3,0:0:0:0:
452,13,102110,5,8,3:3:0:0:
438,35,102194,1,8,2:3:0:0:
428,59,102278,1,8,2:2:0:0:
421,85,102362,1,4,2:3:0:0:
417,110,102447,1,4,2:3:0:0:
417,137,102531,1,4,2:3:0:0:
484,174,102616,6,0,B|529:232|494:307|494:307|409:147|192:216,1,393.750015020371,6|0,3:2|2:2,0:0:0:0:
134,228,102953,6,0,B|181:231|205:185|205:185|202:236|237:262,1,175,10|0,2:2|1:1,0:0:0:0:
189,374,103206,1,0,1:1:0:0:
178,380,103290,2,0,P|156:343|168:302,1,87.5,2|0,2:2|1:1,0:0:0:0:
285,196,103459,1,0,3:3:0:0:
57,93,103627,6,0,B|-17:73|12:-16|82:-35|158:11|177:94|129:156,1,328.125,10|0,2:2|2:2,0:0:0:0:
134,227,103964,2,0,P|73:230|58:170,1,131.25000500679,0|2,3:3|2:2,0:0:0:0:
248,90,104301,1,8,2:2:0:0:
370,371,104470,5,2,1:2:0:0:
368,313,104554,1,0,1:1:0:0:
385,264,104638,1,0,2:2:0:0:
419,221,104722,1,0,1:1:0:0:
467,194,104807,2,0,P|456:154|400:144,1,87.5,2|0,3:2|2:2,0:0:0:0:
140,238,104975,6,0,B|105:267|92:331|92:331|133:290|205:239|296:245|296:245,1,328.125,8|0,2:2|2:2,0:0:0:0:
344,190,105312,2,0,B|320:172|327:130|327:130|311:169|266:172,1,131.25000500679,2|0,3:2|2:2,0:0:0:0:
179,370,105650,6,0,P|208:340|188:286,1,87.5,14|0,2:2|2:2,0:0:0:0:
37,50,105818,5,0,1:1:0:0:
85,77,105903,1,0,1:1:0:0:
119,120,105987,1,2,2:2:0:0:
136,169,106071,1,0,1:1:0:0:
134,227,106155,1,0,3:3:0:0:
318,48,106324,6,0,B|376:33|353:-38|298:-53|238:-17|223:49|261:98,1,262.5,14|0,2:2|2:2,0:0:0:0:
405,145,106661,2,0,P|437:145|468:94,1,87.5,0|0,3:3|2:2,0:0:0:0:
512,0,106829,5,10,2:2:0:0:
512,0,106914,1,8,2:2:0:0:
512,0,106998,2,0,P|480:111|437:323,1,262.5,8|0,2:2|0:0,0:0:0:0:
345,336,107335,5,4,2:3:0:0:
305,274,107447,1,8,2:2:0:0:
232,289,107560,1,10,2:2:0:0:
227,301,107672,5,4,2:3:0:0:
187,363,107784,1,4,2:3:0:0:
114,348,107897,1,4,2:3:0:0:
67,264,108009,6,0,B|29:215|44:149|104:113|159:128|182:199|124:214,1,262.5,6|0,3:2|2:2,0:0:0:0:
0,132,108515,1,0,3:3:0:0:
44,17,108683,6,0,P|80:143|128:381,1,328.125,8|0,2:2|2:2,0:0:0:0:
114,348,109020,5,0,3:3:0:0:
65,275,109189,1,0,2:2:0:0:
398,348,109526,6,0,P|391:322|384:297,1,52.4999983978272,0|0,3:3|2:2,0:0:0:0:
448,251,109694,2,0,P|463:188|481:126,1,104.999996795654,0|0,3:2|2:2,0:0:0:0:
512,299,110032,6,0,P|423:273|257:240,2,218.75,8|0|2,2:2|3:3|1:2,0:0:0:0:
385,181,110453,5,0,1:1:0:0:
385,181,110537,2,0,P|376:148|367:115,1,65.6250025033952,10|0,2:2|1:1,0:0:0:0:
259,0,110706,5,0,3:3:0:0:
211,19,110790,1,8,2:2:0:0:
187,66,110875,1,4,2:3:0:0:
199,117,110959,1,8,2:3:0:0:
237,152,111043,2,0,P|270:161|303:170,1,65.6250025033952,10|0,2:2|2:2,0:0:0:0:
138,349,111211,2,0,P|105:358|72:367,1,65.6250025033952,2|0,3:2|2:2,0:0:0:0:
0,347,111380,5,8,2:2:0:0:
0,347,111464,1,0,1:1:0:0:
0,347,111548,1,0,1:1:0:0:
183,211,111717,6,0,P|201:279|217:348,1,131.25000500679,2|0,3:2|1:1,0:0:0:0:
283,384,111970,1,8,2:2:0:0:
283,384,112054,2,0,P|292:351|301:318,1,65.6250025033952,10|0,2:2|2:2,0:0:0:0:
120,274,112223,2,0,P|111:241|102:208,1,65.6250025033952,8|8,3:3|2:3,0:0:0:0:
274,73,112391,5,4,2:3:0:0:
326,57,112475,1,4,2:3:0:0:
379,42,112559,1,4,2:3:0:0:
432,30,112643,1,4,2:3:0:0:
486,20,112728,6,0,P|453:138|425:257,1,218.75,8|4,2:2|2:3,0:0:0:0:
359,195,112981,1,4,2:3:0:0:
359,195,113065,2,0,P|349:164|341:132,1,65.6250025033952,4|4,2:3|2:3,0:0:0:0:
498,277,113234,2,0,P|488:308|480:340,1,65.6250025033952,4|4,2:3|2:3,0:0:0:0:
300,320,113402,6,0,B|242:344|182:312|163:245|192:195|266:192|266:252,1,262.5,6|0,3:2|2:2,0:0:0:0:
155,350,113908,1,0,3:3:0:0:
64,238,114077,6,0,P|224:270|382:314,1,328.125,8|0,2:2|2:2,0:0:0:0:
395,306,114414,5,0,3:3:0:0:
308,322,114582,1,8,2:3:0:0:
196,153,114751,5,0,2:2:0:0:
181,73,114919,1,4,2:3:0:0:
185,150,115088,5,4,3:3:0:0:
171,70,115256,1,8,2:3:0:0:
172,225,115425,6,0,P|194:117|224:12,2,218.75,8|0|8,2:2|3:3|2:3,0:0:0:0:
479,340,115930,1,0,1:1:0:0:
479,340,116015,1,0,1:1:0:0:
479,340,116099,6,0,P|465:275|447:212,1,131.25000500679,0|0,3:3|1:1,0:0:0:0:
497,150,116352,1,0,1:1:0:0:
497,150,116436,2,0,P|503:117|512:86,1,65.6250025033952,2|0,2:2|2:2,0:0:0:0:
386,270,116604,2,0,P|353:276|322:285,1,65.6250025033952,2|0,3:2|2:2,0:0:0:0:
172,340,116773,5,0,1:1:0:0:
172,340,116857,1,0,1:1:0:0:
172,340,116942,2,0,P|140:330|108:325,1,65.6250025033952,4|4,2:3|2:3,0:0:0:0:
272,160,117110,6,0,P|254:223|240:287,1,131.25000500679,2|2,3:2|1:2,0:0:0:0:
169,251,117363,1,0,1:1:0:0:
169,251,117447,2,0,P|163:218|154:187,1,65.6250025033952,4|4,2:2|2:3,0:0:0:0:
203,123,117616,1,0,3:3:0:0:
340,204,117784,5,8,3:3:0:0:
340,204,117869,1,0,2:2:0:0:
340,204,117953,2,0,P|346:171|355:140,1,65.6250025033952,6|0,1:2|1:1,0:0:0:0:
256,8,118121,5,8,2:2:0:0:
256,376,118796,5,6,3:2:0:0:
50,333,129582,5,2,3:3:0:0:
64,328,129919,6,0,P|97:271|89:184,1,131.25000500679,2|2,2:2|2:2,0:0:0:0:
52,120,130425,1,0,2:2:0:0:
91,210,130593,6,0,P|118:254|143:258,1,65.6250025033952,0|2,2:2|2:2,0:0:0:0:
218,315,130930,2,0,P|263:277|336:266,2,131.25000500679,2|2|2,2:2|2:2|2:2,0:0:0:0:
396,214,131773,5,2,2:2:0:0:
332,155,131942,2,0,P|300:122|302:49,1,98.4375037550928,2|0,2:3|2:2,0:0:0:0:
468,30,132279,6,0,B|424:62|423:100|423:100|421:59|365:23,1,175,4|2,3:2|3:3,0:0:0:0:
509,99,132784,1,0,2:2:0:0:
280,66,132953,2,0,P|235:26|234:-11,1,87.5,8|2,2:2|2:2,0:0:0:0:
369,33,133290,5,2,2:3:0:0:
181,107,133459,2,0,P|141:144|150:184,1,87.5,0|2,3:3|3:2,0:0:0:0:
230,176,133796,5,2,2:2:0:0:
35,235,133964,2,0,P|67:282|95:375,1,131.25,2|0,2:3|2:2,0:0:0:0:
170,374,134301,6,0,P|210:346|208:294,1,87.5,10|2,2:2|2:2,0:0:0:0:
0,326,134638,1,2,2:3:0:0:
150,280,134807,6,0,P|225:287|330:349,1,175,2|2,2:2|2:2,0:0:0:0:
394,366,135312,2,0,P|435:337|425:294,1,87.5,2|0,3:3|2:2,0:0:0:0:
512,252,135650,2,0,P|490:166|473:49,1,175,8|2,2:2|2:3,0:0:0:0:
512,0,136155,1,2,3:2:0:0:
401,124,136324,6,0,P|357:120|316:110,1,87.5,2|2,3:2|2:2,0:0:0:0:
235,183,136661,2,0,P|323:190|408:211,1,175,2|10,2:3|2:2,0:0:0:0:
234,195,137166,5,2,2:2:0:0:
72,156,137335,2,0,P|83:117|97:72,1,87.5,2|2,2:3|2:2,0:0:0:0:
147,214,137672,6,0,P|163:299|184:384,1,175,0|2,3:3|3:3,0:0:0:0:
239,275,138178,1,0,2:2:0:0:
59,246,138346,2,0,P|34:293|57:329,1,87.5,8|0,2:2|2:2,0:0:0:0:
191,384,138683,2,0,P|248:366|299:367,1,87.5,2|2,2:3|3:2,0:0:0:0:
436,310,139020,6,0,L|445:260,3,43.75,2|0|0|0,3:3|2:2|2:2|2:2,0:0:0:0:
360,384,139357,2,0,L|348:333,1,43.75,2|0,2:3|2:2,0:0:0:0:
502,163,139526,6,0,L|513:209,3,43.75,2|0|10|0,2:2|2:2|2:2|2:2,0:0:0:0:
433,67,139863,2,0,L|420:122,1,43.75,2|0,2:2|2:2,0:0:0:0:
358,262,140032,5,2,2:3:0:0:
335,253,140116,1,0,2:2:0:0:
309,242,140200,1,2,2:3:0:0:
287,232,140284,1,0,2:2:0:0:
261,221,140369,6,0,P|199:230|127:243,1,131.25,0|0,3:3|2:2,0:0:0:0:
50,220,140706,2,0,P|71:168|134:166,1,87.5,2|0,3:3|2:2,0:0:0:0:
248,297,141043,2,0,P|240:338|230:403,1,87.5,10|0,2:2|2:2,0:0:0:0:
73,336,141380,2,0,P|94:251|114:126,1,175,2|2,2:3|3:2,0:0:0:0:
62,29,141885,5,2,2:2:0:0:
225,91,142054,2,0,P|186:90|124:78,2,87.5,2|2|10,2:3|2:2|2:2,0:0:0:0:
386,135,142560,5,0,2:2:0:0:
436,70,142728,2,0,L|532:58,1,87.5,2|2,2:3|2:2,0:0:0:0:
288,29,143065,6,0,P|304:114|328:241,1,175,0|2,3:3|3:3,0:0:0:0:
486,339,143571,1,0,2:2:0:0:
498,260,143739,6,0,P|441:263|419:306,1,87.5,8|0,2:2|2:2,0:0:0:0:
332,380,144077,2,0,P|288:372|216:364,1,87.5,2|2,2:3|3:2,0:0:0:0:
170,273,144414,6,0,P|259:289|357:301,1,175,2|2,3:2|2:3,0:0:0:0:
347,307,144919,1,2,2:2:0:0:
107,338,145088,2,0,P|95:291|80:230,1,87.5,8|2,2:2|2:2,0:0:0:0:
26,136,145425,2,0,P|39:68|44:-3,1,131.25,2|0,2:3|2:2,0:0:0:0:
212,28,145762,6,0,P|172:40|125:55,2,87.5,0|0|2,3:3|2:2|3:3,0:0:0:0:
36,11,146268,5,0,2:2:0:0:
228,197,146436,2,0,L|341:175,1,87.5,8|0,2:2|2:2,0:0:0:0:
474,103,146773,1,2,2:3:0:0:
418,41,146942,1,2,3:2:0:0:
410,207,147110,6,0,L|385:97,1,87.5,2|0,3:2|2:2,0:0:0:0:
396,117,147447,1,2,2:3:0:0:
503,313,147616,2,0,P|423:293|331:273,1,175,2|2,2:2|2:2,0:0:0:0:
266,366,148121,6,0,L|172:378,1,87.5,2|2,2:3|2:2,0:0:0:0:
59,348,148374,1,2,2:2:0:0:
52,342,148459,1,2,2:2:0:0:
256,192,148543,12,2,150987,2:2:0:0:
37,23,151155,5,10,2:2:0:0:
49,39,151268,1,8,2:2:0:0:
121,26,151380,5,10,2:2:0:0:
128,44,151492,1,8,2:2:0:0:
231,56,151605,5,10,2:2:0:0:
234,73,151717,1,8,2:2:0:0:
332,136,151829,5,10,2:2:0:0:
326,155,151942,1,8,2:2:0:0:
418,247,152054,5,10,2:2:0:0:
409,258,152166,1,8,2:2:0:0:
437,384,152279,5,10,2:2:0:0:
416,382,152391,1,8,2:2:0:0:
345,345,152503,6,0,L|221:322,1,87.5000033378602,10|8,2:3|2:3,0:0:0:0:
13,236,152728,1,8,2:3:0:0:
35,215,152841,2,0,P|86:231|116:269,1,87.5000033378602,4|4,2:3|2:3,0:0:0:0:
167,343,153009,5,4,2:3:0:0:
172,356,153093,1,4,2:3:0:0:
177,368,153178,2,0,P|219:199|330:66,1,350,12|0,2:2|2:2,0:0:0:0:
169,0,153599,6,0,P|197:32|205:79,1,87.5,0|0,2:2|2:2,0:0:0:0:
218,278,153768,1,0,2:2:0:0:
218,278,153853,2,0,P|191:159|69:156,1,262.5,14|0,2:2|2:2,0:0:0:0:
0,197,154189,6,0,P|30:235|86:223,1,87.5,0|0,1:1|2:2,0:0:0:0:
87,349,154357,2,0,P|132:332|138:275,1,87.5,2|0,2:3|2:2,0:0:0:0:
409,235,154526,6,0,P|240:188|67:155,1,350,2|8,1:2|2:2,0:0:0:0:
399,319,155032,5,2,2:3:0:0:
410,335,155117,1,8,2:2:0:0:
431,340,155200,6,0,P|494:314|465:185,1,196.875007510186,2|0,3:2|2:3,0:0:0:0:
450,112,155537,6,0,P|525:86|568:83,1,65.6250025033952,8|0,0:0|2:3,0:0:0:0:
475,11,155706,2,0,P|318:52|234:60,1,196.875007510186,6|0,2:3|1:1,0:0:0:0:
172,103,156043,6,0,P|201:136|208:164,1,65.6250025033952,0|2,1:1|1:2,0:0:0:0:
162,356,156211,2,0,P|339:309|434:300,1,262.5,0|2,1:1|1:2,0:0:0:0:
423,289,156548,5,0,1:1:0:0:
412,274,156632,1,0,1:1:0:0:
389,256,156717,1,0,1:1:0:0:
352,233,156801,1,0,1:1:0:0:
296,216,156885,1,2,1:2:0:0:
223,209,156970,1,0,1:1:0:0:
136,210,157054,1,0,1:1:0:0:
35,238,157138,1,0,1:1:0:0:
28,249,157223,6,0,P|16:206|1:165,1,87.5,4|8,3:2|2:3,0:0:0:0:
6,80,157728,5,0,1:1:0:0:
6,80,157812,1,0,1:1:0:0:
6,80,157897,2,0,B|75:0|207:56|210:190|81:214|67:152|74:127,1,328.125,12|0,2:2|1:1,0:0:0:0:
223,191,158234,6,0,P|234:149|250:108,1,87.5,0|0,1:1|1:1,0:0:0:0:
193,28,158402,2,0,P|153:153|100:370,1,350,2|0,3:3|2:2,0:0:0:0:
36,300,158824,5,0,2:2:0:0:
36,300,158908,2,0,P|24:257|9:216,1,87.5,0|2,3:3|2:3,0:0:0:0:
250,107,159077,5,2,2:2:0:0:
271,120,159161,1,0,3:3:0:0:
301,119,159245,2,0,P|366:98|351:-6,1,175,10|2,2:2|3:3,0:0:0:0:
418,157,159498,5,0,2:2:0:0:
418,157,159582,2,0,P|460:145|501:129,1,87.5,2|0,3:3|2:2,0:0:0:0:
398,366,159751,1,2,2:3:0:0:
377,360,159835,1,0,2:2:0:0:
349,344,159919,1,0,1:1:0:0:
323,310,160003,1,0,1:1:0:0:
314,258,160087,1,2,1:2:0:0:
339,200,160172,1,0,1:1:0:0:
405,168,160256,1,2,2:3:0:0:
479,195,160340,1,4,2:3:0:0:
512,265,160424,1,2,1:2:0:0:
484,339,160509,1,0,2:2:0:0:
398,366,160593,6,0,B|405:374|405:374|400:311|280:207|164:334,1,262.500010013581,6|0,3:2|1:1,0:0:0:0:
68,345,160846,1,2,1:3:0:0:
56,357,160930,2,0,P|27:346|8:288,1,87.5,8|0,2:2|2:2,0:0:0:0:
178,49,161099,6,0,P|82:85|58:236,1,262.5,4|4,2:3|2:3,0:0:0:0:
133,302,161352,1,4,2:3:0:0:
127,294,161436,2,0,P|132:251|165:223,1,87.5,8|0,2:2|2:2,0:0:0:0:
446,0,161605,5,10,2:2:0:0:
449,16,161689,1,0,2:2:0:0:
453,32,161773,1,2,2:2:0:0:
457,48,161857,1,0,2:2:0:0:
414,112,161942,2,0,L|391:203,1,65.6250025033952,4|0,2:2|1:1,0:0:0:0:
287,361,162110,5,8,2:3:0:0:
316,303,162194,1,8,2:3:0:0:
370,267,162278,1,0,1:1:0:0:
435,262,162362,1,0,1:1:0:0:
493,291,162447,2,0,P|486:327|435:346,1,87.5,2|0,1:3|1:1,0:0:0:0:
240,299,162616,5,8,2:3:0:0:
222,290,162701,1,8,2:3:0:0:
191,256,162785,1,4,2:3:0:0:
180,211,162869,1,4,2:3:0:0:
195,153,162953,2,0,P|248:135|251:61,1,87.5,4|4,2:3|2:3,0:0:0:0:
25,21,163121,1,4,2:3:0:0:
25,21,163206,1,4,2:3:0:0:
25,21,163290,6,0,B|17:14|17:14|80:19|184:139|57:255,1,262.500010013581,4|0,3:2|2:2,0:0:0:0:
47,309,163627,6,0,P|34:268|3:223,1,87.5,8|0,2:2|1:1,0:0:0:0:
186,80,163796,2,0,P|209:43|222:1,1,87.5,8|0,2:2|1:1,0:0:0:0:
419,23,163964,5,0,1:1:0:0:
449,53,164048,1,8,2:2:0:0:
457,101,164133,1,0,1:1:0:0:
441,145,164217,1,0,1:1:0:0:
391,173,164302,1,2,1:2:0:0:
353,215,164386,1,0,1:1:0:0:
349,256,164470,1,10,2:2:0:0:
364,290,164554,1,0,2:2:0:0:
434,327,164638,6,0,P|483:311|484:260,1,87.5,4|0,3:2|2:3,0:0:0:0:
372,90,164807,5,8,2:3:0:0:
372,90,164891,1,0,1:1:0:0:
372,90,164975,2,0,P|334:81|269:42,1,87.5,2|0,1:2|2:2,0:0:0:0:
88,20,165144,6,0,P|77:122|171:164,1,218.75,10|8,2:2|2:3,0:0:0:0:
232,112,165397,1,4,2:3:0:0:
232,112,165481,2,0,P|252:150|262:193,1,87.5,8|4,2:2|2:3,0:0:0:0:
144,338,165650,5,4,2:3:0:0:
127,342,165734,1,4,2:3:0:0:
109,340,165818,1,4,2:3:0:0:
95,329,165902,1,4,2:3:0:0:
87,310,165987,2,0,P|93:283|50:133,1,183.749994392395,6|2,3:2|2:2,0:0:0:0:
0,65,167335,6,0,P|112:63|81:213,1,262.499991989136,2|0,2:2|2:2,0:0:0:0:
221,156,167841,6,0,P|260:225|344:207,1,175,2|0,2:2|2:2,0:0:0:0:
381,281,168346,6,0,P|445:294|456:331,1,104.999996795654,2|2,2:2|2:2,0:0:0:0:
454,336,168599,1,2,2:2:0:0:
452,348,168683,1,2,2:2:0:0:
256,192,168725,12,2,173402,2:2:0:0:
60,154,174077,6,0,L|45:70,1,70,6|2,3:2|2:2,0:0:0:0:
57,165,174582,1,0,2:2:0:0:
333,348,174751,6,0,L|355:173,2,131.25000500679,10|0|2,2:2|2:2|3:2,0:0:0:0:
112,9,175256,6,0,L|64:370,2,350,2|2|2,1:2|1:2|2:2,0:0:0:0:
0,288,176099,6,0,L|61:271,1,52.4999983978272,8|2,2:2|2:2,0:0:0:0:
512,118,176436,1,0,2:2:0:0:
508,160,176520,1,0,2:2:0:0:
479,215,176604,1,2,1:2:0:0:
413,257,176689,1,0,2:2:0:0:
320,232,176773,6,0,P|428:240|514:374,1,262.5,2|0,3:2|2:2,0:0:0:0:
431,347,177110,2,0,P|357:345|369:280,1,131.25,2|0,2:2|2:2,0:0:0:0:
407,174,177447,6,0,L|397:126,2,35,10|0|2,2:2|2:2|3:2,0:0:0:0:
78,89,177953,2,0,L|62:-10,1,87.5,2|0,1:2|2:2,0:0:0:0:
82,102,178290,1,2,1:2:0:0:
362,64,178459,6,0,L|326:238,1,175,0|2,3:3|1:2,0:0:0:0:
397,345,178711,5,0,1:1:0:0:
402,351,178796,2,0,L|461:362,1,43.75,8|0,2:2|2:2,0:0:0:0:
263,186,178964,2,0,L|215:173,1,43.75,2|0,1:2|1:1,0:0:0:0:
20,249,179133,5,0,1:1:0:0:
1,276,179217,1,0,2:2:0:0:
0,326,179301,1,10,2:2:0:0:
45,365,179385,1,0,2:2:0:0:
122,359,179470,6,0,P|119:244|-10:40,1,350,6|2,3:2|2:2,0:0:0:0:
0,60,179975,1,0,2:2:0:0:
376,67,180144,6,0,P|347:123|292:129,1,105,10|0,2:2|2:2,0:0:0:0:
263,67,180481,2,0,P|284:34|347:38,1,65.6250025033952,2|0,3:2|2:2,0:0:0:0:
512,293,180650,2,0,P|443:239|299:226,1,196.875007510186,2|0,1:2|2:2,0:0:0:0:
112,185,180987,6,0,P|155:248|198:223,1,87.5,2|0,1:2|2:2,0:0:0:0:
207,355,181155,2,0,P|220:330|297:294,1,87.5,0|0,3:3|2:2,0:0:0:0:
512,196,181324,1,2,1:2:0:0:
383,378,181492,6,0,L|371:319,2,52.4999983978272,8|2|0,2:2|2:2|2:2,0:0:0:0:
239,222,181998,2,0,L|228:158,1,43.75,2|0,1:2|2:2,0:0:0:0:
420,19,182166,6,0,B|489:62|456:145|456:145|372:61|225:70,1,350,2|0,3:2|2:2,0:0:0:0:
269,79,182672,1,2,2:2:0:0:
150,252,182841,6,0,B|198:310|186:373|186:373|208:307|332:292,1,262.5,10|0,2:2|2:2,0:0:0:0:
375,333,183178,2,0,P|380:281|341:248,1,87.5,0|0,3:3|2:2,0:0:0:0:
0,202,183346,2,0,B|-16:257|36:301|46:275|120:275|98:401,1,196.875007510186,0|0,1:1|1:1,0:0:0:0:
96,360,183683,2,0,P|47:388|15:330,1,109.375,0|0,1:1|1:1,0:0:0:0:
96,194,183852,5,8,3:3:0:0:
107,117,183936,1,8,2:3:0:0:
160,78,184020,1,4,2:3:0:0:
207,72,184105,1,4,2:3:0:0:
233,45,184189,1,8,2:2:0:0:
228,12,184273,1,4,2:3:0:0:
208,3,184357,1,4,2:3:0:0:
194,5,184442,1,4,2:3:0:0:
187,11,184526,1,4,2:3:0:0:
187,19,184610,1,4,2:3:0:0:
222,155,184694,2,0,P|260:138|352:125,1,109.375,8|4,2:2|2:3,0:0:0:0:
510,4,184863,6,0,L|499:77,1,70,6|2,3:2|2:2,0:0:0:0:
501,0,185369,1,0,2:2:0:0:
295,221,185537,2,0,L|335:398,2,131.25000500679,10|0|2,2:2|2:2|3:2,0:0:0:0:
512,343,186043,6,0,L|393:318,1,105,2|0,1:2|2:2,0:0:0:0:
407,310,186380,1,2,1:2:0:0:
139,259,186548,1,0,3:3:0:0:
64,308,186717,1,2,2:2:0:0:
144,351,186885,6,0,L|178:78,2,218.75,8|2|0,2:2|2:2|2:2,0:0:0:0:
163,127,187391,1,2,1:2:0:0:
25,0,187560,6,0,B|83:-2|134:75|117:132|26:65|43:297|212:306|273:160|169:131,1,437.5,2|2,3:2|2:2,0:0:0:0:
0,92,188065,5,0,2:2:0:0:
302,10,188234,2,0,P|217:39|167:48,1,131.25,10|0,2:2|2:2,0:0:0:0:
13,189,188571,6,0,P|37:235|92:216,1,109.375,6|0,2:2|2:2,0:0:0:0:
298,217,188739,2,0,P|277:174|293:87,1,109.375,6|0,1:2|2:2,0:0:0:0:
477,23,188908,6,0,L|515:13,2,35,0|6|12,3:3|1:2|2:2,0:0:0:0:
472,34,189414,1,2,1:2:0:0:
248,228,189582,5,4,2:3:0:0:
234,318,189694,5,4,2:3:0:0:
318,285,189807,5,4,2:3:0:0:
219,265,189919,5,4,2:3:0:0:
288,321,190031,5,4,2:3:0:0:
302,233,190144,5,4,2:3:0:0:
62,286,190256,6,0,P|45:151|145:242,1,350,6|0,3:2|2:2,0:0:0:0:
140,253,190762,1,0,3:3:0:0:
457,384,190930,2,0,L|479:286,1,78.7499975967408,8|0,2:2|2:2,0:0:0:0:
471,295,191268,1,0,3:3:0:0:
403,99,191436,6,0,L|418:25,1,52.4999983978272,0|0,1:1|2:2,0:0:0:0:
405,111,191773,1,0,3:3:0:0:
296,265,191942,5,0,3:3:0:0:
327,353,192110,1,0,2:2:0:0:
286,252,192279,6,0,L|217:263,1,52.4999983978272,8|0,2:2|3:3,0:0:0:0:
20,372,192616,5,2,2:2:0:0:
44,358,192700,1,0,1:1:0:0:
82,312,192784,1,8,2:2:0:0:
81,239,192869,1,0,2:2:0:0:
24,181,192953,6,0,P|-3:117|96:52,1,175,2|0,3:2|1:1,0:0:0:0:
160,3,193206,1,0,1:1:0:0:
160,14,193290,2,0,P|183:45|278:61,1,87.5,4|4,2:3|2:3,0:0:0:0:
316,150,193459,2,0,P|375:118|468:111,1,87.5,2|0,3:2|2:2,0:0:0:0:
512,0,193627,5,8,2:2:0:0:
508,15,193711,1,0,1:1:0:0:
504,30,193796,2,0,P|487:88|463:216,1,175,0|2,1:1|3:2,0:0:0:0:
297,225,194048,5,0,2:2:0:0:
305,235,194133,2,0,P|370:248|446:302,1,87.5,2|0,1:2|1:1,0:0:0:0:
469,305,194301,1,0,1:1:0:0:
151,340,194470,5,8,3:3:0:0:
151,340,194554,1,8,2:3:0:0:
151,340,194638,2,0,P|165:300|131:239,1,87.5,4|0,3:3|2:2,0:0:0:0:
206,166,194807,2,0,P|178:133|108:132,1,87.5,2|0,1:2|1:1,0:0:0:0:
28,193,194975,6,0,P|61:217|34:188,1,122.5,12|0,2:2|2:2,0:0:0:0:
129,132,195650,6,0,L|114:80,1,46.6666666666667,6|2,3:2|2:2,0:0:0:0:
83,6,195987,5,2,2:2:0:0:
43,30,196099,1,2,2:2:0:0:
39,74,196211,1,2,2:2:0:0:
0,143,196324,5,10,2:2:0:0:
30,194,196436,1,2,2:2:0:0:
88,185,196548,1,2,2:2:0:0:
161,252,196661,5,2,3:2:0:0:
228,212,196773,1,2,2:2:0:0:
216,135,196885,1,2,2:2:0:0:
254,43,196998,6,0,L|321:24,1,65.6250025033952,2|2,2:2|2:2,0:0:0:0:
392,49,197166,1,2,3:2:0:0:
405,52,197251,1,2,2:2:0:0:
412,62,197335,1,2,3:2:0:0:
419,80,197419,1,2,2:2:0:0:
408,113,197503,1,2,2:2:0:0:
375,142,197588,1,2,2:2:0:0:
363,193,197672,6,0,P|372:233|438:252,1,87.5,10|0,2:2|2:2,0:0:0:0:
508,308,197841,2,0,P|500:363|439:339,1,131.25000500679,2|2,3:2|2:2,0:0:0:0:
440,184,198178,5,2,1:2:0:0:
501,295,198346,2,0,B|528:314|559:278|497:209|357:194|272:327|304:426|432:418|430:337,1,393.750015020371,2|0,3:2|2:2,0:0:0:0:
409,255,198852,2,0,P|373:234|363:193,1,87.5,2|0,3:2|2:2,0:0:0:0:
204,20,199020,6,0,B|221:24|221:24|229:109|87:207|-18:59,1,262.5,8|0,2:2|2:2,0:0:0:0:
64,6,199357,2,0,P|110:35|116:69,1,65.6250025033952,2|0,3:2|2:2,0:0:0:0:
104,211,199526,1,0,1:1:0:0:
101,223,199610,1,0,2:2:0:0:
100,234,199694,5,2,2:2:0:0:
66,282,199779,1,0,2:2:0:0:
101,330,199863,1,2,3:2:0:0:
160,311,199948,1,0,2:2:0:0:
157,252,200032,5,2,3:2:0:0:
164,316,200116,1,0,2:2:0:0:
234,339,200200,1,2,2:2:0:0:
275,279,200285,1,0,2:2:0:0:
232,221,200369,6,0,P|222:176|266:140,1,87.5,10|0,2:2|2:2,0:0:0:0:
213,79,200537,2,0,P|252:55|302:77,1,65.6250025033952,2|0,3:2|2:2,0:0:0:0:
446,212,200706,6,0,P|405:189|399:135,1,65.6250025033952,2|0,2:2|2:2,0:0:0:0:
325,145,200874,2,0,P|333:104|377:83,1,52.4999983978272,2|0,1:2|2:2,0:0:0:0:
502,39,201043,6,0,P|489:213|338:235,1,350,6|0,3:2|2:2,0:0:0:0:
270,56,201548,1,2,3:2:0:0:
336,17,201717,2,0,P|417:29|412:78,1,131.25000500679,8|0,2:2|2:2,0:0:0:0:
195,374,202054,6,0,B|207:330|162:272|114:267|140:355|-33:277|8:145|136:139|124:229,1,350,2|2,3:2|2:2,0:0:0:0:
120,375,202560,2,0,B|101:373|80:386|80:386|96:355|117:368,1,87.5,0|0,3:3|2:2,0:0:0:0:
174,295,202728,2,0,P|235:293|230:205,1,131.25000500679,0|8,3:3|2:3,0:0:0:0:
143,86,202981,5,8,2:3:0:0:
135,98,203065,2,0,P|139:131|161:155,1,65.6250025033952,8|0,2:2|2:2,0:0:0:0:
295,168,203234,2,0,P|200:159|132:226,1,196.875007510186,2|0,3:2|2:2,0:0:0:0:
73,172,203571,1,2,1:2:0:0:
73,172,203655,1,0,1:1:0:0:
73,172,203739,6,0,P|27:161|6:103,1,87.5,0|0,3:3|2:2,0:0:0:0:
142,1,203908,5,0,1:1:0:0:
206,3,203992,1,0,1:1:0:0:
243,42,204076,1,4,2:3:0:0:
247,80,204161,1,4,2:3:0:0:
233,102,204245,1,0,3:3:0:0:
220,107,204329,1,0,2:2:0:0:
211,102,204414,6,0,P|258:37|348:58,1,175,8|8,2:2|2:3,0:0:0:0:
414,17,204666,1,8,2:3:0:0:
414,17,204751,2,0,P|453:40|451:91,1,87.5,6|0,3:2|2:2,0:0:0:0:
441,269,204919,5,2,1:2:0:0:
441,269,205003,1,0,1:1:0:0:
441,269,205088,2,0,P|389:204|404:84,1,175,4|2,2:3|3:2,0:0:0:0:
496,146,205341,1,8,2:3:0:0:
496,146,205425,2,0,P|467:178|414:178,1,87.5,4|4,3:3|2:3,0:0:0:0:
362,307,205593,5,4,2:3:0:0:
362,307,205678,1,4,2:3:0:0:
362,306,205762,2,0,P|331:273|286:270,1,91.8749971961976,12|0,2:2|2:2,0:0:0:0:
217,6,206436,6,0,P|138:87|24:86,1,233.333333333333,6|2,3:2|2:2,0:0:0:0:
100,61,206773,5,2,2:2:0:0:
140,85,206885,1,2,2:2:0:0:
144,129,206997,1,2,2:2:0:0:
195,194,207110,5,10,2:2:0:0:
167,242,207222,1,2,2:2:0:0:
109,233,207334,1,2,2:2:0:0:
44,281,207447,5,2,3:2:0:0:
4,256,207559,1,0,2:2:0:0:
0,212,207671,1,0,2:2:0:0:
16,92,207784,6,0,P|54:86|85:62,1,78.7499975967408,8|8,2:3|2:3,0:0:0:0:
229,120,207953,1,4,3:3:0:0:
229,120,208037,1,4,2:3:0:0:
229,120,208121,6,0,P|259:144|273:180,1,78.7499975967408,2|0,3:2|2:2,0:0:0:0:
262,313,208290,1,8,2:3:0:0:
259,324,208374,1,0,2:2:0:0:
279,357,208459,5,10,2:2:0:0:
316,367,208543,1,0,2:2:0:0:
353,355,208627,1,2,3:2:0:0:
379,326,208711,1,0,1:1:0:0:
373,270,208796,5,2,1:2:0:0:
317,239,208880,1,0,2:2:0:0:
281,177,208964,1,10,2:2:0:0:
302,101,209048,1,0,2:2:0:0:
381,66,209133,5,2,3:2:0:0:
391,68,209217,1,0,2:2:0:0:
402,71,209301,1,2,2:2:0:0:
413,74,209385,1,0,2:2:0:0:
424,78,209470,6,0,B|438:121|438:121|403:154,1,87.5,0|0,1:1|2:2,0:0:0:0:
273,180,209638,5,2,3:2:0:0:
250,167,209723,1,2,2:2:0:0:
211,159,209807,1,10,2:2:0:0:
160,171,209892,1,0,2:2:0:0:
114,216,209975,1,2,2:3:0:0:
103,292,210060,1,0,2:2:0:0:
162,357,210144,6,0,P|218:341|197:254,1,131.25,2|0,3:2|2:2,0:0:0:0:
92,215,210397,5,0,2:2:0:0:
92,215,210481,2,0,P|54:187|67:132,1,87.5,0|0,1:1|2:2,0:0:0:0:
174,5,210650,2,0,P|171:47|135:70,1,87.5,2|0,3:3|2:2,0:0:0:0:
0,92,210818,2,0,P|98:70|167:186,1,218.75,6|0,3:3|1:1,0:0:0:0:
234,98,211071,5,0,1:1:0:0:
234,98,211155,2,0,P|272:92|291:46,1,65.6250025033952,10|2,2:2|2:2,0:0:0:0:
461,6,211324,1,2,3:2:0:0:
485,19,211408,1,2,1:2:0:0:
505,54,211492,1,2,1:2:0:0:
494,106,211577,1,2,1:2:0:0:
433,135,211661,1,2,1:2:0:0:
403,204,211745,1,2,1:2:0:0:
437,283,211829,5,6,3:2:0:0:
362,326,211942,2,0,P|329:319|290:302,1,69.9999978637696,2|2,2:2|2:2,0:0:0:0:
181,195,212166,5,2,2:2:0:0:
147,202,212251,1,0,2:2:0:0:
137,233,212335,2,0,P|150:265|157:295,1,52.4999983978272,0|0,3:3|2:2,0:0:0:0:
248,384,212503,5,10,2:2:0:0:
288,312,212616,1,2,2:2:0:0:
233,249,212728,1,2,2:2:0:0:
159,365,212841,6,0,P|120:362|92:333,1,65.6250025033952,2|2,3:2|2:2,0:0:0:0:
27,380,213009,2,0,P|6:347|13:307,1,65.6250025033952,10|2,2:2|2:2,0:0:0:0:
45,25,213178,5,10,2:2:0:0:
23,48,213263,1,0,2:2:0:0:
14,93,213347,1,2,1:2:0:0:
46,136,213430,1,0,1:1:0:0:
107,155,213515,5,2,3:2:0:0:
151,98,213599,1,0,1:1:0:0:
217,71,213683,1,2,1:2:0:0:
289,80,213768,1,0,1:1:0:0:
354,118,213852,5,2,3:2:0:0:
367,140,213936,1,0,1:1:0:0:
364,166,214020,1,2,1:2:0:0:
350,188,214105,1,0,1:1:0:0:
325,197,214189,1,2,3:2:0:0:
280,215,214273,1,0,1:1:0:0:
256,263,214357,1,2,1:2:0:0:
283,332,214442,1,0,1:1:0:0:
359,344,214526,6,0,P|322:200|291:86,1,262.500010013581,6|0,3:2|1:1,0:0:0:0:
330,20,214779,1,0,1:1:0:0:
330,20,214863,2,0,P|377:24|398:82,1,87.5,4|4,2:3|2:3,0:0:0:0:
477,62,215032,2,0,P|478:104|443:135,1,65.6250025033952,2|0,3:2|2:2,0:0:0:0:
487,307,215200,5,2,1:3:0:0:
465,276,215284,1,0,1:1:0:0:
423,239,215369,1,10,2:3:0:0:
355,215,215454,1,8,2:3:0:0:
275,210,215537,2,0,P|226:222|198:259,1,65.6250025033952,2|0,3:2|2:2,0:0:0:0:
48,384,215706,5,2,1:3:0:0:
79,362,215790,1,0,1:1:0:0:
116,320,215875,1,4,2:3:0:0:
139,252,215960,1,4,2:3:0:0:
145,172,216043,2,0,P|133:122|96:95,1,65.6250025033952,6|8,3:2|2:3,0:0:0:0:
169,0,216211,5,6,2:2:0:0:
185,45,216295,1,8,2:3:0:0:
238,73,216379,1,4,2:3:0:0:
275,65,216463,1,4,2:3:0:0:
309,31,216548,5,10,2:2:0:0:
344,13,216633,1,2,2:2:0:0:
375,19,216717,1,2,2:2:0:0:
394,36,216801,1,0,2:2:0:0:
400,61,216885,5,2,2:2:0:0:
391,71,216970,1,2,2:2:0:0:
386,83,217054,1,2,2:2:0:0:
384,95,217138,1,2,2:2:0:0:
387,107,217223,1,6,1:2:0:0:
256,192,217307,12,0,222532,2:2:0:0:
55,343,222616,6,0,B|121:357|121:357|172:309,1,131.25,6|0,2:2|2:2,0:0:0:0:
210,244,222953,2,0,L|186:156,1,87.5,10|0,2:2|2:2,0:0:0:0:
100,118,223290,2,0,L|77:9,1,87.5,10|0,2:2|2:2,0:0:0:0:
91,126,223627,1,10,2:2:0:0:
261,55,223796,6,0,L|169:78,1,87.5,2|8,2:2|2:2,0:0:0:0:
266,143,224133,2,0,L|358:120,1,87.5,2|8,2:2|2:2,0:0:0:0:
449,121,224470,2,0,L|426:213,1,87.5,2|8,2:2|2:2,0:0:0:0:
361,116,224807,2,0,L|384:24,1,87.5,2|8,2:2|2:2,0:0:0:0:
350,121,225144,5,2,2:2:0:0:
453,297,225312,2,0,B|387:300|387:300|342:214,1,131.25,10|0,2:2|2:2,0:0:0:0:
279,225,225650,2,0,L|178:247,1,87.5,10|0,2:2|2:2,0:0:0:0:
210,334,225987,2,0,L|311:312,1,87.5,10|0,2:2|2:2,0:0:0:0:
200,326,226324,5,10,2:2:0:0:
95,205,226492,2,0,L|121:301,1,87.5,2|8,2:2|2:2,0:0:0:0:
126,124,226829,2,0,L|224:94,1,87.5,2|8,2:2|2:2,0:0:0:0:
314,2,227166,2,0,L|288:120,1,87.5,2|8,2:2|2:2,0:0:0:0:
271,167,227503,2,0,B|310:185|310:185|346:148,1,87.5,2|8,2:2|2:2,0:0:0:0:
478,59,227841,5,2,2:2:0:0:
398,55,228009,2,0,L|427:199,1,131.25,10|0,2:2|2:2,0:0:0:0:
487,247,228346,2,0,L|461:351,1,87.5,10|0,2:2|2:2,0:0:0:0:
372,362,228683,2,0,L|399:263,1,87.5,10|0,2:2|2:2,0:0:0:0:
375,370,229020,5,10,2:2:0:0:
300,264,229189,2,0,L|209:251,1,87.5,2|8,2:2|2:2,0:0:0:0:
87,340,229526,2,0,L|-16:363,1,87.5,2|8,2:2|2:2,0:0:0:0:
184,345,229863,6,0,L|212:239,1,87.5,2|8,2:2|2:2,0:0:0:0:
98,168,230200,2,0,L|70:62,1,87.5,2|8,2:2|2:2,0:0:0:0:
93,179,230537,5,2,2:2:0:0:
152,28,230706,2,0,L|248:1,1,87.5,10|0,2:2|2:2,0:0:0:0:
309,73,231043,2,0,L|213:100,1,87.5,8|2,2:2|2:2,0:0:0:0:
407,91,231380,2,0,L|492:115,1,87.5,10|0,2:2|2:2,0:0:0:0:
419,183,231717,2,0,L|335:160,1,87.5,8|0,2:2|2:2,0:0:0:0:
256,192,232054,12,2,232728,2:2:0:0:
281,315,233402,6,0,L|275:343,1,26.25,2|0,2:2|2:2,0:0:0:0:
421,343,233739,6,0,B|351:337|336:208|391:258|422:206|356:72|223:64|177:272|352:234,1,393.750015020371,14|0,2:2|1:1,0:0:0:0:
509,337,234077,2,0,P|488:273|439:286,1,109.375,2|0,2:2|1:1,0:0:0:0:
276,353,234245,1,0,3:3:0:0:
281,367,234329,1,0,2:2:0:0:
285,383,234414,1,10,2:2:0:0:
444,190,234582,6,0,L|464:61,1,87.5,2|0,2:2|2:2,0:0:0:0:
193,62,234751,2,0,L|444:31,1,218.75,0|2,3:3|2:2,0:0:0:0:
498,23,235088,1,8,2:2:0:0:
200,144,235256,1,2,1:2:0:0:
146,137,235340,1,0,1:1:0:0:
108,100,235424,1,0,2:2:0:0:
101,47,235508,1,0,1:1:0:0:
129,1,235593,1,2,3:2:0:0:
191,150,235762,6,0,P|135:161|119:226,1,105,8|0,2:2|2:2,0:0:0:0:
73,272,236099,2,0,B|126:279|150:341|150:341|143:277|207:221,1,218.75,2|0,3:2|2:2,0:0:0:0:
69,257,236436,2,0,B|14:306|36:386|36:386|147:243|349:349,1,420,10|0,2:2|1:1,0:0:0:0:
402,352,236773,1,2,2:2:0:0:
442,334,236857,1,0,1:1:0:0:
466,284,236942,1,0,3:3:0:0:
456,209,237026,1,0,2:2:0:0:
390,171,237110,2,0,P|352:141|361:98,1,87.5,10|0,2:2|2:2,0:0:0:0:
420,20,237279,5,2,2:2:0:0:
414,27,237363,1,0,2:2:0:0:
409,34,237447,2,0,P|261:77|247:171,1,218.75,0|2,3:3|2:2,0:0:0:0:
498,180,237784,2,0,P|489:118|417:114,1,109.375,8|0,2:2|2:2,0:0:0:0:
299,214,237953,2,0,L|186:197,1,87.5,2|0,1:2|1:1,0:0:0:0:
0,31,238121,5,0,2:2:0:0:
72,56,238206,1,0,1:1:0:0:
103,93,238290,1,8,2:3:0:0:
118,126,238374,1,8,2:3:0:0:
120,145,238459,1,12,2:2:0:0:
119,162,238543,1,4,2:3:0:0:
114,173,238627,1,4,2:3:0:0:
107,180,238711,1,4,2:3:0:0:
100,186,238796,6,0,B|52:220|55:280|55:280|101:233|183:191|256:191|256:191|230:207|224:251,1,393.750015020371,6|0,3:2|2:2,0:0:0:0:
244,333,239133,2,0,P|179:332|169:270,1,109.375,10|0,2:2|2:2,0:0:0:0:
317,277,239301,1,0,1:1:0:0:
317,277,239385,1,0,1:1:0:0:
317,277,239470,1,2,2:2:0:0:
475,360,239638,6,0,P|497:373|475:356,1,87.5,0|0,3:3|2:2,0:0:0:0:
394,360,239807,2,0,B|364:296|468:218|452:291|513:292|596:168|536:49|333:113|453:245,1,393.750015020371,10|0,2:2|2:2,0:0:0:0:
401,358,240144,2,0,P|372:287|284:292,1,131.25000500679,0|2,3:3|2:2,0:0:0:0:
224,384,240481,6,0,L|318:357,1,87.5,8|0,2:2|2:2,0:0:0:0:
363,178,240650,1,2,1:2:0:0:
335,144,240734,1,0,1:1:0:0:
330,102,240818,1,0,2:2:0:0:
349,63,240902,1,0,1:1:0:0:
386,42,240987,1,2,3:2:0:0:
512,0,241155,6,0,P|499:75|443:66,1,131.25,8|0,2:2|2:2,0:0:0:0:
245,49,241492,2,0,P|103:81|50:206,1,262.5,2|0,3:2|2:2,0:0:0:0:
150,185,241829,6,0,P|210:159|199:114,1,87.5,8|0,2:2|2:2,0:0:0:0:
37,28,241998,2,0,P|29:66|74:102,1,87.5,2|0,1:2|1:1,0:0:0:0:
267,257,242166,1,2,2:2:0:0:
275,238,242251,1,0,1:1:0:0:
282,219,242335,1,0,3:3:0:0:
54,333,242503,6,0,L|65:385,1,52.5,12|0,2:2|2:2,0:0:0:0:
78,384,242841,6,0,L|100:378,1,17.5,0|0,3:3|2:2,0:0:0:0:
113,374,243009,6,0,L|135:368,1,17.5,8|8,2:3|2:3,0:0:0:0:
214,351,243178,6,0,L|255:341,1,43.75,14|0,2:2|1:1,0:0:0:0:
350,307,243346,6,0,L|438:287,1,65.6250025033952,0|0,1:1|1:1,0:0:0:0:
512,0,243515,5,8,2:3:0:0:
450,14,243599,1,8,2:3:0:0:
394,68,243683,1,8,3:3:0:0:
378,152,243768,1,8,2:3:0:0:
512,226,243852,6,0,L|400:202,1,65.6250025033952,8|4,2:2|2:3,0:0:0:0:
302,194,244020,2,0,L|169:168,1,87.5,4|4,2:3|2:3,0:0:0:0:
59,71,244189,6,0,L|67:113,1,39.3749987983704,6|0,3:2|2:2,0:0:0:0:
106,6,244526,6,0,L|60:311,1,262.500010013581,10|0,2:2|1:1,0:0:0:0:
85,371,244779,1,0,1:1:0:0:
85,371,244863,2,0,B|163:431|228:289|195:313|156:250|216:173|297:199,1,328.125,2|0,2:2|2:2,0:0:0:0:
359,234,245200,2,0,P|338:282|287:286,1,109.375,10|0,2:2|2:2,0:0:0:0:
253,104,245369,1,2,2:2:0:0:
487,15,245537,6,0,B|477:77|477:77|494:104,1,78.7499975967408,0|0,3:3|1:1,0:0:0:0:
446,349,245874,2,0,B|424:339|424:339|391:176|391:176|420:139,1,218.75,8|2,2:2|1:2,0:0:0:0:
502,198,246127,1,0,1:1:0:0:
502,198,246211,2,0,B|486:250|486:250|414:233,1,109.375,0|0,2:2|1:1,0:0:0:0:
264,121,246380,2,0,L|243:4,1,109.375,2|0,3:2|2:2,0:0:0:0:
397,73,246548,1,8,2:2:0:0:
397,73,246717,6,0,L|326:62,1,65.6250025033952,2|0,2:2|2:2,0:0:0:0:
40,148,246885,2,0,B|98:209|91:296|91:296|104:214|212:171,1,328.125,6|0,3:2|2:2,0:0:0:0:
126,108,247223,2,0,B|112:75|137:47|137:47|152:83|123:117,1,131.25000500679,10|0,2:2|1:1,0:0:0:0:
12,249,247475,1,0,1:1:0:0:
12,249,247560,2,0,P|115:251|261:375,1,262.5,2|0,2:2|2:2,0:0:0:0:
179,385,247897,2,0,P|155:341|174:301,1,87.5,14|0,2:2|2:2,0:0:0:0:
199,186,248065,2,0,P|248:178|279:210,1,87.5,2|0,2:2|2:2,0:0:0:0:
390,365,248234,5,0,3:3:0:0:
452,325,248346,1,8,2:3:0:0:
437,252,248459,1,8,2:3:0:0:
425,247,248571,5,8,2:3:0:0:
363,207,248683,1,4,2:3:0:0:
378,134,248796,1,4,2:3:0:0:
394,126,248908,5,4,2:3:0:0:
456,86,249020,1,4,2:3:0:0:
441,13,249133,1,6,2:3:0:0:
427,7,249245,5,4,2:3:0:0:
347,6,249357,1,4,2:3:0:0:
323,75,249470,1,4,2:3:0:0:
295,244,249582,6,0,L|262:11,1,227.499989585877,6|0,3:2|2:2,0:0:0:0:
512,194,250088,6,0,L|442:173,1,65.6250025033952,0|0,3:3|2:2,0:0:0:0:
193,61,250256,2,0,B|234:102|239:179|239:179|252:107|347:70,1,262.5,8|0,2:2|2:2,0:0:0:0:
419,46,250593,6,0,P|427:91|360:116,1,87.5,0|0,3:3|2:2,0:0:0:0:
149,160,250762,2,0,B|55:138|2:313|138:327|207:255|116:191,1,262.5,0|0,3:3|2:2,0:0:0:0:
102,0,251099,6,0,P|88:45|131:94,1,87.5,0|0,3:3|2:2,0:0:0:0:
269,276,251268,2,0,P|302:266|317:201,1,105,0|0,3:2|2:2,0:0:0:0:
316,196,251605,6,0,P|188:215|93:341,1,262.5,8|0,2:2|2:2,0:0:0:0:
50,380,251942,2,0,P|13:348|48:293,1,87.5,2|0,1:2|1:1,0:0:0:0:
203,371,252110,1,10,2:2:0:0:
203,371,252194,1,0,1:1:0:0:
203,371,252279,2,0,L|442:341,1,175,0|0,3:3|2:2,0:0:0:0:
492,269,252532,5,8,2:3:0:0:
492,269,252616,2,0,L|459:384,1,87.5,4|0,2:3|2:2,0:0:0:0:
406,192,252784,2,0,L|413:256,1,35,2|0,3:2|2:2,0:0:0:0:
361,10,252953,6,0,P|478:35|500:188,1,262.5,8|0,2:2|2:2,0:0:0:0:
418,107,253290,2,0,L|358:99,1,35,2|0,3:2|2:2,0:0:0:0:
274,85,253459,2,0,L|166:69,1,87.5,0|0,1:1|1:1,0:0:0:0:
80,4,253627,2,0,L|130:268,1,262.5,2|8,1:2|2:3,0:0:0:0:
54,302,253964,5,10,2:2:0:0:
62,341,254048,1,0,1:1:0:0:
94,374,254133,1,2,1:2:0:0:
170,384,254217,1,0,1:1:0:0:
244,341,254301,1,8,2:2:0:0:
278,261,254385,1,4,2:3:0:0:
330,225,254470,1,4,2:3:0:0:
377,220,254554,1,4,2:3:0:0:
416,238,254638,1,4,2:3:0:0:
436,267,254723,1,4,2:3:0:0:
443,294,254807,6,0,P|425:329|416:376,1,87.5,4|4,2:3|2:3,0:0:0:0:
313,384,254975,2,0,P|338:291|340:9,1,350,6|0,3:2|2:2,0:0:0:0:
459,109,255481,1,0,3:3:0:0:
155,52,255650,2,0,P|172:151|280:157,1,196.875007510186,8|0,2:2|2:2,0:0:0:0:
269,0,255987,6,0,P|261:21|252:88,1,87.5,0|0,3:3|2:2,0:0:0:0:
183,253,256155,2,0,P|77:278|-34:345,1,196.875007510186,0|0,1:1|2:2,0:0:0:0:
0,332,256492,1,0,3:3:0:0:
84,177,256661,6,0,P|72:153|41:123,2,52.4999983978272,0|0|8,3:3|2:2|2:2,0:0:0:0:
42,139,257166,1,0,3:3:0:0:
496,84,257335,5,2,2:2:0:0:
462,86,257419,1,0,2:2:0:0:
408,115,257503,1,2,1:2:0:0:
375,182,257588,1,0,1:1:0:0:
387,263,257672,2,0,P|459:266|440:174,1,175,0|0,3:3|1:1,0:0:0:0:
332,339,257925,1,0,1:1:0:0:
332,339,258009,2,0,P|256:315|210:324,1,87.5,2|0,2:2|2:2,0:0:0:0:
170,245,258178,2,0,P|180:187|169:130,1,87.5,2|0,3:2|2:2,0:0:0:0:
326,63,258346,6,0,P|278:176|258:318,1,262.5,0|8,1:1|2:3,0:0:0:0:
170,351,258683,2,0,P|136:352|96:270,1,109.375,2|8,3:2|2:3,0:0:0:0:
48,18,258852,1,2,1:2:0:0:
132,25,258936,1,0,1:1:0:0:
192,63,259020,1,4,2:3:0:0:
218,109,259105,1,4,2:3:0:0:
227,152,259189,1,4,3:3:0:0:
221,192,259273,1,8,2:3:0:0:
213,210,259357,1,2,3:2:0:0:
202,220,259442,1,0,2:2:0:0:
194,230,259526,2,0,P|165:222|76:217,1,109.375,2|0,1:2|1:1,0:0:0:0:
431,4,259694,6,0,P|427:23|424:76,1,70,8|6,2:2|3:2,0:0:0:0:
256,192,260453,12,2,263065,2:3:0:0:
161,324,263739,6,0,B|120:322|82:264|94:222|163:272|150:98|23:91|-22:200|55:222,1,314.999990386963,14|0,2:2|2:2,0:0:0:0:
37,294,264245,1,0,2:2:0:0:
37,294,264414,2,0,P|60:297|101:261,1,70,0|0,2:2|2:2,0:0:0:0:
480,134,264751,6,0,P|455:192|416:166,1,105,2|0,2:3|2:2,0:0:0:0:
357,207,265088,2,0,B|333:156|379:117|385:120|393:125|444:89|405:14,1,196.875007510186,2|0,2:3|2:2,0:0:0:0:
340,59,265425,2,0,P|306:53|251:37,1,70,2|0,2:3|2:2,0:0:0:0:
108,0,265762,5,2,2:3:0:0:
117,4,265846,1,2,2:2:0:0:
127,18,265930,1,2,2:2:0:0:
132,38,266015,1,2,2:2:0:0:
124,63,266099,1,2,2:2:0:0:
104,86,266183,1,2,2:2:0:0:
71,101,266267,1,2,2:3:0:0:
43,131,266352,1,2,2:2:0:0:
32,176,266436,1,2,2:3:0:0:
43,224,266520,1,2,2:2:0:0:
93,261,266604,1,10,2:2:0:0:
156,257,266689,1,2,2:2:0:0:
218,206,266773,6,0,L|194:92,1,104.999996795654,8|0,2:2|2:2,0:0:0:0:
199,91,267026,1,0,2:2:0:0:
202,80,267110,1,2,2:3:0:0:
498,256,267363,5,8,2:2:0:0:
509,261,267447,2,0,B|524:310|524:310|487:350,1,104.999996795654,8|8,2:2|2:2,0:0:0:0:
476,355,267700,1,0,2:2:0:0:
465,360,267784,6,0,P|420:340|360:333,1,104.999996795654,8|8,2:3|2:2,0:0:0:0:
301,379,268037,1,0,1:1:0:0:
280,367,268121,1,8,2:2:0:0:
260,341,268206,1,0,2:2:0:0:
255,297,268290,1,8,2:3:0:0:
285,252,268374,1,4,2:3:0:0:
364,254,268459,6,0,B|404:243|437:186|431:152|362:202|375:28|502:21|547:130|470:152,1,314.999990386963,6|0,3:2|1:1,0:0:0:0:
316,128,268880,1,0,1:1:0:0:
316,128,268964,2,0,P|315:160|337:183,1,65.6250025033952,4|4,2:3|2:3,0:0:0:0:
473,252,269133,6,0,L|206:174,1,236.249992790222,14|0,2:2|2:2,0:0:0:0:
81,101,269470,1,0,1:1:0:0:
77,85,269554,1,0,1:1:0:0:
73,69,269638,1,0,1:1:0:0:
68,53,269723,1,0,1:1:0:0:
130,0,269807,5,0,1:1:0:0:
157,69,269892,1,0,1:1:0:0:
133,117,269976,1,0,1:1:0:0:
88,135,270060,1,0,1:1:0:0:
63,144,270144,1,0,1:1:0:0:
49,166,270229,1,0,1:1:0:0:
46,192,270313,1,0,1:1:0:0:
59,214,270397,1,0,1:1:0:0:
71,221,270481,5,2,2:3:0:0:
141,208,270566,1,4,2:3:0:0:
207,231,270650,1,4,2:3:0:0:
243,291,270734,1,4,2:3:0:0:
277,360,270818,6,0,P|318:377|357:335,1,78.7499975967408,0|0,1:1|1:1,0:0:0:0:
414,319,270987,1,0,1:1:0:0:
414,319,271071,1,0,1:1:0:0:
414,319,271155,6,0,L|437:211,1,104.999996795654,4|0,3:2|1:1,0:0:0:0:
370,179,271408,1,8,2:2:0:0:
362,174,271492,2,0,L|349:120,1,52.4999983978272,8|0,2:2|2:2,0:0:0:0:
430,25,271661,6,0,L|328:1,1,104.999996795654,4|0,2:3|1:1,0:0:0:0:
292,67,271914,1,8,2:2:0:0:
285,75,271998,2,0,L|229:87,1,52.4999983978272,8|4,2:2|2:3,0:0:0:0:
132,0,272166,6,0,L|108:102,1,104.999996795654,4|0,2:3|2:2,0:0:0:0:
176,138,272419,1,0,1:1:0:0:
184,145,272503,2,0,L|196:201,1,52.4999983978272,8|0,2:2|1:1,0:0:0:0:
360,281,272672,5,8,2:3:0:0:
342,277,272756,1,8,2:3:0:0:
325,273,272840,1,8,2:3:0:0:
308,269,272924,1,8,2:3:0:0:
291,266,273009,1,8,2:3:0:0:
274,262,273093,1,8,2:3:0:0:
257,258,273178,6,0,P|229:269|213:328,1,78.7499975967408,8|4,2:2|2:3,0:0:0:0:
132,323,273346,2,0,P|133:353|184:386,1,78.7499975967408,8|0,2:2|2:2,0:0:0:0:
369,360,273515,5,4,2:3:0:0:
407,361,273599,1,4,2:3:0:0:
439,340,273683,1,4,2:3:0:0:
453,304,273767,1,4,2:3:0:0:
439,254,273852,6,0,B|399:205|404:132|477:99|534:114|544:201|497:204,1,262.500010013581,6|0,3:2|2:2,0:0:0:0:
342,166,274357,1,0,1:1:0:0:
342,166,274442,1,0,1:1:0:0:
342,166,274526,2,0,L|240:139,1,65.6250025033952,8|0,2:2|1:1,0:0:0:0:
160,1,274694,5,0,1:1:0:0:
168,32,274778,1,0,1:1:0:0:
176,64,274862,1,0,1:1:0:0:
185,96,274946,1,8,2:2:0:0:
193,127,275031,1,8,2:2:0:0:
201,159,275115,1,0,1:1:0:0:
209,190,275200,6,0,L|177:335,1,131.25000500679,8|4,2:3|2:3,0:0:0:0:
123,370,275453,1,8,2:2:0:0:
123,370,275537,2,0,P|74:357|95:270,1,131.25000500679,8|8,2:2|2:2,0:0:0:0:
262,75,275874,5,0,1:1:0:0:
293,66,275959,1,8,2:3:0:0:
325,58,276043,1,8,2:2:0:0:
357,49,276127,1,0,1:1:0:0:
388,41,276211,6,0,P|427:50|437:135,1,131.25000500679,8|0,2:2|1:1,0:0:0:0:
371,166,276464,1,0,1:1:0:0:
371,166,276548,2,0,L|355:232,1,52.4999983978272,4|4,2:3|2:3,0:0:0:0:
180,318,276717,6,0,P|187:259|243:242,1,104.999996795654,10|8,2:2|2:2,0:0:0:0:
307,275,276970,1,8,2:2:0:0:
307,275,277054,2,0,L|323:341,1,52.4999983978272,4|4,2:3|2:3,0:0:0:0:
412,369,277223,6,0,P|502:328|464:268,1,157.499995193482,2|8,2:3|2:2,0:0:0:0:
428,259,277475,1,8,2:2:0:0:
428,259,277560,1,0,2:2:0:0:
142,25,277728,6,0,P|52:66|90:126,1,157.499995193482,6|8,2:3|2:2,0:0:0:0:
98,175,277981,1,8,2:2:0:0:
98,175,278065,1,0,2:2:0:0:
319,338,278234,6,0,L|346:198,1,131.25000500679,10|0,2:2|1:1,0:0:0:0:
148,29,278487,1,8,2:2:0:0:
148,29,278571,6,0,L|172:157,1,131.25000500679,6|8,2:3|2:2,0:0:0:0:
236,201,278824,1,0,1:1:0:0:
241,215,278908,5,8,2:2:0:0:
288,224,278992,1,0,1:1:0:0:
332,202,279076,1,8,2:2:0:0:
354,159,279160,1,8,2:2:0:0:
347,111,279245,6,0,P|387:56|451:82,1,131.25,4|0,3:2|2:2,0:0:0:0:
503,271,279582,6,0,B|431:270|391:366|391:366|403:265|335:203,1,314.999990386963,2|0,1:2|1:1,0:0:0:0:
438,201,280256,2,0,P|450:168|441:202,1,104.999996795654,2|0,1:2|1:1,0:0:0:0:
510,359,280593,5,2,1:2:0:0:
487,331,280677,1,0,1:1:0:0:
460,310,280761,1,0,1:1:0:0:
429,294,280845,1,0,1:1:0:0:
395,286,280930,1,0,1:1:0:0:
360,284,281014,1,0,1:1:0:0:
326,290,281098,1,0,1:1:0:0:
293,304,281182,1,0,1:1:0:0:
264,326,281268,5,2,1:2:0:0:
251,338,281352,1,0,1:1:0:0:
234,342,281436,1,0,1:1:0:0:
216,342,281520,1,0,1:1:0:0:
199,335,281605,1,0,1:1:0:0:
186,323,281689,1,0,1:1:0:0:
177,307,281773,1,0,1:1:0:0:
175,289,281857,1,0,1:1:0:0:
179,271,281942,5,2,1:2:0:0:
213,236,282026,1,0,1:1:0:0:
225,188,282110,1,0,1:1:0:0:
204,143,282194,1,0,1:1:0:0:
158,123,282279,1,0,1:1:0:0:
109,124,282363,1,0,1:1:0:0:
63,104,282448,1,0,1:1:0:0:
42,59,282532,1,0,1:1:0:0:
54,11,282616,5,0,1:1:0:0:
100,31,282700,1,0,1:1:0:0:
121,76,282784,1,0,1:1:0:0:
109,124,282868,1,0,1:1:0:0:
83,166,282953,1,0,1:1:0:0:
37,186,283037,1,0,1:1:0:0:
16,231,283121,1,2,1:2:0:0:
28,279,283205,1,0,1:1:0:0:
67,309,283290,5,2,1:2:0:0:
122,304,283374,1,0,1:1:0:0:
158,260,283459,1,0,1:1:0:0:
155,205,283543,1,0,1:1:0:0:
181,147,283627,1,0,1:1:0:0:
237,119,283711,1,0,1:1:0:0:
299,132,283796,1,0,1:1:0:0:
329,186,283880,1,0,1:1:0:0:
317,247,283964,5,2,1:2:0:0:
277,191,284049,1,0,1:1:0:0:
278,131,284134,1,2,1:2:0:0:
305,87,284217,1,0,1:1:0:0:
342,64,284301,1,0,1:1:0:0:
376,57,284385,1,0,1:1:0:0:
402,60,284470,1,0,1:1:0:0:
426,72,284554,6,0,L|418:117,1,35,0|0,1:1|2:2,0:0:0:0:
482,169,285276,5,0,3:3:0:0:
482,169,285353,5,0,3:3:0:0:
482,169,285430,5,8,2:2:0:0:
53,329,286492,6,0,L|45:270,1,43.75,2|2,2:2|2:2,0:0:0:0:
98,114,286661,6,0,B|-21:92|-166:219|371:329|712:317|424:164|424:164|436:231|406:294|395:323|256:418|68:380|52:149|154:71|154:71|234:4|350:28|397:94,1,1694.00005169678,6|0,3:2|2:2,0:0:0:0:
