osu file format v14

[General]
AudioFilename: audio.ogg
AudioLeadIn: 0
PreviewTime: 90738
Countdown: 0
SampleSet: Normal
StackLeniency: 0.7
Mode: 1
LetterboxInBreaks: 0
EpilepsyWarning: 1
WidescreenStoryboard: 1

[Editor]
Bookmarks: 9590,25769,201552
DistanceSpacing: 1
BeatDivisor: 4
GridSize: 32
TimelineZoom: 1.4

[Metadata]
Title:Stellar Stellar
TitleUnicode:Stellar Stellar
Artist:Hoshimachi Suisei
ArtistUnicode:星街すいせい
Creator:[Zeth]
Version:Lyra's Futsuu
Source:
Tags:hololive production ホロライブプロダクション vtuber virtual youtuber バーチャル ユーチューバー TAKU INOUE inotac inotaku 永山ひろなお Nagayama Hironao Still Still Stellar 1st first album japanese electronic pop j-pop jpop drum and n' bass dnb ler1211 CallMeLyra MTNTWarz TaikOseania taiko_maniac1811 cdhsausageboy cdh Jerry
BeatmapID:3277774
BeatmapSetID:1589361

[Difficulty]
HPDrainRate:6
CircleSize:5
OverallDifficulty:4
ApproachRate:5
SliderMultiplier:1.4
SliderTickRate:1

[Events]
//Background and Video events
0,0,"Artboard 1.jpg",0,200
//Break Periods
2,42266,44626
//Storyboard Layer 0 (Background)
Sprite,Background,TopLeft,"Artboard 1.jpg",0,0
//Storyboard Layer 1 (Fail)
//Storyboard Layer 2 (Pass)
//Storyboard Layer 3 (Foreground)
Animation,Foreground,Centre,"SB\intro\map by\lyra\.jpg",315,360,3,150,LoopForever P,0,20356,,A F,2,20356,20525,0,0.8 MY,2,20356,20525,350,360 S,0,20356,25918,0.35 MX,0,25749,25918,315,-475
//Storyboard Layer 4 (Overlay)
//Storyboard Sound Samples

[TimingPoints]
0,337.078651685393,99,1,0,80,1,8
3975,342.857142857143,4,1,0,80,1,0
6032,372.670807453416,4,1,0,80,1,8
6775,352.941176470588,4,1,0,80,1,0
8186,346.820809248555,4,1,0,80,1,0
9570,337.078651685393,4,1,0,80,1,0
25749,-100,4,1,0,60,0,0
47322,-100,4,1,0,70,0,0
68894,337.078651685393,6,1,0,80,1,0
76983,337.078651685393,4,1,0,80,1,0
91814,-100,4,1,0,100,0,1
118780,-100,4,1,0,90,0,0
119454,-100,4,1,0,80,0,0
120129,-100,4,1,0,70,0,0
120803,-100,4,1,0,60,0,0
121477,-100,4,1,0,50,0,0
124174,-100,4,1,0,70,0,0
129567,-100,4,1,0,60,0,0
151140,337.078651685393,6,1,0,75,1,0
159229,337.078651685393,4,1,0,80,1,0
174060,-100,4,1,0,100,0,1
217206,-100,4,1,0,100,0,0
217880,-100,4,1,0,90,0,0
218554,-100,4,1,0,80,0,0
219229,-100,4,1,0,70,0,0
219903,-100,4,1,0,60,0,0
220577,-100,4,1,0,50,0,0
222515,-100,4,1,0,60,0,0
228667,-100,4,1,0,60,0,0
233723,-100,4,1,0,100,0,1
260352,-100,4,1,0,90,0,0
261026,-100,4,1,0,80,0,0
261701,-100,4,1,0,70,0,0
262375,-100,4,1,0,60,0,0
263049,-100,4,1,0,50,0,0
263639,-100,4,1,0,80,0,0
284622,402.684563758389,5,1,0,80,1,0
286635,337.078651685393,99,1,0,100,1,0

[HitObjects]
256,192,10244,5,12,0:0:0:0:
256,192,11255,1,0,0:0:0:0:
256,192,11592,1,8,0:0:0:0:
256,192,11929,1,0,0:0:0:0:
256,192,12266,1,0,0:0:0:0:
256,192,12603,1,0,0:0:0:0:
256,192,12772,1,0,0:0:0:0:
256,192,12940,1,8,0:0:0:0:
256,192,13277,1,8,0:0:0:0:
256,192,13614,1,0,0:0:0:0:
256,192,13867,1,8,0:0:0:0:
256,192,14120,1,8,0:0:0:0:
256,192,14457,1,0,0:0:0:0:
256,192,14626,1,8,0:0:0:0:
256,192,14963,1,4,0:0:0:0:
256,192,15637,1,12,0:0:0:0:
256,192,16311,1,0,0:0:0:0:
256,192,16648,1,0,0:0:0:0:
256,192,16985,1,8,0:0:0:0:
256,192,17322,1,8,0:0:0:0:
256,192,17491,1,8,0:0:0:0:
256,192,17659,1,0,0:0:0:0:
256,192,17996,1,0,0:0:0:0:
256,192,18334,1,0,0:0:0:0:
256,192,18502,1,8,0:0:0:0:
256,192,18839,1,0,0:0:0:0:
256,192,19008,1,8,0:0:0:0:
256,192,19682,1,8,0:0:0:0:
256,192,19850,1,8,0:0:0:0:
256,192,20356,1,4,0:0:0:0:
256,192,20693,1,0,0:0:0:0:
256,192,21030,1,0,0:0:0:0:
256,192,21367,1,8,0:0:0:0:
256,192,21704,1,8,0:0:0:0:
256,192,22041,1,8,0:0:0:0:
256,192,22716,1,0,0:0:0:0:
256,192,23053,1,8,0:0:0:0:
256,192,23727,1,8,0:0:0:0:
256,192,24401,1,8,0:0:0:0:
256,192,24738,1,0,0:0:0:0:
256,192,25075,1,0,0:0:0:0:
256,192,25244,1,0,0:0:0:0:
256,192,25412,1,8,0:0:0:0:
256,192,25749,1,12,0:0:0:0:
256,192,26086,1,8,0:0:0:0:
256,192,26423,1,0,0:0:0:0:
256,192,26929,1,0,0:0:0:0:
256,192,27098,1,8,0:0:0:0:
256,192,27435,1,0,0:0:0:0:
256,192,27772,1,8,0:0:0:0:
256,192,28109,1,0,0:0:0:0:
256,192,28277,1,8,0:0:0:0:
256,192,28614,1,0,0:0:0:0:
256,192,29289,1,0,0:0:0:0:
256,192,29457,1,0,0:0:0:0:
256,192,29794,1,8,0:0:0:0:
256,192,30131,1,8,0:0:0:0:
256,192,30300,1,8,0:0:0:0:
256,192,30637,1,0,0:0:0:0:
256,192,30974,1,8,0:0:0:0:
256,192,31311,1,0,0:0:0:0:
256,192,31985,1,8,0:0:0:0:
256,192,32154,1,8,0:0:0:0:
256,192,32491,1,8,0:0:0:0:
256,192,32828,1,0,0:0:0:0:
256,192,32996,1,8,0:0:0:0:
256,192,33334,1,8,0:0:0:0:
256,192,33671,1,0,0:0:0:0:
256,192,34176,1,8,0:0:0:0:
256,192,35187,1,8,0:0:0:0:
256,192,35525,1,8,0:0:0:0:
256,192,35693,1,0,0:0:0:0:
256,192,36030,1,8,0:0:0:0:
256,192,36367,1,0,0:0:0:0:
256,192,36873,1,8,0:0:0:0:
256,192,37210,1,0,0:0:0:0:
256,192,37716,1,8,0:0:0:0:
256,192,37884,1,0,0:0:0:0:
256,192,38221,1,0,0:0:0:0:
256,192,38558,1,8,0:0:0:0:
256,192,38895,1,0,0:0:0:0:
256,192,39064,1,8,0:0:0:0:
256,192,39401,1,0,0:0:0:0:
256,192,40075,1,8,0:0:0:0:
256,192,40244,1,8,0:0:0:0:
256,192,40581,1,8,0:0:0:0:
256,192,40918,1,0,0:0:0:0:
256,192,41086,1,0,0:0:0:0:
256,192,41255,1,8,0:0:0:0:
256,192,41761,1,8,0:0:0:0:
256,192,41929,1,4,0:0:0:0:
256,192,45974,5,8,0:0:0:0:
256,192,46311,1,0,0:0:0:0:
256,192,46480,1,8,0:0:0:0:
256,192,46817,1,0,0:0:0:0:
256,192,46985,1,8,0:0:0:0:
256,192,47322,1,4,0:0:0:0:
256,192,47659,1,8,0:0:0:0:
256,192,47996,1,0,0:0:0:0:
256,192,48502,1,8,0:0:0:0:
256,192,48671,1,0,0:0:0:0:
256,192,49008,1,0,0:0:0:0:
256,192,49176,1,0,0:0:0:0:
256,192,49345,1,8,0:0:0:0:
256,192,49682,1,0,0:0:0:0:
256,192,49850,1,8,0:0:0:0:
256,192,50187,1,0,0:0:0:0:
256,192,50862,1,8,0:0:0:0:
256,192,51030,1,8,0:0:0:0:
256,192,51367,1,8,0:0:0:0:
256,192,51704,1,0,0:0:0:0:
256,192,51873,1,0,0:0:0:0:
256,192,52210,1,0,0:0:0:0:
256,192,52378,1,0,0:0:0:0:
256,192,52547,1,8,0:0:0:0:
256,192,52884,1,0,0:0:0:0:
256,192,53558,1,8,0:0:0:0:
256,192,53727,1,8,0:0:0:0:
256,192,54064,1,8,0:0:0:0:
256,192,54401,1,0,0:0:0:0:
256,192,54569,1,8,0:0:0:0:
256,192,54738,1,0,0:0:0:0:
256,192,55075,5,0,0:0:0:0:
256,192,55244,5,0,0:0:0:0:
256,192,55581,1,8,0:0:0:0:
256,192,56592,1,0,0:0:0:0:
256,192,56761,1,8,0:0:0:0:
256,192,57098,1,8,0:0:0:0:
256,192,57266,1,0,0:0:0:0:
256,192,57603,1,8,0:0:0:0:
256,192,57772,1,0,0:0:0:0:
256,192,57940,1,0,0:0:0:0:
256,192,58109,1,12,0:0:0:0:
256,192,58783,1,0,0:0:0:0:
256,192,59289,1,8,0:0:0:0:
256,192,59457,1,0,0:0:0:0:
256,192,59794,1,8,0:0:0:0:
256,192,59963,1,8,0:0:0:0:
256,192,60300,1,0,0:0:0:0:
256,192,60637,1,8,0:0:0:0:
256,192,60805,1,0,0:0:0:0:
256,192,61480,1,0,0:0:0:0:
256,192,61985,1,8,0:0:0:0:
256,192,62154,1,8,0:0:0:0:
256,192,62491,1,8,0:0:0:0:
256,192,62659,1,0,0:0:0:0:
256,192,62996,1,8,0:0:0:0:
256,192,63165,1,0,0:0:0:0:
256,192,63334,1,0,0:0:0:0:
256,192,63502,1,12,0:0:0:0:
256,192,63839,1,8,0:0:0:0:
256,192,64008,1,0,0:0:0:0:
256,192,64176,1,8,0:0:0:0:
256,192,64513,1,4,0:0:0:0:
256,192,64850,1,0,0:0:0:0:
256,192,65187,1,8,0:0:0:0:
256,192,65356,1,0,0:0:0:0:
256,192,65525,1,0,0:0:0:0:
256,192,65693,1,8,0:0:0:0:
256,192,66030,1,0,0:0:0:0:
256,192,66199,1,8,0:0:0:0:
256,192,67210,1,8,0:0:0:0:
256,192,67547,1,0,0:0:0:0:
256,192,67716,1,8,0:0:0:0:
256,192,68053,1,0,0:0:0:0:
256,192,68221,1,8,0:0:0:0:
256,192,68558,1,0,0:0:0:0:
256,192,68727,1,8,0:0:0:0:
256,192,68894,1,0,0:0:0:0:
256,192,70916,1,12,0:0:0:0:
256,192,71590,1,12,0:0:0:0:
256,192,72770,1,8,0:0:0:0:
256,192,72938,1,0,0:0:0:0:
256,192,73191,1,8,0:0:0:0:
256,192,73444,1,0,0:0:0:0:
256,192,73613,1,8,0:0:0:0:
256,192,73865,1,0,0:0:0:0:
256,192,74202,1,8,0:0:0:0:
256,192,74792,1,0,0:0:0:0:
256,192,74961,1,12,0:0:0:0:
256,192,75635,1,12,0:0:0:0:
256,192,76815,1,8,0:0:0:0:
256,192,76983,1,0,0:0:0:0:
256,192,77320,1,8,0:0:0:0:
256,192,77488,1,8,0:0:0:0:
256,192,77825,1,0,0:0:0:0:
256,192,78162,1,0,0:0:0:0:
256,192,78331,1,8,0:0:0:0:
256,192,78668,1,0,0:0:0:0:
256,192,79005,1,8,0:0:0:0:
256,192,79342,1,8,0:0:0:0:
256,192,79511,1,8,0:0:0:0:
256,192,79679,1,0,0:0:0:0:
256,192,80353,1,0,0:0:0:0:
256,192,80690,1,8,0:0:0:0:
256,192,80859,1,8,0:0:0:0:
256,192,81027,1,0,0:0:0:0:
256,192,81365,1,8,0:0:0:0:
256,192,81702,1,0,0:0:0:0:
256,192,82039,1,0,0:0:0:0:
256,192,82207,1,8,0:0:0:0:
256,192,82376,1,0,0:0:0:0:
256,192,82713,1,8,0:0:0:0:
256,192,82881,1,0,0:0:0:0:
256,192,83556,1,8,0:0:0:0:
256,192,83724,1,0,0:0:0:0:
256,192,84061,1,8,0:0:0:0:
256,192,84230,1,0,0:0:0:0:
256,192,84398,1,0,0:0:0:0:
256,192,84735,1,8,0:0:0:0:
256,192,85072,1,8,0:0:0:0:
256,192,85409,1,8,0:0:0:0:
256,192,85578,1,8,0:0:0:0:
256,192,85915,1,8,0:0:0:0:
256,192,86084,1,0,0:0:0:0:
256,192,86421,1,0,0:0:0:0:
256,192,89454,5,8,0:0:0:0:
256,192,89623,1,0,0:0:0:0:
256,192,89791,1,0,0:0:0:0:
256,192,89960,1,8,0:0:0:0:
256,192,90297,1,0,0:0:0:0:
256,192,90466,1,8,0:0:0:0:
256,192,90803,1,8,0:0:0:0:
256,192,91140,1,0,0:0:0:0:
256,192,91814,1,4,0:0:0:0:
256,192,92151,1,0,0:0:0:0:
256,192,92488,1,8,0:0:0:0:
256,192,92825,1,0,0:0:0:0:
256,192,92994,1,8,0:0:0:0:
256,192,93162,1,0,0:0:0:0:
256,192,93331,1,0,0:0:0:0:
256,192,93499,1,8,0:0:0:0:
256,192,93668,1,8,0:0:0:0:
256,192,94005,1,0,0:0:0:0:
256,192,94174,1,8,0:0:0:0:
256,192,94511,1,0,0:0:0:0:
256,192,94848,1,0,0:0:0:0:
256,192,95185,1,8,0:0:0:0:
256,192,95522,1,8,0:0:0:0:
256,192,95691,1,8,0:0:0:0:
256,192,95859,1,0,0:0:0:0:
256,192,96028,1,0,0:0:0:0:
256,192,96196,1,8,0:0:0:0:
256,192,96365,1,0,0:0:0:0:
256,192,96702,1,0,0:0:0:0:
256,192,96870,1,8,0:0:0:0:
256,192,97207,1,8,0:0:0:0:
256,192,97881,1,8,0:0:0:0:
256,192,98218,1,0,0:0:0:0:
256,192,98387,1,8,0:0:0:0:
256,192,98555,1,0,0:0:0:0:
256,192,98724,1,0,0:0:0:0:
256,192,98892,1,8,0:0:0:0:
256,192,99061,1,8,0:0:0:0:
256,192,99398,1,0,0:0:0:0:
256,192,99567,1,8,0:0:0:0:
256,192,99904,1,0,0:0:0:0:
256,192,100241,1,0,0:0:0:0:
256,192,100409,1,8,0:0:0:0:
256,192,100578,1,0,0:0:0:0:
256,192,100915,1,8,0:0:0:0:
256,192,101252,1,0,0:0:0:0:
256,192,101421,1,0,0:0:0:0:
256,192,101589,1,8,0:0:0:0:
256,192,101926,1,0,0:0:0:0:
256,192,102095,1,0,0:0:0:0:
256,192,102263,1,8,0:0:0:0:
256,192,102600,1,4,0:0:0:0:
256,192,102938,1,0,0:0:0:0:
256,192,103275,1,8,0:0:0:0:
256,192,103612,1,0,0:0:0:0:
256,192,103781,1,8,0:0:0:0:
256,192,103949,1,0,0:0:0:0:
256,192,104118,1,0,0:0:0:0:
256,192,104286,1,8,0:0:0:0:
256,192,104455,1,8,0:0:0:0:
256,192,104792,1,0,0:0:0:0:
256,192,104961,1,8,0:0:0:0:
256,192,105298,1,0,0:0:0:0:
256,192,105635,1,0,0:0:0:0:
256,192,105972,1,8,0:0:0:0:
256,192,106309,1,8,0:0:0:0:
256,192,106478,1,8,0:0:0:0:
256,192,106646,1,0,0:0:0:0:
256,192,106814,1,0,0:0:0:0:
256,192,106983,1,8,0:0:0:0:
256,192,107320,1,0,0:0:0:0:
256,192,107994,1,12,0:0:0:0:
256,192,108499,1,0,0:0:0:0:
256,192,108668,1,8,0:0:0:0:
256,192,109005,1,0,0:0:0:0:
256,192,109342,1,8,0:0:0:0:
256,192,109511,1,0,0:0:0:0:
256,192,109679,1,0,0:0:0:0:
256,192,110016,1,8,0:0:0:0:
256,192,110353,1,0,0:0:0:0:
256,192,110522,1,8,0:0:0:0:
256,192,110690,1,0,0:0:0:0:
256,192,111027,1,8,0:0:0:0:
256,192,111196,1,8,0:0:0:0:
256,192,111365,1,0,0:0:0:0:
256,192,111702,1,8,0:0:0:0:
256,192,111870,1,0,0:0:0:0:
256,192,112207,1,0,0:0:0:0:
256,192,112375,1,0,0:0:0:0:
256,192,112713,1,8,0:0:0:0:
256,192,113387,1,4,0:0:0:0:
256,192,113893,1,0,0:0:0:0:
256,192,114062,1,8,0:0:0:0:
256,192,114399,1,0,0:0:0:0:
256,192,114736,1,8,0:0:0:0:
256,192,114905,1,0,0:0:0:0:
256,192,115073,1,0,0:0:0:0:
256,192,115410,1,8,0:0:0:0:
256,192,115747,1,0,0:0:0:0:
256,192,115916,1,8,0:0:0:0:
256,192,116084,1,0,0:0:0:0:
256,192,116421,1,8,0:0:0:0:
256,192,116590,1,8,0:0:0:0:
256,192,116759,1,0,0:0:0:0:
256,192,117096,1,8,0:0:0:0:
256,192,117264,1,0,0:0:0:0:
256,192,117600,5,0,0:0:0:0:
256,192,117769,5,0,0:0:0:0:
256,192,118107,1,8,0:0:0:0:
256,192,118443,1,8,0:0:0:0:
256,192,118780,12,0,121477,0:0:0:0:
256,192,124174,5,0,0:0:0:0:
256,192,125185,1,0,0:0:0:0:
256,192,126196,1,0,0:0:0:0:
256,192,126870,1,0,0:0:0:0:
256,192,127039,1,0,0:0:0:0:
256,192,127207,1,0,0:0:0:0:
256,192,127544,1,8,0:0:0:0:
256,192,127713,1,8,0:0:0:0:
256,192,127881,1,8,0:0:0:0:
256,192,128218,1,8,0:0:0:0:
256,192,128387,1,8,0:0:0:0:
256,192,128556,1,0,0:0:0:0:
256,192,128893,1,0,0:0:0:0:
256,192,129061,1,8,0:0:0:0:
256,192,129230,1,0,0:0:0:0:
256,192,129567,1,12,0:0:0:0:
256,192,129904,1,8,0:0:0:0:
256,192,130241,1,0,0:0:0:0:
256,192,130747,1,0,0:0:0:0:
256,192,130916,1,8,0:0:0:0:
256,192,131253,1,0,0:0:0:0:
256,192,131590,1,8,0:0:0:0:
256,192,131927,1,0,0:0:0:0:
256,192,132095,1,8,0:0:0:0:
256,192,132432,1,0,0:0:0:0:
256,192,133107,1,0,0:0:0:0:
256,192,133275,1,0,0:0:0:0:
256,192,133612,1,8,0:0:0:0:
256,192,133949,1,8,0:0:0:0:
256,192,134118,1,8,0:0:0:0:
256,192,134455,1,0,0:0:0:0:
256,192,134792,1,8,0:0:0:0:
256,192,135129,1,0,0:0:0:0:
256,192,135803,1,8,0:0:0:0:
256,192,135972,1,8,0:0:0:0:
256,192,136309,1,8,0:0:0:0:
256,192,136646,1,0,0:0:0:0:
256,192,136814,1,8,0:0:0:0:
256,192,137152,1,8,0:0:0:0:
256,192,137489,1,0,0:0:0:0:
256,192,137994,1,8,0:0:0:0:
256,192,139005,1,8,0:0:0:0:
256,192,139343,1,8,0:0:0:0:
256,192,139511,1,0,0:0:0:0:
256,192,139848,1,8,0:0:0:0:
256,192,140185,1,0,0:0:0:0:
256,192,140691,1,8,0:0:0:0:
256,192,141028,1,0,0:0:0:0:
256,192,141534,1,8,0:0:0:0:
256,192,141702,1,0,0:0:0:0:
256,192,142039,1,0,0:0:0:0:
256,192,142376,1,8,0:0:0:0:
256,192,142713,1,0,0:0:0:0:
256,192,142882,1,8,0:0:0:0:
256,192,143219,1,0,0:0:0:0:
256,192,144230,1,0,0:0:0:0:
256,192,144399,1,8,0:0:0:0:
256,192,144736,1,0,0:0:0:0:
256,192,144904,1,0,0:0:0:0:
256,192,145241,1,8,0:0:0:0:
256,192,145578,1,0,0:0:0:0:
256,192,146084,1,0,0:0:0:0:
256,192,146421,1,8,0:0:0:0:
256,192,146758,1,0,0:0:0:0:
256,192,146926,1,0,0:0:0:0:
256,192,147095,1,8,0:0:0:0:
256,192,147432,1,0,0:0:0:0:
256,192,147600,1,0,0:0:0:0:
256,192,147769,1,8,0:0:0:0:
256,192,147938,1,0,0:0:0:0:
256,192,148275,1,0,0:0:0:0:
256,192,148443,1,8,0:0:0:0:
256,192,151140,1,8,0:0:0:0:
256,192,151589,1,8,0:0:0:0:
256,192,151814,1,8,0:0:0:0:
256,192,152263,1,0,0:0:0:0:
256,192,152488,1,8,0:0:0:0:
256,192,153162,1,12,0:0:0:0:
256,192,153836,1,12,0:0:0:0:
256,192,155016,1,8,0:0:0:0:
256,192,155184,1,0,0:0:0:0:
256,192,155437,1,8,0:0:0:0:
256,192,155690,1,0,0:0:0:0:
256,192,155859,1,8,0:0:0:0:
256,192,156111,1,0,0:0:0:0:
256,192,156448,1,8,0:0:0:0:
256,192,157038,1,0,0:0:0:0:
256,192,157207,1,12,0:0:0:0:
256,192,157881,1,12,0:0:0:0:
256,192,159061,1,8,0:0:0:0:
256,192,159229,1,0,0:0:0:0:
256,192,159566,1,8,0:0:0:0:
256,192,159734,1,8,0:0:0:0:
256,192,160071,1,0,0:0:0:0:
256,192,160408,1,0,0:0:0:0:
256,192,160577,1,8,0:0:0:0:
256,192,160914,1,0,0:0:0:0:
256,192,161251,1,8,0:0:0:0:
256,192,161588,1,8,0:0:0:0:
256,192,161757,1,8,0:0:0:0:
256,192,161925,1,0,0:0:0:0:
256,192,162599,1,0,0:0:0:0:
256,192,162936,1,8,0:0:0:0:
256,192,163105,1,8,0:0:0:0:
256,192,163273,1,0,0:0:0:0:
256,192,163611,1,8,0:0:0:0:
256,192,163948,1,0,0:0:0:0:
256,192,164285,1,0,0:0:0:0:
256,192,164453,1,8,0:0:0:0:
256,192,164622,1,0,0:0:0:0:
256,192,164959,1,8,0:0:0:0:
256,192,165127,1,0,0:0:0:0:
256,192,165802,1,8,0:0:0:0:
256,192,165970,1,0,0:0:0:0:
256,192,166476,1,0,0:0:0:0:
256,192,166981,1,8,0:0:0:0:
256,192,167318,1,8,0:0:0:0:
256,192,167824,1,8,0:0:0:0:
256,192,168330,1,0,0:0:0:0:
256,192,168498,1,0,0:0:0:0:
256,192,168667,1,0,0:0:0:0:
256,192,169172,1,8,0:0:0:0:
256,192,169678,1,8,0:0:0:0:
256,192,171363,5,8,0:0:0:0:
256,192,171700,1,8,0:0:0:0:
256,192,172037,1,8,0:0:0:0:
256,192,172375,1,8,0:0:0:0:
256,192,172712,1,8,0:0:0:0:
256,192,173049,1,8,0:0:0:0:
256,192,174060,1,4,0:0:0:0:
256,192,174397,1,0,0:0:0:0:
256,192,174734,1,8,0:0:0:0:
256,192,175071,1,0,0:0:0:0:
256,192,175240,1,8,0:0:0:0:
256,192,175577,1,8,0:0:0:0:
256,192,175745,1,0,0:0:0:0:
256,192,175914,1,0,0:0:0:0:
256,192,176082,1,8,0:0:0:0:
256,192,176757,1,4,0:0:0:0:
256,192,177094,1,0,0:0:0:0:
256,192,177431,1,8,0:0:0:0:
256,192,177768,1,0,0:0:0:0:
256,192,177937,1,8,0:0:0:0:
256,192,178274,1,8,0:0:0:0:
256,192,178442,1,0,0:0:0:0:
256,192,178611,1,0,0:0:0:0:
256,192,178779,1,8,0:0:0:0:
256,192,179116,1,8,0:0:0:0:
256,192,179285,1,0,0:0:0:0:
256,192,179453,1,8,0:0:0:0:
256,192,179790,1,0,0:0:0:0:
256,192,180127,1,8,0:0:0:0:
256,192,180464,1,0,0:0:0:0:
256,192,180633,1,8,0:0:0:0:
256,192,180970,1,8,0:0:0:0:
256,192,181138,1,0,0:0:0:0:
256,192,181307,1,0,0:0:0:0:
256,192,181475,1,8,0:0:0:0:
256,192,182150,1,0,0:0:0:0:
256,192,182487,1,0,0:0:0:0:
256,192,182824,1,8,0:0:0:0:
256,192,183161,1,0,0:0:0:0:
256,192,183498,1,0,0:0:0:0:
256,192,183835,1,0,0:0:0:0:
256,192,184004,1,0,0:0:0:0:
256,192,184172,1,8,0:0:0:0:
256,192,184341,1,8,0:0:0:0:
256,192,184678,1,8,0:0:0:0:
256,192,184846,1,4,0:0:0:0:
256,192,185183,1,0,0:0:0:0:
256,192,185520,1,8,0:0:0:0:
256,192,185857,1,0,0:0:0:0:
256,192,186026,1,8,0:0:0:0:
256,192,186363,1,8,0:0:0:0:
256,192,186531,1,0,0:0:0:0:
256,192,186700,1,0,0:0:0:0:
256,192,186868,1,8,0:0:0:0:
256,192,187543,1,4,0:0:0:0:
256,192,187880,1,0,0:0:0:0:
256,192,188217,1,8,0:0:0:0:
256,192,188554,1,0,0:0:0:0:
256,192,188723,1,8,0:0:0:0:
256,192,189060,1,8,0:0:0:0:
256,192,189228,1,0,0:0:0:0:
256,192,189397,1,0,0:0:0:0:
256,192,189565,5,8,0:0:0:0:
256,192,190240,1,4,0:0:0:0:
256,192,190745,1,0,0:0:0:0:
256,192,190914,1,8,0:0:0:0:
256,192,191251,1,0,0:0:0:0:
256,192,191588,1,8,0:0:0:0:
256,192,191757,1,0,0:0:0:0:
256,192,191925,1,0,0:0:0:0:
256,192,192262,1,8,0:0:0:0:
256,192,192599,1,0,0:0:0:0:
256,192,192768,1,8,0:0:0:0:
256,192,192936,1,0,0:0:0:0:
256,192,193273,1,0,0:0:0:0:
256,192,193442,1,0,0:0:0:0:
256,192,193611,1,8,0:0:0:0:
256,192,193948,1,8,0:0:0:0:
256,192,194116,1,0,0:0:0:0:
256,192,194453,1,0,0:0:0:0:
256,192,194621,1,0,0:0:0:0:
256,192,194959,1,8,0:0:0:0:
256,192,195633,1,4,0:0:0:0:
256,192,195970,1,0,0:0:0:0:
256,192,196308,1,8,0:0:0:0:
256,192,196645,1,0,0:0:0:0:
256,192,196813,1,8,0:0:0:0:
256,192,197151,1,0,0:0:0:0:
256,192,197319,1,0,0:0:0:0:
256,192,197656,1,8,0:0:0:0:
256,192,197825,1,0,0:0:0:0:
256,192,197993,1,8,0:0:0:0:
256,192,198162,1,8,0:0:0:0:
256,192,198330,1,0,0:0:0:0:
256,192,198835,1,0,0:0:0:0:
256,192,199004,1,8,0:0:0:0:
256,192,199172,1,8,0:0:0:0:
256,192,199342,1,8,0:0:0:0:
256,192,199678,1,0,0:0:0:0:
256,192,200015,1,0,0:0:0:0:
256,192,200352,1,8,0:0:0:0:
256,192,200521,1,0,0:0:0:0:
256,192,200689,1,0,0:0:0:0:
256,192,200858,1,8,0:0:0:0:
256,192,201026,1,0,0:0:0:0:
256,192,201532,5,0,0:0:0:0:
256,192,201700,1,8,0:0:0:0:
256,192,202037,1,8,0:0:0:0:
256,192,202206,1,8,0:0:0:0:
256,192,202543,5,0,0:0:0:0:
256,192,202712,5,0,0:0:0:0:
256,192,203049,1,8,0:0:0:0:
256,192,203723,1,8,0:0:0:0:
256,192,204228,1,0,0:0:0:0:
256,192,204397,1,8,0:0:0:0:
256,192,204734,1,8,0:0:0:0:
256,192,204903,1,0,0:0:0:0:
256,192,205071,1,8,0:0:0:0:
256,192,205408,1,0,0:0:0:0:
256,192,205577,1,8,0:0:0:0:
256,192,205745,1,8,0:0:0:0:
256,192,206082,1,0,0:0:0:0:
256,192,206251,1,8,0:0:0:0:
256,192,206420,1,4,0:0:0:0:
256,192,206757,1,0,0:0:0:0:
256,192,206925,1,0,0:0:0:0:
256,192,207094,1,8,0:0:0:0:
256,192,207431,1,0,0:0:0:0:
256,192,207768,1,8,0:0:0:0:
256,192,207936,1,8,0:0:0:0:
256,192,208105,1,0,0:0:0:0:
256,192,208442,1,8,0:0:0:0:
256,192,208611,1,8,0:0:0:0:
256,192,208779,1,0,0:0:0:0:
256,192,208948,1,0,0:0:0:0:
256,192,209116,1,8,0:0:0:0:
256,192,209622,1,0,0:0:0:0:
256,192,209790,1,8,0:0:0:0:
256,192,210127,1,0,0:0:0:0:
256,192,210464,1,8,0:0:0:0:
256,192,210633,1,8,0:0:0:0:
256,192,210802,1,0,0:0:0:0:
256,192,211139,1,8,0:0:0:0:
256,192,211476,1,0,0:0:0:0:
256,192,211644,1,8,0:0:0:0:
256,192,211813,1,4,0:0:0:0:
256,192,212487,1,8,0:0:0:0:
256,192,212824,1,0,0:0:0:0:
256,192,212993,1,8,0:0:0:0:
256,192,213161,1,8,0:0:0:0:
256,192,213330,1,8,0:0:0:0:
256,192,213498,1,0,0:0:0:0:
256,192,213835,1,0,0:0:0:0:
256,192,214004,1,8,0:0:0:0:
256,192,214172,1,0,0:0:0:0:
256,192,214341,1,0,0:0:0:0:
256,192,214509,1,8,0:0:0:0:
256,192,214846,1,8,0:0:0:0:
256,192,215015,1,0,0:0:0:0:
256,192,215184,1,8,0:0:0:0:
256,192,215521,1,8,0:0:0:0:
256,192,215689,1,0,0:0:0:0:
256,192,216026,1,0,0:0:0:0:
256,192,216195,1,0,0:0:0:0:
256,192,216363,1,8,0:0:0:0:
256,192,216532,1,8,0:0:0:0:
256,192,216869,1,0,0:0:0:0:
256,192,217037,1,8,0:0:0:0:
256,192,217206,12,0,221251,0:0:0:0:
256,192,222599,5,4,0:0:0:0:
256,192,223273,1,8,0:0:0:0:
256,192,223779,1,0,0:0:0:0:
256,192,224116,1,8,0:0:0:0:
256,192,224453,1,0,0:0:0:0:
256,192,224790,1,0,0:0:0:0:
256,192,225296,1,0,0:0:0:0:
256,192,225970,1,8,0:0:0:0:
256,192,226476,1,8,0:0:0:0:
256,192,226813,1,0,0:0:0:0:
256,192,227150,1,0,0:0:0:0:
256,192,227487,1,0,0:0:0:0:
256,192,227993,1,0,0:0:0:0:
256,192,228667,1,8,0:0:0:0:
256,192,229172,1,0,0:0:0:0:
256,192,229509,1,8,0:0:0:0:
256,192,229846,1,0,0:0:0:0:
256,192,230184,1,0,0:0:0:0:
256,192,230689,1,0,0:0:0:0:
256,192,231195,1,8,0:0:0:0:
256,192,231363,1,0,0:0:0:0:
256,192,232037,1,0,0:0:0:0:
256,192,232712,1,8,0:0:0:0:
256,192,233723,1,4,0:0:0:0:
256,192,234060,1,8,0:0:0:0:
256,192,234397,1,0,0:0:0:0:
256,192,234566,1,8,0:0:0:0:
256,192,234734,1,0,0:0:0:0:
256,192,234903,1,0,0:0:0:0:
256,192,235071,1,8,0:0:0:0:
256,192,235240,1,8,0:0:0:0:
256,192,235577,1,0,0:0:0:0:
256,192,235746,1,8,0:0:0:0:
256,192,235914,1,8,0:0:0:0:
256,192,236083,1,0,0:0:0:0:
256,192,236420,1,0,0:0:0:0:
256,192,236757,1,8,0:0:0:0:
256,192,237094,1,8,0:0:0:0:
256,192,237263,1,8,0:0:0:0:
256,192,237431,1,0,0:0:0:0:
256,192,237600,1,0,0:0:0:0:
256,192,237768,1,8,0:0:0:0:
256,192,237937,1,0,0:0:0:0:
256,192,238274,1,0,0:0:0:0:
256,192,238442,1,8,0:0:0:0:
256,192,238779,1,8,0:0:0:0:
256,192,239453,1,8,0:0:0:0:
256,192,239790,1,0,0:0:0:0:
256,192,239959,1,8,0:0:0:0:
256,192,240127,1,0,0:0:0:0:
256,192,240296,1,0,0:0:0:0:
256,192,240464,1,8,0:0:0:0:
256,192,240633,1,8,0:0:0:0:
256,192,240970,1,0,0:0:0:0:
256,192,241139,1,8,0:0:0:0:
256,192,241307,1,8,0:0:0:0:
256,192,241476,1,0,0:0:0:0:
256,192,241813,1,0,0:0:0:0:
256,192,241981,1,8,0:0:0:0:
256,192,242150,1,0,0:0:0:0:
256,192,242487,1,8,0:0:0:0:
256,192,242824,1,0,0:0:0:0:
256,192,242993,1,0,0:0:0:0:
256,192,243161,1,8,0:0:0:0:
256,192,243498,1,0,0:0:0:0:
256,192,243667,1,0,0:0:0:0:
256,192,243835,1,8,0:0:0:0:
256,192,244172,1,12,0:0:0:0:
256,192,244510,1,0,0:0:0:0:
256,192,244847,1,8,0:0:0:0:
256,192,245184,1,0,0:0:0:0:
256,192,245353,1,8,0:0:0:0:
256,192,245521,1,0,0:0:0:0:
256,192,245690,1,0,0:0:0:0:
256,192,245858,1,8,0:0:0:0:
256,192,246027,1,8,0:0:0:0:
256,192,246364,1,0,0:0:0:0:
256,192,246533,1,8,0:0:0:0:
256,192,246700,1,8,0:0:0:0:
256,192,246870,1,0,0:0:0:0:
256,192,247207,1,0,0:0:0:0:
256,192,247544,1,8,0:0:0:0:
256,192,247881,1,8,0:0:0:0:
256,192,248050,1,8,0:0:0:0:
256,192,248218,1,0,0:0:0:0:
256,192,248386,5,0,0:0:0:0:
256,192,248555,1,8,0:0:0:0:
256,192,248892,1,0,0:0:0:0:
256,192,249566,1,12,0:0:0:0:
256,192,250071,1,0,0:0:0:0:
256,192,250240,1,8,0:0:0:0:
256,192,250577,1,0,0:0:0:0:
256,192,250914,1,8,0:0:0:0:
256,192,251083,1,0,0:0:0:0:
256,192,251251,1,0,0:0:0:0:
256,192,251588,1,8,0:0:0:0:
256,192,251925,1,0,0:0:0:0:
256,192,252094,1,8,0:0:0:0:
256,192,252262,1,0,0:0:0:0:
256,192,252599,1,0,0:0:0:0:
256,192,252768,1,0,0:0:0:0:
256,192,252937,1,8,0:0:0:0:
256,192,253274,1,8,0:0:0:0:
256,192,253442,1,0,0:0:0:0:
256,192,253779,1,0,0:0:0:0:
256,192,253947,1,0,0:0:0:0:
256,192,254285,1,8,0:0:0:0:
256,192,254959,1,4,0:0:0:0:
256,192,255465,1,0,0:0:0:0:
256,192,255634,1,8,0:0:0:0:
256,192,255971,1,0,0:0:0:0:
256,192,256308,1,8,0:0:0:0:
256,192,256477,1,0,0:0:0:0:
256,192,256645,1,0,0:0:0:0:
256,192,256982,1,8,0:0:0:0:
256,192,257318,1,0,0:0:0:0:
256,192,257488,1,8,0:0:0:0:
256,192,257656,1,0,0:0:0:0:
256,192,257993,1,0,0:0:0:0:
256,192,258162,1,0,0:0:0:0:
256,192,258331,1,8,0:0:0:0:
256,192,258668,1,8,0:0:0:0:
256,192,258836,1,0,0:0:0:0:
256,192,259172,5,0,0:0:0:0:
256,192,259341,5,0,0:0:0:0:
256,192,259679,1,8,0:0:0:0:
256,192,260015,1,8,0:0:0:0:
256,192,260352,12,0,262712,0:0:0:0:
256,192,263049,5,0,0:0:0:0:
256,192,263723,1,12,0:0:0:0:
256,192,264734,1,0,0:0:0:0:
256,192,265071,1,8,0:0:0:0:
256,192,265408,1,0,0:0:0:0:
256,192,265745,1,0,0:0:0:0:
256,192,266082,1,0,0:0:0:0:
256,192,266251,1,0,0:0:0:0:
256,192,266419,1,8,0:0:0:0:
256,192,266756,1,8,0:0:0:0:
256,192,267093,1,0,0:0:0:0:
256,192,267346,1,8,0:0:0:0:
256,192,267599,1,8,0:0:0:0:
256,192,267936,1,0,0:0:0:0:
256,192,268105,1,8,0:0:0:0:
256,192,268442,1,4,0:0:0:0:
256,192,269116,1,12,0:0:0:0:
256,192,269790,1,0,0:0:0:0:
256,192,270127,1,0,0:0:0:0:
256,192,270464,1,8,0:0:0:0:
256,192,270801,1,8,0:0:0:0:
256,192,270970,1,8,0:0:0:0:
256,192,271138,1,0,0:0:0:0:
256,192,271475,1,0,0:0:0:0:
256,192,271644,1,0,0:0:0:0:
256,192,271981,1,8,0:0:0:0:
256,192,272150,1,0,0:0:0:0:
256,192,272487,1,8,0:0:0:0:
256,192,272824,1,0,0:0:0:0:
256,192,272993,1,8,0:0:0:0:
256,192,273161,1,0,0:0:0:0:
256,192,273329,1,8,0:0:0:0:
256,192,273835,1,4,0:0:0:0:
256,192,274509,1,12,0:0:0:0:
256,192,274846,1,0,0:0:0:0:
256,192,275015,1,8,0:0:0:0:
256,192,275184,1,0,0:0:0:0:
256,192,275521,1,0,0:0:0:0:
256,192,275689,1,8,0:0:0:0:
256,192,275858,1,8,0:0:0:0:
256,192,276026,1,0,0:0:0:0:
256,192,276195,1,8,0:0:0:0:
256,192,276532,1,0,0:0:0:0:
256,192,276700,1,8,0:0:0:0:
256,192,276869,1,0,0:0:0:0:
256,192,277207,1,0,0:0:0:0:
256,192,277375,1,8,0:0:0:0:
256,192,277712,1,0,0:0:0:0:
256,192,277881,1,8,0:0:0:0:
256,192,278217,1,8,0:0:0:0:
256,192,278470,1,8,0:0:0:0:
256,192,278723,1,8,0:0:0:0:
256,192,278891,1,0,0:0:0:0:
256,192,279060,1,0,0:0:0:0:
256,192,279228,1,8,0:0:0:0:
256,192,279566,1,0,0:0:0:0:
256,192,280240,1,0,0:0:0:0:
256,192,280577,5,8,0:0:0:0:
256,192,281251,1,0,0:0:0:0:
256,192,281925,1,8,0:0:0:0:
256,192,283273,1,8,0:0:0:0:
256,192,283526,1,0,0:0:0:0:
256,192,283948,1,8,0:0:0:0:
256,192,284200,1,0,0:0:0:0:
256,192,285427,1,8,0:0:0:0:
256,192,286635,12,0,293883,0:0:0:0:
