osu file format v14

[General]
AudioFilename: audio.ogg
AudioLeadIn: 0
PreviewTime: 90738
Countdown: 0
SampleSet: Normal
StackLeniency: 0.7
Mode: 1
LetterboxInBreaks: 0
EpilepsyWarning: 1
WidescreenStoryboard: 1

[Editor]
Bookmarks: 9590,25769
DistanceSpacing: 1
BeatDivisor: 16
GridSize: 32
TimelineZoom: 1.9

[Metadata]
Title:Stellar Stellar
TitleUnicode:Stellar Stellar
Artist:Hoshimachi Suisei
ArtistUnicode:星街すいせい
Creator:[Zeth]
Version:Cdh's Inner Oni
Source:
Tags:hololive production ホロライブプロダクション vtuber virtual youtuber バーチャル ユーチューバー TAKU INOUE inotac inotaku 永山ひろなお Nagayama Hironao Still Still Stellar 1st first album japanese electronic pop j-pop jpop drum and n' bass dnb ler1211 CallMeLyra MTNTWarz TaikOseania taiko_maniac1811 cdhsausageboy cdh Jerry
BeatmapID:3273118
BeatmapSetID:1589361

[Difficulty]
HPDrainRate:6
CircleSize:2
OverallDifficulty:6.5
ApproachRate:10
SliderMultiplier:1.4
SliderTickRate:1

[Events]
//Background and Video events
0,0,"Artboard 1.jpg",0,200
//Break Periods
2,42266,45300
2,217543,221588
//Storyboard Layer 0 (Background)
Sprite,Background,TopLeft,"Artboard 1.jpg",0,0
//Storyboard Layer 1 (Fail)
//Storyboard Layer 2 (Pass)
//Storyboard Layer 3 (Foreground)
Animation,Foreground,Centre,"SB\intro\map by\cdh\.jpg",315,360,3,150,LoopForever P,0,20356,,A F,2,20356,20525,0,0.8 MY,2,20356,20525,350,360 S,0,20356,25918,0.35 MX,0,25749,25918,315,-475
//Storyboard Layer 4 (Overlay)
//Storyboard Sound Samples

[TimingPoints]
0,337.078651685393,99,1,0,80,1,8
3975,342.857142857143,4,1,0,10,1,0
3975,-133.333333333333,4,1,0,10,0,0
4658,-125,4,1,0,30,0,0
5344,-117.647058823529,4,1,0,50,0,0
6032,372.670807453416,4,1,0,70,1,8
6032,-102.218133496882,4,1,0,70,0,0
6775,352.941176470588,4,1,0,80,1,0
6775,-102.25994477963,4,1,0,80,0,0
8186,346.820809248555,4,1,0,80,1,0
8186,-107.968041459728,4,1,0,80,0,0
9570,337.078651685393,4,1,0,80,1,0
9570,-111.111111111111,4,1,0,80,0,0
9905,-111.111111111111,4,1,0,80,0,0
9989,-108.108108108108,4,1,0,80,0,0
10073,-105.263157894737,4,1,0,80,0,0
10157,-102.564102564103,4,1,0,80,0,0
10242,-100,4,1,0,90,0,0
15635,-86.9565217391304,4,1,0,100,0,0
15888,-100,4,1,0,90,0,0
20691,-133.333333333333,4,1,0,75,0,0
21028,-128.755309547077,4,1,0,75,0,0
21365,-124.481379452855,4,1,0,75,0,0
21702,-120.481927710843,4,1,0,75,0,0
22039,-116.731472088921,4,1,0,75,0,0
22714,-109.89010989011,4,1,0,80,0,0
23051,-106.761527842873,4,1,0,90,0,0
23219,-105.263157894737,4,1,0,90,0,0
23303,-104.529580303282,4,1,0,90,0,0
23388,-103.806264292825,4,1,0,90,0,0
23556,-102.389043553227,4,1,0,90,0,0
23725,-101.010101010101,4,1,0,90,0,0
23809,-100.334414603875,4,1,0,90,0,0
23893,-99.667807198607,4,1,0,90,0,0
23978,-99.009900990099,4,1,0,90,0,0
24062,-98.3606234883202,4,1,0,90,0,0
24230,-97.0873786407767,4,1,0,90,0,0
24399,-95.8466759893533,4,1,0,90,0,0
24483,-95.2380952380952,4,1,0,90,0,0
24567,-94.6371941207589,4,1,0,90,0,0
24652,-94.043916628187,4,1,0,90,0,0
24736,-93.4579439252336,4,1,0,90,0,0
24905,-92.3077207100679,4,1,0,90,0,0
25073,-91.1853826184247,4,1,0,90,0,0
25157,-90.6344684696279,4,1,0,90,0,0
25242,-90.0900900900901,4,1,0,90,0,0
25326,-89.5522120739665,4,1,0,90,0,0
25410,-89.0207979290202,4,1,0,90,0,0
25494,-88.495575221239,4,1,0,90,0,0
25579,-87.9765137898787,4,1,0,90,0,0
25663,-87.4635823508986,4,1,0,90,0,0
25747,-86.9565217391304,4,1,0,90,0,0
25916,-125,4,1,0,70,0,0
36534,-111.111111111111,4,1,0,75,0,0
36787,-125,4,1,0,70,0,0
41843,-129.87012987013,4,1,0,70,0,0
41927,-135.135135135135,4,1,0,75,0,0
43275,-156.25,4,1,0,20,0,0
44624,-185.185185185185,4,1,0,20,0,0
45972,-125,4,1,0,80,0,0
46141,-121.212121212121,4,1,0,80,0,0
46225,-119.402985074627,4,1,0,80,0,0
46309,-117.647058823529,4,1,0,80,0,0
46478,-114.285714285714,4,1,0,80,0,0
46646,-111.111111111111,4,1,0,80,0,0
46730,-109.58904109589,4,1,0,80,0,0
46815,-108.108108108108,4,1,0,80,0,0
46983,-105.263157894737,4,1,0,80,0,0
47152,-102.564102564103,4,1,0,80,0,0
47320,-100,4,1,0,80,0,0
47489,-111.111111111111,4,1,0,80,0,0
56590,-111.111111111111,4,1,0,80,0,0
56674,-110.09638938891,4,1,0,80,0,0
56759,-109.10003382101,4,1,0,80,0,0
56843,-108.121550246787,4,1,0,80,0,0
56927,-107.160462075912,4,1,0,80,0,0
57096,-105.28864883077,4,1,0,80,0,0
57264,-103.481211433846,4,1,0,80,0,0
57348,-102.600512592161,4,1,0,80,0,0
57433,-101.734677994484,4,1,0,80,0,0
57601,-100.046121261902,4,1,0,80,0,0
57770,-98.4127015369112,4,1,0,80,0,0
57854,-97.6158309449993,4,1,0,80,0,0
57938,-96.8317615924564,4,1,0,80,0,0
58023,-96.0601874710619,4,1,0,80,0,0
58107,-95.3008122488228,4,1,0,80,0,0
58275,-111.111111111111,4,1,0,80,0,0
62826,-111.111111111111,4,1,0,80,0,0
62910,-109.58904109589,4,1,0,80,0,0
62994,-108.108108108108,4,1,0,80,0,0
63079,-106.666666666667,4,1,0,80,0,0
63163,-105.263157894737,4,1,0,80,0,0
63247,-103.896103896104,4,1,0,80,0,0
63332,-102.564102564103,4,1,0,80,0,0
63416,-101.26582278481,4,1,0,80,0,0
63500,-100,4,1,0,80,0,0
63753,-111.111111111111,4,1,0,80,0,0
65185,-111.111111111111,4,1,0,80,0,0
65270,-110.098692467928,4,1,0,80,0,0
65354,-109.10455707914,4,1,0,80,0,0
65438,-108.128214111164,4,1,0,80,0,0
65523,-107.16930499634,4,1,0,80,0,0
65607,-106.227141247043,4,1,0,80,0,0
65691,-105.301398929085,4,1,0,80,0,0
65860,-103.497490703338,4,1,0,80,0,0
65944,-102.618516690389,4,1,0,80,0,0
66028,-101.754346691305,4,1,0,80,0,0
66112,-100.904711644606,4,1,0,80,0,0
66197,-100.069047642874,4,1,0,80,0,0
67208,-125,4,1,0,75,0,0
67376,-121.951219512195,4,1,0,75,0,0
67461,-120.481927710843,4,1,0,75,0,0
67545,-119.047619047619,4,1,0,75,0,0
67714,-116.279069767442,4,1,0,75,0,0
67882,-113.636363636364,4,1,0,75,0,0
67966,-112.359550561798,4,1,0,75,0,0
68051,-111.111111111111,4,1,0,75,0,0
68219,-108.695652173913,4,1,0,75,0,0
68388,-106.382978723404,4,1,0,75,0,0
68472,-105.263157894737,4,1,0,75,0,0
68556,-104.166666666667,4,1,0,75,0,0
68725,-102.040816326531,4,1,0,75,0,0
68894,337.078651685393,6,1,0,75,1,0
68894,-99.9999999999999,4,1,0,75,0,0
70068,-125,4,1,0,75,0,0
70742,-95.2380952380952,4,1,0,75,0,0
70827,-90.9090909090909,4,1,0,75,0,0
70911,-86.9565217391304,4,1,0,90,0,0
71420,-125,4,1,0,90,0,0
71925,-100,4,1,0,90,0,0
72936,-100,4,1,0,90,0,0
73104,-101.261413427061,4,1,0,90,0,0
73189,-101.904077691669,4,1,0,90,0,0
73358,-103.214299721941,4,1,0,90,0,0
73442,-103.88207307065,4,1,0,90,0,0
73611,-105.243992409803,4,1,0,90,0,0
73779,-106.642096327673,4,1,0,90,0,0
73863,-107.355113538768,4,1,0,90,0,0
74032,-108.81025776062,4,1,0,90,0,0
74116,-109.552663608687,4,1,0,90,0,0
74285,-111.068411477365,4,1,0,90,0,0
74369,-111.842061114976,4,1,0,90,0,0
74453,-112.626690948981,4,1,0,90,0,0
74538,-113.422279084591,4,1,0,90,0,0
74622,-114.229187156527,4,1,0,90,0,0
74706,-115.04779085232,4,1,0,90,0,0
74790,-115.878077721744,4,1,0,90,0,0
74875,-116.720572117556,4,1,0,90,0,0
74959,-117.575268747671,4,1,0,90,0,0
75296,-117.647058823529,4,1,0,90,0,0
75465,-100,4,1,0,90,0,0
75633,-86.9565217391304,4,1,0,90,0,0
75886,-100,4,1,0,90,0,0
76983,337.078651685393,4,1,0,90,1,0
76983,-100,4,1,0,90,0,0
77065,-100.62893081761,4,1,0,90,0,0
77149,-101.26582278481,4,1,0,90,0,0
77318,-102.564102564103,4,1,0,90,0,0
77486,-103.896103896104,4,1,0,90,0,0
77655,-105.263157894737,4,1,0,90,0,0
77739,-105.960264900662,4,1,0,90,0,0
77823,-106.666666666667,4,1,0,90,0,0
77907,-107.38255033557,4,1,0,90,0,0
77992,-108.108108108108,4,1,0,90,0,0
78076,-108.843537414966,4,1,0,90,0,0
78160,-109.58904109589,4,1,0,90,0,0
78245,-110.344827586207,4,1,0,90,0,0
78329,-111.111111111111,4,1,0,90,0,0
78497,-100,4,1,0,90,0,0
81278,-100,4,1,0,90,0,0
81363,-98.0707521634408,4,1,0,90,0,0
81447,-96.2145353222802,4,1,0,90,0,0
81531,-94.4272796633856,4,1,0,90,0,0
81615,-92.7051263153699,4,1,0,90,0,0
81700,-91.0447475829896,4,1,0,90,0,0
81910,-100,4,1,0,90,0,0
81995,-98.0707521634408,4,1,0,90,0,0
82079,-96.2145353222802,4,1,0,90,0,0
82163,-94.4272796633856,4,1,0,90,0,0
82247,-92.7051263153699,4,1,0,90,0,0
82332,-91.0447475829896,4,1,0,90,0,0
82584,-100,4,1,0,90,0,0
82669,-98.0707521634408,4,1,0,90,0,0
82753,-96.2145353222802,4,1,0,90,0,0
82837,-94.4272796633856,4,1,0,90,0,0
82921,-92.7051263153699,4,1,0,90,0,0
83006,-91.0447475829896,4,1,0,90,0,0
83174,-100,4,1,0,90,0,0
83975,-111.111111111111,4,1,0,90,0,0
85070,-83.3333333333333,4,1,0,90,0,0
85155,-84.8724960491853,4,1,0,90,0,0
85239,-86.469510418279,4,1,0,90,0,0
85323,-88.1278558933301,4,1,0,90,0,0
85407,-89.8510539079368,4,1,0,90,0,0
85492,-91.6429006077757,4,1,0,90,0,0
85576,-93.5077564683991,4,1,0,90,0,0
85660,-95.4500853323763,4,1,0,90,0,0
85745,-97.474722367622,4,1,0,90,0,0
85829,-99.587211010362,4,1,0,90,0,0
85913,-101.793292432788,4,1,0,90,0,0
85997,-104.099219047659,4,1,0,90,0,0
86081,-106.512153036661,4,1,0,90,0,0
86166,-109.039601002292,4,1,0,90,0,0
86250,-111.689788314344,4,1,0,90,0,0
86334,-114.472140342844,4,1,0,90,0,0
86419,-117.396658656301,4,1,0,90,0,0
86587,-117.647058823529,4,1,0,40,0,0
87767,-142.857142857143,4,1,0,40,0,0
89115,-181.818181818182,4,1,0,40,0,0
89452,-125,4,1,0,80,0,0
89621,-121.96356460471,4,1,0,80,0,0
89705,-120.499930110041,4,1,0,80,0,0
89789,-119.071149774836,4,1,0,80,0,0
89958,-116.312746364936,4,1,0,80,0,0
90127,-113.679251717693,4,1,0,80,0,0
90211,-112.406660319437,4,1,0,80,0,0
90295,-111.16236931474,4,1,0,80,0,0
90464,-108.75452146923,4,1,0,80,0,0
90632,-106.448773124665,4,1,0,80,0,0
90716,-105.332122716136,4,1,0,80,0,0
90801,-104.238765145893,4,1,0,80,0,0
90885,-103.167766263109,4,1,0,80,0,0
90969,-102.118655750863,4,1,0,80,0,0
91138,-66.6666666666667,4,1,0,80,0,0
91814,-80,4,1,0,100,0,1
91980,-86.9565217391304,4,1,0,100,0,1
102598,-80,4,1,0,100,0,1
102672,-86.9565217391304,4,1,0,100,0,1
107149,-86.9565217391304,4,1,0,100,0,1
107233,-86.2130652451856,4,1,0,100,0,1
107320,-85.482140643766,4,1,0,100,0,0
107430,-84.5267095949649,4,1,0,100,0,0
107542,-83.5924001133513,4,1,0,100,0,0
107655,-82.6785194592163,4,1,0,100,0,0
107767,-81.7844048589751,4,1,0,100,0,0
107879,-80.9094219021805,4,1,0,100,0,0
107994,-80.0528989556299,4,1,0,100,0,1
108329,-133.333333333333,4,1,0,100,0,1
110688,-133.333333333333,4,1,0,100,0,1
110773,-130.885598134095,4,1,0,100,0,1
110941,-126.250192531544,4,1,0,100,0,1
111025,-124.053472008575,4,1,0,100,0,1
111194,-119.881652832324,4,1,0,100,0,1
111363,-115.981294536817,4,1,0,100,0,1
111447,-114.124765758918,4,1,0,100,0,1
111531,-112.326736009705,4,1,0,100,0,1
111700,-108.895451654775,4,1,0,100,0,1
111868,-105.667586679121,4,1,0,100,0,1
111952,-104.124366142921,4,1,0,100,0,1
112037,-102.625572650695,4,1,0,100,0,1
112205,-99.7538076028362,4,1,0,100,0,1
112374,-97.0384825510253,4,1,0,100,0,1
112458,-95.7354637665203,4,1,0,100,0,1
112542,-94.4669748179385,4,1,0,100,0,1
112627,-93.2316610991826,4,1,0,100,0,1
112713,-92.0282379445309,4,1,0,100,0,0
112879,-89.7122479646534,4,1,0,100,0,0
112964,-88.597423055353,4,1,0,100,0,0
113048,-87.5099651972868,4,1,0,100,0,0
113216,-85.4132163286154,4,1,0,100,0,0
113387,-66.6666666666667,4,1,0,100,0,1
113722,-133.333333333333,4,1,0,100,0,1
116082,-133.333333333333,4,1,0,100,0,1
116250,-128,4,1,0,100,0,1
116334,-125.490196078431,4,1,0,100,0,1
116419,-123.076923076923,4,1,0,100,0,1
116587,-118.518518518519,4,1,0,100,0,1
116756,-114.285714285714,4,1,0,100,0,1
116840,-112.280701754386,4,1,0,100,0,1
116924,-110.344827586207,4,1,0,100,0,1
117093,-106.666666666667,4,1,0,100,0,1
117261,-103.225806451613,4,1,0,100,0,1
117346,-101.587301587302,4,1,0,100,0,1
117430,-100,4,1,0,100,0,1
117514,-98.4615384615385,4,1,0,100,0,1
117598,-96.969696969697,4,1,0,100,0,1
117767,-94.1176470588235,4,1,0,100,0,1
117851,-92.7536231884058,4,1,0,100,0,1
117936,-91.4285714285714,4,1,0,100,0,1
118104,-88.8888888888889,4,1,0,100,0,1
118273,-86.4864864864865,4,1,0,100,0,1
118441,-84.2105263157895,4,1,0,100,0,1
118610,-82.0512820512821,4,1,0,100,0,1
118780,-66.6666666666667,4,1,0,40,0,0
119452,-111.111111111111,4,1,0,40,0,0
121475,-133.333333333333,4,1,0,50,0,0
122823,-133.333333333333,4,1,0,50,0,0
122989,-133.333333333333,4,1,0,50,0,0
123157,-125,4,1,0,50,0,0
123326,-117.647058823529,4,1,0,50,0,0
123494,-111.111111111111,4,1,0,50,0,0
124172,-133.333333333333,4,1,0,60,0,0
124846,-120.481927710843,4,1,0,60,0,0
125183,-133.333333333333,4,1,0,60,0,0
126194,-120.481927710843,4,1,0,60,0,0
126531,-133.333333333333,4,1,0,60,0,0
126868,-133.333333333333,4,1,0,60,0,0
127037,-126.582278481013,4,1,0,60,0,0
127205,-120.481927710843,4,1,0,65,0,0
127374,-133.333333333333,4,1,0,65,0,0
127542,-126.582278481013,4,1,0,70,0,0
127711,-120.177863237592,4,1,0,70,0,0
127879,-133.333333333333,4,1,0,75,0,0
128048,-111.111111111111,4,1,0,75,0,0
128216,-102.827763496144,4,1,0,80,0,0
128385,-97.6276481499561,4,1,0,80,0,0
128554,-87.989441267048,4,1,0,85,0,0
128722,-79.3021411578112,4,1,0,85,0,0
128891,-71.4745193338575,4,1,0,90,0,0
129059,-64.4205372672808,4,1,0,90,0,0
129228,-58.0618939789816,4,1,0,96,0,0
129396,-52.3560209424084,4,1,0,96,0,0
129565,-133.333333333333,4,1,0,100,0,0
129733,-133.333333333333,4,1,0,60,0,0
130911,-133.333333333333,4,1,0,40,0,0
131248,-138.888888888889,4,1,0,40,0,0
131585,-144.927536231884,4,1,0,40,0,0
131922,-151.515151515152,4,1,0,40,0,0
132259,-133.333333333333,4,1,0,75,0,0
139003,-133.333333333333,4,1,0,75,0,0
139172,-130.081300813008,4,1,0,75,0,0
139256,-128.5140562249,4,1,0,75,0,0
139340,-126.984126984127,4,1,0,75,0,0
139509,-124.031007751938,4,1,0,75,0,0
139677,-121.212121212121,4,1,0,75,0,0
140014,-115.942028985507,4,1,0,75,0,0
140183,-113.475177304965,4,1,0,75,0,0
140351,-111.111111111111,4,1,0,75,0,0
140688,-125,4,1,0,75,0,0
146082,-125,4,1,0,75,0,0
146419,-120.833363541674,4,1,0,75,0,0
146756,-116.935540452681,4,1,0,75,0,0
146924,-115.07930114642,4,1,0,75,0,0
147093,-113.281201324484,4,1,0,75,0,0
147430,-109.848464043852,4,1,0,75,0,0
147598,-108.208947148586,4,1,0,75,0,0
147936,-105.072478996011,4,1,0,75,0,0
148104,-103.571454464292,4,1,0,75,0,0
148273,-102.112712011518,4,1,0,75,0,0
148441,-100.694489896818,4,1,0,75,0,0
148525,-104.166666666667,4,1,0,75,0,0
148947,-133.333333333333,4,1,0,40,0,0
149789,-125,4,1,0,60,0,0
151140,337.078651685393,6,1,0,80,1,0
151140,-100,6,1,0,80,0,0
151250,-101.26582278481,6,1,0,80,0,0
151362,-102.564102564103,6,1,0,80,0,0
151475,-103.896103896104,6,1,0,80,0,0
151587,-105.263157894737,6,1,0,80,0,0
151699,-106.666666666667,6,1,0,80,0,0
151812,-108.108108108108,6,1,0,80,0,0
151924,-109.58904109589,6,1,0,80,0,0
152036,-111.111111111111,6,1,0,80,0,0
152149,-112.676056338028,6,1,0,80,0,0
152261,-114.285714285714,6,1,0,80,0,0
152373,-115.942028985507,6,1,0,80,0,0
152486,-117.647058823529,6,1,0,80,0,0
152823,-95.2380952380952,6,1,0,80,0,0
152907,-90.9090909090909,6,1,0,90,0,0
152991,-86.9565217391304,6,1,0,90,0,0
153076,-83.3333333333333,6,1,0,90,0,0
153160,-80,6,1,0,90,0,0
153666,-125,6,1,0,90,0,0
154171,-100,6,1,0,90,0,0
155140,-100,4,1,0,90,0,0
155308,-101.261413427061,4,1,0,90,0,0
155393,-101.904077691669,4,1,0,90,0,0
155562,-103.214299721941,4,1,0,90,0,0
155646,-103.88207307065,4,1,0,90,0,0
155815,-105.243992409803,4,1,0,90,0,0
155983,-106.642096327673,4,1,0,90,0,0
156067,-107.355113538768,4,1,0,90,0,0
156236,-108.81025776062,4,1,0,90,0,0
156320,-109.552663608687,4,1,0,90,0,0
156489,-111.068411477365,4,1,0,90,0,0
156573,-111.842061114976,4,1,0,90,0,0
156657,-112.626690948981,4,1,0,90,0,0
156742,-113.422279084591,4,1,0,90,0,0
156826,-114.229187156527,4,1,0,90,0,0
156910,-115.04779085232,4,1,0,90,0,0
156994,-115.878077721744,4,1,0,90,0,0
157079,-116.720572117556,4,1,0,90,0,0
157163,-117.575268747671,4,1,0,90,0,0
157542,-105.263157894737,6,1,0,90,0,0
157711,-95.2052720871471,6,1,0,90,0,0
157795,-90.9090909090909,6,1,0,90,0,0
157879,-86.9565217391304,6,1,0,90,0,0
158216,-100,6,1,0,90,0,0
159229,337.078651685393,4,1,0,90,1,0
159229,-100,4,1,0,90,0,0
159311,-100.62893081761,4,1,0,90,0,0
159395,-101.26582278481,4,1,0,90,0,0
159564,-102.564102564103,4,1,0,90,0,0
159732,-103.896103896104,4,1,0,90,0,0
159816,-104.575163398693,4,1,0,90,0,0
159901,-105.263157894737,4,1,0,90,0,0
159985,-105.960264900662,4,1,0,90,0,0
160069,-106.666666666667,4,1,0,90,0,0
160153,-107.38255033557,4,1,0,90,0,0
160238,-108.108108108108,4,1,0,90,0,0
160406,-109.58904109589,4,1,0,90,0,0
160575,-111.111111111111,4,1,0,90,0,0
160743,-100,4,1,0,90,0,0
163271,-86.9565217391304,4,1,0,90,0,0
163440,-100,4,1,0,90,0,0
164620,-86.9565217391304,4,1,0,90,0,0
164789,-100,4,1,0,90,0,0
168496,-125,6,1,0,40,0,0
168580,-128.205128205128,6,1,0,40,0,0
168665,-131.578947368421,6,1,0,40,0,0
168833,-133.333333333333,6,1,0,20,0,0
169339,-133.333333333333,6,1,0,40,0,0
170013,-166.666666666667,6,1,0,50,0,0
170687,-166.666666666667,6,1,0,70,0,0
171361,-133.333333333333,6,1,0,40,0,0
171698,-117.70452632756,6,1,0,50,0,0
172035,-105.355205073907,6,1,0,60,0,0
172373,-95.3511544641027,6,1,0,70,0,0
172710,-87.0822230349896,6,1,0,80,0,0
173047,-80.1330208145522,6,1,0,80,0,0
174060,-200,4,1,0,100,0,1
192934,-200,4,1,0,100,0,1
193103,-188.263998840294,4,1,0,100,0,1
193187,-182.897944775795,4,1,0,100,0,1
193271,-177.828992527626,4,1,0,100,0,1
193440,-168.490293274204,4,1,0,100,0,1
193609,-160.083243286509,4,1,0,100,0,1
193693,-156.186549214382,4,1,0,100,0,1
193777,-152.475283756503,4,1,0,100,0,1
193861,-148.936075147186,4,1,0,100,0,1
193946,-145.557653203069,4,1,0,100,0,1
194114,-139.240471078362,4,1,0,100,0,1
194198,-136.283229258374,4,1,0,100,0,1
194283,-133.448811037818,4,1,0,100,0,1
194451,-128.119879208578,4,1,0,100,0,1
194535,-125.611729120818,4,1,0,100,0,1
194620,-123.200047308818,4,1,0,100,0,1
194704,-120.879081028874,4,1,0,100,0,1
194788,-118.644087905778,4,1,0,100,0,1
194873,-116.490106495255,4,1,0,100,0,1
194957,-114.413072379998,4,1,0,100,0,1
195294,-106.79607503065,4,1,0,100,0,1
195462,-103.355754641707,4,1,0,100,0,1
195631,-100.130068959578,4,1,0,100,0,1
195717,-100,4,1,0,100,0,0
200519,-95.2380952380952,4,1,0,100,0,0
200687,-90.9090909090909,4,1,0,100,0,0
200856,-86.9565217391304,4,1,0,100,0,0
201024,-83.3333333333333,4,1,0,100,0,0
201361,-100,4,1,0,100,0,0
203721,-100,4,1,0,100,0,0
203889,-98.7654320987654,4,1,0,100,0,0
203974,-98.159509202454,4,1,0,100,0,0
204058,-97.5609756097561,4,1,0,100,0,0
204142,-96.969696969697,4,1,0,100,0,0
204226,-96.3855421686747,4,1,0,100,0,0
204395,-95.2380952380952,4,1,0,100,0,0
204479,-94.6745562130178,4,1,0,100,0,0
204564,-94.1176470588235,4,1,0,100,0,0
204648,-93.5672514619883,4,1,0,100,0,0
204732,-93.0232558139535,4,1,0,100,0,0
204901,-91.9540229885058,4,1,0,100,0,0
204985,-91.4285714285714,4,1,0,100,0,0
205069,-90.9090909090909,4,1,0,100,0,0
205238,-89.8876404494382,4,1,0,100,0,0
205406,-88.8888888888889,4,1,0,100,0,0
205491,-88.3977900552486,4,1,0,100,0,0
205575,-87.9120879120879,4,1,0,100,0,0
205659,-87.431693989071,4,1,0,100,0,0
205743,-86.9565217391304,4,1,0,100,0,0
206080,-90.9090909090909,4,1,0,100,0,0
206249,-95.2380952380952,4,1,0,100,0,0
206418,-100,4,1,0,100,0,0
209114,-100,4,1,0,100,0,0
209170,-98.0861431743815,4,1,0,100,0,0
209226,-96.2441676034432,4,1,0,100,0,0
209283,-94.4700090785679,4,1,0,100,0,0
209339,-92.7601621076593,4,1,0,100,0,0
209395,-91.1111090864198,4,1,0,100,0,0
209620,-100,4,1,0,100,0,0
210462,-100,4,1,0,100,0,0
210631,-98.1688563230069,4,1,0,100,0,0
210715,-97.2782517930814,4,1,0,100,0,0
210800,-96.4035684744906,4,1,0,100,0,0
210968,-94.7006465213138,4,1,0,100,0,0
211137,-93.0569294377221,4,1,0,100,0,0
211305,-91.4692151209589,4,1,0,100,0,0
211474,-89.9347703110934,4,1,0,100,0,0
211558,-89.1866533956926,4,1,0,100,0,0
211642,-88.4509583661339,4,1,0,100,0,0
211726,-87.7273014380259,4,1,0,100,0,0
211811,-87.0153138250801,4,1,0,100,0,0
211979,-100,4,1,0,100,0,0
217373,-100,4,1,0,30,0,0
219901,-125,4,1,0,30,0,0
221165,-166.666666666667,4,1,0,30,0,0
222429,-133.333333333333,4,1,0,60,0,0
223776,-133.33333,4,1,0,60,0,0
223947,-136.01851,4,1,0,60,0,0
224115,-138.70923,4,1,0,60,0,0
224452,-144.26822,4,1,0,60,0,0
224787,-150.015,4,1,0,60,0,0
225125,-133.333333333333,4,1,0,60,0,0
226455,-133.33333,4,1,0,60,0,0
226626,-136.01851,4,1,0,60,0,0
226794,-138.70923,4,1,0,60,0,0
227131,-144.26822,4,1,0,60,0,0
227466,-150.015,4,1,0,60,0,0
227824,-133.333333333333,4,1,0,60,0,0
229151,-133.33333,4,1,0,60,0,0
229322,-136.01851,4,1,0,60,0,0
229490,-138.70923,4,1,0,60,0,0
229827,-144.26822,4,1,0,60,0,0
230162,-150.015,4,1,0,60,0,0
230434,-133.333333333333,4,1,0,60,0,0
230687,-133.333333333333,4,1,0,60,0,0
231193,-119.446199639989,4,1,0,60,0,0
231361,-115.438383031481,4,1,0,60,0,0
231698,-108.178979958762,4,1,0,60,0,0
232035,-101.778477109003,4,1,0,60,0,0
232373,-96.0931411598634,4,1,0,60,0,0
232710,-91.0092838570463,4,1,0,20,0,0
233637,-50,4,1,0,100,0,0
233723,-80,4,1,0,100,0,1
233889,-86.9565217391304,4,1,0,100,0,1
244170,-80,4,1,0,100,0,1
244336,-86.9565217391304,4,1,0,100,0,1
248217,-86.9565217391304,4,1,0,100,0,0
248328,-87.9070646512507,4,1,0,100,0,0
248440,-88.8786184707545,4,1,0,100,0,0
248552,-89.8719683938262,4,1,0,100,0,0
248665,-90.8876909891216,4,1,0,100,0,0
248777,-91.9266351909868,4,1,0,100,0,0
248889,-92.9896065516757,4,1,0,100,0,0
249002,-94.0775368242998,4,1,0,100,0,0
249114,-95.1911342785178,4,1,0,100,0,0
249226,-96.3314108794769,4,1,0,100,0,0
249339,-97.4993370045084,4,1,0,100,0,0
249451,-98.6960280770461,4,1,0,100,0,0
249566,-99.9223603260267,4,1,0,100,0,1
249901,-133.333333333333,4,1,0,100,0,1
252260,-133.333333333333,4,1,0,100,0,1
252429,-128.52611393583,4,1,0,100,0,1
252513,-126.250192531544,4,1,0,100,0,1
252597,-124.053472008575,4,1,0,100,0,1
252766,-119.881652832324,4,1,0,100,0,1
252934,-115.981294536817,4,1,0,100,0,1
253019,-114.124765758918,4,1,0,100,0,1
253103,-112.326736009705,4,1,0,100,0,1
253271,-108.895451654775,4,1,0,100,0,1
253440,-105.667586679121,4,1,0,100,0,1
253524,-104.124366142921,4,1,0,100,0,1
253609,-102.625572650695,4,1,0,100,0,1
253777,-99.7538076028362,4,1,0,100,0,1
253861,-98.3773637621078,4,1,0,100,0,1
253948,-97.0384825510253,4,1,0,100,0,0
254030,-95.7354637665203,4,1,0,100,0,0
254114,-94.4669748179385,4,1,0,100,0,0
254198,-93.2316610991826,4,1,0,100,0,0
254283,-92.0282379445309,4,1,0,100,0,0
254367,-90.8554861722493,4,1,0,100,0,0
254451,-89.7122479646534,4,1,0,100,0,0
254535,-88.597423055353,4,1,0,100,0,0
254620,-87.5099651972868,4,1,0,100,0,0
254788,-85.4132163286154,4,1,0,100,0,0
254959,-66.6666666666667,4,1,0,100,0,1
255294,-133.333333333333,4,1,0,100,0,1
257653,-133.333333333333,4,1,0,100,0,1
257822,-128.313701337029,4,1,0,100,0,1
257906,-125.942998199015,4,1,0,100,0,1
257991,-123.658307365089,4,1,0,100,0,1
258075,-121.455031274671,4,1,0,100,0,1
258159,-119.328894298465,4,1,0,100,0,1
258328,-115.292514402917,4,1,0,100,0,1
258412,-113.374957059235,4,1,0,100,0,1
258496,-111.520142210485,4,1,0,100,0,1
258580,-109.725040022208,4,1,0,100,0,1
258665,-107.986812650439,4,1,0,100,0,1
258833,-104.670502491681,4,1,0,100,0,1
258918,-103.087575988429,4,1,0,100,0,1
259002,-101.551813258402,4,1,0,100,0,1
259086,-100.061137354924,4,1,0,100,0,1
259170,-98.6135915168644,4,1,0,100,0,1
259339,-95.8406132265797,4,1,0,100,0,1
259507,-93.219406788983,4,1,0,100,0,1
259592,-91.9618027456116,4,1,0,100,0,1
259676,-90.737679184232,4,1,0,100,0,1
259844,-88.3846642001453,4,1,0,100,0,1
260013,-86.1506015896509,4,1,0,100,0,1
260182,-84.0266936000229,4,1,0,100,0,1
260350,-82.0049891835419,4,1,0,100,0,1
260521,-66.6666666666667,4,1,0,40,0,0
261700,-111.111111111111,4,1,0,40,0,0
262880,-111.111111111111,4,1,0,85,0,0
263554,-111.111111111111,4,1,0,85,0,0
263639,-100,4,1,0,85,0,0
263723,-90.9090909090909,4,1,0,85,0,0
264734,-100,4,1,0,85,0,0
265071,-103.092783505155,4,1,0,85,0,0
265408,-106.382978723404,4,1,0,85,0,0
265745,-100,4,1,0,85,0,0
269116,-86.9565217391304,4,1,0,85,0,0
269369,-100,4,1,0,85,0,0
271307,-100,4,1,0,85,0,0
271391,-99.3377154510876,4,1,0,85,0,0
271475,-98.6842429882378,4,1,0,85,0,0
271644,-97.4025657783877,4,1,0,85,0,0
271728,-96.774224765879,4,1,0,85,0,0
271813,-96.1538461538461,4,1,0,85,0,0
271897,-95.5413708466972,4,1,0,85,0,0
271981,-94.9367389040313,4,1,0,85,0,0
272150,-93.7499707031342,4,1,0,85,0,0
272318,-92.5925925925926,4,1,0,85,0,0
272402,-92.0245116489228,4,1,0,85,0,0
272487,-91.4634425193422,4,1,0,85,0,0
272655,-90.3614185658378,4,1,0,85,0,0
272824,-89.2857142857143,4,1,0,85,0,0
272992,-88.2353200692118,4,1,0,85,0,0
273077,-87.719298245614,4,1,0,85,0,0
273161,-87.2092769740474,4,1,0,85,0,0
273245,-86.705227371453,4,1,0,85,0,0
273330,-86.2068965517241,4,1,0,85,0,0
273498,-85.227296939573,4,1,0,85,0,0
273582,-84.7457627118644,4,1,0,85,0,0
273666,-84.2696392501013,4,1,0,85,0,0
273751,-83.7989060890799,4,1,0,85,0,0
273835,-83.3333333333333,4,1,0,85,0,0
274341,-111.111111111111,4,1,0,85,0,0
274425,-100,4,1,0,85,0,0
274509,-90.9090909090909,4,1,0,85,0,0
274678,-100,4,1,0,85,0,0
279566,-133.333333333333,4,1,0,85,0,0
280240,-122.448929612682,4,1,0,85,0,0
280577,-117.647058823529,4,1,0,85,0,0
281251,-109.090869421502,4,1,0,85,0,0
281588,-105.263157894737,4,1,0,85,0,0
281925,-101.694949727102,4,1,0,85,0,0
282009,-100.840302238554,4,1,0,85,0,0
282094,-100,4,1,0,85,0,0
282178,-99.173586503665,4,1,0,85,0,0
282262,-98.3606234883202,4,1,0,85,0,0
282431,-96.774224765879,4,1,0,85,0,0
282599,-95.2380952380952,4,1,0,85,0,0
282684,-94.4882187364469,4,1,0,85,0,0
282768,-93.7499707031342,4,1,0,85,0,0
282852,-93.0232558139535,4,1,0,85,0,0
282936,-92.3077207100679,4,1,0,85,0,0
283105,-90.9090909090909,4,1,0,85,0,0
283273,-89.5522120739665,4,1,0,85,0,0
283358,-88.8888888888889,4,1,0,85,0,0
283442,-88.2353200692118,4,1,0,85,0,0
283526,-87.591215301835,4,1,0,85,0,0
283611,-86.9565217391304,4,1,0,85,0,0
283695,-86.3309600952403,4,1,0,85,0,0
283779,-85.7142612244968,4,1,0,85,0,0
283863,-85.1063829787234,4,1,0,85,0,0
283948,-84.5070660583285,4,1,0,85,0,0
284032,-83.91606044306,4,1,0,85,0,0
284116,-83.3333333333333,4,1,0,85,0,0
284200,-82.7586435196258,4,1,0,85,0,0
284285,-82.1917583036279,4,1,0,85,0,0
284369,-81.6326530612245,4,1,0,85,0,0
284453,-81.0811029948927,4,1,0,85,0,0
284537,-80.5368911310359,4,1,0,85,0,0
284622,402.684563758389,5,1,0,85,1,0
284622,-66.9662921348314,4,1,0,85,0,0
285266,-113.636363636364,5,1,0,85,0,0
285346,-111.111111111111,5,1,0,85,0,0
285427,-108.695652173913,5,1,0,85,0,0
286434,-62.5,5,1,0,85,0,0
286534,-55.5555555555556,5,1,0,85,0,0
286635,337.078651685393,99,1,0,85,1,1
286635,-59.7318041991458,99,1,0,85,0,1
286803,-40,99,1,0,50,0,1
293882,-40,99,1,0,50,0,0

[HitObjects]
256,192,3975,12,0,8879,0:0:0:0:
256,192,9399,5,0,0:0:0:0:
256,192,9570,1,2,0:0:0:0:
256,192,9907,1,0,0:0:0:0:
256,192,9991,1,0,0:0:0:0:
256,192,10075,1,0,0:0:0:0:
256,192,10159,1,0,0:0:0:0:
256,192,10244,5,6,0:0:0:0:
256,192,10581,1,0,0:0:0:0:
256,192,10834,1,2,0:0:0:0:
256,192,10918,1,0,0:0:0:0:
256,192,11086,1,0,0:0:0:0:
256,192,11255,1,2,0:0:0:0:
256,192,11592,1,0,0:0:0:0:
256,192,11761,1,0,0:0:0:0:
256,192,11845,1,0,0:0:0:0:
256,192,11929,1,2,0:0:0:0:
256,192,12098,1,0,0:0:0:0:
256,192,12266,1,2,0:0:0:0:
256,192,12350,1,2,0:0:0:0:
256,192,12435,1,0,0:0:0:0:
256,192,12519,1,0,0:0:0:0:
256,192,12603,1,2,0:0:0:0:
256,192,12772,1,0,0:0:0:0:
256,192,12940,1,2,0:0:0:0:
256,192,13025,1,2,0:0:0:0:
256,192,13109,1,2,0:0:0:0:
256,192,13193,1,2,0:0:0:0:
256,192,13277,1,0,0:0:0:0:
256,192,13446,1,2,0:0:0:0:
256,192,13614,1,0,0:0:0:0:
256,192,13867,1,2,0:0:0:0:
256,192,13952,1,0,0:0:0:0:
256,192,14120,1,2,0:0:0:0:
256,192,14289,1,0,0:0:0:0:
256,192,14373,1,0,0:0:0:0:
256,192,14457,1,0,0:0:0:0:
256,192,14626,1,2,0:0:0:0:
256,192,14794,1,0,0:0:0:0:
256,192,14963,1,0,0:0:0:0:
256,192,15216,1,2,0:0:0:0:
256,192,15300,1,0,0:0:0:0:
256,192,15468,5,0,0:0:0:0:
256,192,15553,1,0,0:0:0:0:
256,192,15637,5,6,0:0:0:0:
256,192,15890,1,2,0:0:0:0:
256,192,15974,1,0,0:0:0:0:
256,192,16143,1,2,0:0:0:0:
256,192,16311,1,0,0:0:0:0:
256,192,16480,1,2,0:0:0:0:
256,192,16564,1,2,0:0:0:0:
256,192,16648,1,0,0:0:0:0:
256,192,16817,1,2,0:0:0:0:
256,192,16985,1,0,0:0:0:0:
256,192,17069,1,0,0:0:0:0:
256,192,17154,1,2,0:0:0:0:
256,192,17238,1,0,0:0:0:0:
256,192,17322,1,2,0:0:0:0:
256,192,17407,1,2,0:0:0:0:
256,192,17491,1,0,0:0:0:0:
256,192,17659,5,0,0:0:0:0:
256,192,17744,1,0,0:0:0:0:
256,192,17828,1,0,0:0:0:0:
256,192,17912,1,0,0:0:0:0:
256,192,17996,1,2,0:0:0:0:
256,192,18165,1,0,0:0:0:0:
256,192,18249,1,0,0:0:0:0:
256,192,18334,1,2,0:0:0:0:
256,192,18418,1,0,0:0:0:0:
256,192,18502,1,2,0:0:0:0:
256,192,18671,1,0,0:0:0:0:
256,192,18755,1,2,0:0:0:0:
256,192,18839,1,0,0:0:0:0:
256,192,18923,1,0,0:0:0:0:
256,192,19008,1,2,0:0:0:0:
256,192,19176,1,0,0:0:0:0:
256,192,19261,1,2,0:0:0:0:
256,192,19345,1,2,0:0:0:0:
256,192,19429,1,0,0:0:0:0:
256,192,19513,1,0,0:0:0:0:
256,192,19682,1,2,0:0:0:0:
256,192,19850,1,2,0:0:0:0:
256,192,20019,1,0,0:0:0:0:
256,192,20103,1,0,0:0:0:0:
256,192,20187,1,2,0:0:0:0:
256,192,20272,1,0,0:0:0:0:
256,192,20356,1,0,0:0:0:0:
256,192,20693,5,0,0:0:0:0:
256,192,21030,1,0,0:0:0:0:
256,192,21367,1,2,0:0:0:0:
256,192,21704,1,2,0:0:0:0:
256,192,22041,1,2,0:0:0:0:
256,192,22716,1,0,0:0:0:0:
256,192,23053,1,2,0:0:0:0:
256,192,23221,1,0,0:0:0:0:
256,192,23305,1,0,0:0:0:0:
256,192,23390,1,2,0:0:0:0:
256,192,23558,1,0,0:0:0:0:
256,192,23727,1,2,0:0:0:0:
256,192,23811,1,0,0:0:0:0:
256,192,23895,1,0,0:0:0:0:
256,192,23980,1,0,0:0:0:0:
256,192,24064,1,2,0:0:0:0:
256,192,24232,1,0,0:0:0:0:
256,192,24401,1,2,0:0:0:0:
256,192,24485,1,2,0:0:0:0:
256,192,24569,1,0,0:0:0:0:
256,192,24654,1,0,0:0:0:0:
256,192,24738,1,2,0:0:0:0:
256,192,24907,1,0,0:0:0:0:
256,192,25075,5,2,0:0:0:0:
256,192,25159,1,2,0:0:0:0:
256,192,25244,1,0,0:0:0:0:
256,192,25328,1,0,0:0:0:0:
256,192,25412,1,2,0:0:0:0:
256,192,25496,1,2,0:0:0:0:
256,192,25581,1,2,0:0:0:0:
256,192,25665,1,2,0:0:0:0:
256,192,25749,5,0,0:0:0:0:
256,192,26086,1,2,0:0:0:0:
256,192,26423,1,0,0:0:0:0:
256,192,26929,1,0,0:0:0:0:
256,192,27098,1,2,0:0:0:0:
256,192,27266,1,2,0:0:0:0:
256,192,27435,1,0,0:0:0:0:
256,192,27772,1,2,0:0:0:0:
256,192,27940,1,2,0:0:0:0:
256,192,28109,1,0,0:0:0:0:
256,192,28277,1,2,0:0:0:0:
256,192,28614,1,0,0:0:0:0:
256,192,29289,1,2,0:0:0:0:
256,192,29457,1,2,0:0:0:0:
256,192,29626,1,0,0:0:0:0:
256,192,29794,1,2,0:0:0:0:
256,192,29963,1,2,0:0:0:0:
256,192,30131,1,0,0:0:0:0:
256,192,30300,1,0,0:0:0:0:
256,192,30637,1,2,0:0:0:0:
256,192,30805,1,0,0:0:0:0:
256,192,30974,1,2,0:0:0:0:
256,192,31311,1,0,0:0:0:0:
256,192,31985,1,2,0:0:0:0:
256,192,32154,1,2,0:0:0:0:
256,192,32322,1,0,0:0:0:0:
256,192,32491,1,2,0:0:0:0:
256,192,32659,1,0,0:0:0:0:
256,192,32828,1,0,0:0:0:0:
256,192,32996,1,2,0:0:0:0:
256,192,33334,1,0,0:0:0:0:
256,192,33502,1,2,0:0:0:0:
256,192,33671,1,0,0:0:0:0:
256,192,34008,1,0,0:0:0:0:
256,192,34176,1,2,0:0:0:0:
256,192,35019,1,0,0:0:0:0:
256,192,35187,1,0,0:0:0:0:
256,192,35525,1,0,0:0:0:0:
256,192,35693,1,2,0:0:0:0:
256,192,36030,1,2,0:0:0:0:
256,192,36367,1,2,0:0:0:0:
256,192,36536,5,0,0:0:0:0:
256,192,36789,1,0,0:0:0:0:
256,192,36873,1,2,0:0:0:0:
256,192,37041,1,2,0:0:0:0:
256,192,37210,1,0,0:0:0:0:
256,192,37463,1,0,0:0:0:0:
256,192,37547,1,2,0:0:0:0:
256,192,37716,1,2,0:0:0:0:
256,192,37884,1,0,0:0:0:0:
256,192,38053,1,0,0:0:0:0:
256,192,38221,1,2,0:0:0:0:
256,192,38305,1,0,0:0:0:0:
256,192,38390,1,0,0:0:0:0:
256,192,38558,1,2,0:0:0:0:
256,192,38727,1,0,0:0:0:0:
256,192,38895,1,2,0:0:0:0:
256,192,38980,1,0,0:0:0:0:
256,192,39064,1,2,0:0:0:0:
256,192,39148,1,2,0:0:0:0:
256,192,39232,1,0,0:0:0:0:
256,192,39401,1,2,0:0:0:0:
256,192,39738,1,2,0:0:0:0:
256,192,39907,1,0,0:0:0:0:
256,192,40075,1,2,0:0:0:0:
256,192,40159,1,2,0:0:0:0:
256,192,40244,1,0,0:0:0:0:
256,192,40412,1,0,0:0:0:0:
256,192,40581,1,2,0:0:0:0:
256,192,40918,1,2,0:0:0:0:
256,192,41002,1,2,0:0:0:0:
256,192,41086,1,2,0:0:0:0:
256,192,41171,1,2,0:0:0:0:
256,192,41255,1,0,0:0:0:0:
256,192,41423,1,0,0:0:0:0:
256,192,41592,1,2,0:0:0:0:
256,192,41761,1,2,0:0:0:0:
256,192,41845,1,0,0:0:0:0:
256,192,41929,1,0,0:0:0:0:
256,192,45974,5,2,0:0:0:0:
256,192,46143,1,0,0:0:0:0:
256,192,46227,1,0,0:0:0:0:
256,192,46311,1,0,0:0:0:0:
256,192,46480,1,2,0:0:0:0:
256,192,46648,1,0,0:0:0:0:
256,192,46732,1,0,0:0:0:0:
256,192,46817,1,0,0:0:0:0:
256,192,46985,1,2,0:0:0:0:
256,192,47154,1,0,0:0:0:0:
256,192,47322,1,6,0:0:0:0:
256,192,47575,1,0,0:0:0:0:
256,192,47659,1,2,0:0:0:0:
256,192,47828,1,0,0:0:0:0:
256,192,47996,1,2,0:0:0:0:
256,192,48081,1,2,0:0:0:0:
256,192,48165,1,0,0:0:0:0:
256,192,48334,1,2,0:0:0:0:
256,192,48502,1,0,0:0:0:0:
256,192,48586,1,0,0:0:0:0:
256,192,48671,1,0,0:0:0:0:
256,192,48839,1,0,0:0:0:0:
256,192,49008,1,2,0:0:0:0:
256,192,49176,1,2,0:0:0:0:
256,192,49261,1,2,0:0:0:0:
256,192,49345,1,0,0:0:0:0:
256,192,49513,1,0,0:0:0:0:
256,192,49682,1,2,0:0:0:0:
256,192,49850,1,0,0:0:0:0:
256,192,49935,1,2,0:0:0:0:
256,192,50019,1,0,0:0:0:0:
256,192,50187,1,0,0:0:0:0:
256,192,50356,1,2,0:0:0:0:
256,192,50609,1,2,0:0:0:0:
256,192,50693,1,0,0:0:0:0:
256,192,50862,1,0,0:0:0:0:
256,192,51030,1,2,0:0:0:0:
256,192,51199,1,0,0:0:0:0:
256,192,51283,1,0,0:0:0:0:
256,192,51367,1,2,0:0:0:0:
256,192,51536,1,0,0:0:0:0:
256,192,51704,1,2,0:0:0:0:
256,192,51873,1,2,0:0:0:0:
256,192,52041,1,0,0:0:0:0:
256,192,52126,1,0,0:0:0:0:
256,192,52210,1,2,0:0:0:0:
256,192,52294,1,0,0:0:0:0:
256,192,52378,1,2,0:0:0:0:
256,192,52547,1,2,0:0:0:0:
256,192,52716,1,0,0:0:0:0:
256,192,52884,1,0,0:0:0:0:
256,192,53053,1,2,0:0:0:0:
256,192,53305,1,2,0:0:0:0:
256,192,53390,1,0,0:0:0:0:
256,192,53558,1,0,0:0:0:0:
256,192,53727,1,2,0:0:0:0:
256,192,53895,1,0,0:0:0:0:
256,192,53980,1,0,0:0:0:0:
256,192,54064,1,2,0:0:0:0:
256,192,54232,1,0,0:0:0:0:
256,192,54401,1,2,0:0:0:0:
256,192,54569,1,2,0:0:0:0:
256,192,54738,1,0,0:0:0:0:
256,192,54822,1,0,0:0:0:0:
256,192,54907,1,2,0:0:0:0:
256,192,54991,1,2,0:0:0:0:
256,192,55075,1,0,0:0:0:0:
256,192,55244,5,2,0:0:0:0:
256,192,55412,1,0,0:0:0:0:
256,192,55581,1,0,0:0:0:0:
256,192,55749,1,2,0:0:0:0:
256,192,56002,1,2,0:0:0:0:
256,192,56086,1,0,0:0:0:0:
256,192,56255,1,0,0:0:0:0:
256,192,56423,1,2,0:0:0:0:
256,192,56592,1,0,0:0:0:0:
256,192,56676,1,0,0:0:0:0:
256,192,56761,1,2,0:0:0:0:
256,192,56845,1,2,0:0:0:0:
256,192,56929,1,0,0:0:0:0:
256,192,57098,1,0,0:0:0:0:
256,192,57266,1,2,0:0:0:0:
256,192,57350,1,0,0:0:0:0:
256,192,57435,1,2,0:0:0:0:
256,192,57603,1,0,0:0:0:0:
256,192,57772,1,2,0:0:0:0:
256,192,57856,1,2,0:0:0:0:
256,192,57940,1,2,0:0:0:0:
256,192,58025,1,2,0:0:0:0:
256,192,58109,1,0,0:0:0:0:
256,192,58362,1,0,0:0:0:0:
256,192,58446,1,2,0:0:0:0:
256,192,58614,1,0,0:0:0:0:
256,192,58783,1,2,0:0:0:0:
256,192,58867,1,2,0:0:0:0:
256,192,58952,1,0,0:0:0:0:
256,192,59120,1,2,0:0:0:0:
256,192,59289,1,2,0:0:0:0:
256,192,59457,1,0,0:0:0:0:
256,192,59541,1,0,0:0:0:0:
256,192,59626,1,0,0:0:0:0:
256,192,59794,1,2,0:0:0:0:
256,192,59963,1,0,0:0:0:0:
256,192,60047,1,0,0:0:0:0:
256,192,60131,1,2,0:0:0:0:
256,192,60300,1,0,0:0:0:0:
256,192,60468,1,2,0:0:0:0:
256,192,60637,1,2,0:0:0:0:
256,192,60721,1,2,0:0:0:0:
256,192,60805,1,0,0:0:0:0:
256,192,60974,1,0,0:0:0:0:
256,192,61143,1,2,0:0:0:0:
256,192,61395,1,2,0:0:0:0:
256,192,61480,1,0,0:0:0:0:
256,192,61648,1,0,0:0:0:0:
256,192,61817,1,2,0:0:0:0:
256,192,61985,1,0,0:0:0:0:
256,192,62069,1,0,0:0:0:0:
256,192,62154,1,2,0:0:0:0:
256,192,62322,1,0,0:0:0:0:
256,192,62491,1,2,0:0:0:0:
256,192,62575,1,2,0:0:0:0:
256,192,62659,1,0,0:0:0:0:
256,192,62828,1,2,0:0:0:0:
256,192,62912,1,0,0:0:0:0:
256,192,62996,1,2,0:0:0:0:
256,192,63081,1,0,0:0:0:0:
256,192,63165,1,2,0:0:0:0:
256,192,63249,1,2,0:0:0:0:
256,192,63334,1,2,0:0:0:0:
256,192,63418,1,2,0:0:0:0:
256,192,63502,5,0,0:0:0:0:
256,192,63755,1,0,0:0:0:0:
256,192,63839,1,2,0:0:0:0:
256,192,64008,1,2,0:0:0:0:
256,192,64176,1,0,0:0:0:0:
256,192,64261,1,0,0:0:0:0:
256,192,64345,1,0,0:0:0:0:
256,192,64513,1,2,0:0:0:0:
256,192,64682,1,2,0:0:0:0:
256,192,64850,1,0,0:0:0:0:
256,192,65019,1,0,0:0:0:0:
256,192,65187,1,2,0:0:0:0:
256,192,65272,1,0,0:0:0:0:
256,192,65356,1,0,0:0:0:0:
256,192,65440,1,2,0:0:0:0:
256,192,65525,1,0,0:0:0:0:
256,192,65609,1,2,0:0:0:0:
256,192,65693,1,2,0:0:0:0:
256,192,65862,1,0,0:0:0:0:
256,192,65946,1,2,0:0:0:0:
256,192,66030,1,2,0:0:0:0:
256,192,66114,1,2,0:0:0:0:
256,192,66199,1,0,0:0:0:0:
256,192,67210,1,2,0:0:0:0:
256,192,67378,1,0,0:0:0:0:
256,192,67463,1,0,0:0:0:0:
256,192,67547,1,0,0:0:0:0:
256,192,67716,1,2,0:0:0:0:
256,192,67884,1,0,0:0:0:0:
256,192,67968,1,0,0:0:0:0:
256,192,68053,1,0,0:0:0:0:
256,192,68221,1,2,0:0:0:0:
256,192,68390,1,0,0:0:0:0:
256,192,68474,1,0,0:0:0:0:
256,192,68558,1,2,0:0:0:0:
256,192,68727,1,2,0:0:0:0:
256,192,68894,1,0,0:0:0:0:
256,192,70073,1,2,0:0:0:0:
256,192,70158,1,2,0:0:0:0:
256,192,70242,1,2,0:0:0:0:
256,192,70747,1,0,0:0:0:0:
256,192,70832,1,0,0:0:0:0:
256,192,70916,1,6,0:0:0:0:
256,192,71422,1,0,0:0:0:0:
256,192,71506,1,0,0:0:0:0:
256,192,71590,1,2,0:0:0:0:
256,192,71927,1,0,0:0:0:0:
256,192,72096,1,2,0:0:0:0:
256,192,72264,1,0,0:0:0:0:
256,192,72433,1,2,0:0:0:0:
256,192,72601,1,0,0:0:0:0:
256,192,72686,1,0,0:0:0:0:
256,192,72770,1,2,0:0:0:0:
256,192,72938,1,0,0:0:0:0:
256,192,73107,1,2,0:0:0:0:
256,192,73191,1,0,0:0:0:0:
256,192,73360,1,0,0:0:0:0:
256,192,73444,1,2,0:0:0:0:
256,192,73613,1,0,0:0:0:0:
256,192,73781,1,2,0:0:0:0:
256,192,73865,1,0,0:0:0:0:
256,192,74034,1,0,0:0:0:0:
256,192,74118,1,2,0:0:0:0:
256,192,74287,1,0,0:0:0:0:
256,192,74371,1,2,0:0:0:0:
256,192,74455,1,2,0:0:0:0:
256,192,74540,1,0,0:0:0:0:
256,192,74624,1,0,0:0:0:0:
256,192,74708,1,2,0:0:0:0:
256,192,74792,1,0,0:0:0:0:
256,192,74877,1,0,0:0:0:0:
256,192,74961,1,0,0:0:0:0:
256,192,75298,1,0,0:0:0:0:
256,192,75467,1,0,0:0:0:0:
256,192,75635,5,6,0:0:0:0:
256,192,75888,1,0,0:0:0:0:
256,192,75972,1,2,0:0:0:0:
256,192,76141,1,0,0:0:0:0:
256,192,76309,1,2,0:0:0:0:
256,192,76394,1,0,0:0:0:0:
256,192,76478,1,0,0:0:0:0:
256,192,76562,1,0,0:0:0:0:
256,192,76646,1,2,0:0:0:0:
256,192,76815,1,0,0:0:0:0:
256,192,76983,1,2,0:0:0:0:
256,192,77067,1,2,0:0:0:0:
256,192,77151,1,0,0:0:0:0:
256,192,77320,1,2,0:0:0:0:
256,192,77488,1,0,0:0:0:0:
256,192,77657,1,2,0:0:0:0:
256,192,77741,1,0,0:0:0:0:
256,192,77825,1,0,0:0:0:0:
256,192,77909,1,0,0:0:0:0:
256,192,77994,1,2,0:0:0:0:
256,192,78162,1,0,0:0:0:0:
256,192,78331,5,4,0:0:0:0:
256,192,78584,1,0,0:0:0:0:
256,192,78668,1,2,0:0:0:0:
256,192,78836,1,0,0:0:0:0:
256,192,79005,1,2,0:0:0:0:
256,192,79089,1,2,0:0:0:0:
256,192,79174,1,0,0:0:0:0:
256,192,79342,1,2,0:0:0:0:
256,192,79511,1,0,0:0:0:0:
256,192,79679,1,0,0:0:0:0:
256,192,79932,1,0,0:0:0:0:
256,192,80016,1,2,0:0:0:0:
256,192,80100,1,0,0:0:0:0:
256,192,80185,1,0,0:0:0:0:
256,192,80353,1,2,0:0:0:0:
256,192,80438,1,2,0:0:0:0:
256,192,80522,1,0,0:0:0:0:
256,192,80606,1,0,0:0:0:0:
256,192,80690,1,2,0:0:0:0:
256,192,80775,1,2,0:0:0:0:
256,192,80859,1,2,0:0:0:0:
256,192,80943,1,2,0:0:0:0:
256,192,81027,5,0,0:0:0:0:
256,192,81280,1,0,0:0:0:0:
256,192,81365,1,2,0:0:0:0:
256,192,81449,1,2,0:0:0:0:
256,192,81533,1,2,0:0:0:0:
256,192,81617,1,2,0:0:0:0:
256,192,81702,1,0,0:0:0:0:
256,192,81954,1,0,0:0:0:0:
256,192,82039,1,2,0:0:0:0:
256,192,82123,1,0,0:0:0:0:
256,192,82207,1,2,0:0:0:0:
256,192,82291,1,0,0:0:0:0:
256,192,82376,1,0,0:0:0:0:
256,192,82629,1,0,0:0:0:0:
256,192,82713,1,2,0:0:0:0:
256,192,82797,1,0,0:0:0:0:
256,192,82881,1,2,0:0:0:0:
256,192,82966,1,2,0:0:0:0:
256,192,83050,1,0,0:0:0:0:
256,192,83218,1,0,0:0:0:0:
256,192,83387,1,2,0:0:0:0:
256,192,83471,1,2,0:0:0:0:
256,192,83640,1,2,0:0:0:0:
256,192,83724,5,0,0:0:0:0:
256,192,84061,1,2,0:0:0:0:
256,192,84230,1,2,0:0:0:0:
256,192,84398,1,0,0:0:0:0:
256,192,84567,1,0,0:0:0:0:
256,192,84735,1,2,0:0:0:0:
256,192,85072,1,2,0:0:0:0:
256,192,85157,1,2,0:0:0:0:
256,192,85241,1,0,0:0:0:0:
256,192,85325,1,0,0:0:0:0:
256,192,85409,1,2,0:0:0:0:
256,192,85494,1,0,0:0:0:0:
256,192,85578,1,2,0:0:0:0:
256,192,85662,1,2,0:0:0:0:
256,192,85747,1,0,0:0:0:0:
256,192,85831,1,0,0:0:0:0:
256,192,85915,1,2,0:0:0:0:
256,192,85999,1,0,0:0:0:0:
256,192,86084,1,2,0:0:0:0:
256,192,86168,1,0,0:0:0:0:
256,192,86252,1,2,0:0:0:0:
256,192,86336,1,2,0:0:0:0:
256,192,86421,1,0,0:0:0:0:
256,192,86589,12,0,89117,0:0:0:0:
256,192,89454,5,2,0:0:0:0:
256,192,89623,1,0,0:0:0:0:
256,192,89707,1,0,0:0:0:0:
256,192,89791,1,0,0:0:0:0:
256,192,89960,1,2,0:0:0:0:
256,192,90129,1,0,0:0:0:0:
256,192,90213,1,0,0:0:0:0:
256,192,90297,1,0,0:0:0:0:
256,192,90466,1,2,0:0:0:0:
256,192,90634,1,0,0:0:0:0:
256,192,90718,1,0,0:0:0:0:
256,192,90803,1,0,0:0:0:0:
256,192,90887,1,0,0:0:0:0:
256,192,90971,1,0,0:0:0:0:
256,192,91140,1,6,0:0:0:0:
256,192,91814,1,4,0:0:0:0:
256,192,92067,1,0,0:0:0:0:
256,192,92151,1,2,0:0:0:0:
256,192,92320,1,0,0:0:0:0:
256,192,92488,1,2,0:0:0:0:
256,192,92572,1,2,0:0:0:0:
256,192,92657,1,0,0:0:0:0:
256,192,92825,1,2,0:0:0:0:
256,192,92994,1,0,0:0:0:0:
256,192,93078,1,0,0:0:0:0:
256,192,93162,1,0,0:0:0:0:
256,192,93331,1,2,0:0:0:0:
256,192,93499,1,2,0:0:0:0:
256,192,93668,1,0,0:0:0:0:
256,192,93752,1,2,0:0:0:0:
256,192,93836,1,0,0:0:0:0:
256,192,93921,1,2,0:0:0:0:
256,192,94005,1,0,0:0:0:0:
256,192,94174,1,2,0:0:0:0:
256,192,94342,1,0,0:0:0:0:
256,192,94511,1,0,0:0:0:0:
256,192,94763,1,0,0:0:0:0:
256,192,94848,1,2,0:0:0:0:
256,192,95016,1,0,0:0:0:0:
256,192,95185,1,2,0:0:0:0:
256,192,95269,1,0,0:0:0:0:
256,192,95353,1,0,0:0:0:0:
256,192,95438,1,0,0:0:0:0:
256,192,95522,1,2,0:0:0:0:
256,192,95690,1,0,0:0:0:0:
256,192,95775,1,2,0:0:0:0:
256,192,95859,1,0,0:0:0:0:
256,192,96027,1,2,0:0:0:0:
256,192,96196,1,2,0:0:0:0:
256,192,96365,1,2,0:0:0:0:
256,192,96449,1,0,0:0:0:0:
256,192,96533,1,2,0:0:0:0:
256,192,96617,1,2,0:0:0:0:
256,192,96702,1,0,0:0:0:0:
256,192,96786,1,0,0:0:0:0:
256,192,96870,1,2,0:0:0:0:
256,192,97039,1,0,0:0:0:0:
256,192,97207,1,0,0:0:0:0:
256,192,97460,1,0,0:0:0:0:
256,192,97544,1,2,0:0:0:0:
256,192,97713,1,0,0:0:0:0:
256,192,97881,1,2,0:0:0:0:
256,192,97966,1,2,0:0:0:0:
256,192,98050,1,0,0:0:0:0:
256,192,98218,1,2,0:0:0:0:
256,192,98387,1,0,0:0:0:0:
256,192,98471,1,0,0:0:0:0:
256,192,98556,1,0,0:0:0:0:
256,192,98724,1,2,0:0:0:0:
256,192,98893,1,2,0:0:0:0:
256,192,99061,1,0,0:0:0:0:
256,192,99145,1,2,0:0:0:0:
256,192,99230,1,0,0:0:0:0:
256,192,99314,1,2,0:0:0:0:
256,192,99398,1,0,0:0:0:0:
256,192,99567,1,2,0:0:0:0:
256,192,99735,5,0,0:0:0:0:
256,192,99904,1,0,0:0:0:0:
256,192,100157,1,0,0:0:0:0:
256,192,100241,1,2,0:0:0:0:
256,192,100409,1,0,0:0:0:0:
256,192,100578,1,2,0:0:0:0:
256,192,100662,1,0,0:0:0:0:
256,192,100747,1,0,0:0:0:0:
256,192,100831,1,0,0:0:0:0:
256,192,100915,1,2,0:0:0:0:
256,192,101084,1,0,0:0:0:0:
256,192,101168,1,2,0:0:0:0:
256,192,101252,1,0,0:0:0:0:
256,192,101421,1,0,0:0:0:0:
256,192,101589,1,2,0:0:0:0:
256,192,101674,1,2,0:0:0:0:
256,192,101758,1,0,0:0:0:0:
256,192,101842,1,0,0:0:0:0:
256,192,101926,1,2,0:0:0:0:
256,192,102011,1,0,0:0:0:0:
256,192,102095,1,0,0:0:0:0:
256,192,102179,1,2,0:0:0:0:
256,192,102263,1,2,0:0:0:0:
256,192,102432,1,0,0:0:0:0:
256,192,102600,1,4,0:0:0:0:
256,192,102853,1,0,0:0:0:0:
256,192,102938,1,2,0:0:0:0:
256,192,103106,1,0,0:0:0:0:
256,192,103190,1,0,0:0:0:0:
256,192,103275,1,2,0:0:0:0:
256,192,103443,1,0,0:0:0:0:
256,192,103612,1,2,0:0:0:0:
256,192,103780,1,0,0:0:0:0:
256,192,103865,1,0,0:0:0:0:
256,192,103949,1,0,0:0:0:0:
256,192,104117,1,2,0:0:0:0:
256,192,104286,1,2,0:0:0:0:
256,192,104454,1,0,0:0:0:0:
256,192,104539,1,0,0:0:0:0:
256,192,104623,1,2,0:0:0:0:
256,192,104791,1,0,0:0:0:0:
256,192,104960,1,2,0:0:0:0:
256,192,105044,1,2,0:0:0:0:
256,192,105129,1,2,0:0:0:0:
256,192,105213,1,2,0:0:0:0:
256,192,105297,1,0,0:0:0:0:
256,192,105550,1,0,0:0:0:0:
256,192,105634,1,2,0:0:0:0:
256,192,105803,1,0,0:0:0:0:
256,192,105971,1,2,0:0:0:0:
256,192,106056,1,2,0:0:0:0:
256,192,106140,1,0,0:0:0:0:
256,192,106224,1,0,0:0:0:0:
256,192,106308,1,2,0:0:0:0:
256,192,106477,1,0,0:0:0:0:
256,192,106561,1,2,0:0:0:0:
256,192,106645,1,0,0:0:0:0:
256,192,106814,1,2,0:0:0:0:
256,192,106982,1,2,0:0:0:0:
256,192,107151,1,0,0:0:0:0:
256,192,107235,1,0,0:0:0:0:
256,192,107320,1,2,0:0:0:0:
288,160,107432,5,2,0:0:0:0:
384,192,107544,1,0,0:0:0:0:
352,192,107657,1,2,0:0:0:0:
256,160,107769,1,0,0:0:0:0:
256,160,107881,1,0,0:0:0:0:
352,192,107994,1,2,0:0:0:0:
256,192,108499,1,0,0:0:0:0:
256,192,108668,1,2,0:0:0:0:
256,192,109005,1,0,0:0:0:0:
256,192,109511,1,0,0:0:0:0:
256,192,109679,1,0,0:0:0:0:
256,192,110016,1,2,0:0:0:0:
256,192,110185,1,0,0:0:0:0:
256,192,110353,1,0,0:0:0:0:
256,192,110438,1,0,0:0:0:0:
256,192,110522,1,2,0:0:0:0:
256,192,110690,5,0,0:0:0:0:
256,192,110775,1,2,0:0:0:0:
256,192,110943,1,2,0:0:0:0:
256,192,111027,1,0,0:0:0:0:
256,192,111196,1,2,0:0:0:0:
256,192,111365,1,0,0:0:0:0:
256,192,111449,1,0,0:0:0:0:
256,192,111533,1,2,0:0:0:0:
256,192,111702,1,0,0:0:0:0:
256,192,111870,1,2,0:0:0:0:
256,192,111954,1,0,0:0:0:0:
256,192,112039,1,2,0:0:0:0:
256,192,112207,1,0,0:0:0:0:
256,192,112376,1,0,0:0:0:0:
256,192,112460,1,2,0:0:0:0:
256,192,112544,1,0,0:0:0:0:
256,192,112629,1,0,0:0:0:0:
256,192,112713,1,2,0:0:0:0:
256,192,112881,1,0,0:0:0:0:
256,192,112966,1,0,0:0:0:0:
256,192,113050,1,0,0:0:0:0:
256,192,113218,1,0,0:0:0:0:
256,192,113387,1,6,0:0:0:0:
256,192,113893,1,0,0:0:0:0:
256,192,114061,1,2,0:0:0:0:
256,192,114398,1,0,0:0:0:0:
256,192,114904,1,0,0:0:0:0:
256,192,115072,1,0,0:0:0:0:
256,192,115409,1,2,0:0:0:0:
256,192,115578,1,0,0:0:0:0:
256,192,115747,1,2,0:0:0:0:
256,192,115831,1,0,0:0:0:0:
256,192,115915,5,2,0:0:0:0:
256,192,115999,1,2,0:0:0:0:
256,192,116084,1,0,0:0:0:0:
256,192,116252,1,2,0:0:0:0:
256,192,116336,1,2,0:0:0:0:
256,192,116421,1,0,0:0:0:0:
256,192,116589,1,0,0:0:0:0:
256,192,116758,1,2,0:0:0:0:
256,192,116842,1,2,0:0:0:0:
256,192,116926,1,2,0:0:0:0:
256,192,117095,1,0,0:0:0:0:
256,192,117263,1,2,0:0:0:0:
256,192,117348,1,2,0:0:0:0:
256,192,117432,1,0,0:0:0:0:
256,192,117516,1,2,0:0:0:0:
256,192,117600,1,0,0:0:0:0:
256,192,117769,1,0,0:0:0:0:
256,192,117853,1,2,0:0:0:0:
256,192,117938,1,0,0:0:0:0:
256,192,118106,1,2,0:0:0:0:
256,192,118275,1,0,0:0:0:0:
256,192,118443,1,0,0:0:0:0:
256,192,118612,1,0,0:0:0:0:
256,192,118780,12,0,121477,0:0:0:0:
256,192,122151,5,2,0:0:0:0:
256,192,122994,5,0,0:0:0:0:
256,192,123162,1,2,0:0:0:0:
256,192,123331,1,2,0:0:0:0:
256,192,123499,1,2,0:0:0:0:
256,192,124174,5,0,0:0:0:0:
256,192,124679,1,0,0:0:0:0:
256,192,124848,1,2,0:0:0:0:
256,192,125185,1,0,0:0:0:0:
256,192,126027,1,0,0:0:0:0:
256,192,126196,1,2,0:0:0:0:
256,192,126533,1,0,0:0:0:0:
256,192,126870,1,0,0:0:0:0:
256,192,127039,1,2,0:0:0:0:
256,192,127207,1,2,0:0:0:0:
256,192,127376,1,0,0:0:0:0:
256,192,127544,1,2,0:0:0:0:
256,192,127713,1,2,0:0:0:0:
256,192,127881,1,0,0:0:0:0:
256,192,128050,1,2,0:0:0:0:
256,192,128218,1,2,0:0:0:0:
256,192,128387,1,2,0:0:0:0:
256,192,128556,1,2,0:0:0:0:
256,192,128724,1,2,0:0:0:0:
256,192,128893,1,2,0:0:0:0:
256,192,129061,1,2,0:0:0:0:
256,192,129230,1,2,0:0:0:0:
256,192,129398,1,2,0:0:0:0:
256,192,129567,1,0,0:0:0:0:
256,192,130915,1,2,0:0:0:0:
256,192,131252,1,2,0:0:0:0:
256,192,131589,1,2,0:0:0:0:
256,192,131926,1,2,0:0:0:0:
256,192,132263,1,0,0:0:0:0:
256,192,132600,1,0,0:0:0:0:
256,192,132938,1,2,0:0:0:0:
256,192,133612,1,0,0:0:0:0:
256,192,133949,1,0,0:0:0:0:
256,192,134286,1,2,0:0:0:0:
256,192,134454,1,0,0:0:0:0:
256,192,134623,1,0,0:0:0:0:
256,192,134791,1,2,0:0:0:0:
256,192,135129,1,0,0:0:0:0:
256,192,135297,1,0,0:0:0:0:
256,192,135634,1,2,0:0:0:0:
256,192,136308,1,0,0:0:0:0:
256,192,136645,1,0,0:0:0:0:
256,192,136982,1,2,0:0:0:0:
256,192,137151,1,2,0:0:0:0:
256,192,137320,1,0,0:0:0:0:
256,192,137488,1,0,0:0:0:0:
256,192,137825,1,2,0:0:0:0:
256,192,137994,1,0,0:0:0:0:
256,192,138331,1,2,0:0:0:0:
256,192,139005,1,0,0:0:0:0:
256,192,139174,1,2,0:0:0:0:
256,192,139258,1,2,0:0:0:0:
256,192,139342,1,2,0:0:0:0:
256,192,139511,1,0,0:0:0:0:
256,192,139679,1,2,0:0:0:0:
256,192,140016,1,2,0:0:0:0:
256,192,140185,1,2,0:0:0:0:
256,192,140353,1,0,0:0:0:0:
256,192,140690,1,0,0:0:0:0:
256,192,141027,1,2,0:0:0:0:
256,192,141533,1,2,0:0:0:0:
256,192,141702,1,0,0:0:0:0:
256,192,141870,1,0,0:0:0:0:
256,192,142039,1,2,0:0:0:0:
256,192,142207,1,0,0:0:0:0:
256,192,142376,1,2,0:0:0:0:
256,192,142713,1,0,0:0:0:0:
256,192,142881,1,2,0:0:0:0:
256,192,143218,1,2,0:0:0:0:
256,192,143387,1,0,0:0:0:0:
256,192,143724,1,2,0:0:0:0:
256,192,144230,1,2,0:0:0:0:
256,192,144398,1,0,0:0:0:0:
256,192,144735,1,2,0:0:0:0:
256,192,144904,1,0,0:0:0:0:
256,192,145072,1,0,0:0:0:0:
256,192,145241,1,2,0:0:0:0:
256,192,145578,1,0,0:0:0:0:
256,192,145747,1,0,0:0:0:0:
256,192,146084,1,0,0:0:0:0:
256,192,146421,1,2,0:0:0:0:
256,192,146758,1,0,0:0:0:0:
256,192,146926,1,0,0:0:0:0:
256,192,147095,1,2,0:0:0:0:
256,192,147432,1,0,0:0:0:0:
256,192,147600,1,2,0:0:0:0:
256,192,147938,1,2,0:0:0:0:
256,192,148106,1,0,0:0:0:0:
256,192,148275,1,2,0:0:0:0:
256,192,148443,1,2,0:0:0:0:
256,192,148527,1,2,0:0:0:0:
256,192,151140,5,2,0:0:0:0:
256,192,151252,1,2,0:0:0:0:
256,192,151364,1,2,0:0:0:0:
256,192,151477,1,0,0:0:0:0:
256,192,151589,1,0,0:0:0:0:
256,192,151701,1,0,0:0:0:0:
256,192,151814,1,2,0:0:0:0:
256,192,151926,1,2,0:0:0:0:
256,192,152038,1,2,0:0:0:0:
256,192,152151,1,0,0:0:0:0:
256,192,152263,1,0,0:0:0:0:
256,192,152375,1,0,0:0:0:0:
256,192,152488,1,2,0:0:0:0:
256,192,152825,1,0,0:0:0:0:
256,192,152909,1,0,0:0:0:0:
256,192,152993,1,0,0:0:0:0:
256,192,153078,1,0,0:0:0:0:
256,192,153162,1,6,0:0:0:0:
256,192,153668,1,0,0:0:0:0:
256,192,153752,1,0,0:0:0:0:
256,192,153836,5,2,0:0:0:0:
256,192,154173,1,0,0:0:0:0:
256,192,154342,1,2,0:0:0:0:
256,192,154510,1,0,0:0:0:0:
256,192,154679,1,2,0:0:0:0:
256,192,154847,1,0,0:0:0:0:
256,192,154932,1,0,0:0:0:0:
256,192,155016,1,2,0:0:0:0:
256,192,155184,1,0,0:0:0:0:
256,192,155353,1,2,0:0:0:0:
256,192,155437,1,0,0:0:0:0:
256,192,155606,1,0,0:0:0:0:
256,192,155690,1,2,0:0:0:0:
256,192,155859,1,0,0:0:0:0:
256,192,156027,1,2,0:0:0:0:
256,192,156111,1,0,0:0:0:0:
256,192,156280,1,0,0:0:0:0:
256,192,156364,1,2,0:0:0:0:
256,192,156533,1,0,0:0:0:0:
256,192,156617,1,2,0:0:0:0:
256,192,156701,1,2,0:0:0:0:
256,192,156786,1,0,0:0:0:0:
256,192,156870,1,0,0:0:0:0:
256,192,156954,1,2,0:0:0:0:
256,192,157038,1,0,0:0:0:0:
256,192,157123,1,0,0:0:0:0:
256,192,157207,1,0,0:0:0:0:
256,192,157544,1,0,0:0:0:0:
256,192,157713,1,0,0:0:0:0:
256,192,157797,1,0,0:0:0:0:
256,192,157881,5,6,0:0:0:0:
256,192,158218,1,0,0:0:0:0:
256,192,158387,1,2,0:0:0:0:
256,192,158471,1,0,0:0:0:0:
256,192,158640,1,2,0:0:0:0:
256,192,158724,1,0,0:0:0:0:
256,192,158892,1,2,0:0:0:0:
256,192,158977,1,0,0:0:0:0:
256,192,159145,1,2,0:0:0:0:
256,192,159229,1,0,0:0:0:0:
256,192,159313,1,2,0:0:0:0:
256,192,159397,1,2,0:0:0:0:
256,192,159566,1,2,0:0:0:0:
256,192,159734,1,0,0:0:0:0:
256,192,159818,1,2,0:0:0:0:
256,192,159903,1,0,0:0:0:0:
256,192,159987,1,0,0:0:0:0:
256,192,160071,1,2,0:0:0:0:
256,192,160155,1,0,0:0:0:0:
256,192,160240,1,2,0:0:0:0:
256,192,160408,1,0,0:0:0:0:
256,192,160577,5,4,0:0:0:0:
256,192,160830,1,0,0:0:0:0:
256,192,160914,1,2,0:0:0:0:
256,192,161082,1,0,0:0:0:0:
256,192,161251,1,2,0:0:0:0:
256,192,161335,1,2,0:0:0:0:
256,192,161420,1,0,0:0:0:0:
256,192,161588,1,2,0:0:0:0:
256,192,161757,1,0,0:0:0:0:
256,192,161841,1,0,0:0:0:0:
256,192,161925,1,2,0:0:0:0:
256,192,162094,1,2,0:0:0:0:
256,192,162178,1,2,0:0:0:0:
256,192,162262,1,0,0:0:0:0:
256,192,162346,1,0,0:0:0:0:
256,192,162431,1,2,0:0:0:0:
256,192,162599,1,2,0:0:0:0:
256,192,162684,1,0,0:0:0:0:
256,192,162768,1,0,0:0:0:0:
256,192,162852,1,0,0:0:0:0:
256,192,162936,1,2,0:0:0:0:
256,192,163105,1,0,0:0:0:0:
256,192,163273,5,4,0:0:0:0:
256,192,163526,1,0,0:0:0:0:
256,192,163611,1,2,0:0:0:0:
256,192,163779,1,2,0:0:0:0:
256,192,164032,1,2,0:0:0:0:
256,192,164116,1,0,0:0:0:0:
256,192,164285,1,2,0:0:0:0:
256,192,164453,1,2,0:0:0:0:
256,192,164622,1,4,0:0:0:0:
256,192,164875,1,0,0:0:0:0:
256,192,164959,1,2,0:0:0:0:
256,192,165127,1,0,0:0:0:0:
256,192,165296,1,2,0:0:0:0:
256,192,165380,1,0,0:0:0:0:
256,192,165464,1,2,0:0:0:0:
256,192,165633,1,2,0:0:0:0:
256,192,165717,1,0,0:0:0:0:
256,192,165886,1,2,0:0:0:0:
256,192,165970,1,0,0:0:0:0:
256,192,168498,1,2,0:0:0:0:
256,192,168582,1,2,0:0:0:0:
256,192,168667,1,2,0:0:0:0:
256,192,168835,12,0,171195,0:0:0:0:
256,192,171363,5,2,0:0:0:0:
256,192,171700,1,2,0:0:0:0:
256,192,172037,1,2,0:0:0:0:
256,192,172375,1,2,0:0:0:0:
256,192,172712,1,2,0:0:0:0:
256,192,173049,1,2,0:0:0:0:
256,192,174060,5,4,0:0:0:0:
256,192,174397,1,0,0:0:0:0:
256,192,174566,1,0,0:0:0:0:
256,192,174734,1,2,0:0:0:0:
256,192,175071,1,0,0:0:0:0:
256,192,175240,1,2,0:0:0:0:
256,192,175408,1,0,0:0:0:0:
256,192,175577,1,2,0:0:0:0:
256,192,175745,1,0,0:0:0:0:
256,192,175914,1,0,0:0:0:0:
256,192,176082,1,2,0:0:0:0:
256,192,176420,1,2,0:0:0:0:
256,192,176588,1,0,0:0:0:0:
256,192,176757,1,0,0:0:0:0:
256,192,177094,1,0,0:0:0:0:
256,192,177262,1,0,0:0:0:0:
256,192,177431,1,2,0:0:0:0:
256,192,177768,1,0,0:0:0:0:
256,192,177936,1,0,0:0:0:0:
256,192,178105,1,2,0:0:0:0:
256,192,178273,1,2,0:0:0:0:
256,192,178442,1,0,0:0:0:0:
256,192,178611,1,2,0:0:0:0:
256,192,178695,1,2,0:0:0:0:
256,192,178779,1,0,0:0:0:0:
256,192,178948,1,2,0:0:0:0:
256,192,179032,1,2,0:0:0:0:
256,192,179116,1,0,0:0:0:0:
256,192,179200,1,2,0:0:0:0:
256,192,179285,1,2,0:0:0:0:
256,192,179369,1,2,0:0:0:0:
256,192,179453,1,0,0:0:0:0:
256,192,179790,1,0,0:0:0:0:
256,192,179959,1,0,0:0:0:0:
256,192,180127,1,2,0:0:0:0:
256,192,180464,1,0,0:0:0:0:
256,192,180633,1,0,0:0:0:0:
256,192,180802,1,0,0:0:0:0:
256,192,180970,1,2,0:0:0:0:
256,192,181139,1,2,0:0:0:0:
256,192,181307,1,0,0:0:0:0:
256,192,181476,1,2,0:0:0:0:
256,192,181813,1,2,0:0:0:0:
256,192,181981,1,0,0:0:0:0:
256,192,182150,5,0,0:0:0:0:
256,192,182487,1,0,0:0:0:0:
256,192,182655,1,0,0:0:0:0:
256,192,182824,1,2,0:0:0:0:
256,192,183161,1,0,0:0:0:0:
256,192,183330,1,2,0:0:0:0:
256,192,183667,1,2,0:0:0:0:
256,192,183751,1,2,0:0:0:0:
256,192,183835,1,0,0:0:0:0:
256,192,183920,1,0,0:0:0:0:
256,192,184004,1,0,0:0:0:0:
256,192,184088,1,0,0:0:0:0:
256,192,184172,1,2,0:0:0:0:
256,192,184341,1,0,0:0:0:0:
256,192,184509,1,2,0:0:0:0:
256,192,184678,1,0,0:0:0:0:
256,192,184846,1,4,0:0:0:0:
256,192,185184,1,0,0:0:0:0:
256,192,185352,1,0,0:0:0:0:
256,192,185521,1,2,0:0:0:0:
256,192,185858,1,0,0:0:0:0:
256,192,186026,1,2,0:0:0:0:
256,192,186195,1,0,0:0:0:0:
256,192,186363,1,2,0:0:0:0:
256,192,186532,1,0,0:0:0:0:
256,192,186700,1,0,0:0:0:0:
256,192,186869,1,2,0:0:0:0:
256,192,187206,1,2,0:0:0:0:
256,192,187375,1,0,0:0:0:0:
256,192,187543,1,0,0:0:0:0:
256,192,187880,5,0,0:0:0:0:
256,192,188049,1,0,0:0:0:0:
256,192,188217,1,2,0:0:0:0:
256,192,188386,1,0,0:0:0:0:
256,192,188723,1,2,0:0:0:0:
256,192,188891,1,0,0:0:0:0:
256,192,189060,1,2,0:0:0:0:
256,192,189228,1,2,0:0:0:0:
256,192,189397,1,0,0:0:0:0:
256,192,189481,1,0,0:0:0:0:
256,192,189566,1,2,0:0:0:0:
256,192,189678,1,0,0:0:0:0:
256,192,189790,1,0,0:0:0:0:
256,192,189903,1,2,0:0:0:0:
256,192,190071,1,0,0:0:0:0:
256,192,190240,1,6,0:0:0:0:
256,192,190745,1,0,0:0:0:0:
256,192,190914,1,2,0:0:0:0:
256,192,191251,1,0,0:0:0:0:
256,192,191757,1,0,0:0:0:0:
256,192,191925,1,0,0:0:0:0:
256,192,192262,5,2,0:0:0:0:
256,192,192431,1,0,0:0:0:0:
256,192,192684,1,2,0:0:0:0:
256,192,192768,1,2,0:0:0:0:
256,192,192936,1,0,0:0:0:0:
256,192,193105,1,2,0:0:0:0:
256,192,193189,1,2,0:0:0:0:
256,192,193273,1,2,0:0:0:0:
256,192,193442,1,0,0:0:0:0:
256,192,193611,1,2,0:0:0:0:
256,192,193695,1,2,0:0:0:0:
256,192,193779,1,2,0:0:0:0:
256,192,193863,1,2,0:0:0:0:
256,192,193948,1,0,0:0:0:0:
256,192,194116,1,2,0:0:0:0:
256,192,194200,1,0,0:0:0:0:
256,192,194285,1,2,0:0:0:0:
256,192,194453,1,0,0:0:0:0:
256,192,194537,1,2,0:0:0:0:
256,192,194622,1,0,0:0:0:0:
256,192,194706,1,0,0:0:0:0:
256,192,194790,1,2,0:0:0:0:
256,192,194875,1,0,0:0:0:0:
256,192,194959,1,2,0:0:0:0:
256,192,195296,1,0,0:0:0:0:
256,192,195464,1,2,0:0:0:0:
256,192,195633,1,4,0:0:0:0:
256,192,195858,1,0,0:0:0:0:
256,192,195970,1,0,0:0:0:0:
256,192,196054,1,2,0:0:0:0:
256,192,196139,1,0,0:0:0:0:
256,192,196223,1,2,0:0:0:0:
256,192,196307,1,0,0:0:0:0:
256,192,196420,1,2,0:0:0:0:
256,192,196532,1,2,0:0:0:0:
256,192,196644,1,0,0:0:0:0:
256,192,196869,1,2,0:0:0:0:
256,192,196981,1,0,0:0:0:0:
256,192,197066,1,0,0:0:0:0:
256,192,197150,1,2,0:0:0:0:
256,192,197234,1,2,0:0:0:0:
256,192,197318,1,0,0:0:0:0:
256,192,197403,1,0,0:0:0:0:
256,192,197487,1,2,0:0:0:0:
256,192,197571,1,0,0:0:0:0:
256,192,197655,1,2,0:0:0:0:
256,192,197824,1,2,0:0:0:0:
256,192,197993,1,0,0:0:0:0:
256,192,198161,1,2,0:0:0:0:
256,192,198330,1,0,0:0:0:0:
256,192,198835,1,0,0:0:0:0:
256,192,199004,1,2,0:0:0:0:
256,192,199172,1,2,0:0:0:0:
256,192,199341,1,0,0:0:0:0:
256,192,199453,1,0,0:0:0:0:
256,192,199566,1,0,0:0:0:0:
256,192,199678,1,2,0:0:0:0:
256,192,199790,1,0,0:0:0:0:
256,192,199903,1,0,0:0:0:0:
256,192,200015,1,2,0:0:0:0:
256,192,200127,1,2,0:0:0:0:
256,192,200240,1,0,0:0:0:0:
256,192,200352,1,2,0:0:0:0:
256,192,200521,1,2,0:0:0:0:
256,192,200689,1,0,0:0:0:0:
256,192,200858,1,2,0:0:0:0:
256,192,201026,1,0,0:0:0:0:
256,192,201532,1,0,0:0:0:0:
256,192,201700,1,2,0:0:0:0:
256,192,202037,1,0,0:0:0:0:
256,192,202206,1,0,0:0:0:0:
256,192,202375,1,2,0:0:0:0:
256,192,202543,1,0,0:0:0:0:
256,192,202712,1,0,0:0:0:0:
256,192,203049,1,2,0:0:0:0:
256,192,203217,1,0,0:0:0:0:
256,192,203554,1,2,0:0:0:0:
256,192,203639,1,2,0:0:0:0:
256,192,203723,1,0,0:0:0:0:
256,192,203891,1,2,0:0:0:0:
256,192,203976,1,2,0:0:0:0:
256,192,204060,1,0,0:0:0:0:
256,192,204144,1,0,0:0:0:0:
256,192,204228,1,0,0:0:0:0:
256,192,204397,1,2,0:0:0:0:
256,192,204481,1,2,0:0:0:0:
256,192,204566,1,0,0:0:0:0:
256,192,204650,1,0,0:0:0:0:
256,192,204734,1,2,0:0:0:0:
256,192,204903,1,0,0:0:0:0:
256,192,204987,1,0,0:0:0:0:
256,192,205071,1,2,0:0:0:0:
256,192,205240,1,0,0:0:0:0:
256,192,205408,1,0,0:0:0:0:
256,192,205493,1,0,0:0:0:0:
256,192,205577,1,2,0:0:0:0:
256,192,205661,1,0,0:0:0:0:
256,192,205745,1,2,0:0:0:0:
256,192,206082,5,0,0:0:0:0:
256,192,206251,1,2,0:0:0:0:
256,192,206420,1,0,0:0:0:0:
256,192,206644,1,0,0:0:0:0:
256,192,206757,1,2,0:0:0:0:
256,192,206869,1,0,0:0:0:0:
256,192,206981,1,0,0:0:0:0:
256,192,207094,1,2,0:0:0:0:
256,192,207318,1,0,0:0:0:0:
256,192,207431,1,0,0:0:0:0:
256,192,207515,1,2,0:0:0:0:
256,192,207599,1,2,0:0:0:0:
256,192,207684,1,0,0:0:0:0:
256,192,207768,1,2,0:0:0:0:
256,192,207852,1,2,0:0:0:0:
256,192,207936,1,0,0:0:0:0:
256,192,208021,1,2,0:0:0:0:
256,192,208105,1,2,0:0:0:0:
256,192,208189,1,0,0:0:0:0:
256,192,208273,1,0,0:0:0:0:
256,192,208358,1,0,0:0:0:0:
256,192,208442,1,2,0:0:0:0:
256,192,208611,1,0,0:0:0:0:
256,192,208695,1,0,0:0:0:0:
256,192,208779,1,2,0:0:0:0:
256,192,208863,1,0,0:0:0:0:
256,192,208948,1,2,0:0:0:0:
256,192,209116,1,0,0:0:0:0:
256,192,209172,1,0,0:0:0:0:
256,192,209228,1,0,0:0:0:0:
256,192,209285,1,0,0:0:0:0:
256,192,209341,1,0,0:0:0:0:
256,192,209397,1,2,0:0:0:0:
256,192,209622,1,0,0:0:0:0:
256,192,209706,1,0,0:0:0:0:
256,192,209790,1,2,0:0:0:0:
256,192,209903,1,0,0:0:0:0:
256,192,210015,1,0,0:0:0:0:
256,192,210127,1,2,0:0:0:0:
256,192,210296,1,0,0:0:0:0:
256,192,210464,1,0,0:0:0:0:
256,192,210633,1,2,0:0:0:0:
256,192,210717,1,2,0:0:0:0:
256,192,210802,1,2,0:0:0:0:
256,192,210970,1,0,0:0:0:0:
256,192,211139,1,2,0:0:0:0:
256,192,211307,1,0,0:0:0:0:
256,192,211476,1,2,0:0:0:0:
256,192,211560,1,2,0:0:0:0:
256,192,211644,1,2,0:0:0:0:
256,192,211728,1,2,0:0:0:0:
256,192,211813,1,0,0:0:0:0:
256,192,212037,1,0,0:0:0:0:
256,192,212150,1,2,0:0:0:0:
256,192,212262,1,0,0:0:0:0:
256,192,212375,1,0,0:0:0:0:
256,192,212487,1,2,0:0:0:0:
256,192,212599,1,2,0:0:0:0:
256,192,212712,1,0,0:0:0:0:
256,192,212824,1,2,0:0:0:0:
256,192,212908,1,0,0:0:0:0:
256,192,212993,1,2,0:0:0:0:
256,192,213161,1,0,0:0:0:0:
256,192,213217,1,0,0:0:0:0:
256,192,213273,1,2,0:0:0:0:
256,192,213386,1,0,0:0:0:0:
256,192,213498,1,2,0:0:0:0:
256,192,213554,1,2,0:0:0:0:
256,192,213611,1,0,0:0:0:0:
256,192,213723,1,2,0:0:0:0:
256,192,213835,1,0,0:0:0:0:
256,192,213948,1,0,0:0:0:0:
256,192,214060,1,0,0:0:0:0:
256,192,214172,1,2,0:0:0:0:
256,192,214285,1,0,0:0:0:0:
256,192,214397,1,2,0:0:0:0:
256,192,214678,1,2,0:0:0:0:
256,192,214846,1,2,0:0:0:0:
256,192,214959,1,0,0:0:0:0:
256,192,215071,1,2,0:0:0:0:
256,192,215184,1,0,0:0:0:0:
256,192,215268,1,0,0:0:0:0:
256,192,215352,1,2,0:0:0:0:
256,192,215436,1,2,0:0:0:0:
256,192,215521,1,0,0:0:0:0:
256,192,215633,1,2,0:0:0:0:
256,192,215745,1,2,0:0:0:0:
256,192,215858,1,0,0:0:0:0:
256,192,215942,1,0,0:0:0:0:
256,192,216026,1,2,0:0:0:0:
256,192,216111,1,0,0:0:0:0:
256,192,216195,1,2,0:0:0:0:
256,192,216307,1,2,0:0:0:0:
256,192,216420,1,2,0:0:0:0:
256,192,216532,1,2,0:0:0:0:
256,192,216616,1,0,0:0:0:0:
256,192,216700,1,0,0:0:0:0:
256,192,216785,1,0,0:0:0:0:
256,192,216869,1,2,0:0:0:0:
256,192,216953,1,2,0:0:0:0:
256,192,217037,1,0,0:0:0:0:
256,192,217122,1,0,0:0:0:0:
256,192,217206,1,2,0:0:0:0:
256,192,222599,5,4,0:0:0:0:
256,192,222936,5,2,0:0:0:0:
256,192,223105,1,2,0:0:0:0:
256,192,223273,1,0,0:0:0:0:
256,192,223611,1,0,0:0:0:0:
256,192,223779,1,2,0:0:0:0:
256,192,224116,1,2,0:0:0:0:
256,192,224453,1,2,0:0:0:0:
256,192,224790,1,2,0:0:0:0:
256,192,225127,1,2,0:0:0:0:
256,192,225296,1,2,0:0:0:0:
256,192,225633,1,2,0:0:0:0:
256,192,225802,1,0,0:0:0:0:
256,192,225970,1,2,0:0:0:0:
256,192,226307,1,0,0:0:0:0:
256,192,226476,1,2,0:0:0:0:
256,192,226813,1,2,0:0:0:0:
256,192,227150,1,0,0:0:0:0:
256,192,227487,1,0,0:0:0:0:
256,192,227824,1,0,0:0:0:0:
256,192,227993,1,2,0:0:0:0:
256,192,228330,1,0,0:0:0:0:
256,192,228498,1,0,0:0:0:0:
256,192,228667,1,2,0:0:0:0:
256,192,229004,1,0,0:0:0:0:
256,192,229172,1,2,0:0:0:0:
256,192,229509,1,0,0:0:0:0:
256,192,229846,1,2,0:0:0:0:
256,192,230184,1,0,0:0:0:0:
256,192,230521,1,2,0:0:0:0:
256,192,230689,1,0,0:0:0:0:
256,192,231195,1,0,0:0:0:0:
256,192,231363,1,2,0:0:0:0:
256,192,231700,1,0,0:0:0:0:
256,192,232037,1,2,0:0:0:0:
256,192,232375,1,2,0:0:0:0:
256,192,232712,12,0,233386,0:0:0:0:
256,192,233723,5,6,0:0:0:0:
256,192,233891,1,0,0:0:0:0:
256,192,233976,1,0,0:0:0:0:
256,192,234060,1,2,0:0:0:0:
256,192,234144,1,2,0:0:0:0:
256,192,234228,1,0,0:0:0:0:
256,192,234397,1,2,0:0:0:0:
256,192,234566,1,0,0:0:0:0:
256,192,234650,1,0,0:0:0:0:
256,192,234734,1,0,0:0:0:0:
256,192,234903,1,2,0:0:0:0:
256,192,235071,1,2,0:0:0:0:
256,192,235240,1,0,0:0:0:0:
256,192,235324,1,2,0:0:0:0:
256,192,235408,1,0,0:0:0:0:
256,192,235577,1,2,0:0:0:0:
256,192,235745,1,0,0:0:0:0:
256,192,235830,1,0,0:0:0:0:
256,192,235914,1,2,0:0:0:0:
256,192,235998,1,0,0:0:0:0:
256,192,236082,1,2,0:0:0:0:
256,192,236335,1,0,0:0:0:0:
256,192,236420,1,2,0:0:0:0:
256,192,236588,1,0,0:0:0:0:
256,192,236757,1,2,0:0:0:0:
256,192,236841,1,0,0:0:0:0:
256,192,236925,1,0,0:0:0:0:
256,192,237009,1,0,0:0:0:0:
256,192,237094,1,2,0:0:0:0:
256,192,237262,1,0,0:0:0:0:
256,192,237346,1,2,0:0:0:0:
256,192,237431,1,0,0:0:0:0:
256,192,237599,1,2,0:0:0:0:
256,192,237768,1,2,0:0:0:0:
256,192,237936,1,0,0:0:0:0:
256,192,238021,1,2,0:0:0:0:
256,192,238105,1,0,0:0:0:0:
256,192,238189,1,0,0:0:0:0:
256,192,238273,1,2,0:0:0:0:
256,192,238358,1,0,0:0:0:0:
256,192,238442,1,2,0:0:0:0:
256,192,238611,1,0,0:0:0:0:
256,192,238779,1,0,0:0:0:0:
256,192,239032,1,0,0:0:0:0:
256,192,239116,1,2,0:0:0:0:
256,192,239285,1,0,0:0:0:0:
256,192,239369,1,0,0:0:0:0:
256,192,239453,1,2,0:0:0:0:
256,192,239622,1,0,0:0:0:0:
256,192,239790,1,2,0:0:0:0:
256,192,239959,1,0,0:0:0:0:
256,192,240043,1,0,0:0:0:0:
256,192,240127,1,0,0:0:0:0:
256,192,240296,1,2,0:0:0:0:
256,192,240464,1,2,0:0:0:0:
256,192,240633,1,0,0:0:0:0:
256,192,240717,1,0,0:0:0:0:
256,192,240802,1,2,0:0:0:0:
256,192,240886,1,0,0:0:0:0:
256,192,240970,1,0,0:0:0:0:
256,192,241054,1,0,0:0:0:0:
256,192,241139,1,2,0:0:0:0:
256,192,241307,5,0,0:0:0:0:
256,192,241476,1,0,0:0:0:0:
256,192,241728,1,0,0:0:0:0:
256,192,241813,1,2,0:0:0:0:
256,192,241981,1,0,0:0:0:0:
256,192,242066,1,2,0:0:0:0:
256,192,242150,1,0,0:0:0:0:
256,192,242234,1,2,0:0:0:0:
256,192,242318,1,0,0:0:0:0:
256,192,242487,1,2,0:0:0:0:
256,192,242655,1,2,0:0:0:0:
256,192,242740,1,2,0:0:0:0:
256,192,242824,1,0,0:0:0:0:
256,192,242993,1,2,0:0:0:0:
256,192,243077,1,0,0:0:0:0:
256,192,243161,1,2,0:0:0:0:
256,192,243245,1,2,0:0:0:0:
256,192,243330,1,2,0:0:0:0:
256,192,243414,1,2,0:0:0:0:
256,192,243498,1,0,0:0:0:0:
256,192,243582,1,0,0:0:0:0:
256,192,243667,1,2,0:0:0:0:
256,192,243751,1,0,0:0:0:0:
256,192,243835,1,2,0:0:0:0:
256,192,244004,1,0,0:0:0:0:
256,192,244172,1,4,0:0:0:0:
256,192,244425,1,0,0:0:0:0:
256,192,244509,1,2,0:0:0:0:
256,192,244678,1,0,0:0:0:0:
256,192,244762,1,0,0:0:0:0:
256,192,244846,1,2,0:0:0:0:
256,192,244931,1,2,0:0:0:0:
256,192,245015,1,0,0:0:0:0:
256,192,245184,1,2,0:0:0:0:
256,192,245352,1,0,0:0:0:0:
256,192,245436,1,0,0:0:0:0:
256,192,245521,1,0,0:0:0:0:
256,192,245689,1,2,0:0:0:0:
256,192,245858,1,2,0:0:0:0:
256,192,246026,1,0,0:0:0:0:
256,192,246111,1,2,0:0:0:0:
256,192,246195,1,0,0:0:0:0:
256,192,246279,1,2,0:0:0:0:
256,192,246363,1,0,0:0:0:0:
256,192,246532,1,2,0:0:0:0:
256,192,246700,1,0,0:0:0:0:
256,192,246869,1,0,0:0:0:0:
256,192,247122,1,0,0:0:0:0:
256,192,247206,1,2,0:0:0:0:
256,192,247375,1,0,0:0:0:0:
256,192,247543,1,2,0:0:0:0:
256,192,247627,1,0,0:0:0:0:
256,192,247712,1,0,0:0:0:0:
256,192,247796,1,0,0:0:0:0:
256,192,247880,1,2,0:0:0:0:
256,192,248049,1,0,0:0:0:0:
256,192,248217,1,2,0:0:0:0:
256,192,248330,1,2,0:0:0:0:
256,192,248442,1,2,0:0:0:0:
256,192,248554,1,2,0:0:0:0:
256,192,248667,1,2,0:0:0:0:
256,192,248779,1,2,0:0:0:0:
256,192,248891,1,0,0:0:0:0:
256,192,249004,1,0,0:0:0:0:
256,192,249116,1,0,0:0:0:0:
256,192,249228,1,0,0:0:0:0:
256,192,249341,1,0,0:0:0:0:
256,192,249453,1,0,0:0:0:0:
256,192,249566,1,2,0:0:0:0:
256,192,250071,1,0,0:0:0:0:
256,192,250240,1,2,0:0:0:0:
256,192,250577,1,0,0:0:0:0:
256,192,250745,1,0,0:0:0:0:
256,192,251082,1,0,0:0:0:0:
256,192,251251,1,0,0:0:0:0:
256,192,251588,1,2,0:0:0:0:
256,192,251757,1,0,0:0:0:0:
256,192,251925,1,2,0:0:0:0:
256,192,252009,1,2,0:0:0:0:
256,192,252094,1,0,0:0:0:0:
256,192,252262,5,0,0:0:0:0:
256,192,252431,1,0,0:0:0:0:
256,192,252515,1,0,0:0:0:0:
256,192,252599,1,2,0:0:0:0:
256,192,252768,1,0,0:0:0:0:
256,192,252936,1,2,0:0:0:0:
256,192,253021,1,2,0:0:0:0:
256,192,253105,1,2,0:0:0:0:
256,192,253273,1,0,0:0:0:0:
256,192,253442,1,2,0:0:0:0:
256,192,253526,1,0,0:0:0:0:
256,192,253611,1,2,0:0:0:0:
256,192,253779,1,0,0:0:0:0:
256,192,253863,1,0,0:0:0:0:
256,192,253948,1,2,0:0:0:0:
256,192,254032,1,0,0:0:0:0:
256,192,254116,1,2,0:0:0:0:
256,192,254200,1,0,0:0:0:0:
256,192,254285,1,2,0:0:0:0:
256,192,254369,1,2,0:0:0:0:
256,192,254453,1,0,0:0:0:0:
256,192,254537,1,0,0:0:0:0:
256,192,254622,1,0,0:0:0:0:
256,192,254790,1,0,0:0:0:0:
256,192,254959,1,6,0:0:0:0:
256,192,255464,1,0,0:0:0:0:
256,192,255633,1,2,0:0:0:0:
256,192,255970,1,0,0:0:0:0:
256,192,256139,1,0,0:0:0:0:
256,192,256476,1,0,0:0:0:0:
256,192,256644,1,0,0:0:0:0:
256,192,256981,1,2,0:0:0:0:
256,192,257150,1,0,0:0:0:0:
256,192,257318,1,0,0:0:0:0:
256,192,257487,5,2,0:0:0:0:
256,192,257571,1,2,0:0:0:0:
256,192,257655,1,0,0:0:0:0:
256,192,257824,1,2,0:0:0:0:
256,192,257908,1,0,0:0:0:0:
256,192,257993,1,2,0:0:0:0:
256,192,258077,1,2,0:0:0:0:
256,192,258161,1,0,0:0:0:0:
256,192,258330,1,2,0:0:0:0:
256,192,258414,1,2,0:0:0:0:
256,192,258498,1,0,0:0:0:0:
256,192,258582,1,0,0:0:0:0:
256,192,258667,1,0,0:0:0:0:
256,192,258835,1,2,0:0:0:0:
256,192,258920,1,0,0:0:0:0:
256,192,259004,1,0,0:0:0:0:
256,192,259088,1,2,0:0:0:0:
256,192,259172,1,0,0:0:0:0:
256,192,259341,1,0,0:0:0:0:
256,192,259509,1,2,0:0:0:0:
256,192,259594,1,0,0:0:0:0:
256,192,259678,1,2,0:0:0:0:
256,192,259846,1,2,0:0:0:0:
256,192,260015,1,2,0:0:0:0:
256,192,260184,1,2,0:0:0:0:
256,192,260352,1,0,0:0:0:0:
256,192,260521,12,0,262712,0:0:0:0:
256,192,262880,5,0,0:0:0:0:
256,192,263049,1,2,0:0:0:0:
256,192,263554,1,0,0:0:0:0:
256,192,263639,1,0,0:0:0:0:
256,192,263723,5,6,0:0:0:0:
256,192,264734,1,2,0:0:0:0:
256,192,265071,1,2,0:0:0:0:
256,192,265408,1,2,0:0:0:0:
256,192,265745,1,0,0:0:0:0:
256,192,265914,1,0,0:0:0:0:
256,192,265998,1,0,0:0:0:0:
256,192,266082,1,2,0:0:0:0:
256,192,266251,1,0,0:0:0:0:
256,192,266420,1,2,0:0:0:0:
256,192,266504,1,2,0:0:0:0:
256,192,266588,1,0,0:0:0:0:
256,192,266672,1,0,0:0:0:0:
256,192,266757,1,2,0:0:0:0:
256,192,266925,1,0,0:0:0:0:
256,192,267094,1,0,0:0:0:0:
256,192,267178,1,0,0:0:0:0:
256,192,267346,1,2,0:0:0:0:
256,192,267431,1,0,0:0:0:0:
256,192,267599,1,2,0:0:0:0:
256,192,267768,1,0,0:0:0:0:
256,192,267852,1,0,0:0:0:0:
256,192,267936,1,0,0:0:0:0:
256,192,268105,1,2,0:0:0:0:
256,192,268273,1,2,0:0:0:0:
256,192,268358,1,0,0:0:0:0:
256,192,268442,1,0,0:0:0:0:
256,192,268695,1,2,0:0:0:0:
256,192,268779,1,0,0:0:0:0:
256,192,268948,1,0,0:0:0:0:
256,192,269032,1,0,0:0:0:0:
256,192,269116,5,6,0:0:0:0:
256,192,269369,1,2,0:0:0:0:
256,192,269453,1,0,0:0:0:0:
256,192,269622,1,2,0:0:0:0:
256,192,269706,1,2,0:0:0:0:
256,192,269790,1,0,0:0:0:0:
256,192,269875,1,0,0:0:0:0:
256,192,269959,1,2,0:0:0:0:
256,192,270127,1,0,0:0:0:0:
256,192,270296,1,2,0:0:0:0:
256,192,270464,1,0,0:0:0:0:
256,192,270549,1,0,0:0:0:0:
256,192,270633,1,2,0:0:0:0:
256,192,270717,1,0,0:0:0:0:
256,192,270802,1,2,0:0:0:0:
256,192,270886,1,2,0:0:0:0:
256,192,270970,1,2,0:0:0:0:
256,192,271054,1,2,0:0:0:0:
256,192,271139,5,0,0:0:0:0:
256,192,271307,1,0,0:0:0:0:
256,192,271391,1,0,0:0:0:0:
256,192,271476,1,2,0:0:0:0:
256,192,271644,1,2,0:0:0:0:
256,192,271728,1,0,0:0:0:0:
256,192,271813,1,0,0:0:0:0:
256,192,271897,1,0,0:0:0:0:
256,192,271981,1,2,0:0:0:0:
256,192,272150,1,2,0:0:0:0:
256,192,272318,1,0,0:0:0:0:
256,192,272403,1,0,0:0:0:0:
256,192,272487,1,2,0:0:0:0:
256,192,272655,1,2,0:0:0:0:
256,192,272824,1,0,0:0:0:0:
256,192,272993,1,0,0:0:0:0:
256,192,273077,1,0,0:0:0:0:
256,192,273161,1,2,0:0:0:0:
256,192,273245,1,0,0:0:0:0:
256,192,273330,1,2,0:0:0:0:
256,192,273498,1,0,0:0:0:0:
256,192,273582,1,0,0:0:0:0:
256,192,273667,1,2,0:0:0:0:
256,192,273751,1,0,0:0:0:0:
256,192,273835,1,0,0:0:0:0:
256,192,274341,5,0,0:0:0:0:
256,192,274425,1,0,0:0:0:0:
256,192,274509,5,6,0:0:0:0:
256,192,274678,1,2,0:0:0:0:
256,192,274762,1,2,0:0:0:0:
256,192,274846,1,0,0:0:0:0:
256,192,274931,1,0,0:0:0:0:
256,192,275015,1,2,0:0:0:0:
256,192,275184,1,0,0:0:0:0:
256,192,275352,1,0,0:0:0:0:
256,192,275436,1,0,0:0:0:0:
256,192,275521,1,2,0:0:0:0:
256,192,275689,1,0,0:0:0:0:
256,192,275858,1,2,0:0:0:0:
256,192,275942,1,0,0:0:0:0:
256,192,276026,1,2,0:0:0:0:
256,192,276195,1,2,0:0:0:0:
256,192,276363,1,2,0:0:0:0:
256,192,276448,1,2,0:0:0:0:
256,192,276532,5,0,0:0:0:0:
256,192,276700,1,2,0:0:0:0:
256,192,276785,1,2,0:0:0:0:
256,192,276869,1,0,0:0:0:0:
256,192,276953,1,2,0:0:0:0:
256,192,277122,1,0,0:0:0:0:
256,192,277206,1,2,0:0:0:0:
256,192,277290,1,0,0:0:0:0:
256,192,277375,1,2,0:0:0:0:
256,192,277459,1,2,0:0:0:0:
256,192,277627,1,0,0:0:0:0:
256,192,277712,1,2,0:0:0:0:
256,192,277796,1,2,0:0:0:0:
256,192,277880,1,2,0:0:0:0:
256,192,277964,1,2,0:0:0:0:
256,192,278049,1,0,0:0:0:0:
256,192,278217,1,2,0:0:0:0:
256,192,278302,1,0,0:0:0:0:
256,192,278386,1,2,0:0:0:0:
256,192,278470,1,2,0:0:0:0:
256,192,278554,1,0,0:0:0:0:
256,192,278639,1,0,0:0:0:0:
256,192,278723,1,2,0:0:0:0:
256,192,278891,1,0,0:0:0:0:
256,192,278976,1,0,0:0:0:0:
256,192,279060,1,2,0:0:0:0:
256,192,279144,1,0,0:0:0:0:
256,192,279228,1,0,0:0:0:0:
256,192,279566,1,0,0:0:0:0:
256,192,280240,1,0,0:0:0:0:
256,192,280577,1,2,0:0:0:0:
256,192,281251,1,2,0:0:0:0:
256,192,281588,1,0,0:0:0:0:
256,192,281925,1,2,0:0:0:0:
256,192,282009,1,0,0:0:0:0:
256,192,282094,1,0,0:0:0:0:
256,192,282178,1,0,0:0:0:0:
256,192,282262,1,2,0:0:0:0:
256,192,282431,1,0,0:0:0:0:
256,192,282599,1,2,0:0:0:0:
256,192,282684,1,2,0:0:0:0:
256,192,282768,1,0,0:0:0:0:
256,192,282852,1,0,0:0:0:0:
256,192,282936,1,2,0:0:0:0:
256,192,283105,1,0,0:0:0:0:
256,192,283273,1,2,0:0:0:0:
256,192,283358,1,2,0:0:0:0:
256,192,283442,1,0,0:0:0:0:
256,192,283526,1,0,0:0:0:0:
256,192,283611,1,2,0:0:0:0:
256,192,283695,1,0,0:0:0:0:
256,192,283779,1,0,0:0:0:0:
256,192,283863,1,0,0:0:0:0:
256,192,283948,1,2,0:0:0:0:
256,192,284032,1,2,0:0:0:0:
256,192,284116,1,0,0:0:0:0:
256,192,284200,1,0,0:0:0:0:
256,192,284285,1,2,0:0:0:0:
256,192,284369,1,2,0:0:0:0:
256,192,284453,1,2,0:0:0:0:
256,192,284537,1,2,0:0:0:0:
256,192,284622,1,0,0:0:0:0:
256,192,285266,5,0,0:0:0:0:
256,192,285346,1,0,0:0:0:0:
256,192,285427,1,2,0:0:0:0:
256,192,286434,1,2,0:0:0:0:
256,192,286534,1,2,0:0:0:0:
256,192,286635,1,4,0:0:0:0:
256,192,286803,12,2,293882,0:0:0:0:
