osu file format v14

[General]
AudioFilename: audio.ogg
AudioLeadIn: 0
PreviewTime: 90738
Countdown: 0
SampleSet: Normal
StackLeniency: 0.7
Mode: 1
LetterboxInBreaks: 0
EpilepsyWarning: 1
WidescreenStoryboard: 1

[Editor]
Bookmarks: 9590,25769
DistanceSpacing: 0.1
BeatDivisor: 4
GridSize: 16
TimelineZoom: 1.9

[Metadata]
Title:Stellar Stellar
TitleUnicode:Stellar Stellar
Artist:Hoshimachi Suisei
ArtistUnicode:星街すいせい
Creator:[Zeth]
Version:1811's Oni
Source:
Tags:hololive production ホロライブプロダクション vtuber virtual youtuber バーチャル ユーチューバー TAKU INOUE inotac inotaku 永山ひろなお Nagayama Hironao Still Still Stellar 1st first album japanese electronic pop j-pop jpop drum and n' bass dnb ler1211 CallMeLyra MTNTWarz TaikOseania taiko_maniac1811 cdhsausageboy cdh Jerry
BeatmapID:3246954
BeatmapSetID:1589361

[Difficulty]
HPDrainRate:5.5
CircleSize:4
OverallDifficulty:6
ApproachRate:10
SliderMultiplier:1.4
SliderTickRate:1

[Events]
//Background and Video events
0,0,"Artboard 1.jpg",0,200
//Break Periods
//Storyboard Layer 0 (Background)
Sprite,Background,TopLeft,"Artboard 1.jpg",0,0
//Storyboard Layer 1 (Fail)
//Storyboard Layer 2 (Pass)
//Storyboard Layer 3 (Foreground)
Animation,Foreground,Centre,"SB\intro\map by\1811\.jpg",315,360,3,150,LoopForever P,0,20356,,A F,2,20356,20525,0,0.8 MY,2,20356,20525,350,360 S,0,20356,25918,0.35 MX,0,25749,25918,315,-475
//Storyboard Layer 4 (Overlay)
//Storyboard Sound Samples

[TimingPoints]
0,337.078651685393,99,1,0,10,1,8
3975,342.857142857143,4,1,0,10,1,0
3975,-98.0392156862745,4,1,0,10,0,0
4660,-98.0392156862745,4,1,0,30,0,0
5346,-98.0392156862745,4,1,0,50,0,0
6032,372.670807453416,4,1,0,70,1,8
6775,352.941176470588,4,1,0,80,1,0
6775,-95.2380952380952,4,1,0,80,0,0
8186,346.820809248555,4,1,0,80,1,0
8186,-97.0873786407767,4,1,0,80,0,0
9570,337.078651685393,4,1,0,80,1,0
10244,-100,4,1,0,90,0,0
15637,-100,4,1,0,100,0,0
15974,-100,4,1,0,90,0,0
20356,-100,4,1,0,80,0,0
20693,-100,4,1,0,75,0,0
23053,-100,4,1,0,80,0,0
23727,-100,4,1,0,85,0,0
24401,-100,4,1,0,90,0,0
25075,-100,4,1,0,95,0,0
25918,-100,4,1,0,70,0,0
36536,-100,4,1,0,75,0,0
36873,-100,4,1,0,70,0,0
41929,-100,4,1,0,75,0,0
42266,-100,4,1,0,70,0,0
47322,-100,4,1,0,80,0,0
67210,-100,4,1,0,70,0,0
68894,337.078651685393,6,1,0,75,1,0
70242,-100,6,1,0,80,0,0
70916,-100,6,1,0,90,0,0
71590,-100,6,1,0,100,0,0
76983,337.078651685393,4,1,0,100,1,0
86421,-100,4,1,0,90,0,0
86758,-100,4,1,0,80,0,0
87263,-100,4,1,0,70,0,0
89960,-100,4,1,0,75,0,0
90466,-100,4,1,0,80,0,0
90971,-100,4,1,0,85,0,0
91140,-100,4,1,0,90,0,0
91814,-100,4,1,0,100,0,1
118780,-100,4,1,0,100,0,0
120129,-100,4,1,0,95,0,0
121477,-100,4,1,0,90,0,0
122825,-100,4,1,0,75,0,0
126870,-100,4,1,0,80,0,0
127207,-100,4,1,0,85,0,0
127713,-100,4,1,0,90,0,0
128218,-100,4,1,0,95,0,0
129230,-100,4,1,0,100,0,0
129735,-100,4,1,0,70,0,0
132263,-100,4,1,0,75,0,0
132600,-100,4,1,0,70,0,0
148443,-100,4,1,0,75,0,0
149791,-100,4,1,0,70,0,0
151140,337.078651685393,6,1,0,80,1,0
153162,-100,6,1,0,90,0,0
153836,-100,6,1,0,100,0,0
159229,337.078651685393,4,1,0,100,1,0
165970,-100,4,1,0,90,0,0
166307,-100,4,1,0,80,0,0
166813,-100,4,1,0,70,0,0
167318,-105.263157894737,4,1,0,65,0,0
168667,-111.111111111111,4,1,0,60,0,0
170015,-125,4,1,0,60,0,0
170352,-125,4,1,0,70,0,0
171026,-125,4,1,0,80,0,0
171363,-142.857142857143,4,1,0,80,0,0
171700,-142.857142857143,4,1,0,90,0,0
172375,-142.857142857143,4,1,0,95,0,0
172712,-166.666666666667,4,1,0,95,0,0
173049,-166.666666666667,4,1,0,100,0,0
173386,-166.666666666667,4,1,0,10,0,0
174060,-200,4,1,0,100,0,1
184846,-133.333333333333,4,1,0,100,0,1
195633,-100,4,1,0,100,0,0
218554,-100,4,1,0,95,0,0
219903,-100,4,1,0,90,0,0
221251,-100,4,1,0,85,0,0
222599,-100,4,1,0,80,0,0
233723,-100,4,1,0,100,0,1
260352,-100,4,1,0,100,0,0
261700,-100,4,1,0,95,0,0
263049,-100,4,1,0,90,0,0
263386,-100,4,1,0,80,0,0
263723,-100,4,1,0,90,0,0
269116,-100,4,1,0,100,0,0
269453,-100,4,1,0,90,0,0
273835,-100,4,1,0,100,0,0
274172,-100,4,1,0,90,0,0
279397,-100,4,1,0,80,0,0
281925,-100,4,1,0,85,0,0
282599,-100,4,1,0,90,0,0
283273,-100,4,1,0,95,0,0
283948,-100,4,1,0,100,0,0
284622,402.684563758389,5,1,0,80,1,0
284622,-83.3333333333333,5,1,0,80,0,0
285427,-83.3333333333333,5,1,0,90,0,0
286635,337.078651685393,99,1,0,100,1,0
288151,-100,99,1,0,80,0,0
289163,-100,99,1,0,85,0,0
290005,-100,99,1,0,90,0,0
290848,-100,99,1,0,95,0,0
291691,-100,99,1,0,100,0,0

[HitObjects]
256,192,3975,8,0,7833,0:0:0:0:
256,192,8186,5,8,0:0:0:0:
256,192,8446,1,8,0:0:0:0:
256,192,8879,1,8,0:0:0:0:
256,192,9139,1,8,0:0:0:0:
256,192,9570,1,8,0:0:0:0:
256,192,9907,1,0,0:0:0:0:
256,192,9991,1,0,0:0:0:0:
256,192,10075,1,0,0:0:0:0:
256,192,10244,1,12,0:0:0:0:
256,192,10581,1,0,0:0:0:0:
256,192,10918,1,0,0:0:0:0:
256,192,11171,1,0,0:0:0:0:
256,192,11255,1,8,0:0:0:0:
256,192,11423,1,0,0:0:0:0:
256,192,11592,1,8,0:0:0:0:
256,192,11845,1,0,0:0:0:0:
256,192,11929,1,8,0:0:0:0:
256,192,12098,1,0,0:0:0:0:
256,192,12266,1,8,0:0:0:0:
256,192,12519,1,0,0:0:0:0:
256,192,12603,1,8,0:0:0:0:
256,192,12772,1,0,0:0:0:0:
256,192,12940,1,8,0:0:0:0:
256,192,13109,1,0,0:0:0:0:
256,192,13193,1,0,0:0:0:0:
256,192,13277,1,8,0:0:0:0:
256,192,13446,1,8,0:0:0:0:
256,192,13614,1,0,0:0:0:0:
256,192,13783,1,0,0:0:0:0:
256,192,13867,1,8,0:0:0:0:
256,192,13952,1,8,0:0:0:0:
256,192,14120,1,8,0:0:0:0:
256,192,14289,1,0,0:0:0:0:
256,192,14373,1,8,0:0:0:0:
256,192,14457,1,8,0:0:0:0:
256,192,14626,1,8,0:0:0:0:
256,192,14794,1,0,0:0:0:0:
256,192,14963,1,4,0:0:0:0:
256,192,15300,1,0,0:0:0:0:
256,192,15637,1,12,0:0:0:0:
256,192,15974,1,8,0:0:0:0:
256,192,16058,1,8,0:0:0:0:
256,192,16143,1,8,0:0:0:0:
256,192,16311,1,0,0:0:0:0:
256,192,16480,1,8,0:0:0:0:
256,192,16648,1,0,0:0:0:0:
256,192,16817,1,0,0:0:0:0:
256,192,16985,1,8,0:0:0:0:
256,192,17322,1,8,0:0:0:0:
256,192,17659,1,8,0:0:0:0:
256,192,17744,1,8,0:0:0:0:
256,192,17828,1,0,0:0:0:0:
256,192,17912,1,0,0:0:0:0:
256,192,17996,1,8,0:0:0:0:
256,192,18165,1,8,0:0:0:0:
256,192,18249,1,8,0:0:0:0:
256,192,18334,1,0,0:0:0:0:
256,192,18418,1,0,0:0:0:0:
256,192,18502,1,8,0:0:0:0:
256,192,18671,1,8,0:0:0:0:
256,192,18755,1,8,0:0:0:0:
256,192,18839,1,0,0:0:0:0:
256,192,18923,1,0,0:0:0:0:
256,192,19008,1,8,0:0:0:0:
256,192,19176,2,0,L|304:192,12,35
256,192,20356,1,4,0:0:0:0:
256,192,20693,1,8,0:0:0:0:
256,192,21030,1,8,0:0:0:0:
256,192,21367,1,8,0:0:0:0:
256,192,21704,1,0,0:0:0:0:
256,192,22041,1,8,0:0:0:0:
256,192,22716,1,8,0:0:0:0:
256,192,23053,1,8,0:0:0:0:
256,192,23137,1,8,0:0:0:0:
256,192,23221,1,8,0:0:0:0:
256,192,23390,1,8,0:0:0:0:
256,192,23558,1,8,0:0:0:0:
256,192,23727,1,8,0:0:0:0:
256,192,23811,1,8,0:0:0:0:
256,192,23895,1,8,0:0:0:0:
256,192,24064,1,8,0:0:0:0:
256,192,24232,1,8,0:0:0:0:
256,192,24401,1,8,0:0:0:0:
256,192,24485,1,8,0:0:0:0:
256,192,24569,1,8,0:0:0:0:
256,192,24738,1,8,0:0:0:0:
256,192,24907,1,8,0:0:0:0:
256,192,25075,1,8,0:0:0:0:
256,192,25159,1,8,0:0:0:0:
256,192,25244,1,8,0:0:0:0:
256,192,25328,1,8,0:0:0:0:
256,192,25412,1,8,0:0:0:0:
256,192,25496,1,8,0:0:0:0:
256,192,25581,1,8,0:0:0:0:
256,192,25749,1,4,0:0:0:0:
256,192,26086,1,8,0:0:0:0:
256,192,26423,1,8,0:0:0:0:
256,192,26761,1,8,0:0:0:0:
256,192,26929,1,0,0:0:0:0:
256,192,27098,1,8,0:0:0:0:
256,192,27266,1,0,0:0:0:0:
256,192,27435,1,8,0:0:0:0:
256,192,27772,1,8,0:0:0:0:
256,192,27940,1,0,0:0:0:0:
256,192,28109,1,8,0:0:0:0:
256,192,28277,1,0,0:0:0:0:
256,192,28614,1,8,0:0:0:0:
256,192,28952,1,0,0:0:0:0:
256,192,29120,1,8,0:0:0:0:
256,192,29457,1,8,0:0:0:0:
256,192,29626,1,0,0:0:0:0:
256,192,29794,1,8,0:0:0:0:
256,192,29963,1,0,0:0:0:0:
256,192,30131,1,8,0:0:0:0:
256,192,30300,1,0,0:0:0:0:
256,192,30637,1,8,0:0:0:0:
256,192,30805,1,0,0:0:0:0:
256,192,30974,1,8,0:0:0:0:
256,192,31311,1,8,0:0:0:0:
256,192,31648,1,0,0:0:0:0:
256,192,31817,1,8,0:0:0:0:
256,192,32154,1,8,0:0:0:0:
256,192,32322,1,0,0:0:0:0:
256,192,32491,1,8,0:0:0:0:
256,192,32659,1,0,0:0:0:0:
256,192,32828,1,8,0:0:0:0:
256,192,32996,1,0,0:0:0:0:
256,192,33334,1,8,0:0:0:0:
256,192,33502,1,0,0:0:0:0:
256,192,33671,1,8,0:0:0:0:
256,192,34008,1,0,0:0:0:0:
256,192,34176,1,8,0:0:0:0:
256,192,34513,1,0,0:0:0:0:
256,192,35187,1,8,0:0:0:0:
256,192,35525,1,8,0:0:0:0:
256,192,35693,1,8,0:0:0:0:
256,192,36030,1,8,0:0:0:0:
256,192,36199,1,8,0:0:0:0:
256,192,36283,1,8,0:0:0:0:
256,192,36367,1,0,0:0:0:0:
256,192,36536,1,12,0:0:0:0:
256,192,36873,1,8,0:0:0:0:
256,192,37041,1,0,0:0:0:0:
256,192,37210,1,8,0:0:0:0:
256,192,37294,1,0,0:0:0:0:
256,192,37378,1,0,0:0:0:0:
256,192,37547,1,8,0:0:0:0:
256,192,37716,1,0,0:0:0:0:
256,192,37800,1,0,0:0:0:0:
256,192,37884,1,8,0:0:0:0:
256,192,38053,1,0,0:0:0:0:
256,192,38221,1,8,0:0:0:0:
256,192,38390,1,0,0:0:0:0:
256,192,38474,1,0,0:0:0:0:
256,192,38558,1,8,0:0:0:0:
256,192,38727,1,0,0:0:0:0:
256,192,38895,1,8,0:0:0:0:
256,192,39064,1,0,0:0:0:0:
256,192,39148,1,0,0:0:0:0:
256,192,39232,1,8,0:0:0:0:
256,192,39317,1,0,0:0:0:0:
256,192,39401,1,0,0:0:0:0:
256,192,39738,1,8,0:0:0:0:
256,192,39907,1,8,0:0:0:0:
256,192,40075,1,8,0:0:0:0:
256,192,40159,1,8,0:0:0:0:
256,192,40244,1,0,0:0:0:0:
256,192,40412,1,8,0:0:0:0:
256,192,40581,1,0,0:0:0:0:
256,192,40749,1,8,0:0:0:0:
256,192,40834,1,8,0:0:0:0:
256,192,40918,1,0,0:0:0:0:
256,192,41086,1,8,0:0:0:0:
256,192,41255,1,0,0:0:0:0:
256,192,41423,1,0,0:0:0:0:
256,192,41761,1,8,0:0:0:0:
256,192,41929,1,4,0:0:0:0:
256,192,42266,1,8,0:0:0:0:
256,192,45974,5,8,0:0:0:0:
256,192,46143,1,0,0:0:0:0:
256,192,46227,1,0,0:0:0:0:
256,192,46311,1,0,0:0:0:0:
256,192,46480,1,8,0:0:0:0:
256,192,46648,1,0,0:0:0:0:
256,192,46732,1,0,0:0:0:0:
256,192,46817,1,0,0:0:0:0:
256,192,46985,1,8,0:0:0:0:
256,192,47154,1,0,0:0:0:0:
256,192,47322,1,4,0:0:0:0:
256,192,47659,1,8,0:0:0:0:
256,192,47996,1,0,0:0:0:0:
256,192,48334,1,8,0:0:0:0:
256,192,48502,1,0,0:0:0:0:
256,192,48671,1,0,0:0:0:0:
256,192,48839,1,0,0:0:0:0:
256,192,49008,1,8,0:0:0:0:
256,192,49176,1,0,0:0:0:0:
256,192,49345,1,0,0:0:0:0:
256,192,49513,1,0,0:0:0:0:
256,192,49682,1,8,0:0:0:0:
256,192,49850,1,0,0:0:0:0:
256,192,50187,1,0,0:0:0:0:
256,192,50356,1,8,0:0:0:0:
256,192,50693,1,0,0:0:0:0:
256,192,50862,1,0,0:0:0:0:
256,192,51030,1,8,0:0:0:0:
256,192,51367,1,0,0:0:0:0:
256,192,51536,1,0,0:0:0:0:
256,192,51704,1,8,0:0:0:0:
256,192,51873,1,0,0:0:0:0:
256,192,52041,1,0,0:0:0:0:
256,192,52210,1,0,0:0:0:0:
256,192,52378,1,8,0:0:0:0:
256,192,52547,1,0,0:0:0:0:
256,192,52884,1,0,0:0:0:0:
256,192,53053,1,8,0:0:0:0:
256,192,53390,1,0,0:0:0:0:
256,192,53558,1,0,0:0:0:0:
256,192,53727,1,8,0:0:0:0:
256,192,54064,1,0,0:0:0:0:
256,192,54232,1,0,0:0:0:0:
256,192,54401,1,8,0:0:0:0:
256,192,54569,1,0,0:0:0:0:
256,192,54738,1,0,0:0:0:0:
256,192,55075,1,8,0:0:0:0:
256,192,55244,1,8,0:0:0:0:
256,192,55581,1,8,0:0:0:0:
256,192,55918,1,0,0:0:0:0:
256,192,56086,1,8,0:0:0:0:
256,192,56423,1,8,0:0:0:0:
256,192,56592,1,0,0:0:0:0:
256,192,56676,1,0,0:0:0:0:
256,192,56761,1,0,0:0:0:0:
256,192,56929,1,0,0:0:0:0:
256,192,57098,1,8,0:0:0:0:
256,192,57266,1,0,0:0:0:0:
256,192,57603,1,0,0:0:0:0:
256,192,57772,1,8,0:0:0:0:
256,192,57856,1,0,0:0:0:0:
256,192,57940,1,0,0:0:0:0:
256,192,58109,1,8,0:0:0:0:
256,192,58277,1,0,0:0:0:0:
256,192,58446,1,0,0:0:0:0:
256,192,58614,1,8,0:0:0:0:
256,192,58783,1,0,0:0:0:0:
256,192,58952,1,0,0:0:0:0:
256,192,59120,1,8,0:0:0:0:
256,192,59457,1,8,0:0:0:0:
256,192,59626,1,0,0:0:0:0:
256,192,59794,1,0,0:0:0:0:
256,192,59963,1,8,0:0:0:0:
256,192,60131,1,0,0:0:0:0:
256,192,60300,1,0,0:0:0:0:
256,192,60468,1,8,0:0:0:0:
256,192,60637,1,0,0:0:0:0:
256,192,60805,1,8,0:0:0:0:
256,192,60974,1,0,0:0:0:0:
256,192,61143,1,0,0:0:0:0:
256,192,61311,1,8,0:0:0:0:
256,192,61480,1,0,0:0:0:0:
256,192,61648,1,0,0:0:0:0:
256,192,61817,1,8,0:0:0:0:
256,192,62154,1,8,0:0:0:0:
256,192,62322,1,0,0:0:0:0:
256,192,62491,1,0,0:0:0:0:
256,192,62659,1,8,0:0:0:0:
256,192,62828,1,0,0:0:0:0:
256,192,62996,1,0,0:0:0:0:
256,192,63081,1,0,0:0:0:0:
256,192,63165,1,8,0:0:0:0:
256,192,63334,1,8,0:0:0:0:
256,192,63418,1,8,0:0:0:0:
256,192,63502,1,0,0:0:0:0:
256,192,63671,1,0,0:0:0:0:
256,192,63839,1,8,0:0:0:0:
256,192,64008,1,0,0:0:0:0:
256,192,64176,1,0,0:0:0:0:
256,192,64513,1,8,0:0:0:0:
256,192,64682,1,0,0:0:0:0:
256,192,64850,1,0,0:0:0:0:
256,192,65019,1,8,0:0:0:0:
256,192,65187,1,0,0:0:0:0:
256,192,65356,1,0,0:0:0:0:
256,192,65440,1,8,0:0:0:0:
256,192,65525,1,8,0:0:0:0:
256,192,65693,1,8,0:0:0:0:
256,192,65862,1,0,0:0:0:0:
256,192,65946,1,0,0:0:0:0:
256,192,66030,1,8,0:0:0:0:
256,192,66199,1,4,0:0:0:0:
256,192,67210,1,8,0:0:0:0:
256,192,67378,1,0,0:0:0:0:
256,192,67463,1,0,0:0:0:0:
256,192,67547,1,0,0:0:0:0:
256,192,67716,1,8,0:0:0:0:
256,192,67884,1,0,0:0:0:0:
256,192,67968,1,0,0:0:0:0:
256,192,68053,1,0,0:0:0:0:
256,192,68221,1,8,0:0:0:0:
256,192,68390,1,0,0:0:0:0:
256,192,68474,1,0,0:0:0:0:
256,192,68558,1,8,0:0:0:0:
256,192,68727,1,0,0:0:0:0:
256,192,68894,1,8,0:0:0:0:
256,192,69118,1,8,0:0:0:0:
256,192,69343,1,0,0:0:0:0:
256,192,69568,1,8,0:0:0:0:
256,192,69792,1,8,0:0:0:0:
256,192,70017,1,0,0:0:0:0:
256,192,70242,1,8,0:0:0:0:
256,192,70579,1,0,0:0:0:0:
256,192,70663,1,0,0:0:0:0:
256,192,70747,1,0,0:0:0:0:
256,192,70916,1,12,0:0:0:0:
256,192,71422,1,0,0:0:0:0:
256,192,71478,1,0,0:0:0:0:
256,192,71534,1,0,0:0:0:0:
256,192,71590,1,8,0:0:0:0:
256,192,72096,1,8,0:0:0:0:
256,192,72264,1,0,0:0:0:0:
256,192,72517,1,0,0:0:0:0:
256,192,72770,1,0,0:0:0:0:
256,192,72854,1,0,0:0:0:0:
256,192,72938,1,8,0:0:0:0:
256,192,73191,1,8,0:0:0:0:
256,192,73444,1,8,0:0:0:0:
256,192,73613,1,0,0:0:0:0:
256,192,73865,1,0,0:0:0:0:
256,192,74118,1,0,0:0:0:0:
256,192,74202,1,0,0:0:0:0:
256,192,74287,1,8,0:0:0:0:
256,192,74371,1,8,0:0:0:0:
256,192,74455,1,8,0:0:0:0:
256,192,74540,1,8,0:0:0:0:
256,192,74624,1,0,0:0:0:0:
256,192,74708,1,0,0:0:0:0:
256,192,74792,1,8,0:0:0:0:
256,192,74961,1,4,0:0:0:0:
256,192,75467,1,0,0:0:0:0:
256,192,75551,1,0,0:0:0:0:
256,192,75635,1,8,0:0:0:0:
256,192,76141,1,8,0:0:0:0:
256,192,76309,1,0,0:0:0:0:
256,192,76562,1,0,0:0:0:0:
256,192,76815,1,0,0:0:0:0:
256,192,76899,1,0,0:0:0:0:
256,192,76983,1,8,0:0:0:0:
256,192,77320,1,8,0:0:0:0:
256,192,77488,1,8,0:0:0:0:
256,192,77825,1,8,0:0:0:0:
256,192,78162,1,8,0:0:0:0:
256,192,78247,1,8,0:0:0:0:
256,192,78331,1,0,0:0:0:0:
256,192,78668,1,8,0:0:0:0:
256,192,78836,1,0,0:0:0:0:
256,192,79174,1,8,0:0:0:0:
256,192,79342,1,0,0:0:0:0:
256,192,79511,1,8,0:0:0:0:
256,192,79595,1,8,0:0:0:0:
256,192,79679,1,0,0:0:0:0:
256,192,80016,1,8,0:0:0:0:
256,192,80185,1,0,0:0:0:0:
256,192,80522,1,8,0:0:0:0:
256,192,80690,1,0,0:0:0:0:
256,192,80859,1,8,0:0:0:0:
256,192,80943,1,8,0:0:0:0:
256,192,81027,1,0,0:0:0:0:
256,192,81196,1,0,0:0:0:0:
256,192,81365,1,8,0:0:0:0:
256,192,81533,1,8,0:0:0:0:
256,192,81617,1,8,0:0:0:0:
256,192,81702,1,0,0:0:0:0:
256,192,81870,1,0,0:0:0:0:
256,192,82039,1,8,0:0:0:0:
256,192,82207,1,8,0:0:0:0:
256,192,82291,1,8,0:0:0:0:
256,192,82376,1,0,0:0:0:0:
256,192,82629,1,0,0:0:0:0:
256,192,82713,1,8,0:0:0:0:
256,192,82881,1,0,0:0:0:0:
256,192,83218,1,8,0:0:0:0:
256,192,83387,1,0,0:0:0:0:
256,192,83556,1,8,0:0:0:0:
256,192,83724,1,4,0:0:0:0:
256,192,84230,1,0,0:0:0:0:
256,192,84735,1,0,0:0:0:0:
256,192,85072,1,8,0:0:0:0:
256,192,85157,1,8,0:0:0:0:
256,192,85241,1,0,0:0:0:0:
256,192,85409,1,8,0:0:0:0:
256,192,85578,1,8,0:0:0:0:
256,192,85662,1,8,0:0:0:0:
256,192,85747,1,0,0:0:0:0:
256,192,85915,1,8,0:0:0:0:
256,192,86084,1,8,0:0:0:0:
256,192,86168,1,8,0:0:0:0:
256,192,86252,1,0,0:0:0:0:
256,192,86421,1,4,0:0:0:0:
256,192,86926,1,8,0:0:0:0:
256,192,87432,1,8,0:0:0:0:
256,192,89117,1,0,0:0:0:0:
256,192,89454,1,8,0:0:0:0:
256,192,89623,1,0,0:0:0:0:
256,192,89707,1,0,0:0:0:0:
256,192,89791,1,0,0:0:0:0:
256,192,89960,1,8,0:0:0:0:
256,192,90129,1,0,0:0:0:0:
256,192,90213,1,0,0:0:0:0:
256,192,90297,1,0,0:0:0:0:
256,192,90466,1,8,0:0:0:0:
256,192,90634,1,0,0:0:0:0:
256,192,90718,1,0,0:0:0:0:
256,192,90803,1,8,0:0:0:0:
256,192,90887,1,8,0:0:0:0:
256,192,90971,1,0,0:0:0:0:
256,192,91140,1,8,0:0:0:0:
256,192,91814,1,4,0:0:0:0:
256,192,92151,1,8,0:0:0:0:
256,192,92488,1,0,0:0:0:0:
256,192,92572,1,0,0:0:0:0:
256,192,92657,1,0,0:0:0:0:
256,192,92825,1,8,0:0:0:0:
256,192,92994,1,0,0:0:0:0:
256,192,93078,1,8,0:0:0:0:
256,192,93162,1,0,0:0:0:0:
256,192,93331,1,8,0:0:0:0:
256,192,93499,1,0,0:0:0:0:
256,192,93668,1,8,0:0:0:0:
256,192,93752,1,8,0:0:0:0:
256,192,93836,1,0,0:0:0:0:
256,192,94005,1,8,0:0:0:0:
256,192,94342,1,8,0:0:0:0:
256,192,94511,1,0,0:0:0:0:
256,192,94848,1,8,0:0:0:0:
256,192,95185,1,0,0:0:0:0:
256,192,95269,1,0,0:0:0:0:
256,192,95353,1,0,0:0:0:0:
256,192,95522,1,8,0:0:0:0:
256,192,95690,1,0,0:0:0:0:
256,192,95775,1,8,0:0:0:0:
256,192,95859,1,0,0:0:0:0:
256,192,96027,1,8,0:0:0:0:
256,192,96196,1,0,0:0:0:0:
256,192,96365,1,8,0:0:0:0:
256,192,96449,1,8,0:0:0:0:
256,192,96533,1,0,0:0:0:0:
256,192,96617,1,0,0:0:0:0:
256,192,96702,1,8,0:0:0:0:
256,192,97039,1,8,0:0:0:0:
256,192,97207,1,4,0:0:0:0:
256,192,97544,1,8,0:0:0:0:
256,192,97881,1,0,0:0:0:0:
256,192,97966,1,0,0:0:0:0:
256,192,98050,1,0,0:0:0:0:
256,192,98218,1,8,0:0:0:0:
256,192,98387,1,0,0:0:0:0:
256,192,98471,1,8,0:0:0:0:
256,192,98556,1,0,0:0:0:0:
256,192,98724,1,8,0:0:0:0:
256,192,98893,1,0,0:0:0:0:
256,192,99061,1,8,0:0:0:0:
256,192,99145,1,8,0:0:0:0:
256,192,99230,1,0,0:0:0:0:
256,192,99398,1,8,0:0:0:0:
256,192,99735,1,8,0:0:0:0:
256,192,99904,1,0,0:0:0:0:
256,192,100241,1,8,0:0:0:0:
256,192,100409,1,0,0:0:0:0:
256,192,100578,1,0,0:0:0:0:
256,192,100915,1,8,0:0:0:0:
256,192,101084,1,0,0:0:0:0:
256,192,101168,1,0,0:0:0:0:
256,192,101252,1,0,0:0:0:0:
256,192,101589,1,8,0:0:0:0:
256,192,101758,1,0,0:0:0:0:
256,192,101926,1,8,0:0:0:0:
256,192,102095,1,8,0:0:0:0:
256,192,102432,1,8,0:0:0:0:
256,192,102600,1,4,0:0:0:0:
256,192,102938,1,8,0:0:0:0:
256,192,103275,1,0,0:0:0:0:
256,192,103359,1,0,0:0:0:0:
256,192,103443,1,0,0:0:0:0:
256,192,103612,1,8,0:0:0:0:
256,192,103780,1,0,0:0:0:0:
256,192,103865,1,8,0:0:0:0:
256,192,103949,1,0,0:0:0:0:
256,192,104117,1,8,0:0:0:0:
256,192,104286,1,0,0:0:0:0:
256,192,104454,1,8,0:0:0:0:
256,192,104539,1,8,0:0:0:0:
256,192,104623,1,0,0:0:0:0:
256,192,104791,1,8,0:0:0:0:
256,192,105129,1,8,0:0:0:0:
256,192,105297,1,0,0:0:0:0:
256,192,105634,1,8,0:0:0:0:
256,192,105971,1,0,0:0:0:0:
256,192,106056,1,0,0:0:0:0:
256,192,106140,1,0,0:0:0:0:
256,192,106308,1,8,0:0:0:0:
256,192,106477,1,0,0:0:0:0:
256,192,106561,1,8,0:0:0:0:
256,192,106645,1,0,0:0:0:0:
256,192,106814,1,8,0:0:0:0:
256,192,106982,1,0,0:0:0:0:
256,192,107151,1,8,0:0:0:0:
256,192,107235,1,8,0:0:0:0:
256,192,107320,1,0,0:0:0:0:
256,192,107488,1,8,0:0:0:0:
256,192,107657,1,0,0:0:0:0:
256,192,107825,1,8,0:0:0:0:
256,192,107909,1,8,0:0:0:0:
256,192,107994,1,0,0:0:0:0:
256,192,108331,1,0,0:0:0:0:
256,192,108668,1,8,0:0:0:0:
256,192,108836,1,8,0:0:0:0:
256,192,109174,1,0,0:0:0:0:
256,192,109342,1,0,0:0:0:0:
256,192,109511,1,8,0:0:0:0:
256,192,109679,1,0,0:0:0:0:
256,192,110016,1,8,0:0:0:0:
256,192,110185,1,8,0:0:0:0:
256,192,110522,1,8,0:0:0:0:
256,192,110606,1,0,0:0:0:0:
256,192,110690,1,0,0:0:0:0:
256,192,111027,1,0,0:0:0:0:
256,192,111365,1,8,0:0:0:0:
256,192,111533,1,8,0:0:0:0:
256,192,111870,1,8,0:0:0:0:
256,192,112039,1,0,0:0:0:0:
256,192,112207,1,8,0:0:0:0:
256,192,112376,1,0,0:0:0:0:
256,192,112713,1,8,0:0:0:0:
256,192,112881,1,8,0:0:0:0:
256,192,113218,1,8,0:0:0:0:
256,192,113303,1,0,0:0:0:0:
256,192,113387,1,0,0:0:0:0:
256,192,113556,1,0,0:0:0:0:
256,192,113724,1,0,0:0:0:0:
256,192,114061,1,8,0:0:0:0:
256,192,114230,1,8,0:0:0:0:
256,192,114567,1,0,0:0:0:0:
256,192,114735,1,0,0:0:0:0:
256,192,114904,1,8,0:0:0:0:
256,192,115072,1,0,0:0:0:0:
256,192,115409,1,8,0:0:0:0:
256,192,115578,1,8,0:0:0:0:
256,192,115915,1,8,0:0:0:0:
256,192,115999,1,0,0:0:0:0:
256,192,116084,1,0,0:0:0:0:
256,192,116252,1,0,0:0:0:0:
256,192,116421,1,0,0:0:0:0:
256,192,116758,1,8,0:0:0:0:
256,192,116926,1,8,0:0:0:0:
256,192,117263,1,8,0:0:0:0:
256,192,117432,1,0,0:0:0:0:
256,192,117600,1,8,0:0:0:0:
256,192,117769,1,0,0:0:0:0:
256,192,118106,1,8,0:0:0:0:
256,192,118275,1,8,0:0:0:0:
256,192,118612,1,8,0:0:0:0:
256,192,118780,8,0,121477,0:0:0:0:
256,192,123162,5,8,0:0:0:0:
256,192,123331,1,8,0:0:0:0:
256,192,123499,1,8,0:0:0:0:
256,192,123836,1,8,0:0:0:0:
256,192,124174,1,8,0:0:0:0:
256,192,124342,1,8,0:0:0:0:
256,192,124679,1,8,0:0:0:0:
256,192,124848,1,8,0:0:0:0:
256,192,125185,1,8,0:0:0:0:
256,192,125522,1,8,0:0:0:0:
256,192,125690,1,8,0:0:0:0:
256,192,125859,1,8,0:0:0:0:
256,192,126027,1,8,0:0:0:0:
256,192,126196,1,8,0:0:0:0:
256,192,126533,1,8,0:0:0:0:
256,192,126870,1,8,0:0:0:0:
256,192,127039,1,8,0:0:0:0:
256,192,127376,1,8,0:0:0:0:
256,192,127544,1,8,0:0:0:0:
256,192,127881,1,8,0:0:0:0:
256,192,128218,1,8,0:0:0:0:
256,192,128387,1,8,0:0:0:0:
256,192,128556,1,8,0:0:0:0:
256,192,128724,1,8,0:0:0:0:
256,192,128808,1,8,0:0:0:0:
256,192,128893,1,8,0:0:0:0:
256,192,129061,1,8,0:0:0:0:
256,192,129230,1,8,0:0:0:0:
256,192,129314,1,8,0:0:0:0:
256,192,129398,1,8,0:0:0:0:
256,192,129567,1,4,0:0:0:0:
256,192,129904,1,8,0:0:0:0:
256,192,130241,1,8,0:0:0:0:
256,192,130578,1,8,0:0:0:0:
256,192,130747,1,0,0:0:0:0:
256,192,130915,1,8,0:0:0:0:
256,192,131084,1,0,0:0:0:0:
256,192,131252,1,8,0:0:0:0:
256,192,131421,1,0,0:0:0:0:
256,192,131589,1,8,0:0:0:0:
256,192,131758,1,0,0:0:0:0:
256,192,131926,1,8,0:0:0:0:
256,192,132095,1,0,0:0:0:0:
256,192,132432,1,12,0:0:0:0:
256,192,132769,1,0,0:0:0:0:
256,192,132938,1,8,0:0:0:0:
256,192,133106,1,0,0:0:0:0:
256,192,133275,1,8,0:0:0:0:
256,192,133612,1,8,0:0:0:0:
256,192,133780,1,0,0:0:0:0:
256,192,133949,1,8,0:0:0:0:
256,192,134117,1,0,0:0:0:0:
256,192,134286,1,8,0:0:0:0:
256,192,134454,1,0,0:0:0:0:
256,192,134623,1,8,0:0:0:0:
256,192,134791,1,0,0:0:0:0:
256,192,135129,1,0,0:0:0:0:
256,192,135466,1,0,0:0:0:0:
256,192,135634,1,8,0:0:0:0:
256,192,135971,1,0,0:0:0:0:
256,192,136140,1,0,0:0:0:0:
256,192,136308,1,8,0:0:0:0:
256,192,136477,1,0,0:0:0:0:
256,192,136645,1,8,0:0:0:0:
256,192,136814,1,0,0:0:0:0:
256,192,136982,1,8,0:0:0:0:
256,192,137151,1,0,0:0:0:0:
256,192,137488,1,8,0:0:0:0:
256,192,137657,1,0,0:0:0:0:
256,192,137825,1,8,0:0:0:0:
256,192,137994,1,0,0:0:0:0:
256,192,138331,1,8,0:0:0:0:
256,192,139005,1,0,0:0:0:0:
256,192,139342,1,0,0:0:0:0:
256,192,139511,1,0,0:0:0:0:
256,192,139848,1,0,0:0:0:0:
256,192,140185,1,0,0:0:0:0:
256,192,140353,1,0,0:0:0:0:
256,192,140690,1,8,0:0:0:0:
256,192,140859,1,0,0:0:0:0:
256,192,141027,1,8,0:0:0:0:
256,192,141365,1,0,0:0:0:0:
256,192,141533,1,0,0:0:0:0:
256,192,141702,1,8,0:0:0:0:
256,192,141870,1,0,0:0:0:0:
256,192,142039,1,8,0:0:0:0:
256,192,142207,1,8,0:0:0:0:
256,192,142376,1,0,0:0:0:0:
256,192,142713,1,8,0:0:0:0:
256,192,142881,1,0,0:0:0:0:
256,192,143218,1,0,0:0:0:0:
256,192,143556,1,0,0:0:0:0:
256,192,143724,1,8,0:0:0:0:
256,192,144061,1,8,0:0:0:0:
256,192,144230,1,0,0:0:0:0:
256,192,144398,1,8,0:0:0:0:
256,192,144735,1,0,0:0:0:0:
256,192,144904,1,8,0:0:0:0:
256,192,145241,1,8,0:0:0:0:
256,192,145578,1,8,0:0:0:0:
256,192,145747,1,0,0:0:0:0:
256,192,146084,1,8,0:0:0:0:
256,192,146252,1,0,0:0:0:0:
256,192,146421,1,8,0:0:0:0:
256,192,146758,1,8,0:0:0:0:
256,192,146926,1,0,0:0:0:0:
256,192,147095,1,8,0:0:0:0:
256,192,147263,1,0,0:0:0:0:
256,192,147432,1,8,0:0:0:0:
256,192,147600,1,8,0:0:0:0:
256,192,147938,1,0,0:0:0:0:
256,192,148106,1,8,0:0:0:0:
256,192,148275,1,0,0:0:0:0:
256,192,148443,1,8,0:0:0:0:
256,192,150971,1,0,0:0:0:0:
256,192,151140,1,8,0:0:0:0:
256,192,151364,1,8,0:0:0:0:
256,185,151477,1,8,0:0:0:0:
256,192,151589,1,8,0:0:0:0:
256,192,151814,1,0,0:0:0:0:
256,192,152038,1,0,0:0:0:0:
256,185,152151,1,0,0:0:0:0:
256,192,152263,1,0,0:0:0:0:
256,192,152488,1,8,0:0:0:0:
256,192,152825,1,0,0:0:0:0:
256,192,152909,1,0,0:0:0:0:
256,192,152993,1,0,0:0:0:0:
256,192,153162,1,12,0:0:0:0:
256,192,153668,1,0,0:0:0:0:
256,192,153724,1,0,0:0:0:0:
256,192,153780,1,0,0:0:0:0:
256,192,153836,1,8,0:0:0:0:
256,192,154342,1,8,0:0:0:0:
256,192,154510,1,0,0:0:0:0:
256,192,154763,1,0,0:0:0:0:
256,192,155016,1,0,0:0:0:0:
256,192,155100,1,0,0:0:0:0:
256,192,155184,1,8,0:0:0:0:
256,192,155437,1,8,0:0:0:0:
256,192,155690,1,8,0:0:0:0:
256,192,155859,1,0,0:0:0:0:
256,192,156111,1,0,0:0:0:0:
256,192,156364,1,0,0:0:0:0:
256,192,156448,1,0,0:0:0:0:
256,192,156533,1,8,0:0:0:0:
256,192,156617,1,8,0:0:0:0:
256,192,156701,1,8,0:0:0:0:
256,192,156786,1,8,0:0:0:0:
256,192,156870,1,0,0:0:0:0:
256,192,156954,1,0,0:0:0:0:
256,192,157038,1,8,0:0:0:0:
256,192,157207,1,4,0:0:0:0:
256,192,157713,1,0,0:0:0:0:
256,192,157797,1,0,0:0:0:0:
256,192,157881,1,8,0:0:0:0:
256,192,158387,1,8,0:0:0:0:
256,192,158555,1,0,0:0:0:0:
256,192,158808,1,0,0:0:0:0:
256,192,159061,1,0,0:0:0:0:
256,192,159145,1,0,0:0:0:0:
256,192,159229,1,8,0:0:0:0:
256,192,159566,1,8,0:0:0:0:
256,192,159734,1,8,0:0:0:0:
256,192,160071,1,8,0:0:0:0:
256,192,160408,1,8,0:0:0:0:
256,192,160493,1,8,0:0:0:0:
256,192,160577,1,0,0:0:0:0:
256,192,160830,1,0,0:0:0:0:
256,192,160914,1,8,0:0:0:0:
256,192,161082,1,0,0:0:0:0:
256,192,161335,1,0,0:0:0:0:
256,192,161420,1,8,0:0:0:0:
256,192,161588,1,0,0:0:0:0:
256,192,161757,1,8,0:0:0:0:
256,192,161925,1,0,0:0:0:0:
256,192,162178,1,0,0:0:0:0:
256,192,162262,1,8,0:0:0:0:
256,192,162431,1,0,0:0:0:0:
256,192,162684,1,0,0:0:0:0:
256,192,162768,1,8,0:0:0:0:
256,192,162936,1,0,0:0:0:0:
256,192,163105,1,8,0:0:0:0:
256,192,163273,1,0,0:0:0:0:
256,192,163611,1,8,0:0:0:0:
256,192,163779,1,8,0:0:0:0:
256,192,163948,1,0,0:0:0:0:
256,192,164032,1,0,0:0:0:0:
256,192,164116,1,8,0:0:0:0:
256,192,164285,1,0,0:0:0:0:
256,192,164453,1,8,0:0:0:0:
256,192,164622,1,0,0:0:0:0:
256,192,164959,1,8,0:0:0:0:
256,192,165127,1,8,0:0:0:0:
256,192,165296,1,0,0:0:0:0:
256,192,165380,1,8,0:0:0:0:
256,192,165464,1,8,0:0:0:0:
256,192,165633,1,0,0:0:0:0:
256,192,165802,1,8,0:0:0:0:
256,192,165970,1,4,0:0:0:0:
256,192,166476,1,0,0:0:0:0:
256,192,166981,1,0,0:0:0:0:
256,192,167318,1,8,0:0:0:0:
256,192,167824,1,8,0:0:0:0:
256,192,168330,1,8,0:0:0:0:
256,192,168667,1,0,0:0:0:0:
256,192,169172,1,0,0:0:0:0:
256,192,169678,8,0,171279,0:0:0:0:
256,192,174060,5,4,0:0:0:0:
256,192,174397,1,0,0:0:0:0:
256,192,174734,1,8,0:0:0:0:
256,192,175071,1,0,0:0:0:0:
256,192,175240,1,8,0:0:0:0:
256,192,175408,1,0,0:0:0:0:
256,192,175577,1,8,0:0:0:0:
256,192,175914,1,8,0:0:0:0:
256,192,176082,1,0,0:0:0:0:
256,192,176251,1,8,0:0:0:0:
256,192,176588,1,8,0:0:0:0:
256,192,176757,1,0,0:0:0:0:
256,192,177094,1,0,0:0:0:0:
256,192,177431,1,8,0:0:0:0:
256,192,177768,1,0,0:0:0:0:
256,192,177936,1,8,0:0:0:0:
256,192,178105,1,0,0:0:0:0:
256,192,178273,1,8,0:0:0:0:
256,192,178611,1,8,0:0:0:0:
256,192,178779,1,0,0:0:0:0:
256,192,178948,1,8,0:0:0:0:
256,192,179285,1,8,0:0:0:0:
256,192,179453,1,0,0:0:0:0:
256,192,179622,1,0,0:0:0:0:
256,192,179790,1,0,0:0:0:0:
256,192,180127,1,8,0:0:0:0:
256,192,180464,1,8,0:0:0:0:
256,192,180633,1,0,0:0:0:0:
256,192,180802,1,8,0:0:0:0:
256,192,180970,1,0,0:0:0:0:
256,192,181307,1,8,0:0:0:0:
256,192,181476,1,0,0:0:0:0:
256,192,181644,1,8,0:0:0:0:
256,192,181981,1,0,0:0:0:0:
256,192,182150,1,8,0:0:0:0:
256,192,182487,1,0,0:0:0:0:
256,192,182655,1,0,0:0:0:0:
256,192,182824,1,8,0:0:0:0:
256,192,183161,1,0,0:0:0:0:
256,192,183330,1,0,0:0:0:0:
256,192,183498,1,0,0:0:0:0:
256,192,183835,1,0,0:0:0:0:
256,192,184172,1,8,0:0:0:0:
256,192,184341,1,0,0:0:0:0:
256,192,184678,1,8,0:0:0:0:
256,192,184846,1,4,0:0:0:0:
256,192,185184,1,0,0:0:0:0:
256,192,185521,1,8,0:0:0:0:
256,192,185858,1,0,0:0:0:0:
256,192,186026,1,8,0:0:0:0:
256,192,186195,1,0,0:0:0:0:
256,192,186363,1,8,0:0:0:0:
256,192,186700,1,8,0:0:0:0:
256,192,186869,1,0,0:0:0:0:
256,192,187037,1,8,0:0:0:0:
256,192,187375,1,8,0:0:0:0:
256,192,187543,1,0,0:0:0:0:
256,192,187880,1,0,0:0:0:0:
256,192,188217,1,8,0:0:0:0:
256,192,188554,1,0,0:0:0:0:
256,192,188723,1,8,0:0:0:0:
256,192,188891,1,0,0:0:0:0:
256,192,189060,1,8,0:0:0:0:
256,192,189397,1,8,0:0:0:0:
256,192,189566,1,0,0:0:0:0:
256,192,189734,1,8,0:0:0:0:
256,192,190071,1,8,0:0:0:0:
256,192,190240,1,0,0:0:0:0:
256,192,190577,1,0,0:0:0:0:
256,192,190745,1,0,0:0:0:0:
256,192,190830,1,0,0:0:0:0:
256,192,190914,1,8,0:0:0:0:
256,192,191251,1,0,0:0:0:0:
256,192,191420,1,0,0:0:0:0:
256,192,191588,1,0,0:0:0:0:
256,192,191757,1,8,0:0:0:0:
256,192,191925,1,0,0:0:0:0:
256,192,192262,1,8,0:0:0:0:
256,192,192599,1,8,0:0:0:0:
256,192,192768,1,8,0:0:0:0:
256,192,192852,1,8,0:0:0:0:
256,192,192936,1,0,0:0:0:0:
256,192,193273,1,0,0:0:0:0:
256,192,193442,1,0,0:0:0:0:
256,192,193611,1,8,0:0:0:0:
256,192,193948,1,8,0:0:0:0:
256,192,194116,1,0,0:0:0:0:
256,192,194285,1,0,0:0:0:0:
256,192,194453,1,8,0:0:0:0:
256,192,194622,1,0,0:0:0:0:
256,192,194959,1,8,0:0:0:0:
256,192,195296,1,8,0:0:0:0:
256,192,195464,1,8,0:0:0:0:
256,192,195633,1,0,0:0:0:0:
256,192,195970,1,0,0:0:0:0:
256,192,196139,1,0,0:0:0:0:
256,192,196223,1,0,0:0:0:0:
256,192,196307,1,8,0:0:0:0:
256,192,196476,1,0,0:0:0:0:
256,192,196644,1,8,0:0:0:0:
256,192,196813,1,0,0:0:0:0:
256,192,196897,1,0,0:0:0:0:
256,192,196981,1,8,0:0:0:0:
256,192,197066,1,8,0:0:0:0:
256,192,197150,1,0,0:0:0:0:
256,192,197234,1,0,0:0:0:0:
256,192,197318,1,8,0:0:0:0:
256,192,197487,1,0,0:0:0:0:
256,192,197655,1,8,0:0:0:0:
256,192,197993,1,8,0:0:0:0:
256,192,198161,1,8,0:0:0:0:
256,192,198330,1,0,0:0:0:0:
256,192,198835,1,0,0:0:0:0:
256,192,199004,1,8,0:0:0:0:
256,192,199341,1,8,0:0:0:0:
256,192,199509,1,0,0:0:0:0:
256,192,199678,1,8,0:0:0:0:
256,192,199762,1,8,0:0:0:0:
256,192,199846,1,0,0:0:0:0:
256,192,200015,1,8,0:0:0:0:
256,192,200099,1,8,0:0:0:0:
256,192,200184,1,0,0:0:0:0:
256,192,200352,1,8,0:0:0:0:
256,192,200521,1,0,0:0:0:0:
256,192,200689,1,8,0:0:0:0:
256,192,200858,1,8,0:0:0:0:
256,192,201026,1,0,0:0:0:0:
256,192,201532,1,0,0:0:0:0:
256,192,201700,1,8,0:0:0:0:
256,192,202037,1,0,0:0:0:0:
256,192,202543,1,0,0:0:0:0:
256,192,202712,1,0,0:0:0:0:
256,192,203049,1,8,0:0:0:0:
256,192,203217,1,0,0:0:0:0:
256,192,203554,1,0,0:0:0:0:
256,192,203723,1,0,0:0:0:0:
256,192,203891,1,0,0:0:0:0:
256,192,203976,1,0,0:0:0:0:
256,192,204060,1,0,0:0:0:0:
256,192,204228,1,0,0:0:0:0:
256,192,204397,1,8,0:0:0:0:
256,192,204566,1,0,0:0:0:0:
256,192,204903,1,0,0:0:0:0:
256,192,205071,1,0,0:0:0:0:
256,192,205408,1,0,0:0:0:0:
256,192,205745,1,8,0:0:0:0:
256,192,205914,1,0,0:0:0:0:
256,192,206251,1,0,0:0:0:0:
256,192,206420,1,0,0:0:0:0:
256,192,206757,1,8,0:0:0:0:
256,192,206925,1,0,0:0:0:0:
256,192,207094,1,8,0:0:0:0:
256,192,207178,1,8,0:0:0:0:
256,192,207262,1,0,0:0:0:0:
256,192,207431,1,8,0:0:0:0:
256,192,207599,1,0,0:0:0:0:
256,192,207768,1,8,0:0:0:0:
256,192,207852,1,8,0:0:0:0:
256,192,207936,1,0,0:0:0:0:
256,192,208021,1,0,0:0:0:0:
256,192,208105,1,8,0:0:0:0:
256,192,208273,1,0,0:0:0:0:
256,192,208358,1,0,0:0:0:0:
256,192,208442,1,8,0:0:0:0:
256,192,208526,1,8,0:0:0:0:
256,192,208611,1,0,0:0:0:0:
256,192,208779,1,8,0:0:0:0:
256,192,208948,1,0,0:0:0:0:
256,192,209032,1,0,0:0:0:0:
256,192,209116,1,8,0:0:0:0:
256,192,209285,1,8,0:0:0:0:
256,192,209369,1,8,0:0:0:0:
256,192,209622,1,0,0:0:0:0:
256,192,209790,1,8,0:0:0:0:
256,192,209875,1,0,0:0:0:0:
256,192,209959,1,0,0:0:0:0:
256,192,210043,1,0,0:0:0:0:
256,192,210127,1,8,0:0:0:0:
256,192,210464,1,0,0:0:0:0:
256,192,210633,1,0,0:0:0:0:
256,192,210802,1,0,0:0:0:0:
256,192,211139,1,8,0:0:0:0:
256,192,211476,1,8,0:0:0:0:
256,192,211560,1,8,0:0:0:0:
256,192,211644,1,8,0:0:0:0:
256,192,211813,1,0,0:0:0:0:
256,192,212150,1,0,0:0:0:0:
256,192,212487,1,8,0:0:0:0:
256,192,212571,1,8,0:0:0:0:
256,192,212655,1,0,0:0:0:0:
256,192,212824,1,8,0:0:0:0:
256,192,212993,1,0,0:0:0:0:
256,192,213161,1,8,0:0:0:0:
256,192,213245,1,8,0:0:0:0:
256,192,213330,1,0,0:0:0:0:
256,192,213414,1,0,0:0:0:0:
256,192,213498,1,8,0:0:0:0:
256,192,213582,1,8,0:0:0:0:
256,192,213667,1,0,0:0:0:0:
256,192,213835,1,0,0:0:0:0:
256,192,213920,1,0,0:0:0:0:
256,192,214004,1,8,0:0:0:0:
256,192,214088,1,8,0:0:0:0:
256,192,214172,1,0,0:0:0:0:
256,192,214257,1,0,0:0:0:0:
256,192,214341,1,8,0:0:0:0:
256,192,214509,1,0,0:0:0:0:
256,192,214846,1,8,0:0:0:0:
256,192,215015,1,0,0:0:0:0:
256,192,215184,1,8,0:0:0:0:
256,192,215268,1,8,0:0:0:0:
256,192,215352,1,0,0:0:0:0:
256,192,215436,1,0,0:0:0:0:
256,192,215521,1,8,0:0:0:0:
256,192,215858,1,0,0:0:0:0:
256,192,215942,1,0,0:0:0:0:
256,192,216026,1,8,0:0:0:0:
256,192,216111,1,8,0:0:0:0:
256,192,216195,1,0,0:0:0:0:
256,192,216532,1,0,0:0:0:0:
256,192,216616,1,8,0:0:0:0:
256,192,216700,1,8,0:0:0:0:
256,192,216785,1,8,0:0:0:0:
256,192,216869,1,0,0:0:0:0:
256,192,216953,1,8,0:0:0:0:
256,192,217037,1,8,0:0:0:0:
256,192,217122,1,8,0:0:0:0:
256,192,217206,8,0,221251,0:0:0:0:
256,192,222599,5,0,0:0:0:0:
256,192,222936,1,0,0:0:0:0:
256,192,223273,1,8,0:0:0:0:
256,192,223611,1,0,0:0:0:0:
256,192,223779,1,0,0:0:0:0:
256,192,224116,1,8,0:0:0:0:
256,192,224453,1,0,0:0:0:0:
256,192,224790,1,8,0:0:0:0:
256,192,225127,1,0,0:0:0:0:
256,192,225296,1,0,0:0:0:0:
256,192,225633,1,0,0:0:0:0:
256,192,225970,1,8,0:0:0:0:
256,192,226307,1,0,0:0:0:0:
256,192,226476,1,0,0:0:0:0:
256,192,226813,1,8,0:0:0:0:
256,192,227150,1,0,0:0:0:0:
256,192,227487,1,8,0:0:0:0:
256,192,227824,1,0,0:0:0:0:
256,192,227993,1,0,0:0:0:0:
256,192,228330,1,0,0:0:0:0:
256,192,228667,1,8,0:0:0:0:
256,192,229004,1,0,0:0:0:0:
256,192,229172,1,0,0:0:0:0:
256,192,229509,1,8,0:0:0:0:
256,192,229846,1,0,0:0:0:0:
256,192,230184,1,8,0:0:0:0:
256,192,230521,1,0,0:0:0:0:
256,192,230689,1,0,0:0:0:0:
256,192,231026,1,8,0:0:0:0:
256,192,231195,1,0,0:0:0:0:
256,192,231363,1,0,0:0:0:0:
256,192,231700,1,8,0:0:0:0:
256,192,231869,1,0,0:0:0:0:
256,192,231953,1,0,0:0:0:0:
256,192,232037,1,0,0:0:0:0:
256,192,232375,1,8,0:0:0:0:
256,192,232712,1,8,0:0:0:0:
256,192,232880,1,8,0:0:0:0:
256,192,233217,1,8,0:0:0:0:
256,192,233386,1,8,0:0:0:0:
256,192,233723,1,4,0:0:0:0:
256,192,234060,1,8,0:0:0:0:
256,192,234144,1,8,0:0:0:0:
256,192,234228,1,8,0:0:0:0:
256,192,234397,1,8,0:0:0:0:
256,192,234566,1,0,0:0:0:0:
256,192,234650,1,8,0:0:0:0:
256,192,234734,1,0,0:0:0:0:
256,192,234903,1,8,0:0:0:0:
256,192,235071,1,0,0:0:0:0:
256,192,235240,1,8,0:0:0:0:
256,192,235324,1,8,0:0:0:0:
256,192,235408,1,0,0:0:0:0:
256,192,235577,1,8,0:0:0:0:
256,192,235914,1,8,0:0:0:0:
256,192,236082,1,0,0:0:0:0:
256,192,236420,1,8,0:0:0:0:
256,192,236757,1,0,0:0:0:0:
256,192,236841,1,0,0:0:0:0:
256,192,236925,1,0,0:0:0:0:
256,192,237094,1,8,0:0:0:0:
256,192,237262,1,0,0:0:0:0:
256,192,237346,1,8,0:0:0:0:
256,192,237431,1,0,0:0:0:0:
256,192,237599,1,8,0:0:0:0:
256,192,237768,1,0,0:0:0:0:
256,192,237936,1,8,0:0:0:0:
256,192,238021,1,8,0:0:0:0:
256,192,238105,1,0,0:0:0:0:
256,192,238189,1,0,0:0:0:0:
256,192,238273,1,8,0:0:0:0:
256,192,238611,1,8,0:0:0:0:
256,192,238779,1,4,0:0:0:0:
256,192,239116,1,8,0:0:0:0:
256,192,239453,1,0,0:0:0:0:
256,192,239537,1,0,0:0:0:0:
256,192,239622,1,0,0:0:0:0:
256,192,239790,1,8,0:0:0:0:
256,192,239959,1,0,0:0:0:0:
256,192,240043,1,8,0:0:0:0:
256,192,240127,1,0,0:0:0:0:
256,192,240296,1,8,0:0:0:0:
256,192,240464,1,0,0:0:0:0:
256,192,240633,1,8,0:0:0:0:
256,192,240717,1,8,0:0:0:0:
256,192,240802,1,0,0:0:0:0:
256,192,240970,1,8,0:0:0:0:
256,192,241307,1,8,0:0:0:0:
256,192,241476,1,0,0:0:0:0:
256,192,241813,1,8,0:0:0:0:
256,192,241981,1,0,0:0:0:0:
256,192,242150,1,0,0:0:0:0:
256,192,242487,1,8,0:0:0:0:
256,192,242655,1,0,0:0:0:0:
256,192,242740,1,0,0:0:0:0:
256,192,242824,1,0,0:0:0:0:
256,192,243161,1,8,0:0:0:0:
256,192,243330,1,0,0:0:0:0:
256,192,243498,1,8,0:0:0:0:
256,192,243667,1,8,0:0:0:0:
256,192,244004,1,8,0:0:0:0:
256,192,244172,1,4,0:0:0:0:
256,192,244509,1,8,0:0:0:0:
256,192,244846,1,0,0:0:0:0:
256,192,244931,1,0,0:0:0:0:
256,192,245015,1,0,0:0:0:0:
256,192,245184,1,8,0:0:0:0:
256,192,245352,1,0,0:0:0:0:
256,192,245436,1,8,0:0:0:0:
256,192,245521,1,0,0:0:0:0:
256,192,245605,1,0,0:0:0:0:
256,192,245689,1,8,0:0:0:0:
256,192,245858,1,0,0:0:0:0:
256,192,246026,1,8,0:0:0:0:
256,192,246111,1,8,0:0:0:0:
256,192,246195,1,0,0:0:0:0:
256,192,246279,1,0,0:0:0:0:
256,192,246363,1,8,0:0:0:0:
256,192,246700,1,8,0:0:0:0:
256,192,246869,1,4,0:0:0:0:
256,192,247206,1,8,0:0:0:0:
256,192,247543,1,0,0:0:0:0:
256,192,247627,1,0,0:0:0:0:
256,192,247712,1,0,0:0:0:0:
256,192,247880,1,8,0:0:0:0:
256,192,248049,1,0,0:0:0:0:
256,192,248133,1,8,0:0:0:0:
256,192,248217,1,0,0:0:0:0:
256,192,248302,1,0,0:0:0:0:
256,192,248386,1,8,0:0:0:0:
256,192,248554,1,0,0:0:0:0:
256,192,248723,1,8,0:0:0:0:
256,192,248807,1,8,0:0:0:0:
256,192,248891,1,0,0:0:0:0:
256,192,248976,1,0,0:0:0:0:
256,192,249060,1,8,0:0:0:0:
256,192,249228,1,0,0:0:0:0:
256,192,249397,1,8,0:0:0:0:
256,192,249481,1,8,0:0:0:0:
256,192,249566,1,0,0:0:0:0:
256,192,249903,1,0,0:0:0:0:
256,192,250240,1,8,0:0:0:0:
256,192,250408,1,0,0:0:0:0:
256,192,250745,1,0,0:0:0:0:
256,192,250914,1,0,0:0:0:0:
256,192,251082,1,8,0:0:0:0:
256,192,251251,1,0,0:0:0:0:
256,192,251588,1,8,0:0:0:0:
256,192,251757,1,0,0:0:0:0:
256,192,252094,1,8,0:0:0:0:
256,192,252178,1,8,0:0:0:0:
256,192,252262,1,0,0:0:0:0:
256,192,252599,1,0,0:0:0:0:
256,192,252936,1,8,0:0:0:0:
256,192,253105,1,0,0:0:0:0:
256,192,253442,1,8,0:0:0:0:
256,192,253611,1,0,0:0:0:0:
256,192,253779,1,8,0:0:0:0:
256,192,253948,1,0,0:0:0:0:
256,192,254285,1,8,0:0:0:0:
256,192,254453,1,0,0:0:0:0:
256,192,254790,1,8,0:0:0:0:
256,192,254875,1,8,0:0:0:0:
256,192,254959,1,0,0:0:0:0:
256,192,255127,1,0,0:0:0:0:
256,192,255296,1,0,0:0:0:0:
256,192,255633,1,8,0:0:0:0:
256,192,255802,1,0,0:0:0:0:
256,192,256139,1,8,0:0:0:0:
256,192,256223,1,0,0:0:0:0:
256,192,256307,1,0,0:0:0:0:
256,192,256476,1,8,0:0:0:0:
256,192,256644,1,0,0:0:0:0:
256,192,256813,1,0,0:0:0:0:
256,192,256981,1,8,0:0:0:0:
256,192,257150,1,0,0:0:0:0:
256,192,257487,1,8,0:0:0:0:
256,192,257571,1,8,0:0:0:0:
256,192,257655,1,0,0:0:0:0:
256,192,257824,1,0,0:0:0:0:
256,192,257993,1,0,0:0:0:0:
256,192,258330,1,8,0:0:0:0:
256,192,258498,1,0,0:0:0:0:
256,192,258835,1,8,0:0:0:0:
256,192,258920,1,0,0:0:0:0:
256,192,259004,1,0,0:0:0:0:
256,192,259172,1,8,0:0:0:0:
256,192,259341,1,0,0:0:0:0:
256,192,259509,1,0,0:0:0:0:
256,192,259678,1,8,0:0:0:0:
256,192,259846,1,8,0:0:0:0:
256,192,260184,1,8,0:0:0:0:
256,192,260352,8,0,262712,0:0:0:0:
256,192,263049,5,8,0:0:0:0:
256,192,263386,1,0,0:0:0:0:
256,192,263470,1,0,0:0:0:0:
256,192,263554,1,0,0:0:0:0:
256,192,263723,1,12,0:0:0:0:
256,192,264060,1,0,0:0:0:0:
256,192,264397,1,0,0:0:0:0:
256,192,264650,1,0,0:0:0:0:
256,192,264734,1,8,0:0:0:0:
256,192,264903,1,0,0:0:0:0:
256,192,265071,1,8,0:0:0:0:
256,192,265324,1,0,0:0:0:0:
256,192,265408,1,8,0:0:0:0:
256,192,265577,1,0,0:0:0:0:
256,192,265745,1,8,0:0:0:0:
256,192,265998,1,0,0:0:0:0:
256,192,266082,1,8,0:0:0:0:
256,192,266251,1,0,0:0:0:0:
256,192,266420,1,8,0:0:0:0:
256,192,266588,1,0,0:0:0:0:
256,192,266672,1,0,0:0:0:0:
256,192,266757,1,8,0:0:0:0:
256,192,266925,1,8,0:0:0:0:
256,192,267094,1,0,0:0:0:0:
256,192,267262,1,0,0:0:0:0:
256,192,267346,1,8,0:0:0:0:
256,192,267431,1,8,0:0:0:0:
256,192,267599,1,8,0:0:0:0:
256,192,267768,1,0,0:0:0:0:
256,192,267852,1,8,0:0:0:0:
256,192,267936,1,8,0:0:0:0:
256,192,268105,1,8,0:0:0:0:
256,192,268273,1,0,0:0:0:0:
256,192,268442,1,4,0:0:0:0:
256,192,268779,1,0,0:0:0:0:
256,192,269116,1,12,0:0:0:0:
256,192,269453,1,8,0:0:0:0:
256,192,269537,1,8,0:0:0:0:
256,192,269622,1,8,0:0:0:0:
256,192,269790,1,0,0:0:0:0:
256,192,269959,1,8,0:0:0:0:
256,192,270127,1,0,0:0:0:0:
256,192,270296,1,0,0:0:0:0:
256,192,270464,1,8,0:0:0:0:
256,192,270802,1,8,0:0:0:0:
256,192,271139,1,8,0:0:0:0:
256,192,271223,1,8,0:0:0:0:
256,192,271307,1,0,0:0:0:0:
256,192,271391,1,0,0:0:0:0:
256,192,271476,1,8,0:0:0:0:
256,192,271644,1,8,0:0:0:0:
256,192,271728,1,8,0:0:0:0:
256,192,271813,1,0,0:0:0:0:
256,192,271897,1,0,0:0:0:0:
256,192,271981,1,8,0:0:0:0:
256,192,272150,1,8,0:0:0:0:
256,192,272234,1,8,0:0:0:0:
256,192,272318,1,0,0:0:0:0:
256,192,272403,1,0,0:0:0:0:
256,192,272487,1,8,0:0:0:0:
256,192,272655,1,0,0:0:0:0:
256,192,272740,1,0,0:0:0:0:
256,192,272824,1,0,0:0:0:0:
256,192,272993,1,0,0:0:0:0:
256,192,273161,1,8,0:0:0:0:
256,192,273245,1,8,0:0:0:0:
256,192,273330,1,8,0:0:0:0:
256,192,273498,1,0,0:0:0:0:
256,192,273582,1,0,0:0:0:0:
256,192,273667,1,0,0:0:0:0:
256,192,273835,1,4,0:0:0:0:
256,192,274172,1,0,0:0:0:0:
256,192,274509,1,8,0:0:0:0:
256,192,274594,1,8,0:0:0:0:
256,192,274678,1,0,0:0:0:0:
256,192,274846,1,0,0:0:0:0:
256,192,275015,1,8,0:0:0:0:
256,192,275184,1,0,0:0:0:0:
256,192,275352,1,0,0:0:0:0:
256,192,275521,1,8,0:0:0:0:
256,192,275605,1,8,0:0:0:0:
256,192,275689,1,0,0:0:0:0:
256,192,275858,1,0,0:0:0:0:
256,192,276026,1,8,0:0:0:0:
256,192,276195,1,0,0:0:0:0:
256,192,276532,1,0,0:0:0:0:
256,192,276616,1,8,0:0:0:0:
256,192,276700,1,8,0:0:0:0:
256,192,276785,1,8,0:0:0:0:
256,192,276869,1,0,0:0:0:0:
256,192,277037,1,0,0:0:0:0:
256,192,277122,1,8,0:0:0:0:
256,192,277206,1,8,0:0:0:0:
256,192,277290,1,8,0:0:0:0:
256,192,277375,1,0,0:0:0:0:
256,192,277543,1,0,0:0:0:0:
256,192,277627,1,8,0:0:0:0:
256,192,277712,1,8,0:0:0:0:
256,192,277880,1,0,0:0:0:0:
256,192,277964,1,0,0:0:0:0:
256,192,278049,1,0,0:0:0:0:
256,192,278217,1,8,0:0:0:0:
256,192,278386,1,8,0:0:0:0:
256,192,278554,1,0,0:0:0:0:
256,192,278639,1,0,0:0:0:0:
256,192,278723,1,0,0:0:0:0:
256,192,278891,1,8,0:0:0:0:
256,192,279060,1,8,0:0:0:0:
256,192,279144,1,0,0:0:0:0:
256,192,279228,1,0,0:0:0:0:
256,192,279566,1,8,0:0:0:0:
256,192,279903,1,8,0:0:0:0:
256,192,280240,1,8,0:0:0:0:
256,192,280577,1,0,0:0:0:0:
256,192,281251,1,8,0:0:0:0:
256,192,281925,1,8,0:0:0:0:
256,192,282009,1,8,0:0:0:0:
256,192,282094,1,8,0:0:0:0:
256,192,282262,1,8,0:0:0:0:
256,192,282431,1,8,0:0:0:0:
256,192,282599,1,8,0:0:0:0:
256,192,282684,1,8,0:0:0:0:
256,192,282768,1,8,0:0:0:0:
256,192,282936,1,8,0:0:0:0:
256,192,283105,1,8,0:0:0:0:
256,192,283273,1,8,0:0:0:0:
256,192,283358,1,8,0:0:0:0:
256,192,283442,1,8,0:0:0:0:
256,192,283611,1,8,0:0:0:0:
256,192,283695,1,8,0:0:0:0:
256,192,283779,1,8,0:0:0:0:
256,192,283948,1,8,0:0:0:0:
256,192,284032,1,8,0:0:0:0:
256,192,284116,1,8,0:0:0:0:
256,192,284200,1,8,0:0:0:0:
256,192,284285,1,8,0:0:0:0:
256,192,284369,1,8,0:0:0:0:
256,192,284453,1,8,0:0:0:0:
256,192,284537,1,8,0:0:0:0:
256,192,285266,1,0,0:0:0:0:
256,192,285346,1,0,0:0:0:0:
256,192,285427,1,8,0:0:0:0:
256,192,286434,1,8,0:0:0:0:
256,192,286534,1,8,0:0:0:0:
256,192,286635,1,0,0:0:0:0:
256,192,288151,8,0,293882,0:0:0:0:
