osu file format v14

[General]
AudioFilename: audio.ogg
AudioLeadIn: 0
PreviewTime: 65949
Countdown: 0
SampleSet: Soft
StackLeniency: 0.7
Mode: 3
LetterboxInBreaks: 0
SpecialStyle: 0
WidescreenStoryboard: 1

[Editor]
Bookmarks: 2407,13241,26574,39907,53241,59907,66574,79907,93241,106574,119907,133241,139907,146574,159907,173241,186574,199907,213241,226574,240324
DistanceSpacing: 0.96
BeatDivisor: 4
GridSize: 4
TimelineZoom: 2.3

[Metadata]
Title:Starry Jet
TitleUnicode:Starry Jet
Artist:Hoshimachi Suisei
ArtistUnicode:星街すいせい
Creator:chocomilku-
Version:Insane
Source:
Tags:Amiichii Antipole Symmatrix- DoctorTetraVoid vtuber virtual youtuber hololive ホロライブ バーチャルyoutuber こだまさおり kodama saori 櫻澤ヒカル sakurazawa hikaru 齋藤真也 saito masanari 齋藤大 saitou dai japanese pop jpop j-pop jazz still stellar suichan hosimati hoshimati hosimachi sui-chan hifumi,inc. HOLO-2
BeatmapID:3999524
BeatmapSetID:1795227

[Difficulty]
HPDrainRate:8
CircleSize:4
OverallDifficulty:7.5
ApproachRate:5
SliderMultiplier:1.4
SliderTickRate:1

[Events]
//Background and Video events
0,0,"suisei4.jpg",0,0
//Break Periods
//Storyboard Layer 0 (Background)
//Storyboard Layer 1 (Fail)
//Storyboard Layer 2 (Pass)
//Storyboard Layer 3 (Foreground)
//Storyboard Layer 4 (Overlay)
//Storyboard Sound Samples
Sample,72824,0,"soft-hitwhistle.wav",65
Sample,77824,0,"soft-hitclap.wav",65
Sample,84699,0,"ride.wav",70
Sample,89907,0,"ride.wav",70
Sample,90324,0,"soft-hitclap.wav",65
Sample,90741,0,"ride.wav",70
Sample,91157,0,"soft-hitclap.wav",65
Sample,106782,0,"ride.wav",70
Sample,107199,0,"ride.wav",70
Sample,107616,0,"ride.wav",70
Sample,108032,0,"ride.wav",70
Sample,108866,0,"hat.wav",70
Sample,108866,0,"ride.wav",70
Sample,109282,0,"ride.wav",70
Sample,110949,0,"ride.wav",70
Sample,111782,0,"ride.wav",70
Sample,112199,0,"ride.wav",70
Sample,112616,0,"ride.wav",70
Sample,113032,0,"ride.wav",70
Sample,113449,0,"ride.wav",70
Sample,113866,0,"ride.wav",70
Sample,114282,0,"ride.wav",70
Sample,115116,0,"ride.wav",70
Sample,115532,0,"ride.wav",70
Sample,115949,0,"ride.wav",70
Sample,133866,0,"ride.wav",70
Sample,134282,0,"ride.wav",70
Sample,134699,0,"ride.wav",70
Sample,135116,0,"ride.wav",70
Sample,135532,0,"ride.wav",70
Sample,135949,0,"ride.wav",70
Sample,136366,0,"ride.wav",70
Sample,136782,0,"ride.wav",70
Sample,137199,0,"ride.wav",70
Sample,137616,0,"ride.wav",70
Sample,138032,0,"ride.wav",70
Sample,138449,0,"ride.wav",70
Sample,138866,0,"ride.wav",70
Sample,162407,0,"soft-hitnormal.wav",70
Sample,166157,0,"hat.wav",70
Sample,196574,0,"ride.wav",70
Sample,197407,0,"ride.wav",70
Sample,205532,0,"hat.wav",70
Sample,208032,0,"hat.wav",70
Sample,208449,0,"hat.wav",70
Sample,208866,0,"hat.wav",70
Sample,211366,0,"hat.wav",70
Sample,214907,0,"ride.wav",70
Sample,216574,0,"ride.wav",70
Sample,217407,0,"ride.wav",70
Sample,218866,0,"hat.wav",70
Sample,220741,0,"ride.wav",70
Sample,221366,0,"hat.wav",70
Sample,221574,0,"ride.wav",70
Sample,221782,0,"hat.wav",70
Sample,222199,0,"hat.wav",70
Sample,222407,0,"ride.wav",70
Sample,223241,0,"soft-hitfinish.wav",65

[TimingPoints]
12209,405.405405405404,4,2,1,50,1,0
12209,-102.778091821947,4,2,1,50,0,0
13241,416.666666666667,4,2,1,50,1,0
66574,-100.0,4,2,1,65,0,1
91574,-100.0,4,2,1,50,0,0
199907,-100.0,4,2,1,65,0,1
226157,-100.0,4,2,1,50,0,0

[HitObjects]
448,192,12209,128,0,12411:0:0:0:0:
320,192,12310,128,0,12411:0:0:0:0:
64,192,12411,1,8,0:2:0:0:
192,192,12411,1,0,0:0:0:0:
320,192,12513,1,2,0:2:0:0:
448,192,12513,1,0,0:0:0:0:
192,192,12715,1,2,0:2:0:0:
320,192,12715,1,0,0:0:0:0:
64,192,12918,1,8,0:2:0:0:
448,192,12918,1,0,0:0:0:0:
192,192,13019,1,8,0:2:0:0:
320,192,13019,1,0,0:0:0:0:
64,192,13241,1,4,0:2:0:0:
320,192,13241,1,2,0:2:0:0:
448,192,13241,1,0,0:0:0:0:
192,192,13449,1,0,0:0:0:0:
64,192,13657,1,8,0:2:0:0:
192,192,13657,1,0,0:0:0:0:
448,192,13657,1,0,0:0:0:0:
320,192,13761,1,0,0:0:0:0:
192,192,13866,1,0,0:0:0:70:hat.wav
64,192,13970,1,0,0:0:0:0:
320,192,14074,1,2,0:2:0:0:
448,192,14074,1,0,0:0:0:0:
64,192,14178,1,0,0:0:0:70:hat.wav
192,192,14282,1,0,0:0:0:70:hat.wav
320,192,14386,1,0,0:0:0:0:
64,192,14491,1,8,0:2:0:0:
192,192,14491,1,0,0:0:0:0:
448,192,14491,1,0,0:0:0:0:
320,192,14699,1,0,0:0:0:70:hat.wav
192,192,14803,1,0,0:0:0:0:
320,192,14907,128,2,15116:0:2:0:0:
448,192,14907,1,0,0:0:0:0:
192,192,15116,1,0,0:0:0:70:hat.wav
64,192,15324,128,8,15532:0:2:0:0:
192,192,15324,1,0,0:0:0:0:
448,192,15324,128,0,15532:0:0:0:0:
320,192,15532,1,0,0:0:0:70:hat.wav
192,192,15636,1,0,0:0:0:70:hat.wav
64,192,15741,1,2,0:2:0:0:
448,192,15741,1,0,0:0:0:0:
320,192,15845,1,0,0:0:0:70:hat.wav
192,192,15949,1,0,0:0:0:70:hat.wav
64,192,16053,1,0,0:0:0:0:
192,192,16157,1,8,0:2:0:0:
320,192,16157,1,0,0:0:0:0:
448,192,16157,1,0,0:0:0:0:
320,192,16366,1,0,0:0:0:70:hat.wav
64,192,16574,128,2,17199:0:2:0:0:
448,192,16574,1,0,0:0:0:70:SVF_D#5s.ogg
320,192,16782,1,0,0:0:0:70:hat.wav
192,192,16991,1,8,0:2:0:0:
448,192,16991,1,0,0:0:0:0:
320,192,17199,1,0,0:0:0:70:hat.wav
192,192,17303,1,0,0:0:0:70:hat.wav
64,192,17407,1,2,0:2:0:0:
448,192,17407,128,0,17824:0:0:0:70:SVF_F5ss.ogg
192,192,17616,1,0,0:0:0:70:hat.wav
64,192,17824,1,8,0:2:0:0:
192,192,17824,128,0,18241:0:0:0:70:SVF_G#5ss.ogg
320,192,17824,1,0,0:0:0:0:
448,192,18032,1,0,0:0:0:70:hat.wav
320,192,18241,128,2,18449:0:2:0:0:
448,192,18241,128,0,18449:0:0:0:70:SVF_G5s.ogg
64,192,18449,1,0,0:0:0:70:hat.wav
64,192,18657,1,8,0:2:0:0:
192,192,18657,128,0,18866:0:0:0:0:
320,192,18657,128,0,18866:0:0:0:0:
448,192,18866,1,0,0:0:0:70:hat.wav
320,192,18970,1,8,0:2:0:0:
64,192,19074,128,2,19282:0:2:0:0:
192,192,19074,128,0,19282:0:0:0:0:
320,192,19178,1,8,0:2:0:0:
448,192,19282,1,0,0:0:0:70:hat.wav
64,192,19491,128,2,19699:0:2:0:0:
320,192,19491,1,8,0:2:0:0:
448,192,19491,128,0,19699:0:0:0:0:
192,192,19699,1,8,0:2:0:0:
320,192,19803,1,8,0:2:0:0:
64,192,19907,1,2,0:2:0:0:
192,192,19907,1,4,0:2:0:0:
448,192,19907,1,0,0:0:0:0:
320,192,20116,1,0,0:0:0:70:hat.wav
64,192,20324,1,8,0:2:0:0:
320,192,20324,1,0,0:0:0:0:
448,192,20324,1,0,0:0:0:0:
192,192,20428,1,0,0:0:0:0:
320,192,20532,1,0,0:0:0:70:hat.wav
448,192,20636,1,0,0:0:0:70:hat.wav
64,192,20741,1,2,0:2:0:0:
192,192,20741,1,0,0:0:0:0:
448,192,20845,1,0,0:0:0:70:hat.wav
320,192,20949,1,0,0:0:0:70:hat.wav
192,192,21053,1,0,0:0:0:0:
64,192,21157,1,8,0:2:0:0:
320,192,21157,1,0,0:0:0:0:
448,192,21157,1,0,0:0:0:0:
192,192,21366,1,0,0:0:0:70:hat.wav
320,192,21470,1,0,0:0:0:0:
64,192,21574,1,2,0:2:0:0:
192,192,21574,128,0,21782:0:0:0:0:
320,192,21782,1,0,0:0:0:70:hat.wav
64,192,21991,128,8,22199:0:2:0:0:
320,192,21991,1,0,0:0:0:0:
448,192,21991,128,0,22199:0:0:0:0:
192,192,22199,1,0,0:0:0:70:hat.wav
320,192,22303,1,0,0:0:0:70:hat.wav
64,192,22407,1,2,0:2:0:0:
448,192,22407,1,0,0:0:0:0:
192,192,22511,1,0,0:0:0:70:hat.wav
320,192,22616,1,0,0:0:0:70:hat.wav
448,192,22720,1,0,0:0:0:0:
64,192,22824,1,8,0:2:0:0:
192,192,22824,1,0,0:0:0:0:
320,192,22824,1,0,0:0:0:0:
192,192,23032,1,0,0:0:0:70:hat.wav
64,192,23241,1,2,0:2:0:0:
448,192,23241,128,0,24907:0:0:0:70:SVF_D#5s.ogg
192,192,23449,1,0,0:0:0:70:hat.wav
64,192,23657,1,8,0:2:0:0:
320,192,23657,1,0,0:0:0:0:
192,192,23866,1,0,0:0:0:70:hat.wav
64,192,23970,1,0,0:0:0:70:hat.wav
320,192,24074,1,2,0:2:0:0:
192,192,24178,1,0,0:0:0:70:hat.wav
64,192,24282,1,0,0:0:0:70:hat.wav
192,192,24491,1,8,0:2:0:0:
320,192,24491,1,0,0:0:0:0:
192,192,24699,1,0,0:0:0:70:hat.wav
64,192,24907,1,2,0:2:0:0:
320,192,24907,1,0,0:0:0:0:
192,192,25116,1,8,0:2:0:0:
320,192,25116,1,0,0:0:0:70:SVF_A#5ss.ogg
448,192,25116,1,0,0:0:0:70:hat.wav
64,192,25428,1,8,0:2:0:0:
192,192,25428,1,0,0:0:0:70:SVF_A#5ss.ogg
448,192,25428,1,0,0:0:0:70:hat.wav
64,192,25741,1,2,0:2:0:0:
320,192,25741,1,0,0:0:0:70:SVF_A#5ss.ogg
448,192,25741,1,0,0:0:0:70:hat.wav
192,192,25949,1,8,0:2:0:0:
320,192,26053,1,8,0:2:0:0:
64,192,26157,1,2,0:2:0:0:
448,192,26157,1,8,0:2:0:0:
192,192,26261,1,8,0:2:0:0:
320,192,26261,1,0,0:0:0:0:
64,192,26366,1,0,0:0:0:70:tom4.wav
448,192,26366,1,0,0:0:0:0:
64,192,26574,128,4,28032:0:2:0:0:
320,192,26574,1,0,0:0:0:0:
320,192,26991,128,0,27407:0:0:0:0:
448,192,27407,128,0,27824:0:0:0:0:
192,192,28032,128,0,28449:0:0:0:0:
320,192,28032,128,0,29699:0:0:0:0:
64,192,28449,128,0,28866:0:0:0:0:
448,192,29282,128,0,29491:0:0:0:0:
64,192,29491,128,0,29699:0:0:0:0:
192,192,29699,128,0,30949:0:0:0:0:
448,192,29699,128,0,29907:0:0:0:0:
320,192,30116,128,0,30324:0:0:0:0:
64,192,30324,128,0,30532:0:0:0:0:
448,192,30532,128,0,30741:0:0:0:0:
320,192,30949,128,0,31157:0:0:0:0:
448,192,30949,1,0,0:0:0:0:
64,192,31157,1,0,0:0:0:0:
192,192,31157,128,0,31366:0:0:0:0:
64,192,31366,128,0,32199:0:0:0:0:
448,192,31366,128,0,31782:0:0:0:0:
320,192,31782,128,0,32199:0:0:0:0:
192,192,32199,128,0,32824:0:0:0:0:
448,192,32199,128,0,32407:0:0:0:0:
320,192,32407,128,0,32616:0:0:0:0:
64,192,32616,128,0,32824:0:0:0:0:
320,192,32824,128,0,33241:0:0:0:0:
448,192,32824,128,0,33241:0:0:0:0:
64,192,33241,128,0,34699:0:0:0:0:
192,192,33241,1,0,0:0:0:0:
448,192,33657,128,0,33866:0:0:0:0:
192,192,33866,1,0,0:0:0:0:
320,192,33970,1,0,0:0:0:0:
448,192,34074,1,0,0:0:0:0:
192,192,34491,1,0,0:0:0:70:ride.wav
320,192,34699,128,0,35116:0:0:0:70:ride.wav
448,192,34699,128,0,36366:0:0:0:0:
64,192,35116,128,0,35324:0:0:0:70:ride.wav
192,192,35324,128,0,35532:0:0:0:70:ride.wav
64,192,35532,1,0,0:0:0:70:ride.wav
320,192,35532,128,0,35741:0:0:0:0:
320,192,35949,128,0,36157:0:0:0:70:ride.wav
192,192,36157,128,0,36366:0:0:0:70:ride.wav
64,192,36366,128,2,36574:0:2:0:0:
320,192,36366,1,0,0:0:0:0:
448,192,36678,1,0,0:0:0:0:
64,192,36782,1,0,0:0:0:0:
64,192,37199,1,2,0:2:0:0:
448,192,37199,128,0,37407:0:0:0:70:hat.wav
64,192,37616,1,8,0:2:0:0:
320,192,37616,1,0,0:0:0:0:
192,192,37824,1,8,0:2:0:0:
448,192,37824,1,0,0:0:0:0:
64,192,38032,1,2,0:2:0:0:
320,192,38032,1,4,0:2:0:0:
448,192,38032,1,0,0:0:0:0:
64,192,38449,1,0,0:0:0:70:tom5.wav
192,192,38449,1,0,0:0:0:0:
192,192,38657,1,8,0:2:0:0:
320,192,38657,1,0,0:0:0:70:tom5.wav
320,192,38866,1,8,0:2:0:0:
448,192,38866,1,0,0:0:0:70:tom5.wav
192,192,39074,1,8,0:2:0:0:
448,192,39074,128,0,39178:0:0:0:0:
320,192,39178,128,0,39282:0:0:0:0:
192,192,39282,128,0,39386:0:0:0:0:
64,192,39386,128,8,39491:0:2:0:0:
320,192,39491,1,8,0:2:0:0:
448,192,39491,1,2,0:2:0:0:
64,192,39699,1,0,0:0:0:70:tom4.wav
192,192,39699,1,0,0:0:0:0:
64,192,39907,1,2,0:2:0:0:
320,192,39907,1,4,0:2:0:0:
448,192,39907,128,0,40116:0:0:0:0:
64,192,40220,1,0,0:0:0:0:
192,192,40324,128,8,40532:0:2:0:0:
320,192,40324,128,0,40532:0:0:0:0:
448,192,40324,1,0,0:0:0:0:
448,192,40532,1,0,0:0:0:70:hat.wav
64,192,40636,1,0,0:0:0:0:
320,192,40741,1,2,0:2:0:0:
448,192,40741,128,0,40949:0:0:0:0:
192,192,40949,1,0,0:0:0:70:hat.wav
320,192,41053,128,0,41261:0:0:0:0:
64,192,41157,1,8,0:2:0:0:
192,192,41157,1,0,0:0:0:0:
448,192,41157,1,0,0:0:0:0:
64,192,41366,128,0,41782:0:0:0:70:hat.wav
192,192,41574,1,2,0:2:0:0:
320,192,41574,1,0,0:0:0:0:
448,192,41782,128,0,41991:0:0:0:70:hat.wav
64,192,41991,128,8,42199:0:2:0:0:
192,192,41991,1,0,0:0:0:0:
320,192,41991,1,0,0:0:0:0:
448,192,42199,128,0,42407:0:0:0:70:hat.wav
192,192,42407,128,2,42616:0:2:0:0:
320,192,42407,128,0,42616:0:0:0:0:
64,192,42616,1,0,0:0:0:70:hat.wav
192,192,42824,1,8,0:2:0:0:
320,192,42824,1,0,0:0:0:0:
448,192,42824,1,0,0:0:0:0:
448,192,43032,1,0,0:0:0:70:hat.wav
64,192,43241,128,2,43449:0:2:0:0:
192,192,43241,1,0,0:0:0:0:
320,192,43449,1,0,0:0:0:70:hat.wav
448,192,43553,128,0,43761:0:0:0:0:
64,192,43657,1,8,0:2:0:0:
192,192,43657,1,0,0:0:0:0:
320,192,43657,1,0,0:0:0:0:
64,192,43866,128,0,44074:0:0:0:70:hat.wav
320,192,44074,128,2,44282:0:2:0:0:
448,192,44074,1,0,0:0:0:0:
64,192,44282,1,0,0:0:0:70:hat.wav
192,192,44386,128,0,44595:0:0:0:0:
64,192,44491,1,8,0:2:0:0:
320,192,44491,1,0,0:0:0:0:
448,192,44491,1,0,0:0:0:0:
448,192,44699,128,0,44907:0:0:0:70:hat.wav
64,192,44907,1,2,0:2:0:0:
192,192,44907,1,0,0:0:0:0:
64,192,45116,128,0,45324:0:0:0:70:hat.wav
192,192,45324,128,8,45532:0:2:0:0:
320,192,45324,1,0,0:0:0:0:
448,192,45324,1,0,0:0:0:0:
320,192,45532,128,0,45741:0:0:0:70:hat.wav
64,192,45741,1,2,0:2:0:0:
448,192,45741,128,0,45949:0:0:0:0:
64,192,45949,1,8,0:2:0:0:
192,192,45949,1,0,0:0:0:0:
320,192,46053,1,8,0:2:0:0:
448,192,46053,1,0,0:0:0:0:
192,192,46157,1,2,0:2:0:0:
64,192,46261,128,8,46470:0:2:0:0:
448,192,46261,128,0,46470:0:0:0:70:hat.wav
64,192,46574,128,2,46782:0:2:0:0:
192,192,46574,1,4,0:2:0:0:
448,192,46574,1,0,0:0:0:0:
448,192,46886,1,0,0:0:0:0:
64,192,46991,1,8,0:2:0:0:
192,192,46991,128,0,47199:0:0:0:0:
320,192,46991,128,0,47199:0:0:0:0:
64,192,47199,1,0,0:0:0:70:hat.wav
448,192,47303,1,0,0:0:0:0:
64,192,47407,128,2,47616:0:2:0:0:
192,192,47407,1,0,0:0:0:0:
320,192,47616,1,0,0:0:0:70:hat.wav
192,192,47720,128,0,47928:0:0:0:0:
64,192,47824,1,8,0:2:0:0:
320,192,47824,1,0,0:0:0:0:
448,192,47824,1,0,0:0:0:0:
448,192,48032,128,0,48449:0:0:0:70:hat.wav
192,192,48241,1,2,0:2:0:0:
320,192,48241,1,0,0:0:0:0:
64,192,48449,128,0,48657:0:0:0:70:hat.wav
192,192,48657,1,8,0:2:0:0:
320,192,48657,1,0,0:0:0:0:
448,192,48657,128,0,48866:0:0:0:0:
64,192,48866,128,0,49074:0:0:0:70:hat.wav
192,192,49074,128,2,49282:0:2:0:0:
320,192,49074,128,0,49282:0:0:0:0:
448,192,49282,1,0,0:0:0:70:hat.wav
64,192,49491,1,8,0:2:0:0:
192,192,49491,1,0,0:0:0:0:
320,192,49491,1,0,0:0:0:0:
64,192,49699,1,0,0:0:0:70:hat.wav
320,192,49907,1,2,0:2:0:0:
448,192,49907,128,0,50116:0:0:0:0:
192,192,50116,1,0,0:0:0:70:hat.wav
64,192,50220,128,0,50428:0:0:0:0:
192,192,50324,1,8,0:2:0:0:
320,192,50324,1,0,0:0:0:0:
448,192,50324,1,0,0:0:0:0:
448,192,50532,128,0,50741:0:0:0:70:hat.wav
64,192,50741,1,2,0:2:0:0:
192,192,50741,1,0,0:0:0:0:
320,192,50949,128,0,51157:0:0:0:70:hat.wav
64,192,51157,1,8,0:2:0:0:
192,192,51157,1,0,0:0:0:0:
64,192,51366,1,2,0:2:0:0:
320,192,51366,1,4,0:2:0:0:
448,192,51366,1,0,0:0:0:0:
64,192,51782,1,2,0:2:0:0:
192,192,51782,1,0,0:0:0:0:
64,192,51991,1,8,0:2:0:0:
192,192,51991,1,0,0:0:0:0:
320,192,51991,1,0,0:0:0:0:
320,192,52199,1,0,0:0:0:70:hat.wav
448,192,52199,1,0,0:0:0:70:tom4.wav
192,192,52407,1,2,0:2:0:0:
448,192,52407,1,0,0:0:0:70:tom1.wav
64,192,52616,1,8,0:2:0:0:
320,192,52720,1,8,0:2:0:0:
448,192,52720,1,0,0:0:0:0:
64,192,52824,1,8,0:2:0:0:
192,192,52824,1,0,0:0:0:0:
192,192,53032,1,0,0:0:0:70:tom4.wav
320,192,53032,1,0,0:0:0:0:
64,192,53241,1,2,0:2:0:0:
320,192,53241,1,4,0:2:0:0:
448,192,53241,128,0,53866:0:0:0:0:
192,192,53553,1,0,0:0:0:0:
64,192,53866,1,2,0:2:0:0:
192,192,53866,1,0,0:0:0:0:
64,192,54074,1,8,0:2:0:0:
320,192,54074,1,0,0:0:0:70:hat.wav
448,192,54074,1,0,0:0:0:0:
320,192,54491,1,2,0:2:0:0:
448,192,54491,1,0,0:0:0:0:
320,192,54803,1,2,0:2:0:0:
448,192,54803,1,0,0:0:0:0:
64,192,54907,128,2,55116:0:2:0:0:
192,192,54907,1,0,0:0:0:0:
192,192,55220,128,2,55428:0:2:0:0:
320,192,55220,1,0,0:0:0:0:
320,192,55532,128,2,55741:0:2:0:0:
448,192,55532,1,0,0:0:0:0:
64,192,55741,1,8,0:2:0:0:
192,192,55741,1,0,0:0:0:70:hat.wav
448,192,55741,1,0,0:0:0:0:
448,192,55949,128,0,56574:0:0:0:0:
320,192,56157,128,0,56366:0:0:0:0:
192,192,56366,128,0,56574:0:0:0:0:
64,192,56574,128,2,57199:0:2:0:0:
320,192,56574,1,0,0:0:0:0:
320,192,56886,1,0,0:0:0:0:
320,192,57199,1,2,0:2:0:0:
448,192,57199,1,0,0:0:0:0:
192,192,57303,1,2,0:2:0:0:
64,192,57407,1,8,0:2:0:0:
320,192,57407,1,0,0:0:0:70:hat.wav
448,192,57407,128,0,57616:0:0:0:0:
192,192,57720,1,2,0:2:0:0:
320,192,57720,128,0,57928:0:0:0:0:
64,192,58032,1,2,0:2:0:0:
192,192,58032,128,0,58241:0:0:0:0:
320,192,58241,1,2,0:2:0:0:
448,192,58241,128,0,58866:0:0:0:70:ride.wav
64,192,58449,1,0,0:0:0:70:ride.wav
64,192,58657,1,0,0:0:0:70:ride.wav
64,192,58866,1,2,0:2:0:0:
192,192,58866,1,0,0:0:0:0:
320,192,58970,1,0,0:0:0:0:
64,192,59074,1,8,0:2:0:0:
448,192,59074,1,0,0:0:0:70:hat.wav
192,192,59178,1,0,0:0:0:0:
320,192,59282,1,2,0:2:0:0:
448,192,59282,1,0,0:0:0:0:
192,192,59386,1,0,0:0:0:0:
64,192,59491,1,2,0:2:0:0:
448,192,59491,1,4,0:2:0:0:
320,192,59595,1,0,0:0:0:0:
64,192,59699,1,8,0:2:0:0:
192,192,59699,1,0,0:0:0:0:
320,192,59803,1,8,0:2:0:0:
64,192,59907,1,2,0:2:0:0:
192,192,59907,1,4,0:2:0:0:
448,192,59907,1,0,0:0:0:0:
320,192,60011,1,0,0:0:0:0:
192,192,60116,1,0,0:0:0:70:hat.wav
64,192,60220,1,0,0:0:0:0:
320,192,60324,1,8,0:2:0:0:
448,192,60324,1,0,0:0:0:0:
64,192,60428,1,0,0:0:0:0:
192,192,60532,1,0,0:0:0:70:hat.wav
320,192,60636,1,0,0:0:0:0:
64,192,60741,1,2,0:2:0:0:
448,192,60741,1,0,0:0:0:0:
192,192,60845,1,0,0:0:0:0:
320,192,60949,1,0,0:0:0:70:hat.wav
448,192,61053,1,0,0:0:0:0:
64,192,61157,1,8,0:2:0:0:
192,192,61157,1,0,0:0:0:0:
448,192,61261,1,0,0:0:0:0:
320,192,61366,1,0,0:0:0:70:hat.wav
192,192,61470,1,0,0:0:0:0:
64,192,61574,1,2,0:2:0:0:
448,192,61574,1,0,0:0:0:0:
320,192,61678,1,0,0:0:0:0:
64,192,61782,1,0,0:0:0:70:hat.wav
448,192,61886,1,0,0:0:0:0:
64,192,61991,1,8,0:2:0:0:
192,192,61991,1,0,0:0:0:0:
448,192,62095,1,0,0:0:0:0:
320,192,62199,1,0,0:0:0:70:hat.wav
192,192,62303,1,0,0:0:0:0:
64,192,62407,1,2,0:2:0:0:
448,192,62407,1,0,0:0:0:0:
192,192,62511,1,0,0:0:0:0:
448,192,62616,1,0,0:0:0:70:hat.wav
64,192,62720,1,0,0:0:0:0:
320,192,62824,1,8,0:2:0:0:
448,192,62824,1,0,0:0:0:0:
64,192,62928,1,0,0:0:0:0:
192,192,63032,1,0,0:0:0:70:hat.wav
320,192,63136,1,0,0:0:0:0:
64,192,63241,1,2,0:2:0:0:
192,192,63241,1,4,0:2:0:0:
448,192,63241,1,0,0:0:0:0:
320,192,63449,1,0,0:0:0:70:hat.wav
64,192,63657,1,8,0:2:0:0:
448,192,63657,1,0,0:0:0:0:
64,192,63866,1,0,0:0:0:70:tom1.wav
192,192,63866,1,0,0:0:0:0:
320,192,63970,1,0,0:0:0:70:tom4.wav
64,192,64074,1,2,0:2:0:0:
192,192,64074,1,0,0:0:0:70:tom5.wav
320,192,64282,1,0,0:0:0:70:hat.wav
448,192,64282,1,0,0:0:0:70:tom1.wav
192,192,64386,1,0,0:0:0:70:tom4.wav
320,192,64491,1,8,0:2:0:0:
448,192,64491,1,2,0:2:0:0:
64,192,64699,1,8,0:2:0:0:
448,192,64699,1,0,0:0:0:0:
192,192,64803,1,8,0:2:0:0:
320,192,64803,1,0,0:0:0:0:
64,192,65116,1,2,0:2:0:0:
192,192,65116,1,0,0:0:0:70:hat.wav
448,192,65116,1,0,0:0:0:0:
64,192,65428,1,2,0:2:0:0:
320,192,65428,1,0,0:0:0:70:hat.wav
448,192,65428,1,0,0:0:0:0:
64,192,65741,1,2,0:2:0:0:
192,192,65741,1,0,0:0:0:70:hat.wav
448,192,65741,1,0,0:0:0:0:
64,192,65949,128,0,66053:0:0:0:0:
192,192,66053,128,0,66157:0:0:0:0:
320,192,66157,128,0,66261:0:0:0:0:
448,192,66261,128,0,66366:0:0:0:0:
64,192,66366,128,0,66470:0:0:0:0:
192,192,66470,128,0,66574:0:0:0:0:
64,192,66574,1,2,0:2:0:0:
320,192,66574,1,4,0:2:0:0:
448,192,66574,128,0,66782:0:0:0:70:SVF_A#5.ogg
192,192,66782,1,0,0:0:0:70:hat.wav
320,192,66886,128,0,67095:0:0:0:0:
64,192,66991,1,8,0:2:0:0:
448,192,66991,1,2,0:2:0:0:
192,192,67095,1,0,0:0:0:0:
320,192,67199,1,0,0:0:0:70:hat.wav
64,192,67407,128,2,67616:0:2:0:0:
192,192,67407,1,0,0:0:0:0:
320,192,67616,128,0,67824:0:0:0:70:hat.wav
64,192,67824,1,8,0:2:0:0:
192,192,67824,128,2,68032:0:2:0:0:
448,192,67824,1,0,0:0:0:0:
448,192,68032,128,0,68241:0:0:0:70:hat.wav
64,192,68241,128,2,68449:0:2:0:0:
192,192,68241,1,0,0:0:0:0:
320,192,68449,1,0,0:0:0:70:hat.wav
192,192,68553,1,0,0:0:0:0:
64,192,68657,1,8,0:2:0:0:
320,192,68657,128,2,68866:0:2:0:0:
448,192,68657,128,0,68866:0:0:0:70:SVF_D#6ss.ogg
192,192,68866,1,0,0:0:0:70:hat.wav
192,192,69074,128,2,69282:0:2:0:0:
320,192,69074,128,0,69282:0:0:0:70:SVF_D6ss.ogg
448,192,69282,1,0,0:0:0:70:hat.wav
64,192,69491,128,8,69699:0:2:0:0:
192,192,69491,128,2,69699:0:2:0:0:
320,192,69491,1,0,0:0:0:70:SVF_C6ss.ogg
448,192,69699,1,0,0:0:0:70:hat.wav
64,192,69907,128,2,70116:0:2:0:0:
192,192,69907,1,0,0:0:0:70:SVF_A#5s.ogg
448,192,69907,128,0,70116:0:0:0:0:
320,192,70116,1,0,0:0:0:70:hat.wav
192,192,70220,128,0,70428:0:0:0:0:
64,192,70324,1,8,0:2:0:0:
448,192,70324,1,2,0:2:0:0:
320,192,70428,1,0,0:0:0:0:
192,192,70532,1,0,0:0:0:70:hat.wav
320,192,70741,1,2,0:2:0:0:
448,192,70741,128,0,70949:0:0:0:70:SVF_G#5s.ogg
192,192,70949,128,0,71157:0:0:0:70:hat.wav
64,192,71157,1,8,0:2:0:0:
320,192,71157,128,2,71366:0:2:0:0:
448,192,71157,1,0,0:0:0:0:
64,192,71366,128,0,71574:0:0:0:70:hat.wav
320,192,71574,1,2,0:2:0:0:
448,192,71574,128,0,71782:0:0:0:70:SVF_G5s.ogg
192,192,71782,1,0,0:0:0:70:hat.wav
64,192,71991,1,8,0:2:0:0:
192,192,71991,1,2,0:2:0:0:
320,192,71991,128,0,72199:0:0:0:0:
448,192,72199,1,0,0:0:0:70:hat.wav
64,192,72407,1,2,0:2:0:0:
192,192,72407,128,0,72616:0:0:0:0:
320,192,72616,1,0,0:0:0:70:hat.wav
64,192,72824,1,0,0:0:0:70:SVF_D#5ss.ogg
448,192,72824,1,8,0:2:0:0:
320,192,72928,1,0,0:0:0:0:
64,192,73032,1,8,0:2:0:0:
192,192,73032,1,0,0:0:0:0:
320,192,73136,1,8,0:2:0:0:
64,192,73241,128,2,73449:0:2:0:0:
192,192,73241,1,4,0:2:0:0:
448,192,73241,1,0,0:0:0:70:SVF_A#5.ogg
320,192,73449,1,0,0:0:0:70:hat.wav
192,192,73553,128,0,73761:0:0:0:0:
64,192,73657,1,2,0:2:0:0:
448,192,73657,1,8,0:2:0:0:
320,192,73761,1,0,0:0:0:0:
192,192,73866,1,0,0:0:0:70:hat.wav
320,192,74074,1,2,0:2:0:0:
448,192,74074,128,0,74282:0:0:0:0:
192,192,74282,128,0,74491:0:0:0:70:hat.wav
64,192,74491,1,8,0:2:0:0:
320,192,74491,128,2,74699:0:2:0:0:
448,192,74491,1,0,0:0:0:0:
64,192,74699,128,0,74907:0:0:0:70:hat.wav
320,192,74907,1,2,0:2:0:0:
448,192,74907,128,0,75116:0:0:0:0:
192,192,75116,1,0,0:0:0:70:hat.wav
320,192,75220,1,0,0:0:0:0:
64,192,75324,128,8,75532:0:2:0:0:
192,192,75324,128,2,75532:0:2:0:0:
448,192,75324,1,0,0:0:0:70:SVF_D#6ss.ogg
320,192,75532,1,0,0:0:0:70:hat.wav
192,192,75741,128,2,75949:0:2:0:0:
320,192,75741,128,0,75949:0:0:0:70:SVF_D6ss.ogg
64,192,75949,1,0,0:0:0:70:hat.wav
192,192,76157,1,8,0:2:0:0:
320,192,76157,128,2,76366:0:2:0:0:
448,192,76157,128,0,76366:0:0:0:70:SVF_C6ss.ogg
64,192,76366,1,0,0:0:0:70:hat.wav
64,192,76574,128,2,76782:0:2:0:0:
448,192,76574,128,0,76782:0:0:0:70:SVF_A#5s.ogg
192,192,76782,1,0,0:0:0:70:hat.wav
64,192,76991,1,2,0:2:0:0:
320,192,76991,1,4,0:2:0:0:
448,192,76991,1,8,0:2:0:0:
192,192,77199,1,0,0:0:0:70:hat.wav
64,192,77407,128,2,77616:0:2:0:0:
448,192,77407,128,0,77616:0:0:0:70:SVF_D5s.ogg
320,192,77616,1,0,0:0:0:70:hat.wav
64,192,77824,1,0,0:0:0:70:hat.wav
448,192,77824,1,2,0:2:0:0:
192,192,78032,1,0,0:0:0:70:hat.wav
64,192,78241,1,2,0:2:0:0:
320,192,78241,1,4,0:2:0:0:
448,192,78241,1,0,0:0:0:0:
192,192,78449,1,2,0:2:0:0:
448,192,78449,1,0,0:0:0:70:tom5.wav
320,192,78657,1,2,0:2:0:0:
448,192,78657,1,0,0:0:0:70:tom5.wav
64,192,78866,1,8,0:2:0:0:
192,192,78866,1,0,0:0:0:70:tom4.wav
320,192,78866,1,0,0:0:0:0:
64,192,79074,1,8,0:2:0:0:
192,192,79074,1,0,0:0:0:70:tom4.wav
320,192,79282,1,8,0:2:0:0:
448,192,79282,1,0,0:0:0:0:
192,192,79386,1,8,0:2:0:0:
64,192,79491,1,2,0:2:0:0:
448,192,79491,1,0,0:0:0:0:
320,192,79595,1,8,0:2:0:0:
64,192,79699,1,8,0:2:0:0:
192,192,79699,1,0,0:0:0:0:
448,192,79803,1,0,0:0:0:70:tom4.wav
64,192,79907,128,2,80116:0:2:0:0:
192,192,79907,1,4,0:2:0:0:
320,192,79907,1,0,0:0:0:0:
448,192,80116,1,0,0:0:0:70:hat.wav
64,192,80324,1,8,0:2:0:0:
192,192,80324,1,2,0:2:0:0:
320,192,80324,128,0,80532:0:0:0:70:ride.wav
448,192,80532,1,0,0:0:0:70:hat.wav
64,192,80741,1,2,0:2:0:0:
192,192,80741,128,0,80949:0:0:0:70:ride.wav
320,192,80949,1,0,0:0:0:70:hat.wav
448,192,81053,128,0,81261:0:0:0:0:
64,192,81157,1,2,0:2:0:0:
192,192,81157,1,8,0:2:0:0:
320,192,81157,1,0,0:0:0:70:ride.wav
64,192,81366,128,0,81574:0:0:0:70:hat.wav
320,192,81574,128,2,81782:0:2:0:0:
448,192,81574,1,0,0:0:0:70:ride.wav
64,192,81782,1,0,0:0:0:70:hat.wav
192,192,81886,128,0,82095:0:0:0:0:
64,192,81991,1,8,0:2:0:0:
320,192,81991,1,2,0:2:0:0:
448,192,81991,1,0,0:0:0:70:ride.wav
448,192,82199,128,0,82407:0:0:0:70:hat.wav
64,192,82407,128,2,82616:0:2:0:0:
320,192,82407,1,0,0:0:0:70:ride.wav
192,192,82616,128,0,82824:0:0:0:70:hat.wav
64,192,82824,1,8,0:2:0:0:
320,192,82824,128,2,83032:0:2:0:0:
448,192,82824,128,0,83032:0:0:0:70:ride.wav
192,192,83032,1,0,0:0:0:70:hat.wav
64,192,83241,1,2,0:2:0:0:
448,192,83241,1,0,0:0:0:70:ride.wav
320,192,83449,1,0,0:0:0:70:hat.wav
192,192,83553,1,0,0:0:0:0:
64,192,83657,1,8,0:2:0:0:
320,192,83657,1,2,0:2:0:0:
448,192,83657,1,0,0:0:0:70:ride.wav
192,192,83761,1,0,0:0:0:0:
192,192,83970,128,0,84178:0:0:0:0:
64,192,84074,1,2,0:2:0:0:
448,192,84074,1,0,0:0:0:70:ride.wav
320,192,84282,128,0,84491:0:0:0:70:hat.wav
64,192,84491,128,8,84699:0:2:0:0:
192,192,84491,1,2,0:2:0:0:
448,192,84491,1,0,0:0:0:70:ride.wav
320,192,84699,128,0,84907:0:0:0:70:hat.wav
64,192,84907,1,2,0:2:0:0:
448,192,84907,128,0,85116:0:0:0:70:ride.wav
192,192,85116,1,0,0:0:0:70:hat.wav
64,192,85324,1,8,0:2:0:0:
320,192,85324,128,2,85532:0:2:0:0:
448,192,85324,1,0,0:0:0:70:ride.wav
192,192,85532,1,0,0:0:0:70:hat.wav
64,192,85741,128,2,85949:0:2:0:0:
192,192,85741,128,0,85949:0:0:0:70:hat.wav
448,192,85949,1,0,0:0:0:70:hat.wav
64,192,86157,1,8,0:2:0:0:
320,192,86157,128,4,86366:0:2:0:0:
448,192,86157,128,2,86366:0:2:0:0:
64,192,86366,1,8,0:2:0:0:
192,192,86366,1,0,0:0:0:0:
320,192,86470,1,8,0:2:0:0:
64,192,86574,1,2,0:2:0:0:
192,192,86574,1,4,0:2:0:0:
448,192,86574,128,0,86782:0:0:0:0:
320,192,86782,1,0,0:0:0:70:hat.wav
192,192,86991,128,2,87199:0:2:0:0:
320,192,86991,1,8,0:2:0:0:
448,192,86991,1,0,0:0:0:70:ride.wav
64,192,87199,1,0,0:0:0:70:hat.wav
320,192,87407,128,2,87616:0:2:0:0:
448,192,87407,1,0,0:0:0:70:ride.wav
192,192,87616,1,0,0:0:0:70:hat.wav
64,192,87720,128,0,87928:0:0:0:0:
192,192,87824,1,8,0:2:0:0:
320,192,87824,1,2,0:2:0:0:
448,192,87824,1,0,0:0:0:70:ride.wav
448,192,88032,128,0,88241:0:0:0:70:hat.wav
64,192,88241,1,2,0:2:0:0:
192,192,88241,128,0,88449:0:0:0:70:ride.wav
448,192,88449,1,0,0:0:0:70:hat.wav
320,192,88553,128,0,88761:0:0:0:0:
64,192,88657,1,2,0:2:0:0:
192,192,88657,1,8,0:2:0:0:
448,192,88657,1,0,0:0:0:70:ride.wav
64,192,88866,128,0,89074:0:0:0:70:hat.wav
192,192,89074,1,2,0:2:0:0:
448,192,89074,128,0,89282:0:0:0:70:ride.wav
320,192,89282,128,0,89491:0:0:0:70:hat.wav
64,192,89491,128,2,89699:0:2:0:0:
192,192,89491,128,8,89699:0:2:0:0:
448,192,89491,1,0,0:0:0:70:ride.wav
320,192,89699,1,0,0:0:0:70:hat.wav
64,192,89907,1,2,0:2:0:0:
448,192,89907,128,0,90741:0:0:0:70:SVF_D#6s.ogg
192,192,90116,1,0,0:0:0:70:hat.wav
64,192,90324,1,0,0:0:0:70:ride.wav
320,192,90324,1,2,0:2:0:0:
320,192,90532,1,0,0:0:0:70:hat.wav
64,192,90741,128,2,91366:0:2:0:0:
192,192,90741,1,0,0:0:0:70:SVF_F6s.ogg
448,192,90949,1,0,0:0:0:70:hat.wav
192,192,91157,1,0,0:0:0:70:ride.wav
320,192,91157,1,2,0:2:0:0:
320,192,91366,1,8,0:2:0:0:
448,192,91366,1,0,0:0:0:0:
64,192,91470,1,8,0:2:0:0:
192,192,91470,1,0,0:0:0:0:
64,192,91782,1,2,0:2:0:0:
320,192,91782,1,0,0:0:0:70:tom5.wav
448,192,91782,1,0,0:0:0:0:
320,192,91991,1,2,0:2:0:0:
448,192,91991,1,0,0:0:0:70:tom5.wav
64,192,92199,1,8,0:2:0:0:
192,192,92199,1,0,0:0:0:70:tom4.wav
448,192,92199,1,0,0:0:0:0:
64,192,92407,1,8,0:2:0:0:
192,192,92407,1,0,0:0:0:70:tom4.wav
448,192,92616,1,0,0:0:0:70:hat.wav
320,192,92720,1,8,0:2:0:0:
64,192,92824,1,8,0:2:0:0:
192,192,92824,1,0,0:0:0:0:
320,192,92928,1,0,0:0:0:0:
64,192,93032,1,0,0:0:0:70:tom5.wav
448,192,93032,1,0,0:0:0:0:
64,192,93241,1,2,0:2:0:0:
192,192,93241,1,4,0:2:0:0:
448,192,93241,1,0,0:0:0:0:
320,192,93449,1,0,0:0:0:70:hat.wav
64,192,93657,1,8,0:2:0:0:
320,192,93657,1,0,0:0:0:0:
448,192,93657,1,0,0:0:0:0:
192,192,93761,1,0,0:0:0:0:
320,192,93866,1,0,0:0:0:70:hat.wav
448,192,93970,1,0,0:0:0:0:
64,192,94074,1,2,0:2:0:0:
192,192,94074,1,0,0:0:0:0:
448,192,94178,1,0,0:0:0:70:hat.wav
320,192,94282,1,0,0:0:0:70:hat.wav
192,192,94386,1,0,0:0:0:0:
64,192,94491,1,8,0:2:0:0:
320,192,94491,1,0,0:0:0:0:
448,192,94491,1,0,0:0:0:0:
192,192,94699,1,0,0:0:0:70:hat.wav
320,192,94803,1,0,0:0:0:0:
64,192,94907,1,2,0:2:0:0:
192,192,94907,128,0,95116:0:0:0:0:
320,192,95116,1,0,0:0:0:70:hat.wav
64,192,95324,128,8,95532:0:2:0:0:
320,192,95324,1,0,0:0:0:0:
448,192,95324,128,0,95532:0:0:0:0:
192,192,95532,1,0,0:0:0:70:hat.wav
320,192,95636,1,0,0:0:0:70:hat.wav
64,192,95741,1,2,0:2:0:0:
448,192,95741,1,0,0:0:0:0:
192,192,95845,1,0,0:0:0:70:hat.wav
320,192,95949,1,0,0:0:0:70:hat.wav
448,192,96053,1,0,0:0:0:0:
64,192,96157,1,8,0:2:0:0:
192,192,96157,1,0,0:0:0:0:
320,192,96157,1,0,0:0:0:0:
192,192,96366,1,0,0:0:0:70:hat.wav
64,192,96574,1,2,0:2:0:0:
448,192,96574,128,0,97199:0:0:0:70:SVF_D#5s.ogg
192,192,96782,1,0,0:0:0:70:hat.wav
64,192,96991,1,8,0:2:0:0:
320,192,96991,1,0,0:0:0:0:
192,192,97199,1,0,0:0:0:70:hat.wav
320,192,97303,1,0,0:0:0:70:hat.wav
64,192,97407,128,2,97824:0:2:0:0:
448,192,97407,1,0,0:0:0:70:SVF_F5ss.ogg
320,192,97616,1,0,0:0:0:70:hat.wav
192,192,97824,1,8,0:2:0:0:
320,192,97824,128,0,98241:0:0:0:70:SVF_G#5ss.ogg
448,192,97824,1,0,0:0:0:0:
64,192,98032,1,0,0:0:0:70:hat.wav
64,192,98241,128,2,98449:0:2:0:0:
192,192,98241,128,0,98449:0:0:0:70:SVF_G5s.ogg
448,192,98449,1,0,0:0:0:70:hat.wav
192,192,98657,128,8,98866:0:2:0:0:
320,192,98657,128,0,98866:0:0:0:0:
448,192,98657,1,0,0:0:0:0:
64,192,98866,1,0,0:0:0:70:hat.wav
192,192,98970,1,8,0:2:0:0:
320,192,99074,128,2,99282:0:2:0:0:
448,192,99074,128,0,99282:0:0:0:0:
192,192,99178,1,8,0:2:0:0:
64,192,99282,1,0,0:0:0:70:hat.wav
64,192,99491,128,8,99699:0:2:0:0:
192,192,99491,1,2,0:2:0:0:
448,192,99491,128,0,99699:0:0:0:0:
320,192,99699,1,8,0:2:0:0:
192,192,99803,1,8,0:2:0:0:
64,192,99907,1,4,0:2:0:0:
320,192,99907,1,2,0:2:0:0:
448,192,99907,1,0,0:0:0:0:
192,192,100116,1,0,0:0:0:70:hat.wav
64,192,100324,1,8,0:2:0:0:
192,192,100324,1,0,0:0:0:0:
448,192,100324,1,0,0:0:0:0:
320,192,100428,1,0,0:0:0:0:
192,192,100532,1,0,0:0:0:70:hat.wav
64,192,100636,1,0,0:0:0:70:hat.wav
320,192,100741,1,2,0:2:0:0:
448,192,100741,1,0,0:0:0:0:
64,192,100845,1,0,0:0:0:70:hat.wav
192,192,100949,1,0,0:0:0:70:hat.wav
320,192,101053,1,0,0:0:0:0:
64,192,101157,1,8,0:2:0:0:
192,192,101157,1,0,0:0:0:0:
448,192,101157,1,0,0:0:0:0:
320,192,101366,1,0,0:0:0:70:hat.wav
192,192,101470,1,0,0:0:0:0:
320,192,101574,128,2,101782:0:2:0:0:
448,192,101574,1,0,0:0:0:0:
192,192,101782,1,0,0:0:0:70:hat.wav
64,192,101991,128,8,102199:0:2:0:0:
192,192,101991,1,0,0:0:0:0:
448,192,101991,128,0,102199:0:0:0:0:
320,192,102199,1,0,0:0:0:70:hat.wav
192,192,102303,1,0,0:0:0:70:hat.wav
64,192,102407,1,2,0:2:0:0:
448,192,102407,1,0,0:0:0:0:
320,192,102511,1,0,0:0:0:70:hat.wav
192,192,102616,1,0,0:0:0:70:hat.wav
64,192,102720,1,0,0:0:0:0:
192,192,102824,1,8,0:2:0:0:
320,192,102824,1,0,0:0:0:0:
448,192,102824,1,0,0:0:0:0:
320,192,103032,1,0,0:0:0:70:hat.wav
64,192,103241,128,2,104907:0:2:0:0:
448,192,103241,1,0,0:0:0:70:SVF_D#5s.ogg
320,192,103449,1,0,0:0:0:70:hat.wav
192,192,103657,1,8,0:2:0:0:
448,192,103657,1,0,0:0:0:0:
320,192,103866,1,0,0:0:0:70:hat.wav
448,192,103970,1,0,0:0:0:70:hat.wav
192,192,104074,1,2,0:2:0:0:
320,192,104178,1,0,0:0:0:70:hat.wav
448,192,104282,1,0,0:0:0:70:hat.wav
192,192,104491,1,8,0:2:0:0:
320,192,104491,1,0,0:0:0:0:
320,192,104699,1,0,0:0:0:70:hat.wav
192,192,104907,1,2,0:2:0:0:
448,192,104907,1,0,0:0:0:0:
64,192,105116,1,8,0:2:0:0:
192,192,105116,1,0,0:0:0:70:hat.wav
320,192,105116,1,0,0:0:0:0:
64,192,105428,1,8,0:2:0:0:
320,192,105428,1,0,0:0:0:70:hat.wav
448,192,105428,1,0,0:0:0:0:
64,192,105741,1,8,0:2:0:0:
192,192,105741,1,0,0:0:0:70:hat.wav
448,192,105741,1,0,0:0:0:0:
64,192,106053,1,8,0:2:0:0:
320,192,106053,1,0,0:0:0:70:hat.wav
448,192,106053,1,0,0:0:0:0:
192,192,106366,1,8,0:2:0:0:
320,192,106366,1,0,0:0:0:70:hat.wav
448,192,106366,1,0,0:0:0:0:
64,192,106574,1,0,0:0:0:0:
448,192,106574,1,0,0:0:0:0:
320,192,106782,1,0,0:0:0:70:hat.wav
64,192,106991,128,0,108866:0:0:0:70:ride.wav
448,192,107199,1,0,0:0:0:70:hat.wav
320,192,107407,1,0,0:0:0:70:ride.wav
192,192,107616,1,0,0:0:0:70:hat.wav
320,192,107824,128,0,108032:0:0:0:70:ride.wav
192,192,108032,128,0,108241:0:0:0:70:hat.wav
448,192,108241,1,0,0:0:0:70:ride.wav
320,192,108449,128,0,108657:0:0:0:70:hat.wav
448,192,108449,1,0,0:0:0:70:ride.wav
192,192,108657,1,0,0:0:0:70:ride.wav
320,192,108761,1,0,0:0:0:0:
448,192,108761,1,0,0:0:0:0:
192,192,108866,1,8,0:2:0:0:
64,192,108970,1,0,0:0:0:0:
320,192,109074,1,0,0:0:0:70:ride.wav
448,192,109074,1,0,0:0:0:0:
192,192,109178,1,0,0:0:0:0:
64,192,109282,128,0,109491:0:0:0:70:hat.wav
320,192,109491,128,0,109699:0:0:0:70:ride.wav
192,192,109699,128,0,110116:0:0:0:70:hat.wav
448,192,109699,1,0,0:0:0:70:ride.wav
320,192,109907,1,0,0:0:0:70:ride.wav
64,192,110116,1,0,0:0:0:70:hat.wav
448,192,110116,128,0,110532:0:0:0:70:ride.wav
192,192,110324,1,0,0:0:0:70:ride.wav
64,192,110532,1,0,0:0:0:70:hat.wav
320,192,110532,128,0,110949:0:0:0:70:ride.wav
192,192,110741,1,0,0:0:0:70:ride.wav
64,192,110949,1,0,0:0:0:70:hat.wav
192,192,111053,1,0,0:0:0:0:
320,192,111157,1,0,0:0:0:70:ride.wav
64,192,111366,1,0,0:0:0:70:hat.wav
448,192,111366,128,0,111782:0:0:0:70:ride.wav
192,192,111574,1,0,0:0:0:70:ride.wav
320,192,111782,1,0,0:0:0:70:hat.wav
192,192,111886,1,0,0:0:0:0:
64,192,111991,1,0,0:0:0:70:ride.wav
448,192,111991,1,0,0:0:0:0:
320,192,112095,1,0,0:0:0:0:
64,192,112199,1,8,0:2:0:0:
192,192,112199,1,0,0:0:0:70:hat.wav
320,192,112303,1,0,0:0:0:0:
64,192,112407,1,0,0:0:0:70:ride.wav
448,192,112407,1,0,0:0:0:0:
192,192,112511,1,0,0:0:0:0:
320,192,112616,1,8,0:2:0:0:
448,192,112616,1,0,0:0:0:70:hat.wav
192,192,112720,1,0,0:0:0:0:
64,192,112824,1,0,0:0:0:70:ride.wav
64,192,113032,1,0,0:0:0:70:hat.wav
448,192,113241,1,0,0:0:0:70:ride.wav
192,192,113449,1,0,0:0:0:70:hat.wav
320,192,113553,1,0,0:0:0:0:
64,192,113657,128,0,113866:0:0:0:70:ride.wav
448,192,113761,1,0,0:0:0:0:
320,192,113866,1,0,0:0:0:70:hat.wav
192,192,113970,1,0,0:0:0:0:
64,192,114074,128,0,114178:0:0:0:70:ride.wav
192,192,114178,128,0,114282:0:0:0:0:
320,192,114282,128,0,114386:0:0:0:70:hat.wav
448,192,114386,128,0,114491:0:0:0:0:
64,192,114491,128,0,114699:0:0:0:70:ride.wav
192,192,114595,128,0,114699:0:0:0:0:
320,192,114699,1,0,0:0:0:70:hat.wav
448,192,114699,128,0,114907:0:0:0:70:ride.wav
192,192,114907,1,0,0:0:0:70:ride.wav
64,192,115116,128,8,115324:0:2:0:0:
320,192,115116,1,0,0:0:0:70:hat.wav
192,192,115324,128,0,115532:0:0:0:70:ride.wav
320,192,115532,128,0,115741:0:0:0:70:hat.wav
448,192,115741,1,0,0:0:0:70:ride.wav
192,192,115949,128,0,116157:0:0:0:70:hat.wav
320,192,116157,128,0,116366:0:0:0:70:ride.wav
64,192,116366,1,2,0:2:0:0:
192,192,116366,1,0,0:0:0:70:hat.wav
448,192,116366,128,0,116574:0:0:0:0:
192,192,116782,128,0,116991:0:0:0:0:
64,192,117199,128,2,117407:0:2:0:0:
320,192,117199,1,0,0:0:0:70:hat.wav
448,192,117199,128,0,117407:0:0:0:0:
192,192,117511,128,0,117616:0:0:0:0:
320,192,117616,128,0,117824:0:0:0:0:
64,192,117824,128,0,118032:0:0:0:0:
192,192,118032,128,0,118449:0:0:0:0:
320,192,118449,1,8,0:2:0:0:
448,192,118449,1,0,0:0:0:0:
64,192,118657,1,8,0:2:0:0:
192,192,118657,1,0,0:0:0:0:
448,192,118866,1,8,0:2:0:0:
320,192,118970,1,8,0:2:0:0:
64,192,119074,1,8,0:2:0:0:
192,192,119074,1,0,0:0:0:0:
448,192,119178,128,0,119491:0:0:0:0:
320,192,119282,128,0,119491:0:0:0:70:hat.wav
64,192,119491,1,8,0:2:0:0:
192,192,119491,1,0,0:0:0:70:hat.wav
64,192,119907,1,2,0:2:0:0:
320,192,119907,1,4,0:2:0:0:
448,192,119907,1,0,0:0:0:0:
192,192,120046,1,0,0:0:0:0:
320,192,120116,1,0,0:0:0:70:hat.wav
64,192,120324,1,8,0:2:0:0:
192,192,120324,1,0,0:0:0:0:
448,192,120324,1,0,0:0:0:0:
320,192,120532,1,0,0:0:0:70:hat.wav
192,192,120602,1,0,0:0:0:0:
64,192,120741,128,2,120949:0:2:0:0:
448,192,120741,1,0,0:0:0:0:
192,192,120949,1,0,0:0:0:70:hat.wav
320,192,121053,128,0,121261:0:0:0:0:
64,192,121157,1,8,0:2:0:0:
192,192,121157,1,0,0:0:0:0:
448,192,121157,1,0,0:0:0:0:
192,192,121366,1,0,0:0:0:70:hat.wav
320,192,121470,1,0,0:0:0:0:
64,192,121574,1,2,0:2:0:0:
448,192,121574,1,0,0:0:0:0:
192,192,121678,1,0,0:0:0:0:
448,192,121782,1,0,0:0:0:70:hat.wav
320,192,121886,1,0,0:0:0:0:
64,192,121991,1,8,0:2:0:0:
192,192,121991,1,0,0:0:0:0:
448,192,121991,1,0,0:0:0:0:
320,192,122199,1,0,0:0:0:70:hat.wav
192,192,122303,1,0,0:0:0:0:
64,192,122407,1,2,0:2:0:0:
448,192,122407,128,0,122616:0:0:0:0:
320,192,122616,1,0,0:0:0:70:hat.wav
192,192,122720,128,0,122928:0:0:0:0:
64,192,122824,1,8,0:2:0:0:
320,192,122824,1,0,0:0:0:0:
448,192,122824,1,0,0:0:0:0:
64,192,123032,128,0,123241:0:0:0:70:hat.wav
320,192,123241,1,2,0:2:0:0:
448,192,123241,1,0,0:0:0:0:
192,192,123449,1,0,0:0:0:70:hat.wav
320,192,123553,1,0,0:0:0:0:
64,192,123657,1,8,0:2:0:0:
192,192,123657,1,0,0:0:0:0:
448,192,123657,1,0,0:0:0:0:
320,192,123866,1,0,0:0:0:70:hat.wav
64,192,124074,128,2,124282:0:2:0:0:
192,192,124074,1,0,0:0:0:0:
320,192,124282,1,0,0:0:0:70:hat.wav
64,192,124491,1,8,0:2:0:0:
192,192,124491,1,0,0:0:0:0:
448,192,124491,128,0,124699:0:0:0:0:
320,192,124699,1,0,0:0:0:70:hat.wav
192,192,124838,1,0,0:0:0:0:
64,192,124907,1,2,0:2:0:0:
448,192,124907,1,0,0:0:0:0:
192,192,125116,1,0,0:0:0:70:hat.wav
320,192,125185,1,0,0:0:0:0:
64,192,125324,1,8,0:2:0:0:
192,192,125324,1,0,0:0:0:0:
448,192,125324,1,0,0:0:0:0:
320,192,125463,1,0,0:0:0:0:
192,192,125602,1,0,0:0:0:0:
64,192,125741,1,2,0:2:0:0:
448,192,125741,1,0,0:0:0:0:
320,192,125879,1,0,0:0:0:0:
192,192,126018,1,0,0:0:0:0:
64,192,126157,1,8,0:2:0:0:
320,192,126157,1,0,0:0:0:0:
448,192,126157,1,0,0:0:0:0:
64,192,126366,1,8,0:2:0:0:
192,192,126366,1,0,0:0:0:0:
320,192,126470,1,8,0:2:0:0:
448,192,126574,128,0,126991:0:0:0:0:
64,192,126991,1,2,0:2:0:0:
192,192,126991,1,4,0:2:0:0:
320,192,126991,1,0,0:0:0:0:
192,192,127199,1,0,0:0:0:70:hat.wav
64,192,127407,1,2,0:2:0:0:
448,192,127407,128,0,127616:0:0:0:0:
320,192,127616,1,0,0:0:0:70:hat.wav
448,192,127720,128,0,127928:0:0:0:0:
64,192,127824,1,8,0:2:0:0:
192,192,127824,1,0,0:0:0:0:
320,192,128032,1,0,0:0:0:70:hat.wav
192,192,128136,1,0,0:0:0:0:
64,192,128241,1,2,0:2:0:0:
448,192,128241,1,0,0:0:0:0:
320,192,128345,1,0,0:0:0:0:
64,192,128449,1,0,0:0:0:70:hat.wav
192,192,128553,1,0,0:0:0:0:
64,192,128657,1,8,0:2:0:0:
320,192,128657,1,0,0:0:0:0:
448,192,128657,1,0,0:0:0:0:
192,192,128866,1,0,0:0:0:70:hat.wav
64,192,129074,128,2,129282:0:2:0:0:
448,192,129074,128,0,129282:0:0:0:0:
192,192,129282,1,0,0:0:0:70:hat.wav
64,192,129386,128,0,129595:0:0:0:0:
320,192,129491,1,8,0:2:0:0:
448,192,129491,1,0,0:0:0:0:
192,192,129699,1,0,0:0:0:70:hat.wav
320,192,129907,1,2,0:2:0:0:
448,192,129907,128,0,130116:0:0:0:0:
64,192,130116,1,0,0:0:0:70:hat.wav
192,192,130220,128,0,130428:0:0:0:0:
64,192,130324,1,8,0:2:0:0:
320,192,130324,1,0,0:0:0:0:
448,192,130324,1,0,0:0:0:0:
320,192,130532,128,0,130741:0:0:0:70:hat.wav
192,192,130741,1,2,0:2:0:0:
448,192,130741,1,0,0:0:0:0:
64,192,130845,128,0,131053:0:0:0:0:
320,192,130949,1,0,0:0:0:70:hat.wav
64,192,131157,1,8,0:2:0:0:
192,192,131157,1,0,0:0:0:0:
64,192,131366,1,2,0:2:0:0:
320,192,131366,1,4,0:2:0:0:
448,192,131366,1,0,0:0:0:0:
64,192,131782,1,2,0:2:0:0:
192,192,131782,1,0,0:0:0:0:
64,192,131991,1,8,0:2:0:0:
320,192,131991,1,0,0:0:0:70:hat.wav
448,192,131991,1,0,0:0:0:0:
320,192,132199,1,0,0:0:0:70:hat.wav
448,192,132199,1,0,0:0:0:0:
192,192,132303,1,0,0:0:0:0:
320,192,132407,1,0,0:0:0:70:tom1.wav
448,192,132407,1,0,0:0:0:0:
64,192,132616,1,0,0:0:0:0:
192,192,132616,1,0,0:0:0:0:
320,192,132720,1,8,0:2:0:0:
64,192,132824,1,8,0:2:0:0:
192,192,132824,1,0,0:0:0:0:
64,192,133032,1,0,0:0:0:70:tom4.wav
448,192,133032,1,0,0:0:0:0:
64,192,133241,128,2,133449:0:2:0:0:
192,192,133241,1,4,0:2:0:0:
448,192,133241,1,0,0:0:0:0:
320,192,133449,1,0,0:0:0:70:hat.wav
192,192,133553,128,0,133761:0:0:0:0:
64,192,133657,1,8,0:2:0:0:
320,192,133657,1,0,0:0:0:0:
448,192,133657,1,0,0:0:0:0:
448,192,133866,128,0,134074:0:0:0:70:hat.wav
64,192,134074,1,2,0:2:0:0:
320,192,134074,1,0,0:0:0:0:
192,192,134282,1,0,0:0:0:70:hat.wav
64,192,134491,128,8,134907:0:2:0:0:
320,192,134491,1,0,0:0:0:0:
448,192,134491,1,0,0:0:0:0:
192,192,134699,1,0,0:0:0:70:hat.wav
320,192,134907,1,2,0:2:0:0:
448,192,134907,128,0,135116:0:0:0:0:
192,192,135116,1,0,0:0:0:70:hat.wav
320,192,135220,128,0,135428:0:0:0:0:
64,192,135324,1,8,0:2:0:0:
192,192,135324,1,0,0:0:0:0:
448,192,135324,1,0,0:0:0:0:
64,192,135532,128,0,135741:0:0:0:70:hat.wav
192,192,135741,1,2,0:2:0:0:
448,192,135741,1,0,0:0:0:0:
320,192,135949,128,0,136157:0:0:0:70:hat.wav
64,192,136157,1,8,0:2:0:0:
192,192,136157,128,0,136366:0:0:0:0:
448,192,136157,1,0,0:0:0:0:
64,192,136366,128,0,136574:0:0:0:70:hat.wav
320,192,136574,1,2,0:2:0:0:
448,192,136574,128,0,136782:0:0:0:0:
64,192,136782,1,0,0:0:0:70:hat.wav
192,192,136886,128,0,137095:0:0:0:0:
64,192,136991,1,8,0:2:0:0:
320,192,136991,1,0,0:0:0:0:
448,192,136991,1,0,0:0:0:0:
320,192,137199,1,0,0:0:0:70:hat.wav
64,192,137251,1,0,0:0:0:0:
320,192,137407,128,2,137616:0:2:0:0:
448,192,137407,1,0,0:0:0:0:
192,192,137616,1,0,0:0:0:70:hat.wav
64,192,137720,128,0,137928:0:0:0:0:
192,192,137824,1,8,0:2:0:0:
320,192,137824,1,0,0:0:0:0:
448,192,137824,1,0,0:0:0:0:
448,192,138032,128,0,138241:0:0:0:70:hat.wav
64,192,138241,128,2,138657:0:2:0:0:
192,192,138241,1,0,0:0:0:0:
448,192,138449,1,0,0:0:0:70:hat.wav
192,192,138657,1,8,0:2:0:0:
320,192,138657,1,0,0:0:0:0:
448,192,138657,1,0,0:0:0:0:
320,192,138866,1,0,0:0:0:70:hat.wav
192,192,138970,1,0,0:0:0:0:
64,192,139074,1,2,0:2:0:0:
448,192,139074,1,0,0:0:0:0:
320,192,139178,1,0,0:0:0:0:
64,192,139282,1,8,0:2:0:0:
192,192,139282,1,0,0:0:0:0:
320,192,139386,1,0,0:0:0:0:
64,192,139491,1,2,0:2:0:0:
448,192,139491,1,0,0:0:0:0:
192,192,139595,1,8,0:2:0:0:
320,192,139699,1,0,0:0:0:70:hat.wav
448,192,139699,1,0,0:0:0:0:
192,192,139803,1,0,0:0:0:0:
64,192,139907,1,2,0:2:0:0:
320,192,139907,1,4,0:2:0:0:
448,192,139907,1,0,0:0:0:0:
192,192,140011,1,0,0:0:0:0:
320,192,140116,1,0,0:0:0:70:hat.wav
448,192,140220,1,0,0:0:0:0:
64,192,140324,1,8,0:2:0:0:
192,192,140324,1,0,0:0:0:0:
448,192,140428,1,0,0:0:0:0:
320,192,140532,1,0,0:0:0:70:hat.wav
192,192,140636,1,0,0:0:0:0:
64,192,140741,1,2,0:2:0:0:
448,192,140741,1,0,0:0:0:0:
320,192,140845,1,0,0:0:0:0:
192,192,140949,1,0,0:0:0:70:hat.wav
64,192,141053,1,0,0:0:0:0:
320,192,141157,1,8,0:2:0:0:
448,192,141157,1,0,0:0:0:0:
64,192,141261,1,0,0:0:0:0:
192,192,141366,1,0,0:0:0:70:hat.wav
320,192,141470,1,0,0:0:0:0:
64,192,141574,1,2,0:2:0:0:
448,192,141574,1,0,0:0:0:0:
192,192,141678,1,0,0:0:0:0:
448,192,141782,1,0,0:0:0:70:hat.wav
64,192,141886,1,0,0:0:0:0:
320,192,141991,1,8,0:2:0:0:
448,192,141991,1,0,0:0:0:0:
64,192,142095,1,0,0:0:0:0:
192,192,142199,1,0,0:0:0:70:hat.wav
320,192,142303,1,0,0:0:0:0:
64,192,142407,1,2,0:2:0:0:
448,192,142407,1,0,0:0:0:0:
320,192,142511,1,0,0:0:0:0:
64,192,142616,1,0,0:0:0:70:hat.wav
448,192,142720,1,0,0:0:0:0:
64,192,142824,1,8,0:2:0:0:
192,192,142824,1,0,0:0:0:0:
448,192,142928,1,0,0:0:0:0:
320,192,143032,1,0,0:0:0:70:hat.wav
192,192,143136,1,0,0:0:0:0:
64,192,143241,1,2,0:2:0:0:
320,192,143241,1,0,0:0:0:0:
448,192,143241,1,0,0:0:0:0:
192,192,143345,1,0,0:0:0:0:
320,192,143449,1,0,0:0:0:70:hat.wav
448,192,143553,1,0,0:0:0:0:
64,192,143657,1,8,0:2:0:0:
192,192,143657,1,0,0:0:0:0:
320,192,143761,1,0,0:0:0:0:
448,192,143866,1,0,0:0:0:70:hat.wav
192,192,143970,1,0,0:0:0:0:
64,192,144074,1,2,0:2:0:0:
448,192,144074,1,0,0:0:0:0:
320,192,144178,1,0,0:0:0:0:
192,192,144282,1,0,0:0:0:70:hat.wav
64,192,144386,1,0,0:0:0:0:
320,192,144491,1,8,0:2:0:0:
448,192,144491,1,0,0:0:0:0:
64,192,144595,1,0,0:0:0:0:
192,192,144699,1,0,0:0:0:70:hat.wav
320,192,144803,1,0,0:0:0:0:
64,192,145116,1,2,0:2:0:0:
320,192,145116,1,0,0:0:0:70:hat.wav
448,192,145116,1,0,0:0:0:0:
64,192,145428,1,2,0:2:0:0:
192,192,145428,1,0,0:0:0:70:hat.wav
448,192,145428,1,0,0:0:0:0:
64,192,145741,1,2,0:2:0:0:
320,192,145741,1,0,0:0:0:70:hat.wav
448,192,145741,1,0,0:0:0:0:
64,192,146157,1,8,0:2:0:0:
448,192,146157,1,0,0:0:0:0:
320,192,146261,1,0,0:0:0:70:tom1.wav
64,192,146366,1,0,0:0:0:70:tom4.wav
192,192,146366,1,0,0:0:0:0:
320,192,146470,1,0,0:0:0:70:tom5.wav
64,192,146574,1,2,0:2:0:0:
192,192,146574,1,4,0:2:0:0:
448,192,146574,128,0,146782:0:0:0:0:
192,192,146782,128,0,146886:0:0:0:70:hat.wav
64,192,146991,1,8,0:2:0:0:
320,192,146991,1,0,0:0:0:0:
448,192,146991,128,0,147199:0:0:0:0:
192,192,147199,128,0,147303:0:0:0:70:hat.wav
320,192,147303,128,0,147407:0:0:0:70:hat.wav
64,192,147407,1,2,0:2:0:0:
448,192,147407,1,0,0:0:0:0:
192,192,147511,128,0,147616:0:0:0:70:hat.wav
320,192,147616,128,0,147720:0:0:0:70:hat.wav
64,192,147824,128,8,148032:0:2:0:0:
192,192,147824,1,0,0:0:0:0:
448,192,147824,128,0,148032:0:0:0:0:
320,192,148032,128,0,148136:0:0:0:70:hat.wav
192,192,148136,128,0,148241:0:0:0:0:
64,192,148241,1,2,0:2:0:0:
448,192,148241,1,0,0:0:0:0:
320,192,148345,128,0,148449:0:0:0:0:
192,192,148449,128,0,148553:0:0:0:70:hat.wav
64,192,148657,128,8,148866:0:2:0:0:
320,192,148657,1,0,0:0:0:0:
448,192,148657,1,0,0:0:0:0:
192,192,148866,128,0,148970:0:0:0:70:hat.wav
320,192,148970,128,0,149074:0:0:0:70:hat.wav
64,192,149074,1,2,0:2:0:0:
448,192,149074,1,0,0:0:0:0:
192,192,149178,128,0,149282:0:0:0:70:hat.wav
320,192,149282,128,0,149491:0:0:0:70:hat.wav
448,192,149386,128,0,149491:0:0:0:0:
64,192,149491,128,8,149699:0:2:0:0:
192,192,149491,1,0,0:0:0:0:
448,192,149699,128,0,149803:0:0:0:70:hat.wav
320,192,149803,128,0,149907:0:0:0:0:
64,192,149907,1,2,0:2:0:0:
192,192,149907,1,0,0:0:0:0:
448,192,150011,128,0,150116:0:0:0:0:
320,192,150116,128,0,150220:0:0:0:70:hat.wav
64,192,150324,1,8,0:2:0:0:
192,192,150324,1,0,0:0:0:0:
448,192,150324,128,0,150532:0:0:0:0:
64,192,150532,128,0,150636:0:0:0:70:hat.wav
192,192,150636,128,0,150741:0:0:0:70:hat.wav
320,192,150741,1,2,0:2:0:0:
448,192,150741,1,0,0:0:0:0:
64,192,150845,128,0,150949:0:0:0:70:hat.wav
192,192,150949,128,0,151053:0:0:0:70:hat.wav
320,192,151053,1,0,0:0:0:0:
64,192,151157,128,8,151366:0:2:0:0:
192,192,151157,1,0,0:0:0:0:
448,192,151157,1,0,0:0:0:0:
448,192,151366,128,0,151470:0:0:0:70:hat.wav
320,192,151470,128,0,151574:0:0:0:0:
64,192,151574,1,2,0:2:0:0:
192,192,151574,1,0,0:0:0:0:
448,192,151678,128,0,151782:0:0:0:0:
320,192,151782,128,0,151886:0:0:0:70:hat.wav
64,192,151991,1,8,0:2:0:0:
192,192,151991,1,0,0:0:0:0:
448,192,151991,128,0,152199:0:0:0:0:
320,192,152199,1,0,0:0:0:70:hat.wav
64,192,152303,1,8,0:2:0:0:
192,192,152303,1,0,0:0:0:70:hat.wav
320,192,152407,1,2,0:2:0:0:
448,192,152407,1,8,0:2:0:0:
64,192,152511,1,0,0:0:0:70:tom4.wav
192,192,152616,1,0,0:0:0:70:tom5.wav
320,192,152720,1,0,0:0:0:70:tom1.wav
448,192,152720,1,0,0:0:0:0:
192,192,152824,1,2,0:2:0:0:
64,192,152928,1,8,0:2:0:0:
448,192,152928,1,0,0:0:0:0:
192,192,153032,1,8,0:2:0:0:
320,192,153032,1,0,0:0:0:0:
64,192,153136,1,8,0:2:0:0:
192,192,153241,1,2,0:2:0:0:
320,192,153241,1,4,0:2:0:0:
448,192,153241,1,0,0:0:0:0:
320,192,153449,128,0,153553:0:0:0:70:hat.wav
64,192,153657,128,8,153866:0:2:0:0:
192,192,153657,1,0,0:0:0:0:
448,192,153657,1,0,0:0:0:0:
320,192,153866,128,0,153970:0:0:0:70:hat.wav
192,192,153970,128,0,154074:0:0:0:70:hat.wav
64,192,154074,1,2,0:2:0:0:
448,192,154074,1,0,0:0:0:0:
320,192,154178,128,0,154282:0:0:0:70:hat.wav
192,192,154282,128,0,154386:0:0:0:70:hat.wav
64,192,154491,128,8,154699:0:2:0:0:
320,192,154491,1,0,0:0:0:0:
448,192,154491,128,0,154699:0:0:0:0:
192,192,154699,128,0,154803:0:0:0:70:hat.wav
320,192,154803,128,0,154907:0:0:0:0:
64,192,154907,1,2,0:2:0:0:
448,192,154907,1,0,0:0:0:0:
192,192,155011,128,0,155116:0:0:0:0:
320,192,155116,128,0,155220:0:0:0:70:hat.wav
64,192,155324,1,8,0:2:0:0:
192,192,155324,1,0,0:0:0:0:
448,192,155324,128,0,155532:0:0:0:0:
320,192,155532,128,0,155636:0:0:0:70:hat.wav
192,192,155636,128,0,155741:0:0:0:70:hat.wav
64,192,155741,1,2,0:2:0:0:
448,192,155741,1,0,0:0:0:0:
320,192,155845,128,0,155949:0:0:0:70:hat.wav
192,192,155949,128,0,156157:0:0:0:70:hat.wav
64,192,156053,128,0,156157:0:0:0:0:
320,192,156157,1,8,0:2:0:0:
448,192,156157,128,0,156366:0:0:0:0:
64,192,156366,128,0,156470:0:0:0:70:hat.wav
192,192,156470,128,0,156574:0:0:0:0:
320,192,156574,1,2,0:2:0:0:
448,192,156574,1,0,0:0:0:0:
64,192,156678,128,0,156782:0:0:0:0:
192,192,156782,128,0,156886:0:0:0:70:hat.wav
64,192,156991,128,8,157199:0:2:0:0:
320,192,156991,1,0,0:0:0:0:
448,192,156991,1,0,0:0:0:0:
448,192,157199,128,0,157303:0:0:0:70:hat.wav
320,192,157303,128,0,157407:0:0:0:70:hat.wav
64,192,157407,1,2,0:2:0:0:
192,192,157407,1,0,0:0:0:0:
448,192,157511,128,0,157616:0:0:0:70:hat.wav
320,192,157616,128,0,157720:0:0:0:70:hat.wav
192,192,157720,1,0,0:0:0:0:
64,192,157824,1,8,0:2:0:0:
320,192,157824,1,0,0:0:0:0:
448,192,157824,128,0,158032:0:0:0:0:
64,192,158032,1,8,0:2:0:0:
192,192,158032,1,0,0:0:0:0:
320,192,158136,1,0,0:0:0:0:
64,192,158241,1,2,0:2:0:0:
448,192,158241,1,0,0:0:0:0:
192,192,158345,1,0,0:0:0:0:
64,192,158449,1,8,0:2:0:0:
320,192,158449,1,0,0:0:0:0:
448,192,158449,1,0,0:0:0:0:
448,192,158657,1,0,0:0:0:0:
64,192,158761,1,8,0:2:0:0:
192,192,158761,1,0,0:0:0:70:tom1.wav
448,192,158866,1,0,0:0:0:70:tom4.wav
64,192,158970,1,2,0:2:0:0:
192,192,158970,1,0,0:0:0:70:hat.wav
320,192,158970,1,0,0:0:0:0:
448,192,159074,1,0,0:0:0:0:
320,192,159178,1,0,0:0:0:0:
192,192,159282,128,2,159386:0:2:0:0:
64,192,159386,128,0,159491:0:0:0:0:
320,192,159491,1,8,0:2:0:0:
448,192,159491,128,0,159595:0:0:0:0:
64,192,159595,1,8,0:2:0:0:
192,192,159595,128,0,159699:0:0:0:0:
320,192,159699,128,0,159907:0:0:0:70:tom5.wav
64,192,159907,128,2,160949:0:2:0:0:
192,192,159907,1,4,0:2:0:0:
448,192,159907,1,0,0:0:0:70:SVF_A#5.ogg
320,192,160116,1,0,0:0:0:70:hat.wav
320,192,160324,1,8,0:2:0:0:
448,192,160324,1,0,0:0:0:0:
192,192,160532,1,0,0:0:0:70:hat.wav
320,192,160636,1,0,0:0:0:70:hat.wav
192,192,160741,1,2,0:2:0:0:
320,192,160845,1,0,0:0:0:70:hat.wav
448,192,160949,128,0,161157:0:0:0:70:hat.wav
64,192,161157,128,8,161261:0:2:0:0:
320,192,161157,1,0,0:0:0:0:
192,192,161261,128,0,161366:0:0:0:0:
320,192,161366,128,0,161470:0:0:0:70:hat.wav
448,192,161470,128,0,161574:0:0:0:0:
64,192,161574,128,2,161782:0:2:0:0:
192,192,161574,1,0,0:0:0:0:
320,192,161782,128,0,161991:0:0:0:70:hat.wav
64,192,161991,1,8,0:2:0:0:
192,192,161991,128,0,162199:0:0:0:70:SVF_D#6ss.ogg
448,192,161991,1,0,0:0:0:0:
64,192,162199,1,0,0:0:0:70:hat.wav
448,192,162303,128,0,162720:0:0:0:70:hat.wav
320,192,162407,1,2,0:2:0:0:
192,192,162511,1,0,0:0:0:70:hat.wav
64,192,162616,128,0,162824:0:0:0:70:hat.wav
192,192,162824,1,8,0:2:0:0:
320,192,162824,1,0,0:0:0:70:SVF_C6ss.ogg
448,192,162824,1,0,0:0:0:0:
64,192,163032,1,0,0:0:0:70:hat.wav
320,192,163241,1,2,0:2:0:0:
448,192,163241,1,0,0:0:0:70:SVF_A#5s.ogg
64,192,163345,1,0,0:0:0:0:
192,192,163449,1,0,0:0:0:70:hat.wav
320,192,163553,1,0,0:0:0:0:
64,192,163657,1,8,0:2:0:0:
448,192,163657,1,0,0:0:0:0:
320,192,163761,1,0,0:0:0:0:
192,192,163866,1,0,0:0:0:70:hat.wav
64,192,163970,1,0,0:0:0:70:hat.wav
320,192,164074,1,2,0:2:0:0:
448,192,164074,1,0,0:0:0:70:SVF_G#5s.ogg
192,192,164178,1,0,0:0:0:70:hat.wav
320,192,164282,1,0,0:0:0:70:hat.wav
448,192,164386,1,0,0:0:0:0:
64,192,164491,1,8,0:2:0:0:
192,192,164491,1,0,0:0:0:0:
320,192,164595,1,0,0:0:0:0:
192,192,164699,1,0,0:0:0:70:hat.wav
64,192,164803,1,0,0:0:0:0:
320,192,164907,1,2,0:2:0:0:
448,192,164907,128,0,165116:0:0:0:70:SVF_G5s.ogg
64,192,165116,1,0,0:0:0:70:hat.wav
192,192,165220,1,0,0:0:0:0:
320,192,165324,1,8,0:2:0:0:
448,192,165324,128,0,165532:0:0:0:0:
192,192,165428,1,0,0:0:0:0:
64,192,165532,1,0,0:0:0:70:hat.wav
320,192,165636,1,8,0:2:0:0:
64,192,165741,128,2,165949:0:2:0:0:
192,192,165741,1,0,0:0:0:0:
448,192,165949,1,0,0:0:0:70:hat.wav
320,192,166053,1,0,0:0:0:0:
64,192,166157,128,2,166366:0:2:0:0:
192,192,166157,1,0,0:0:0:70:SVF_D#5ss.ogg
320,192,166366,1,8,0:2:0:0:
448,192,166366,1,0,0:0:0:0:
192,192,166470,1,8,0:2:0:0:
64,192,166574,1,2,0:2:0:0:
320,192,166574,1,4,0:2:0:0:
448,192,166574,1,0,0:0:0:70:SVF_A#5.ogg
192,192,166678,1,0,0:0:0:0:
320,192,166782,1,0,0:0:0:70:hat.wav
64,192,166886,128,0,168449:0:0:0:0:
192,192,166991,1,8,0:2:0:0:
320,192,166991,1,0,0:0:0:0:
448,192,167199,1,0,0:0:0:70:hat.wav
320,192,167303,1,0,0:0:0:70:hat.wav
448,192,167407,1,2,0:2:0:0:
320,192,167511,1,0,0:0:0:70:hat.wav
192,192,167616,1,0,0:0:0:70:hat.wav
320,192,167824,1,8,0:2:0:0:
448,192,167824,1,0,0:0:0:0:
320,192,168032,1,0,0:0:0:70:hat.wav
192,192,168241,1,2,0:2:0:0:
448,192,168241,1,0,0:0:0:0:
320,192,168449,128,0,168657:0:0:0:70:hat.wav
448,192,168449,128,0,168657:0:0:0:0:
64,192,168657,128,8,168866:0:2:0:0:
192,192,168657,128,0,168866:0:0:0:70:SVF_D#6ss.ogg
448,192,168866,128,0,169074:0:0:0:70:hat.wav
320,192,168970,1,0,0:0:0:70:hat.wav
64,192,169074,128,2,169491:0:2:0:0:
192,192,169074,1,0,0:0:0:70:SVF_D6ss.ogg
320,192,169178,1,0,0:0:0:70:hat.wav
448,192,169282,1,0,0:0:0:70:hat.wav
192,192,169491,1,8,0:2:0:0:
320,192,169491,128,0,169907:0:0:0:70:SVF_C6ss.ogg
448,192,169491,1,0,0:0:0:0:
192,192,169699,128,0,169907:0:0:0:70:hat.wav
64,192,169907,1,2,0:2:0:0:
448,192,169907,1,0,0:0:0:70:SVF_A#5s.ogg
320,192,170116,1,0,0:0:0:70:hat.wav
64,192,170324,1,8,0:2:0:0:
192,192,170324,1,0,0:0:0:0:
448,192,170324,128,0,170428:0:0:0:0:
320,192,170428,128,0,170532:0:0:0:0:
192,192,170532,128,0,170636:0:0:0:70:hat.wav
64,192,170636,128,0,170741:0:0:0:70:hat.wav
320,192,170741,1,2,0:2:0:0:
448,192,170741,128,0,171157:0:0:0:70:SVF_G5ss.ogg
192,192,170845,1,0,0:0:0:70:hat.wav
64,192,170949,1,0,0:0:0:70:hat.wav
64,192,171157,1,8,0:2:0:0:
192,192,171157,128,0,171366:0:0:0:70:SVF_D#5s.ogg
320,192,171157,1,0,0:0:0:0:
448,192,171366,128,0,171574:0:0:0:70:hat.wav
64,192,171470,128,0,171574:0:0:0:0:
192,192,171574,1,2,0:2:0:0:
320,192,171574,1,0,0:0:0:0:
64,192,171782,128,8,171991:0:2:0:0:
320,192,171782,1,0,0:0:0:70:SVF_A#5ss.ogg
448,192,171782,128,0,171991:0:0:0:70:hat.wav
64,192,172095,128,8,172303:0:2:0:0:
192,192,172095,1,0,0:0:0:70:SVF_A#5ss.ogg
448,192,172095,128,0,172303:0:0:0:70:hat.wav
64,192,172407,128,8,172824:0:2:0:0:
320,192,172407,128,0,172720:0:0:0:70:SVF_A#5ss.ogg
448,192,172407,128,0,172616:0:0:0:70:hat.wav
192,192,173241,1,0,0:0:0:0:
448,192,173241,1,0,0:0:0:0:
192,192,173866,1,0,0:0:0:0:
64,192,174074,1,0,0:0:0:0:
320,192,174074,1,0,0:0:0:0:
320,192,174907,1,0,0:0:0:0:
448,192,174907,1,0,0:0:0:0:
64,192,175324,128,0,175532:0:0:0:70:D#6S_Eb6S.wav
192,192,175741,128,0,175949:0:0:0:70:D6S.wav
448,192,175741,1,0,0:0:0:0:
320,192,176157,128,0,176366:0:0:0:70:C6S.wav
64,192,176574,1,0,0:0:0:70:A#5S_Bb5S.wav
448,192,176574,128,0,176782:0:0:0:0:
320,192,176991,128,0,177199:0:0:0:0:
64,192,177407,1,0,0:0:0:0:
192,192,177407,128,0,177616:0:0:0:0:
192,192,178241,1,0,0:0:0:0:
448,192,178241,128,0,178657:0:0:0:0:
64,192,178657,1,0,0:0:0:0:
320,192,178657,128,0,179074:0:0:0:0:
192,192,179074,128,0,179491:0:0:0:0:
448,192,179074,1,0,0:0:0:0:
64,192,179491,128,0,179907:0:0:0:0:
320,192,179491,1,0,0:0:0:0:
192,192,179907,1,0,0:0:0:70:hat.wav
448,192,179907,1,0,0:0:0:0:
320,192,180532,1,0,0:0:0:70:ride.wav
64,192,180741,1,0,0:0:0:70:ride.wav
320,192,180741,1,0,0:0:0:0:
448,192,181366,1,0,0:0:0:70:ride.wav
320,192,181574,1,0,0:0:0:70:ride.wav
448,192,181574,1,0,0:0:0:0:
64,192,182199,1,0,0:0:0:70:ride.wav
64,192,182407,1,0,0:0:0:70:ride.wav
192,192,182407,1,0,0:0:0:0:
320,192,182824,1,0,0:0:0:70:ride.wav
192,192,183188,1,0,0:0:0:70:F5S.wav
64,192,183241,1,0,0:0:0:70:ride.wav
448,192,183241,1,0,0:0:0:70:A#6S_Bb6S.wav
192,192,183657,1,0,0:0:0:0:
320,192,184074,1,0,0:0:0:0:
448,192,184491,128,0,184699:0:0:0:0:
320,192,184595,128,0,184803:0:0:0:0:
192,192,184699,128,0,184907:0:0:0:0:
64,192,184907,1,2,0:2:0:0:
320,192,184907,1,0,0:0:0:70:hat.wav
448,192,184907,1,0,0:0:0:0:
320,192,185116,1,0,0:0:0:0:
64,192,185220,1,0,0:0:0:0:
448,192,185324,1,0,0:0:0:0:
192,192,185428,1,0,0:0:0:0:
320,192,185532,1,0,0:0:0:0:
64,192,185636,1,0,0:0:0:0:
64,192,185845,1,0,0:0:0:0:
320,192,185949,128,0,186157:0:0:0:0:
64,192,186157,1,8,0:2:0:0:
192,192,186157,1,0,0:0:0:70:hat.wav
448,192,186157,1,0,0:0:0:0:
64,192,186574,128,2,186782:0:2:0:0:
192,192,186574,1,4,0:2:0:0:
448,192,186574,1,0,0:0:0:0:
320,192,186782,128,0,186991:0:0:0:70:hat.wav
64,192,186991,1,8,0:2:0:0:
192,192,186991,1,0,0:0:0:70:hat.wav
448,192,186991,1,0,0:0:0:70:ride.wav
320,192,187199,128,0,187407:0:0:0:70:hat.wav
64,192,187407,1,2,0:2:0:0:
192,192,187407,128,0,187616:0:0:0:70:ride.wav
448,192,187616,128,0,187824:0:0:0:70:hat.wav
64,192,187824,1,8,0:2:0:0:
192,192,187824,1,0,0:0:0:70:ride.wav
320,192,187824,1,0,0:0:0:0:
448,192,188032,128,0,188241:0:0:0:70:hat.wav
64,192,188241,1,2,0:2:0:0:
192,192,188241,128,0,188449:0:0:0:70:ride.wav
320,192,188449,128,0,188657:0:0:0:70:hat.wav
64,192,188657,128,8,188866:0:2:0:0:
192,192,188657,1,0,0:0:0:70:ride.wav
448,192,188657,1,0,0:0:0:0:
448,192,188866,128,0,189074:0:0:0:70:hat.wav
64,192,189074,1,2,0:2:0:0:
192,192,189074,1,0,0:0:0:70:ride.wav
320,192,189178,1,0,0:0:0:0:
448,192,189282,1,0,0:0:0:70:hat.wav
64,192,189386,1,0,0:0:0:0:
192,192,189491,1,8,0:2:0:0:
320,192,189491,1,0,0:0:0:70:ride.wav
448,192,189491,1,0,0:0:0:0:
64,192,189699,128,0,189907:0:0:0:70:hat.wav
192,192,189907,1,2,0:2:0:0:
448,192,189907,128,0,190116:0:0:0:70:ride.wav
320,192,190116,1,0,0:0:0:70:hat.wav
192,192,190220,1,0,0:0:0:0:
64,192,190324,1,8,0:2:0:0:
320,192,190324,1,0,0:0:0:70:ride.wav
448,192,190324,1,0,0:0:0:0:
192,192,190428,1,0,0:0:0:0:
448,192,190636,128,0,190845:0:0:0:0:
64,192,190741,1,2,0:2:0:0:
320,192,190741,1,0,0:0:0:70:ride.wav
192,192,190949,128,0,191157:0:0:0:70:hat.wav
64,192,191157,1,8,0:2:0:0:
320,192,191157,128,0,191366:0:0:0:70:ride.wav
448,192,191157,1,0,0:0:0:0:
192,192,191366,128,0,191574:0:0:0:70:hat.wav
64,192,191574,128,2,191782:0:2:0:0:
448,192,191574,1,0,0:0:0:70:ride.wav
320,192,191782,1,0,0:0:0:70:hat.wav
64,192,191991,1,8,0:2:0:0:
192,192,191991,128,0,192199:0:0:0:70:ride.wav
448,192,191991,1,0,0:0:0:0:
320,192,192199,1,0,0:0:0:70:hat.wav
320,192,192407,128,2,192616:0:2:0:0:
448,192,192407,128,0,192616:0:0:0:70:ride.wav
64,192,192616,1,0,0:0:0:70:hat.wav
64,192,192824,128,8,193032:0:2:0:0:
192,192,192824,128,0,193032:0:0:0:70:hat.wav
448,192,192824,1,0,0:0:0:0:
320,192,193032,1,8,0:2:0:0:
448,192,193032,1,0,0:0:0:0:
192,192,193136,1,8,0:2:0:0:
64,192,193241,1,2,0:2:0:0:
320,192,193241,1,4,0:2:0:0:
448,192,193241,128,0,193449:0:0:0:0:
64,192,193449,1,0,0:0:0:70:hat.wav
192,192,193657,1,8,0:2:0:0:
320,192,193657,128,0,193866:0:0:0:70:ride.wav
448,192,193657,1,0,0:0:0:0:
448,192,193866,1,0,0:0:0:70:hat.wav
64,192,194074,1,2,0:2:0:0:
192,192,194074,128,0,194282:0:0:0:70:ride.wav
320,192,194282,1,0,0:0:0:70:hat.wav
64,192,194491,128,8,194699:0:2:0:0:
320,192,194491,1,0,0:0:0:70:ride.wav
448,192,194491,1,0,0:0:0:0:
192,192,194699,1,0,0:0:0:70:hat.wav
192,192,194907,128,2,195116:0:2:0:0:
448,192,194907,1,0,0:0:0:70:ride.wav
320,192,195116,1,0,0:0:0:70:hat.wav
64,192,195324,1,8,0:2:0:0:
320,192,195324,128,0,195532:0:0:0:70:ride.wav
448,192,195324,1,0,0:0:0:0:
192,192,195532,1,0,0:0:0:70:hat.wav
192,192,195741,1,2,0:2:0:0:
448,192,195741,128,0,195949:0:0:0:70:ride.wav
320,192,195845,1,0,0:0:0:0:
64,192,195949,1,0,0:0:0:70:hat.wav
192,192,196053,1,0,0:0:0:0:
64,192,196157,1,8,0:2:0:0:
320,192,196157,1,0,0:0:0:70:ride.wav
448,192,196157,1,0,0:0:0:0:
192,192,196366,1,0,0:0:0:70:hat.wav
64,192,196574,1,2,0:2:0:0:
448,192,196574,128,0,197407:0:0:0:70:SVF_D#6s.ogg
320,192,196782,1,0,0:0:0:70:hat.wav
64,192,196991,1,8,0:2:0:0:
320,192,196991,1,0,0:0:0:70:ride.wav
192,192,197199,1,0,0:0:0:70:hat.wav
64,192,197407,128,2,198032:0:2:0:0:
320,192,197407,1,0,0:0:0:70:SVF_F6s.ogg
448,192,197616,1,0,0:0:0:70:hat.wav
192,192,197824,1,8,0:2:0:0:
320,192,197824,1,0,0:0:0:70:ride.wav
320,192,198032,1,8,0:2:0:0:
448,192,198032,1,0,0:0:0:0:
64,192,198136,1,8,0:2:0:0:
192,192,198136,1,0,0:0:0:0:
64,192,198449,1,2,0:2:0:0:
320,192,198449,1,0,0:0:0:70:tom5.wav
448,192,198449,1,0,0:0:0:0:
320,192,198657,1,2,0:2:0:0:
448,192,198657,1,0,0:0:0:70:tom5.wav
64,192,198866,1,8,0:2:0:0:
192,192,198866,1,0,0:0:0:70:tom4.wav
448,192,198866,1,0,0:0:0:0:
64,192,199074,1,8,0:2:0:0:
192,192,199074,1,0,0:0:0:70:tom4.wav
192,192,199386,1,8,0:2:0:0:
320,192,199386,1,0,0:0:0:0:
64,192,199491,1,2,0:2:0:0:
448,192,199491,128,0,199595:0:0:0:70:hat.wav
320,192,199595,128,0,199699:0:0:0:0:
192,192,199699,128,0,199803:0:0:0:0:
64,192,199803,128,0,199907:0:0:0:0:
192,192,199907,1,2,0:2:0:0:
320,192,199907,1,4,0:2:0:0:
448,192,199907,128,0,200116:0:0:0:70:SVF_C6s.ogg
192,192,200116,128,0,200324:0:0:0:70:hat.wav
64,192,200324,1,8,0:2:0:0:
320,192,200324,128,2,200532:0:2:0:0:
448,192,200324,1,0,0:0:0:0:
64,192,200532,128,0,200741:0:0:0:70:hat.wav
192,192,200741,1,2,0:2:0:0:
448,192,200741,128,0,200949:0:0:0:0:
320,192,200949,1,0,0:0:0:70:hat.wav
64,192,201157,1,8,0:2:0:0:
192,192,201157,1,2,0:2:0:0:
448,192,201157,1,0,0:0:0:70:SVF_D6ss.ogg
64,192,201366,128,0,201782:0:0:0:70:hat.wav
320,192,201574,1,2,0:2:0:0:
448,192,201574,1,0,0:0:0:70:SVF_A#5s.ogg
448,192,201782,128,0,201991:0:0:0:70:hat.wav
64,192,201991,128,8,202199:0:2:0:0:
192,192,201991,1,2,0:2:0:0:
320,192,201991,1,0,0:0:0:0:
448,192,202199,128,0,202407:0:0:0:70:hat.wav
64,192,202407,1,2,0:2:0:0:
192,192,202407,128,0,202616:0:0:0:0:
320,192,202616,1,0,0:0:0:70:hat.wav
64,192,202824,1,8,0:2:0:0:
192,192,202824,1,2,0:2:0:0:
448,192,202824,1,0,0:0:0:70:SVF_C6ss.ogg
320,192,203032,128,0,203241:0:0:0:70:hat.wav
64,192,203241,1,2,0:2:0:0:
192,192,203241,128,0,203449:0:0:0:70:SVF_G#5s.ogg
448,192,203449,128,0,203657:0:0:0:70:hat.wav
64,192,203657,1,8,0:2:0:0:
192,192,203657,1,2,0:2:0:0:
320,192,203657,128,0,203866:0:0:0:0:
192,192,203866,128,0,204074:0:0:0:70:hat.wav
320,192,204074,128,2,204282:0:2:0:0:
448,192,204074,1,0,0:0:0:70:SVF_G5ss.ogg
448,192,204282,128,0,204491:0:0:0:70:hat.wav
64,192,204491,128,8,204699:0:2:0:0:
192,192,204491,1,2,0:2:0:0:
320,192,204491,1,0,0:0:0:70:SVF_B5ss.ogg
192,192,204699,128,0,204907:0:0:0:70:hat.wav
320,192,204907,128,2,205116:0:2:0:0:
448,192,204907,128,0,205116:0:0:0:70:SVF_D6ss.ogg
64,192,205116,1,0,0:0:0:70:hat.wav
192,192,205324,128,8,205532:0:2:0:0:
320,192,205324,128,2,205532:0:2:0:0:
448,192,205324,1,0,0:0:0:0:
64,192,205532,1,0,0:0:0:70:SVF_C6ss.ogg
64,192,205741,128,2,205949:0:2:0:0:
192,192,205741,128,0,205949:0:0:0:70:SVF_D#6ss.ogg
320,192,205949,1,8,0:2:0:0:
448,192,205949,1,0,0:0:0:0:
192,192,206053,1,8,0:2:0:0:
64,192,206157,1,2,0:2:0:0:
448,192,206157,1,0,0:0:0:70:hat.wav
320,192,206261,1,0,0:0:0:70:tom1.wav
64,192,206366,1,0,0:0:0:70:tom4.wav
192,192,206366,1,0,0:0:0:0:
64,192,206574,128,2,206782:0:2:0:0:
320,192,206574,1,4,0:2:0:0:
448,192,206574,1,0,0:0:0:70:SVF_G6s.ogg
320,192,206782,128,0,206991:0:0:0:70:hat.wav
64,192,206991,1,8,0:2:0:0:
192,192,206991,128,2,207199:0:2:0:0:
448,192,206991,1,0,0:0:0:0:
448,192,207199,128,0,207407:0:0:0:70:hat.wav
64,192,207407,128,2,207616:0:2:0:0:
320,192,207407,1,0,0:0:0:70:SVF_F6ss.ogg
192,192,207616,1,0,0:0:0:70:hat.wav
64,192,207824,1,8,0:2:0:0:
320,192,207824,1,2,0:2:0:0:
448,192,207824,1,0,0:0:0:70:SVF_D6ss.ogg
448,192,208032,128,0,208449:0:0:0:70:SVF_C6ss.ogg
64,192,208241,1,2,0:2:0:0:
192,192,208241,1,0,0:0:0:70:SVF_B5ss.ogg
64,192,208449,128,0,208657:0:0:0:70:SVF_G5ss.ogg
192,192,208657,1,8,0:2:0:0:
320,192,208657,1,2,0:2:0:0:
448,192,208657,128,0,208866:0:0:0:70:SVF_D6ss.ogg
64,192,208866,128,0,209074:0:0:0:70:SVF_F6ss.ogg
320,192,209074,128,2,209282:0:2:0:0:
448,192,209074,1,0,0:0:0:70:SVF_D#6ss.ogg
192,192,209282,1,0,0:0:0:70:hat.wav
64,192,209491,128,8,209907:0:2:0:0:
320,192,209491,1,2,0:2:0:0:
448,192,209491,1,0,0:0:0:70:SVF_D#6ss.ogg
192,192,209699,128,0,209907:0:0:0:70:hat.wav
320,192,209907,1,2,0:2:0:0:
448,192,209907,1,0,0:0:0:70:SVF_C6s.ogg
192,192,210116,1,0,0:0:0:70:hat.wav
64,192,210324,1,8,0:2:0:0:
320,192,210324,1,2,0:2:0:0:
448,192,210324,1,4,0:2:0:0:
192,192,210532,128,0,210741:0:0:0:70:hat.wav
320,192,210741,1,2,0:2:0:0:
448,192,210741,128,0,210949:0:0:0:70:SVF_D6ss.ogg
64,192,210949,128,0,211157:0:0:0:70:hat.wav
192,192,211157,1,8,0:2:0:0:
320,192,211157,128,2,211366:0:2:0:0:
448,192,211157,1,0,0:0:0:0:
192,192,211366,128,0,211574:0:0:0:70:SVF_D#6s.ogg
64,192,211574,1,2,0:2:0:0:
320,192,211574,1,4,0:2:0:0:
448,192,211574,1,0,0:0:0:0:
192,192,211782,1,0,0:0:0:70:tom1.wav
320,192,211782,1,0,0:0:0:0:
64,192,211991,1,8,0:2:0:0:
192,192,211991,1,2,0:2:0:0:
448,192,211991,1,0,0:0:0:70:tom1.wav
320,192,212199,1,8,0:2:0:0:
448,192,212199,1,0,0:0:0:0:
192,192,212303,1,8,0:2:0:0:
64,192,212407,1,2,0:2:0:0:
320,192,212407,1,0,0:0:0:0:
448,192,212407,1,0,0:0:0:0:
64,192,212616,1,8,0:2:0:0:
192,192,212616,1,0,0:0:0:0:
320,192,212720,1,8,0:2:0:0:
64,192,212824,1,2,0:2:0:0:
448,192,212824,1,0,0:0:0:0:
192,192,212928,1,8,0:2:0:0:
320,192,213032,1,8,0:2:0:0:
448,192,213032,1,0,0:0:0:0:
64,192,213241,128,2,213449:0:2:0:0:
192,192,213241,1,4,0:2:0:0:
448,192,213241,1,0,0:0:0:70:SVF_C6s.ogg
320,192,213449,128,0,213657:0:0:0:70:hat.wav
64,192,213657,1,2,0:2:0:0:
192,192,213657,128,8,213866:0:2:0:0:
448,192,213657,1,0,0:0:0:70:ride.wav
448,192,213866,128,0,214074:0:0:0:70:hat.wav
64,192,214074,128,2,214282:0:2:0:0:
320,192,214074,1,0,0:0:0:70:ride.wav
192,192,214282,1,0,0:0:0:70:hat.wav
64,192,214491,1,0,0:0:0:70:SVF_D6ss.ogg
320,192,214491,1,2,0:2:0:0:
448,192,214491,1,8,0:2:0:0:
448,192,214699,128,0,215116:0:0:0:70:hat.wav
64,192,214907,1,2,0:2:0:0:
192,192,214907,1,0,0:0:0:70:SVF_A#5s.ogg
64,192,215116,128,0,215324:0:0:0:70:hat.wav
192,192,215324,1,2,0:2:0:0:
320,192,215324,1,8,0:2:0:0:
448,192,215324,128,0,215532:0:0:0:70:ride.wav
64,192,215532,128,0,215741:0:0:0:70:hat.wav
320,192,215741,128,2,215949:0:2:0:0:
448,192,215741,1,0,0:0:0:70:ride.wav
192,192,215949,1,0,0:0:0:70:hat.wav
64,192,216157,1,0,0:0:0:70:SVF_C6ss.ogg
320,192,216157,1,2,0:2:0:0:
448,192,216157,1,8,0:2:0:0:
192,192,216366,128,0,216782:0:0:0:70:hat.wav
320,192,216574,1,2,0:2:0:0:
448,192,216574,1,0,0:0:0:70:SVF_G#5s.ogg
448,192,216782,128,0,216991:0:0:0:70:hat.wav
64,192,216991,1,2,0:2:0:0:
192,192,216991,1,8,0:2:0:0:
320,192,216991,128,0,217199:0:0:0:70:ride.wav
192,192,217199,128,0,217407:0:0:0:70:hat.wav
320,192,217407,128,2,217616:0:2:0:0:
448,192,217407,1,0,0:0:0:70:SVF_G5ss.ogg
448,192,217616,128,0,217824:0:0:0:70:hat.wav
64,192,217824,128,10,218032:0:2:0:0:
192,192,217824,1,0,0:0:0:70:SVF_B5ss.ogg
320,192,217824,1,4,0:2:0:0:
448,192,218032,128,0,218241:0:0:0:70:hat.wav
64,192,218241,128,2,218449:0:2:0:0:
192,192,218241,128,4,218449:0:2:0:0:
320,192,218241,1,0,0:0:0:70:SVF_D6ss.ogg
448,192,218449,1,0,0:0:0:70:hat.wav
64,192,218657,1,2,0:2:0:0:
192,192,218657,128,8,218866:0:2:0:0:
320,192,218657,128,0,218866:0:0:0:0:
448,192,218866,1,0,0:0:0:70:SVF_C6ss.ogg
320,192,219074,128,2,219282:0:2:0:0:
448,192,219074,128,0,219282:0:0:0:70:SVF_D#6ss.ogg
64,192,219282,1,8,0:2:0:0:
192,192,219282,1,0,0:0:0:0:
320,192,219386,1,8,0:2:0:0:
64,192,219491,1,2,0:2:0:0:
448,192,219491,1,0,0:0:0:0:
192,192,219595,1,8,0:2:0:0:
320,192,219699,1,8,0:2:0:0:
448,192,219699,1,0,0:0:0:0:
64,192,219907,1,4,0:2:0:0:
192,192,219907,1,2,0:2:0:0:
448,192,219907,128,0,220116:0:0:0:70:SVF_G6s.ogg
192,192,220116,128,0,220324:0:0:0:70:hat.wav
64,192,220324,1,2,0:2:0:0:
320,192,220324,128,8,220532:0:2:0:0:
448,192,220324,1,0,0:0:0:70:ride.wav
64,192,220532,128,0,220741:0:0:0:70:hat.wav
192,192,220741,1,2,0:2:0:0:
448,192,220741,128,0,220949:0:0:0:70:SVF_F6ss.ogg
320,192,220949,1,0,0:0:0:70:hat.wav
64,192,221157,1,0,0:0:0:70:SVF_D6ss.ogg
192,192,221157,1,2,0:2:0:0:
448,192,221157,1,8,0:2:0:0:
64,192,221366,128,0,221782:0:0:0:70:SVF_C6ss.ogg
320,192,221574,1,2,0:2:0:0:
448,192,221574,1,0,0:0:0:70:SVF_B5ss.ogg
448,192,221782,128,0,221991:0:0:0:70:SVF_G5ss.ogg
64,192,221991,128,0,222199:0:0:0:70:SVF_D6ss.ogg
192,192,221991,1,2,0:2:0:0:
320,192,221991,1,8,0:2:0:0:
448,192,222199,128,0,222407:0:0:0:70:SVF_F6ss.ogg
64,192,222407,1,2,0:2:0:0:
192,192,222407,128,0,222616:0:0:0:70:SVF_D#6ss.ogg
320,192,222616,1,0,0:0:0:70:hat.wav
64,192,222824,1,0,0:0:0:70:SVF_D#6ss.ogg
192,192,222824,1,2,0:2:0:0:
448,192,222824,128,8,223241:0:2:0:0:
320,192,223032,128,0,223241:0:0:0:70:hat.wav
64,192,223241,1,0,0:0:0:70:SVF_C6s.ogg
192,192,223241,1,2,0:2:0:0:
320,192,223449,1,0,0:0:0:70:hat.wav
64,192,223657,1,2,0:2:0:0:
192,192,223657,1,8,0:2:0:0:
448,192,223657,1,0,0:0:0:0:
320,192,223866,128,0,224282:0:0:0:70:hat.wav
64,192,224074,1,2,0:2:0:0:
192,192,224074,1,4,0:2:0:0:
448,192,224074,128,0,224282:0:0:0:70:SVF_D6s.ogg
64,192,224282,1,0,0:0:0:70:hat.wav
64,192,224491,1,2,0:2:0:0:
192,192,224491,128,8,224699:0:2:0:0:
320,192,224491,1,0,0:0:0:0:
320,192,224699,1,8,0:2:0:0:
448,192,224699,1,0,0:0:0:0:
192,192,224803,1,8,0:2:0:0:
64,192,224907,1,4,0:2:0:0:
320,192,224907,1,2,0:2:0:0:
448,192,224907,1,0,0:0:0:70:SVF_D#6s.ogg
64,192,225116,1,8,0:2:0:0:
192,192,225116,1,0,0:0:0:0:
320,192,225220,1,8,0:2:0:0:
64,192,225324,1,2,0:2:0:0:
448,192,225324,1,0,0:0:0:70:hat.wav
192,192,225428,1,8,0:2:0:0:
320,192,225532,1,0,0:0:0:0:
64,192,225741,1,2,0:2:0:0:
192,192,225741,1,0,0:0:0:0:
64,192,225949,128,0,226157:0:0:0:0:
192,192,226053,128,0,226157:0:0:0:0:
320,192,226157,128,0,226574:0:0:0:0:
448,192,226157,1,0,0:0:0:0:
64,192,226574,1,2,0:2:0:0:
192,192,226574,1,4,0:2:0:0:
448,192,226574,1,0,0:0:0:0:
320,192,226782,1,0,0:0:0:70:hat.wav
64,192,226991,1,8,0:2:0:0:
320,192,226991,1,0,0:0:0:0:
448,192,226991,1,0,0:0:0:0:
192,192,227095,1,0,0:0:0:0:
320,192,227199,1,0,0:0:0:70:hat.wav
448,192,227303,1,0,0:0:0:0:
64,192,227407,1,2,0:2:0:0:
192,192,227407,1,0,0:0:0:0:
448,192,227511,1,0,0:0:0:70:hat.wav
320,192,227616,1,0,0:0:0:70:hat.wav
192,192,227720,1,0,0:0:0:0:
64,192,227824,1,8,0:2:0:0:
320,192,227824,1,0,0:0:0:0:
448,192,227824,1,0,0:0:0:0:
192,192,228032,1,0,0:0:0:70:hat.wav
320,192,228136,1,0,0:0:0:0:
64,192,228241,1,2,0:2:0:0:
192,192,228241,128,0,228449:0:0:0:0:
320,192,228449,1,0,0:0:0:70:hat.wav
64,192,228657,128,8,228866:0:2:0:0:
320,192,228657,1,0,0:0:0:0:
448,192,228657,128,0,228866:0:0:0:0:
192,192,228866,1,0,0:0:0:70:hat.wav
320,192,228970,1,0,0:0:0:70:hat.wav
64,192,229074,1,2,0:2:0:0:
448,192,229074,1,0,0:0:0:0:
192,192,229178,1,0,0:0:0:70:hat.wav
320,192,229282,1,0,0:0:0:70:hat.wav
448,192,229386,1,0,0:0:0:0:
64,192,229491,1,8,0:2:0:0:
192,192,229491,1,0,0:0:0:0:
320,192,229491,1,0,0:0:0:0:
192,192,229699,1,0,0:0:0:70:hat.wav
64,192,229907,1,2,0:2:0:0:
448,192,229907,128,0,230532:0:0:0:70:SVF_D#5s.ogg
192,192,230116,1,0,0:0:0:70:hat.wav
64,192,230324,1,8,0:2:0:0:
320,192,230324,1,0,0:0:0:0:
192,192,230532,1,0,0:0:0:70:hat.wav
320,192,230636,1,0,0:0:0:70:hat.wav
64,192,230741,128,2,231157:0:2:0:0:
448,192,230741,1,0,0:0:0:70:SVF_F5ss.ogg
320,192,230949,1,0,0:0:0:70:hat.wav
192,192,231157,1,8,0:2:0:0:
320,192,231157,128,0,231574:0:0:0:70:SVF_G#5ss.ogg
448,192,231157,1,0,0:0:0:0:
64,192,231366,1,0,0:0:0:70:hat.wav
64,192,231574,128,2,231782:0:2:0:0:
192,192,231574,128,0,231782:0:0:0:70:SVF_G5s.ogg
448,192,231782,1,0,0:0:0:70:hat.wav
192,192,231991,128,8,232199:0:2:0:0:
320,192,231991,128,0,232199:0:0:0:0:
448,192,231991,1,0,0:0:0:0:
64,192,232199,1,0,0:0:0:70:hat.wav
192,192,232303,1,8,0:2:0:0:
320,192,232407,128,2,232616:0:2:0:0:
448,192,232407,128,0,232616:0:0:0:0:
192,192,232511,1,8,0:2:0:0:
64,192,232616,1,0,0:0:0:70:hat.wav
64,192,232824,128,8,233032:0:2:0:0:
192,192,232824,1,2,0:2:0:0:
448,192,232824,128,0,233032:0:0:0:0:
320,192,233032,1,8,0:2:0:0:
192,192,233136,1,8,0:2:0:0:
64,192,233241,1,4,0:2:0:0:
320,192,233241,1,2,0:2:0:0:
448,192,233241,1,0,0:0:0:0:
192,192,233449,1,0,0:0:0:70:hat.wav
64,192,233657,1,8,0:2:0:0:
192,192,233657,1,0,0:0:0:0:
448,192,233657,1,0,0:0:0:0:
320,192,233761,1,0,0:0:0:0:
192,192,233866,1,0,0:0:0:70:hat.wav
64,192,233970,1,0,0:0:0:70:hat.wav
320,192,234074,1,2,0:2:0:0:
448,192,234074,1,0,0:0:0:0:
64,192,234178,1,0,0:0:0:70:hat.wav
192,192,234282,1,0,0:0:0:70:hat.wav
320,192,234386,1,0,0:0:0:0:
64,192,234491,1,8,0:2:0:0:
192,192,234491,1,0,0:0:0:0:
448,192,234491,1,0,0:0:0:0:
320,192,234699,1,0,0:0:0:70:hat.wav
192,192,234803,1,0,0:0:0:0:
320,192,234907,128,2,235116:0:2:0:0:
448,192,234907,1,0,0:0:0:0:
192,192,235116,1,0,0:0:0:70:hat.wav
64,192,235324,128,8,235532:0:2:0:0:
192,192,235324,1,0,0:0:0:0:
448,192,235324,128,0,235532:0:0:0:0:
320,192,235532,1,0,0:0:0:70:hat.wav
192,192,235636,1,0,0:0:0:70:hat.wav
64,192,235741,1,2,0:2:0:0:
448,192,235741,1,0,0:0:0:0:
320,192,235845,1,0,0:0:0:70:hat.wav
192,192,235949,1,0,0:0:0:70:hat.wav
64,192,236053,1,0,0:0:0:0:
192,192,236157,1,8,0:2:0:0:
320,192,236157,1,0,0:0:0:0:
448,192,236157,1,0,0:0:0:0:
320,192,236366,1,0,0:0:0:70:hat.wav
64,192,236574,128,2,238241:0:2:0:0:
448,192,236574,1,0,0:0:0:70:SVF_D#5s.ogg
320,192,236782,1,0,0:0:0:70:hat.wav
192,192,236991,1,8,0:2:0:0:
448,192,236991,1,0,0:0:0:0:
320,192,237199,1,0,0:0:0:70:hat.wav
448,192,237303,1,0,0:0:0:70:hat.wav
192,192,237407,1,2,0:2:0:0:
320,192,237511,1,0,0:0:0:70:hat.wav
448,192,237616,1,0,0:0:0:70:hat.wav
192,192,237824,1,8,0:2:0:0:
320,192,237824,1,0,0:0:0:0:
320,192,238032,1,0,0:0:0:70:hat.wav
192,192,238241,1,2,0:2:0:0:
448,192,238241,1,0,0:0:0:0:
64,192,238449,1,8,0:2:0:0:
192,192,238449,1,0,0:0:0:70:hat.wav
320,192,238449,1,0,0:0:0:0:
64,192,238761,1,8,0:2:0:0:
320,192,238761,1,0,0:0:0:70:hat.wav
448,192,238761,1,0,0:0:0:0:
64,192,239074,1,8,0:2:0:0:
192,192,239074,1,0,0:0:0:70:hat.wav
448,192,239074,1,0,0:0:0:0:
192,192,239386,1,8,0:2:0:0:
320,192,239386,1,0,0:0:0:70:hat.wav
448,192,239386,1,0,0:0:0:0:
64,192,239699,1,8,0:2:0:0:
192,192,239699,1,0,0:0:0:70:hat.wav
320,192,239699,1,0,0:0:0:0:
64,192,240324,128,0,246574:0:0:0:70:SVF_D5.ogg
320,192,240324,128,2,246470:0:2:0:0:
448,192,240324,128,4,246366:0:2:0:0:
