osu file format v14

[General]
AudioFilename: audio.ogg
AudioLeadIn: 0
PreviewTime: 65949
Countdown: 0
SampleSet: Soft
StackLeniency: 0.7
Mode: 3
LetterboxInBreaks: 0
SpecialStyle: 0
WidescreenStoryboard: 1

[Editor]
Bookmarks: 2407,13241,26574,39907,53241,59907,66574,79907,93241,106574,119907,133241,139907,146574,159907,173241,186574,199907,213241,226574,240324
DistanceSpacing: 0.96
BeatDivisor: 2
GridSize: 4
TimelineZoom: 0.8999999

[Metadata]
Title:Starry Jet
TitleUnicode:Starry Jet
Artist:Hoshimachi Suisei
ArtistUnicode:星街すいせい
Creator:chocomilku-
Version:Apol's Easy
Source:
Tags:Amiichii Antipole Symmatrix- DoctorTetraVoid vtuber virtual youtuber hololive ホロライブ バーチャルyoutuber こだまさおり kodama saori 櫻澤ヒカル sakurazawa hikaru 齋藤真也 saito masanari 齋藤大 saitou dai japanese pop jpop j-pop jazz still stellar suichan hosimati hoshimati hosimachi sui-chan hifumi,inc. HOLO-2
BeatmapID:3963935
BeatmapSetID:1795227

[Difficulty]
HPDrainRate:6.5
CircleSize:4
OverallDifficulty:6.5
ApproachRate:5
SliderMultiplier:1.4
SliderTickRate:1

[Events]
//Background and Video events
0,0,"suisei4.jpg",0,0
//Break Periods
//Storyboard Layer 0 (Background)
//Storyboard Layer 1 (Fail)
//Storyboard Layer 2 (Pass)
//Storyboard Layer 3 (Foreground)
//Storyboard Layer 4 (Overlay)
//Storyboard Sound Samples

[TimingPoints]
12209,405.405405405404,4,2,1,50,1,0
12209,-102.778091821947,4,2,1,50,0,0
13241,416.666666666667,4,2,1,50,1,0
66574,-100,4,2,1,65,0,1
91574,-100,4,2,1,50,0,0
199907,-100,4,2,1,65,0,1
226157,-100,4,2,1,50,0,0

[HitObjects]
320,192,12209,5,0,0:0:0:0:
64,192,12411,1,8,0:2:0:0:
192,192,12715,1,2,0:2:0:0:
320,192,13019,1,8,0:2:0:0:
64,192,13241,1,4,0:2:0:0:
448,192,13241,1,2,0:2:0:0:
192,192,13657,1,8,0:2:0:0:
448,192,14074,1,2,0:2:0:0:
64,192,14491,1,8,0:2:0:0:
320,192,14907,1,2,0:2:0:0:
192,192,15324,1,8,0:2:0:0:
448,192,15741,1,2,0:2:0:0:
64,192,16157,1,8,0:2:0:0:
192,192,16574,1,2,0:2:0:0:
320,192,16991,1,8,0:2:0:0:
64,192,17407,1,2,0:2:0:0:
448,192,17824,1,8,0:2:0:0:
320,192,18241,128,2,18657:0:2:0:0:
64,192,18657,128,8,19074:0:2:0:0:
448,192,19074,128,2,19491:0:2:0:0:
192,192,19491,1,10,0:2:0:0:
320,192,19699,1,8,0:2:0:0:
64,192,19907,1,2,0:2:0:0:
448,192,19907,1,4,0:2:0:0:
320,192,20324,1,8,0:2:0:0:
64,192,20741,1,2,0:2:0:0:
448,192,21157,1,8,0:2:0:0:
192,192,21574,1,2,0:2:0:0:
320,192,21991,1,8,0:2:0:0:
64,192,22407,1,2,0:2:0:0:
320,192,22824,1,8,0:2:0:0:
448,192,23241,1,2,0:2:0:0:
64,192,23657,1,8,0:2:0:0:
320,192,24074,128,2,24491:0:2:0:0:
192,192,24491,128,8,24907:0:2:0:0:
448,192,24907,1,2,0:2:0:0:
64,192,25116,1,8,0:2:0:0:
192,192,25428,1,8,0:2:0:0:
320,192,25741,1,2,0:2:0:0:
320,192,26157,1,10,0:2:0:0:
192,192,26366,1,0,0:0:0:70:tom4.wav
64,192,26574,1,4,0:2:0:0:
448,192,26574,1,0,0:0:0:0:
192,192,28032,1,0,0:0:0:0:
320,192,29699,1,0,0:0:0:0:
448,192,30949,1,0,0:0:0:0:
192,192,31157,1,0,0:0:0:0:
64,192,31366,1,0,0:0:0:0:
320,192,32199,1,0,0:0:0:0:
64,192,33241,1,0,0:0:0:0:
448,192,33241,1,0,0:0:0:0:
192,192,34699,1,0,0:0:0:70:ride.wav
320,192,35532,1,0,0:0:0:70:ride.wav
64,192,36366,1,2,0:2:0:0:
448,192,36366,1,0,0:0:0:0:
192,192,37199,1,2,0:2:0:0:
448,192,37199,1,0,0:0:0:70:hat.wav
64,192,37616,1,8,0:2:0:0:
192,192,37824,1,8,0:2:0:0:
320,192,38032,1,2,0:2:0:0:
448,192,38032,1,4,0:2:0:0:
320,192,38657,1,8,0:2:0:0:
192,192,38866,1,8,0:2:0:0:
64,192,39074,128,8,39491:0:2:0:0:
320,192,39491,128,10,39907:0:2:0:0:
64,192,39907,1,2,0:2:0:0:
448,192,39907,1,4,0:2:0:0:
192,192,40324,128,8,40741:0:2:0:0:
448,192,40741,1,2,0:2:0:0:
64,192,41157,1,8,0:2:0:0:
320,192,41574,1,2,0:2:0:0:
192,192,41991,1,8,0:2:0:0:
64,192,42407,128,2,42824:0:2:0:0:
448,192,42824,1,8,0:2:0:0:
320,192,43241,1,2,0:2:0:0:
64,192,43657,1,8,0:2:0:0:
192,192,44074,1,2,0:2:0:0:
448,192,44491,1,8,0:2:0:0:
64,192,44907,1,2,0:2:0:0:
320,192,45324,1,8,0:2:0:0:
192,192,45741,128,2,46157:0:2:0:0:
320,192,46157,1,2,0:2:0:0:
64,192,46574,1,2,0:2:0:0:
448,192,46574,1,4,0:2:0:0:
320,192,46991,128,8,47407:0:2:0:0:
64,192,47407,1,2,0:2:0:0:
448,192,47824,1,8,0:2:0:0:
192,192,48241,1,2,0:2:0:0:
320,192,48657,1,8,0:2:0:0:
448,192,49074,128,2,49491:0:2:0:0:
64,192,49491,1,8,0:2:0:0:
320,192,49907,1,2,0:2:0:0:
192,192,50324,1,8,0:2:0:0:
448,192,50741,1,2,0:2:0:0:
192,192,51157,1,8,0:2:0:0:
64,192,51366,1,2,0:2:0:0:
448,192,51366,1,4,0:2:0:0:
320,192,51782,1,2,0:2:0:0:
192,192,51991,128,8,52407:0:2:0:0:
448,192,52407,128,2,52824:0:2:0:0:
64,192,52824,1,8,0:2:0:0:
192,192,53032,1,0,0:0:0:70:tom4.wav
320,192,53241,1,2,0:2:0:0:
448,192,53241,128,4,53866:0:2:0:0:
192,192,53866,1,2,0:2:0:0:
64,192,54074,1,8,0:2:0:0:
320,192,54491,1,2,0:2:0:0:
64,192,54907,1,2,0:2:0:0:
320,192,55220,1,2,0:2:0:0:
192,192,55532,1,2,0:2:0:0:
448,192,55741,1,8,0:2:0:0:
192,192,56157,128,0,56574:0:0:0:0:
448,192,56574,128,2,57199:0:2:0:0:
192,192,57199,1,2,0:2:0:0:
64,192,57407,1,8,0:2:0:0:
320,192,57720,1,2,0:2:0:0:
192,192,58032,1,2,0:2:0:0:
64,192,58241,128,2,58866:0:2:0:0:
320,192,58866,1,2,0:2:0:0:
448,192,59074,1,8,0:2:0:0:
192,192,59491,1,6,0:2:0:0:
64,192,59907,1,2,0:2:0:0:
448,192,59907,1,4,0:2:0:0:
192,192,60324,1,8,0:2:0:0:
320,192,60741,1,2,0:2:0:0:
192,192,61157,1,8,0:2:0:0:
64,192,61574,1,2,0:2:0:0:
448,192,61991,1,8,0:2:0:0:
192,192,62407,1,2,0:2:0:0:
320,192,62824,1,8,0:2:0:0:
64,192,63241,1,2,0:2:0:0:
448,192,63241,1,4,0:2:0:0:
192,192,63657,1,8,0:2:0:0:
320,192,64074,1,2,0:2:0:0:
64,192,64491,1,10,0:2:0:0:
192,192,65116,1,2,0:2:0:0:
320,192,65428,1,2,0:2:0:0:
448,192,65741,1,2,0:2:0:0:
64,192,66574,1,0,0:0:0:70:SVF_A#5.ogg
448,192,66574,1,2,0:2:0:0:
192,192,66991,1,10,0:2:0:0:
320,192,67407,1,2,0:2:0:0:
64,192,67824,1,10,0:2:0:0:
448,192,68241,1,2,0:2:0:0:
192,192,68657,128,0,69074:0:0:0:70:SVF_D#6ss.ogg
320,192,69074,128,2,69491:0:2:0:0:
448,192,69491,128,0,69907:0:0:0:70:SVF_C6ss.ogg
64,192,69907,1,2,0:2:0:0:
320,192,70324,1,10,0:2:0:0:
192,192,70741,1,2,0:2:0:0:
320,192,71157,1,10,0:2:0:0:
64,192,71574,128,2,71991:0:2:0:0:
448,192,71991,128,10,72407:0:2:0:0:
64,192,72407,128,2,72824:0:2:0:0:
320,192,72824,1,0,0:0:0:70:SVF_D#5ss.ogg
192,192,73032,1,8,0:2:0:0:
64,192,73241,1,0,0:0:0:70:SVF_A#5.ogg
448,192,73241,1,2,0:2:0:0:
320,192,73657,1,10,0:2:0:0:
192,192,74074,1,2,0:2:0:0:
448,192,74491,1,10,0:2:0:0:
64,192,74907,1,2,0:2:0:0:
320,192,75324,128,0,75741:0:0:0:70:SVF_D#6ss.ogg
192,192,75741,128,2,76157:0:2:0:0:
64,192,76157,128,0,76574:0:0:0:70:SVF_C6ss.ogg
320,192,76574,1,2,0:2:0:0:
64,192,76991,1,6,0:2:0:0:
448,192,76991,1,8,0:2:0:0:
192,192,77407,1,2,0:2:0:0:
320,192,77824,1,0,0:0:0:70:hat.wav
64,192,78241,128,2,79074:0:2:0:0:
448,192,78241,1,4,0:2:0:0:
320,192,78657,1,2,0:2:0:0:
192,192,79074,1,8,0:2:0:0:
448,192,79282,1,8,0:2:0:0:
320,192,79491,1,2,0:2:0:0:
192,192,79699,1,8,0:2:0:0:
64,192,79907,1,2,0:2:0:0:
448,192,79907,1,4,0:2:0:0:
320,192,80324,1,0,0:0:0:70:ride.wav
64,192,80741,1,2,0:2:0:0:
448,192,81157,1,0,0:0:0:70:ride.wav
192,192,81574,1,2,0:2:0:0:
320,192,81991,1,0,0:0:0:70:ride.wav
192,192,82407,1,2,0:2:0:0:
64,192,82824,128,0,83241:0:0:0:70:ride.wav
448,192,83241,1,2,0:2:0:0:
192,192,83657,1,0,0:0:0:70:ride.wav
320,192,84074,1,2,0:2:0:0:
192,192,84491,1,0,0:0:0:70:ride.wav
448,192,84907,128,2,85324:0:2:0:0:
64,192,85324,128,0,85741:0:0:0:70:ride.wav
448,192,85741,128,2,86157:0:2:0:0:
192,192,86157,1,14,0:2:0:0:
320,192,86366,1,8,0:2:0:0:
64,192,86574,1,2,0:2:0:0:
448,192,86574,1,4,0:2:0:0:
192,192,86991,1,0,0:0:0:70:ride.wav
320,192,87407,1,2,0:2:0:0:
64,192,87824,1,0,0:0:0:70:ride.wav
448,192,88241,1,2,0:2:0:0:
192,192,88657,1,0,0:0:0:70:ride.wav
320,192,89074,1,2,0:2:0:0:
448,192,89491,128,0,89907:0:0:0:70:ride.wav
64,192,89907,1,2,0:2:0:0:
320,192,90324,1,0,0:0:0:70:ride.wav
192,192,90741,1,2,0:2:0:0:
64,192,91157,1,0,0:0:0:70:ride.wav
448,192,91366,1,8,0:2:0:0:
192,192,91782,1,2,0:2:0:0:
320,192,91991,1,2,0:2:0:0:
448,192,92199,1,8,0:2:0:0:
64,192,92407,1,8,0:2:0:0:
192,192,92824,1,8,0:2:0:0:
64,192,93241,1,2,0:2:0:0:
448,192,93241,1,4,0:2:0:0:
320,192,93657,1,8,0:2:0:0:
64,192,94074,1,2,0:2:0:0:
448,192,94491,1,8,0:2:0:0:
192,192,94907,1,2,0:2:0:0:
320,192,95324,1,8,0:2:0:0:
64,192,95741,1,2,0:2:0:0:
448,192,96157,1,8,0:2:0:0:
320,192,96574,1,2,0:2:0:0:
192,192,96991,1,8,0:2:0:0:
448,192,97407,1,2,0:2:0:0:
64,192,97824,1,8,0:2:0:0:
192,192,98241,128,2,98657:0:2:0:0:
448,192,98657,128,8,99074:0:2:0:0:
64,192,99074,128,2,99491:0:2:0:0:
320,192,99491,1,10,0:2:0:0:
192,192,99699,1,8,0:2:0:0:
64,192,99907,1,4,0:2:0:0:
448,192,99907,1,2,0:2:0:0:
192,192,100324,1,8,0:2:0:0:
448,192,100741,1,2,0:2:0:0:
64,192,101157,1,8,0:2:0:0:
320,192,101574,1,2,0:2:0:0:
192,192,101991,1,8,0:2:0:0:
448,192,102407,1,2,0:2:0:0:
192,192,102824,1,8,0:2:0:0:
64,192,103241,1,2,0:2:0:0:
448,192,103657,1,8,0:2:0:0:
192,192,104074,128,2,104491:0:2:0:0:
320,192,104491,128,8,104907:0:2:0:0:
64,192,104907,1,2,0:2:0:0:
192,192,105116,1,8,0:2:0:0:
320,192,105428,1,8,0:2:0:0:
448,192,105741,1,8,0:2:0:0:
320,192,106053,1,8,0:2:0:0:
192,192,106366,1,8,0:2:0:0:
64,192,106574,1,0,0:0:0:0:
448,192,106574,1,0,0:0:0:0:
320,192,106991,1,0,0:0:0:70:ride.wav
192,192,107407,1,0,0:0:0:70:ride.wav
320,192,107824,1,0,0:0:0:70:ride.wav
64,192,108241,1,0,0:0:0:70:ride.wav
448,192,108449,1,0,0:0:0:70:hat.wav
320,192,108761,1,0,0:0:0:0:
192,192,109074,1,0,0:0:0:70:ride.wav
448,192,109491,1,0,0:0:0:70:ride.wav
64,192,109699,1,0,0:0:0:70:hat.wav
320,192,110116,1,0,0:0:0:70:hat.wav
192,192,110324,1,0,0:0:0:70:ride.wav
448,192,110532,1,0,0:0:0:70:hat.wav
320,192,110949,1,0,0:0:0:70:hat.wav
192,192,111157,1,0,0:0:0:70:ride.wav
64,192,111366,128,0,111782:0:0:0:70:hat.wav
448,192,111782,128,0,112199:0:0:0:70:hat.wav
192,192,112199,1,8,0:2:0:0:
64,192,112407,1,0,0:0:0:70:ride.wav
320,192,112616,1,8,0:2:0:0:
448,192,112824,128,0,113241:0:0:0:70:ride.wav
64,192,113241,1,0,0:0:0:70:ride.wav
192,192,113657,1,0,0:0:0:70:ride.wav
448,192,114074,1,0,0:0:0:70:ride.wav
320,192,114386,1,0,0:0:0:0:
64,192,114699,1,0,0:0:0:70:hat.wav
320,192,115116,1,8,0:2:0:0:
192,192,115428,1,0,0:0:0:0:
64,192,115741,1,0,0:0:0:70:ride.wav
320,192,116053,1,0,0:0:0:0:
64,192,116366,1,2,0:2:0:0:
448,192,116366,1,0,0:0:0:70:hat.wav
64,192,117199,1,2,0:2:0:0:
448,192,117199,1,0,0:0:0:70:hat.wav
448,192,118032,128,0,119491:0:0:0:0:
192,192,119491,1,8,0:2:0:0:
64,192,119907,1,2,0:2:0:0:
448,192,119907,1,4,0:2:0:0:
320,192,120324,1,8,0:2:0:0:
64,192,120741,1,2,0:2:0:0:
320,192,121157,1,8,0:2:0:0:
448,192,121574,1,2,0:2:0:0:
192,192,121991,1,8,0:2:0:0:
320,192,122407,1,2,0:2:0:0:
192,192,122824,1,8,0:2:0:0:
64,192,123241,1,2,0:2:0:0:
320,192,123657,1,8,0:2:0:0:
448,192,124074,1,2,0:2:0:0:
192,192,124491,1,8,0:2:0:0:
320,192,124907,1,2,0:2:0:0:
64,192,125324,1,8,0:2:0:0:
320,192,125741,1,2,0:2:0:0:
192,192,126157,128,8,126574:0:2:0:0:
64,192,126991,1,2,0:2:0:0:
448,192,126991,1,4,0:2:0:0:
192,192,127407,1,2,0:2:0:0:
320,192,127824,1,8,0:2:0:0:
448,192,128241,1,2,0:2:0:0:
64,192,128657,1,8,0:2:0:0:
320,192,129074,1,2,0:2:0:0:
192,192,129491,1,8,0:2:0:0:
64,192,129907,1,2,0:2:0:0:
320,192,130324,1,8,0:2:0:0:
192,192,130741,1,2,0:2:0:0:
320,192,131157,1,8,0:2:0:0:
64,192,131366,1,2,0:2:0:0:
448,192,131366,1,4,0:2:0:0:
192,192,131782,1,2,0:2:0:0:
448,192,131991,128,8,132407:0:2:0:0:
64,192,132407,128,0,132824:0:0:0:70:tom1.wav
320,192,132824,1,8,0:2:0:0:
192,192,133032,1,0,0:0:0:70:tom4.wav
64,192,133241,1,2,0:2:0:0:
448,192,133241,1,4,0:2:0:0:
192,192,133657,1,8,0:2:0:0:
448,192,134074,1,2,0:2:0:0:
64,192,134491,1,8,0:2:0:0:
320,192,134907,1,2,0:2:0:0:
192,192,135324,1,8,0:2:0:0:
320,192,135741,1,2,0:2:0:0:
448,192,136157,1,8,0:2:0:0:
64,192,136574,1,2,0:2:0:0:
320,192,136991,1,8,0:2:0:0:
192,192,137407,1,2,0:2:0:0:
64,192,137824,1,8,0:2:0:0:
448,192,138241,128,2,138657:0:2:0:0:
192,192,138657,1,8,0:2:0:0:
64,192,139074,128,2,139491:0:2:0:0:
320,192,139491,1,2,0:2:0:0:
64,192,139907,1,2,0:2:0:0:
448,192,139907,1,4,0:2:0:0:
320,192,140324,1,8,0:2:0:0:
192,192,140741,1,2,0:2:0:0:
448,192,141157,1,8,0:2:0:0:
64,192,141574,1,2,0:2:0:0:
192,192,141991,1,8,0:2:0:0:
320,192,142407,1,2,0:2:0:0:
448,192,142824,1,8,0:2:0:0:
64,192,143241,1,2,0:2:0:0:
320,192,143657,1,8,0:2:0:0:
192,192,144074,1,2,0:2:0:0:
320,192,144491,1,8,0:2:0:0:
64,192,145116,1,2,0:2:0:0:
192,192,145428,1,2,0:2:0:0:
448,192,145741,1,2,0:2:0:0:
320,192,146157,128,8,146574:0:2:0:0:
64,192,146574,1,2,0:2:0:0:
448,192,146574,1,4,0:2:0:0:
192,192,146991,1,8,0:2:0:0:
448,192,147407,1,2,0:2:0:0:
64,192,147824,1,8,0:2:0:0:
320,192,148241,1,2,0:2:0:0:
192,192,148657,1,8,0:2:0:0:
320,192,149074,1,2,0:2:0:0:
448,192,149491,1,8,0:2:0:0:
64,192,149907,1,2,0:2:0:0:
192,192,150324,1,8,0:2:0:0:
320,192,150741,1,2,0:2:0:0:
64,192,151157,1,8,0:2:0:0:
448,192,151574,1,2,0:2:0:0:
192,192,151991,1,8,0:2:0:0:
448,192,152407,128,10,152824:0:2:0:0:
64,192,152824,128,2,153241:0:2:0:0:
320,192,153241,1,2,0:2:0:0:
448,192,153241,1,4,0:2:0:0:
192,192,153657,1,8,0:2:0:0:
320,192,154074,1,2,0:2:0:0:
64,192,154491,1,8,0:2:0:0:
448,192,154907,1,2,0:2:0:0:
192,192,155324,1,8,0:2:0:0:
320,192,155741,1,2,0:2:0:0:
64,192,156157,1,8,0:2:0:0:
320,192,156574,1,2,0:2:0:0:
448,192,156991,1,8,0:2:0:0:
192,192,157407,1,2,0:2:0:0:
64,192,157824,1,8,0:2:0:0:
448,192,158241,1,2,0:2:0:0:
64,192,158449,1,8,0:2:0:0:
192,192,158761,1,8,0:2:0:0:
448,192,158970,1,2,0:2:0:0:
64,192,159282,128,2,159907:0:2:0:0:
320,192,159907,1,0,0:0:0:70:SVF_A#5.ogg
448,192,159907,1,2,0:2:0:0:
64,192,160324,1,8,0:2:0:0:
320,192,160741,1,2,0:2:0:0:
192,192,161157,1,8,0:2:0:0:
448,192,161574,1,2,0:2:0:0:
64,192,161991,128,8,162407:0:2:0:0:
192,192,162407,128,2,162824:0:2:0:0:
320,192,162824,128,8,163241:0:2:0:0:
448,192,163241,128,2,164074:0:2:0:0:
192,192,163657,1,8,0:2:0:0:
64,192,164074,128,2,164907:0:2:0:0:
448,192,164491,1,8,0:2:0:0:
320,192,164907,128,2,165324:0:2:0:0:
192,192,165324,128,8,165741:0:2:0:0:
448,192,165741,128,2,166157:0:2:0:0:
320,192,166157,128,2,166574:0:2:0:0:
64,192,166574,1,0,0:0:0:70:SVF_A#5.ogg
192,192,166574,1,2,0:2:0:0:
448,192,166991,1,8,0:2:0:0:
64,192,167407,1,2,0:2:0:0:
320,192,167824,1,8,0:2:0:0:
192,192,168241,1,2,0:2:0:0:
448,192,168657,128,8,169074:0:2:0:0:
320,192,169074,128,2,169491:0:2:0:0:
192,192,169491,128,8,169907:0:2:0:0:
64,192,169907,128,2,170741:0:2:0:0:
320,192,170324,1,8,0:2:0:0:
448,192,170741,128,2,171574:0:2:0:0:
192,192,171157,1,8,0:2:0:0:
64,192,171574,1,2,0:2:0:0:
192,192,171782,1,8,0:2:0:0:
320,192,172095,1,8,0:2:0:0:
448,192,172407,128,8,172824:0:2:0:0:
64,192,173241,1,0,0:0:0:0:
448,192,173241,1,0,0:0:0:0:
320,192,173866,1,0,0:0:0:0:
64,192,174074,1,0,0:0:0:0:
192,192,174907,1,0,0:0:0:0:
192,192,175532,1,0,0:0:0:0:
448,192,175741,1,0,0:0:0:70:D6S.wav
320,192,176574,1,0,0:0:0:70:A#5S_Bb5S.wav
320,192,177199,1,0,0:0:0:0:
64,192,177407,1,0,0:0:0:0:
64,192,178241,1,0,0:0:0:0:
192,192,178657,1,0,0:0:0:0:
320,192,179074,1,0,0:0:0:0:
448,192,179491,1,0,0:0:0:0:
64,192,179907,1,0,0:0:0:70:hat.wav
192,192,179907,1,0,0:0:0:0:
320,192,180532,1,0,0:0:0:70:ride.wav
448,192,180741,1,0,0:0:0:70:ride.wav
192,192,181366,1,0,0:0:0:70:ride.wav
448,192,181574,1,0,0:0:0:70:ride.wav
192,192,182199,1,0,0:0:0:70:ride.wav
320,192,182407,1,0,0:0:0:70:ride.wav
448,192,182824,1,0,0:0:0:70:ride.wav
64,192,183241,1,0,0:0:0:70:ride.wav
192,192,183657,1,0,0:0:0:0:
320,192,184074,128,0,184907:0:0:0:0:
64,192,184907,1,2,0:2:0:0:
448,192,184907,1,0,0:0:0:70:hat.wav
192,192,186157,128,8,186574:0:2:0:0:
64,192,186574,1,2,0:2:0:0:
448,192,186574,1,4,0:2:0:0:
320,192,186991,1,8,0:2:0:0:
64,192,187407,1,2,0:2:0:0:
448,192,187824,1,8,0:2:0:0:
192,192,188241,1,2,0:2:0:0:
320,192,188657,1,8,0:2:0:0:
448,192,189074,128,2,189491:0:2:0:0:
64,192,189491,1,8,0:2:0:0:
192,192,189907,1,2,0:2:0:0:
448,192,190324,1,8,0:2:0:0:
320,192,190741,1,2,0:2:0:0:
64,192,191157,1,8,0:2:0:0:
448,192,191574,1,2,0:2:0:0:
192,192,191991,1,8,0:2:0:0:
320,192,192407,128,2,192824:0:2:0:0:
64,192,192824,1,8,0:2:0:0:
192,192,193032,1,8,0:2:0:0:
320,192,193241,1,2,0:2:0:0:
448,192,193241,1,4,0:2:0:0:
192,192,193657,1,8,0:2:0:0:
64,192,194074,1,2,0:2:0:0:
448,192,194491,1,8,0:2:0:0:
192,192,194907,1,2,0:2:0:0:
320,192,195324,1,8,0:2:0:0:
448,192,195741,128,2,196157:0:2:0:0:
192,192,196157,1,8,0:2:0:0:
320,192,196574,1,2,0:2:0:0:
64,192,196991,1,8,0:2:0:0:
448,192,197407,1,2,0:2:0:0:
192,192,197824,1,8,0:2:0:0:
64,192,198032,1,8,0:2:0:0:
320,192,198449,1,2,0:2:0:0:
192,192,198657,1,2,0:2:0:0:
448,192,198866,1,8,0:2:0:0:
64,192,199074,1,8,0:2:0:0:
192,192,199491,128,2,199907:0:2:0:0:
64,192,199907,1,0,0:0:0:70:SVF_C6s.ogg
448,192,199907,1,2,0:2:0:0:
320,192,200324,1,10,0:2:0:0:
64,192,200741,128,2,201157:0:2:0:0:
448,192,201157,1,0,0:0:0:70:SVF_D6ss.ogg
192,192,201574,1,2,0:2:0:0:
320,192,201991,1,10,0:2:0:0:
448,192,202407,128,2,202824:0:2:0:0:
64,192,202824,1,0,0:0:0:70:SVF_C6ss.ogg
320,192,203241,1,2,0:2:0:0:
192,192,203657,1,10,0:2:0:0:
320,192,204074,1,2,0:2:0:0:
64,192,204491,1,0,0:0:0:70:SVF_B5ss.ogg
448,192,204907,1,2,0:2:0:0:
192,192,205324,1,10,0:2:0:0:
64,192,205741,128,2,206157:0:2:0:0:
448,192,206157,1,2,0:2:0:0:
320,192,206366,1,0,0:0:0:70:tom4.wav
64,192,206574,1,0,0:0:0:70:SVF_G6s.ogg
192,192,206574,1,2,0:2:0:0:
192,192,206991,1,10,0:2:0:0:
448,192,207407,128,2,207824:0:2:0:0:
64,192,207824,1,0,0:0:0:70:SVF_D6ss.ogg
320,192,208241,1,2,0:2:0:0:
192,192,208657,1,0,0:0:0:70:SVF_D6ss.ogg
64,192,209074,128,2,209491:0:2:0:0:
448,192,209491,1,0,0:0:0:70:SVF_D#6ss.ogg
192,192,209907,1,2,0:2:0:0:
320,192,210324,1,10,0:2:0:0:
448,192,210324,1,4,0:2:0:0:
64,192,210741,1,2,0:2:0:0:
448,192,211157,1,10,0:2:0:0:
64,192,211574,1,2,0:2:0:0:
192,192,211574,1,4,0:2:0:0:
320,192,211782,1,0,0:0:0:70:tom1.wav
64,192,212199,1,8,0:2:0:0:
448,192,212407,128,2,212824:0:2:0:0:
64,192,212824,1,2,0:2:0:0:
192,192,213032,1,8,0:2:0:0:
320,192,213241,1,0,0:0:0:70:SVF_C6s.ogg
448,192,213241,1,2,0:2:0:0:
192,192,213657,1,0,0:0:0:70:ride.wav
448,192,214074,128,2,214491:0:2:0:0:
64,192,214491,1,0,0:0:0:70:SVF_D6ss.ogg
320,192,214907,1,2,0:2:0:0:
192,192,215324,1,0,0:0:0:70:ride.wav
64,192,215741,128,2,216157:0:2:0:0:
448,192,216157,1,0,0:0:0:70:SVF_C6ss.ogg
192,192,216574,1,2,0:2:0:0:
320,192,216991,1,0,0:0:0:70:ride.wav
192,192,217407,1,2,0:2:0:0:
448,192,217824,1,10,0:2:0:0:
64,192,218241,1,0,0:0:0:70:SVF_D6ss.ogg
192,192,218241,1,2,0:2:0:0:
320,192,218657,1,10,0:2:0:0:
448,192,219074,128,2,219491:0:2:0:0:
64,192,219491,1,2,0:2:0:0:
192,192,219699,1,8,0:2:0:0:
320,192,219907,1,0,0:0:0:70:SVF_G6s.ogg
448,192,219907,1,4,0:2:0:0:
320,192,220324,1,0,0:0:0:70:ride.wav
64,192,220741,128,2,221157:0:2:0:0:
448,192,221157,1,0,0:0:0:70:SVF_D6ss.ogg
192,192,221574,1,2,0:2:0:0:
320,192,221991,1,0,0:0:0:70:SVF_D6ss.ogg
448,192,222407,128,2,222824:0:2:0:0:
64,192,222824,1,0,0:0:0:70:SVF_D#6ss.ogg
192,192,223241,1,0,0:0:0:70:SVF_C6s.ogg
448,192,223241,1,2,0:2:0:0:
320,192,223657,1,10,0:2:0:0:
64,192,224074,1,0,0:0:0:70:SVF_D6s.ogg
448,192,224074,1,2,0:2:0:0:
192,192,224491,1,10,0:2:0:0:
320,192,224907,1,0,0:0:0:70:SVF_D#6s.ogg
448,192,224907,1,4,0:2:0:0:
192,192,225116,1,8,0:2:0:0:
64,192,225428,1,8,0:2:0:0:
448,192,225741,128,2,226157:0:2:0:0:
64,192,226157,128,0,226574:0:0:0:0:
320,192,226574,1,2,0:2:0:0:
448,192,226574,1,4,0:2:0:0:
192,192,226991,1,8,0:2:0:0:
448,192,227407,1,2,0:2:0:0:
64,192,227824,1,8,0:2:0:0:
320,192,228241,1,2,0:2:0:0:
192,192,228657,1,8,0:2:0:0:
448,192,229074,1,2,0:2:0:0:
64,192,229491,1,8,0:2:0:0:
192,192,229907,1,2,0:2:0:0:
320,192,230324,1,8,0:2:0:0:
64,192,230741,1,2,0:2:0:0:
448,192,231157,1,8,0:2:0:0:
320,192,231574,128,2,231991:0:2:0:0:
64,192,231991,128,8,232407:0:2:0:0:
448,192,232407,128,2,232824:0:2:0:0:
192,192,232824,1,10,0:2:0:0:
320,192,233032,1,8,0:2:0:0:
64,192,233241,1,4,0:2:0:0:
448,192,233241,1,2,0:2:0:0:
320,192,233657,1,8,0:2:0:0:
64,192,234074,1,2,0:2:0:0:
448,192,234491,1,8,0:2:0:0:
192,192,234907,1,2,0:2:0:0:
320,192,235324,1,8,0:2:0:0:
64,192,235741,1,2,0:2:0:0:
320,192,236157,1,8,0:2:0:0:
448,192,236574,1,2,0:2:0:0:
64,192,236991,1,8,0:2:0:0:
320,192,237407,128,2,237824:0:2:0:0:
192,192,237824,128,8,238241:0:2:0:0:
448,192,238241,1,2,0:2:0:0:
320,192,238449,1,8,0:2:0:0:
192,192,238761,1,8,0:2:0:0:
64,192,239074,1,8,0:2:0:0:
192,192,239386,1,8,0:2:0:0:
320,192,239699,1,8,0:2:0:0:
64,192,240324,128,0,246574:0:0:0:70:SVF_D5.ogg
448,192,240324,1,2,0:2:0:0:
