osu file format v14

[General]
AudioFilename: audio.ogg
AudioLeadIn: 0
PreviewTime: 65949
Countdown: 0
SampleSet: Soft
StackLeniency: 0.7
Mode: 3
LetterboxInBreaks: 0
SpecialStyle: 0
WidescreenStoryboard: 1

[Editor]
Bookmarks: 2407,13241,26574,39907,53241,59907,66574,79907,93241,106574,119907,133241,139907,146574,159907,173241,186574,199907,213241,226574,240324
DistanceSpacing: 0.96
BeatDivisor: 4
GridSize: 4
TimelineZoom: 1.4

[Metadata]
Title:Starry Jet
TitleUnicode:Starry Jet
Artist:Hoshimachi Suisei
ArtistUnicode:星街すいせい
Creator:chocomilku-
Version:Amii's Normal
Source:
Tags:Amiichii Antipole Symmatrix- DoctorTetraVoid vtuber virtual youtuber hololive ホロライブ バーチャルyoutuber こだまさおり kodama saori 櫻澤ヒカル sakurazawa hikaru 齋藤真也 saito masanari 齋藤大 saitou dai japanese pop jpop j-pop jazz still stellar suichan hosimati hoshimati hosimachi sui-chan hifumi,inc. HOLO-2
BeatmapID:3963774
BeatmapSetID:1795227

[Difficulty]
HPDrainRate:7
CircleSize:4
OverallDifficulty:7
ApproachRate:5
SliderMultiplier:1.4
SliderTickRate:1

[Events]
//Background and Video events
0,0,"suisei4.jpg",0,0
//Break Periods
//Storyboard Layer 0 (Background)
//Storyboard Layer 1 (Fail)
//Storyboard Layer 2 (Pass)
//Storyboard Layer 3 (Foreground)
//Storyboard Layer 4 (Overlay)
//Storyboard Sound Samples

[TimingPoints]
12209,405.405405405404,4,2,1,50,1,0
12209,-102.778091821947,4,2,1,50,0,0
13241,416.666666666667,4,2,1,50,1,0
66574,-100,4,2,1,65,0,1
91574,-100,4,2,1,50,0,0
199907,-100,4,2,1,65,0,1
226157,-100,4,2,1,50,0,0

[HitObjects]
192,192,12209,5,0,0:0:0:0:
448,192,12411,1,8,0:2:0:0:
64,192,12513,1,2,0:2:0:0:
320,192,12715,1,2,0:2:0:0:
64,192,12918,1,8,0:2:0:0:
448,192,13019,1,8,0:2:0:0:
64,192,13241,1,4,0:2:0:0:
192,192,13241,1,2,0:2:0:0:
320,192,13449,128,0,13657:0:0:0:0:
64,192,13657,1,8,0:2:0:0:
448,192,13657,1,0,0:0:0:0:
192,192,13866,128,0,14074:0:0:0:70:hat.wav
320,192,14074,1,2,0:2:0:0:
448,192,14282,128,0,14491:0:0:0:70:hat.wav
192,192,14491,1,8,0:2:0:0:
320,192,14491,1,0,0:0:0:0:
64,192,14699,128,0,14907:0:0:0:70:hat.wav
448,192,14907,1,2,0:2:0:0:
320,192,15116,128,0,15324:0:0:0:70:hat.wav
192,192,15324,128,8,15532:0:2:0:0:
448,192,15324,128,0,15532:0:0:0:0:
64,192,15532,128,0,15741:0:0:0:70:hat.wav
320,192,15741,128,2,15949:0:2:0:0:
192,192,15949,128,0,16157:0:0:0:70:hat.wav
320,192,16157,1,8,0:2:0:0:
448,192,16157,1,0,0:0:0:0:
64,192,16366,1,0,0:0:0:70:hat.wav
320,192,16574,128,2,17199:0:2:0:0:
64,192,16991,1,8,0:2:0:0:
192,192,16991,1,0,0:0:0:0:
448,192,17199,1,0,0:0:0:70:hat.wav
192,192,17303,1,0,0:0:0:70:hat.wav
64,192,17407,128,2,17824:0:2:0:0:
192,192,17824,1,8,0:2:0:0:
320,192,17824,128,0,18241:0:0:0:70:SVF_G#5ss.ogg
448,192,18241,128,2,18657:0:2:0:0:
64,192,18657,1,8,0:2:0:0:
192,192,18657,128,0,19074:0:0:0:0:
64,192,19074,128,2,19491:0:2:0:0:
320,192,19491,1,2,0:2:0:0:
448,192,19491,128,8,19907:0:2:0:0:
192,192,19699,1,8,0:2:0:0:
64,192,19907,1,2,0:2:0:0:
320,192,19907,1,4,0:2:0:0:
448,192,20116,128,0,20324:0:0:0:70:hat.wav
64,192,20324,1,8,0:2:0:0:
192,192,20324,1,0,0:0:0:0:
320,192,20532,128,0,20741:0:0:0:70:hat.wav
192,192,20741,1,2,0:2:0:0:
64,192,20949,128,0,21157:0:0:0:70:hat.wav
192,192,21157,1,8,0:2:0:0:
320,192,21157,1,0,0:0:0:0:
448,192,21366,128,0,21574:0:0:0:70:hat.wav
64,192,21574,1,2,0:2:0:0:
192,192,21782,128,0,21991:0:0:0:70:hat.wav
64,192,21991,128,8,22199:0:2:0:0:
320,192,21991,128,0,22199:0:0:0:0:
448,192,22199,128,0,22407:0:0:0:70:hat.wav
64,192,22407,128,2,22616:0:2:0:0:
320,192,22616,128,0,22824:0:0:0:70:hat.wav
64,192,22824,1,8,0:2:0:0:
192,192,22824,1,0,0:0:0:0:
448,192,23032,1,0,0:0:0:70:hat.wav
192,192,23241,128,2,24907:0:2:0:0:
320,192,23657,1,8,0:2:0:0:
448,192,23657,1,0,0:0:0:0:
64,192,24074,1,2,0:2:0:0:
320,192,24491,1,8,0:2:0:0:
448,192,24491,1,0,0:0:0:0:
64,192,24907,1,2,0:2:0:0:
320,192,25116,1,8,0:2:0:0:
448,192,25116,1,0,0:0:0:70:SVF_A#5ss.ogg
192,192,25428,1,8,0:2:0:0:
320,192,25428,1,0,0:0:0:70:SVF_A#5ss.ogg
64,192,25741,1,2,0:2:0:0:
192,192,25741,1,0,0:0:0:70:SVF_A#5ss.ogg
448,192,26157,128,10,26366:0:2:0:0:
64,192,26366,1,0,0:0:0:70:tom4.wav
320,192,26574,1,4,0:2:0:0:
448,192,26574,1,0,0:0:0:0:
192,192,26991,128,0,27407:0:0:0:0:
320,192,27407,128,0,27824:0:0:0:0:
64,192,28032,128,0,28449:0:0:0:0:
192,192,28032,1,0,0:0:0:0:
448,192,28449,128,0,28866:0:0:0:0:
192,192,29282,128,0,29491:0:0:0:0:
320,192,29491,128,0,29699:0:0:0:0:
192,192,29699,1,0,0:0:0:0:
448,192,29699,128,0,30116:0:0:0:0:
64,192,30116,128,0,30324:0:0:0:0:
192,192,30324,128,0,30532:0:0:0:0:
320,192,30532,128,0,30741:0:0:0:0:
448,192,30949,128,0,31157:0:0:0:0:
320,192,31157,128,0,31366:0:0:0:0:
64,192,31366,128,0,31782:0:0:0:0:
192,192,31366,1,0,0:0:0:0:
448,192,31782,128,0,32199:0:0:0:0:
64,192,32199,1,0,0:0:0:0:
192,192,32199,128,0,32407:0:0:0:0:
320,192,32407,128,0,32616:0:0:0:0:
64,192,32616,128,0,32824:0:0:0:0:
448,192,32824,128,0,33241:0:0:0:0:
64,192,33241,1,0,0:0:0:0:
192,192,33241,1,0,0:0:0:0:
320,192,33657,128,0,34074:0:0:0:0:
448,192,34074,128,0,34386:0:0:0:0:
192,192,34386,128,0,34699:0:0:0:0:
64,192,34699,128,0,35116:0:0:0:70:ride.wav
320,192,34699,1,0,0:0:0:0:
448,192,35116,128,0,35324:0:0:0:70:ride.wav
192,192,35324,128,0,35532:0:0:0:70:ride.wav
320,192,35532,128,0,35741:0:0:0:70:ride.wav
448,192,35532,1,0,0:0:0:0:
64,192,35949,128,0,36157:0:0:0:70:ride.wav
192,192,36157,128,0,36366:0:0:0:70:ride.wav
320,192,36366,1,2,0:2:0:0:
448,192,36366,128,0,36574:0:0:0:0:
64,192,36678,1,0,0:0:0:0:
192,192,36782,128,0,37199:0:0:0:0:
320,192,37199,1,2,0:2:0:0:
448,192,37199,128,0,37616:0:0:0:70:hat.wav
64,192,37616,1,8,0:2:0:0:
192,192,37616,1,0,0:0:0:0:
320,192,37824,1,8,0:2:0:0:
448,192,37824,1,0,0:0:0:0:
64,192,38032,1,2,0:2:0:0:
320,192,38032,1,4,0:2:0:0:
448,192,38449,1,0,0:0:0:70:tom5.wav
64,192,38657,1,8,0:2:0:0:
192,192,38657,1,0,0:0:0:70:tom5.wav
320,192,38866,1,8,0:2:0:0:
448,192,38866,1,0,0:0:0:70:tom5.wav
64,192,39074,128,8,39282:0:2:0:0:
192,192,39074,1,0,0:0:0:0:
448,192,39282,128,0,39491:0:0:0:0:
192,192,39491,1,8,0:2:0:0:
320,192,39491,128,2,39699:0:2:0:0:
64,192,39699,128,0,39907:0:0:0:70:tom4.wav
192,192,39907,1,2,0:2:0:0:
448,192,39907,128,4,40220:0:2:0:0:
320,192,40220,1,0,0:0:0:0:
64,192,40324,128,8,40532:0:2:0:0:
192,192,40324,1,0,0:0:0:0:
320,192,40741,128,2,41053:0:2:0:0:
192,192,41053,1,0,0:0:0:0:
64,192,41157,1,8,0:2:0:0:
448,192,41157,1,0,0:0:0:0:
192,192,41366,128,0,41782:0:0:0:70:hat.wav
320,192,41574,1,2,0:2:0:0:
64,192,41782,128,0,41991:0:0:0:70:hat.wav
320,192,41991,1,8,0:2:0:0:
448,192,41991,128,0,42199:0:0:0:0:
192,192,42199,128,0,42407:0:0:0:70:hat.wav
64,192,42407,1,2,0:2:0:0:
320,192,42407,128,0,42824:0:0:0:0:
192,192,42824,1,8,0:2:0:0:
448,192,42824,1,0,0:0:0:0:
192,192,43032,1,0,0:0:0:70:hat.wav
64,192,43241,1,2,0:2:0:0:
448,192,43449,1,0,0:0:0:70:hat.wav
64,192,43657,1,8,0:2:0:0:
448,192,43657,1,0,0:0:0:0:
192,192,43866,1,0,0:0:0:70:hat.wav
320,192,44074,128,2,44386:0:2:0:0:
448,192,44386,1,0,0:0:0:0:
64,192,44491,1,8,0:2:0:0:
192,192,44491,1,0,0:0:0:0:
448,192,44699,128,0,45116:0:0:0:70:hat.wav
64,192,45116,128,0,45324:0:0:0:70:hat.wav
192,192,45324,1,8,0:2:0:0:
320,192,45324,128,0,45532:0:0:0:0:
448,192,45532,128,0,45741:0:0:0:70:hat.wav
192,192,45741,128,2,45949:0:2:0:0:
320,192,45949,1,8,0:2:0:0:
64,192,46053,1,8,0:2:0:0:
448,192,46261,1,8,0:2:0:0:
64,192,46574,128,2,46886:0:2:0:0:
320,192,46574,1,4,0:2:0:0:
192,192,46886,1,0,0:0:0:0:
320,192,46991,1,8,0:2:0:0:
448,192,46991,128,0,47199:0:0:0:0:
192,192,47407,128,2,47720:0:2:0:0:
320,192,47720,1,0,0:0:0:0:
64,192,47824,1,8,0:2:0:0:
448,192,47824,1,0,0:0:0:0:
320,192,48032,128,0,48449:0:0:0:70:hat.wav
192,192,48241,1,2,0:2:0:0:
448,192,48449,128,0,48657:0:0:0:70:hat.wav
64,192,48657,128,8,48866:0:2:0:0:
192,192,48657,1,0,0:0:0:0:
320,192,48866,128,0,49074:0:0:0:70:hat.wav
192,192,49074,128,2,49491:0:2:0:0:
448,192,49074,1,0,0:0:0:0:
64,192,49491,1,8,0:2:0:0:
320,192,49491,1,0,0:0:0:0:
192,192,49699,1,0,0:0:0:70:hat.wav
448,192,49907,128,2,50220:0:2:0:0:
320,192,50220,1,0,0:0:0:0:
64,192,50324,1,8,0:2:0:0:
192,192,50324,1,0,0:0:0:0:
320,192,50532,128,0,50949:0:0:0:70:hat.wav
64,192,50949,1,0,0:0:0:70:hat.wav
192,192,51157,1,8,0:2:0:0:
448,192,51157,1,0,0:0:0:0:
64,192,51366,1,2,0:2:0:0:
320,192,51366,1,4,0:2:0:0:
192,192,51782,1,2,0:2:0:0:
64,192,51991,1,8,0:2:0:0:
448,192,51991,1,0,0:0:0:0:
320,192,52199,1,0,0:0:0:70:hat.wav
64,192,52407,1,2,0:2:0:0:
192,192,52407,1,0,0:0:0:70:tom1.wav
448,192,52616,128,8,52824:0:2:0:0:
64,192,52824,1,8,0:2:0:0:
320,192,52824,1,0,0:0:0:0:
192,192,53032,1,0,0:0:0:70:tom4.wav
320,192,53241,1,2,0:2:0:0:
448,192,53241,128,4,53866:0:2:0:0:
192,192,53866,1,2,0:2:0:0:
64,192,54074,1,8,0:2:0:0:
320,192,54074,1,0,0:0:0:70:hat.wav
448,192,54491,1,2,0:2:0:0:
64,192,54803,1,2,0:2:0:0:
320,192,54907,1,2,0:2:0:0:
448,192,54907,1,0,0:0:0:0:
192,192,55220,1,2,0:2:0:0:
320,192,55220,1,0,0:0:0:0:
64,192,55532,1,2,0:2:0:0:
192,192,55532,1,0,0:0:0:0:
320,192,55741,1,8,0:2:0:0:
448,192,55741,1,0,0:0:0:70:hat.wav
64,192,55949,128,0,56157:0:0:0:0:
192,192,56157,128,0,56366:0:0:0:0:
320,192,56366,128,0,56574:0:0:0:0:
448,192,56574,128,2,57199:0:2:0:0:
192,192,56886,128,0,57199:0:0:0:0:
64,192,57199,1,2,0:2:0:0:
320,192,57303,1,2,0:2:0:0:
64,192,57407,1,8,0:2:0:0:
192,192,57407,1,0,0:0:0:70:hat.wav
192,192,57720,1,2,0:2:0:0:
320,192,57720,1,0,0:0:0:0:
320,192,58032,1,2,0:2:0:0:
448,192,58032,1,0,0:0:0:0:
64,192,58241,128,2,58866:0:2:0:0:
192,192,58241,1,0,0:0:0:70:ride.wav
320,192,58657,1,0,0:0:0:70:ride.wav
192,192,58866,1,2,0:2:0:0:
320,192,58970,1,0,0:0:0:0:
64,192,59074,1,8,0:2:0:0:
448,192,59074,1,0,0:0:0:70:hat.wav
192,192,59282,1,2,0:2:0:0:
64,192,59491,1,2,0:2:0:0:
448,192,59491,1,4,0:2:0:0:
320,192,59699,128,8,59907:0:2:0:0:
64,192,59907,1,2,0:2:0:0:
192,192,59907,1,4,0:2:0:0:
448,192,60116,1,0,0:0:0:70:hat.wav
192,192,60324,1,8,0:2:0:0:
320,192,60324,1,0,0:0:0:0:
64,192,60532,1,0,0:0:0:70:hat.wav
320,192,60741,1,2,0:2:0:0:
448,192,60741,1,0,0:0:0:0:
192,192,60949,1,0,0:0:0:70:hat.wav
64,192,61157,1,8,0:2:0:0:
320,192,61157,1,0,0:0:0:0:
448,192,61366,1,0,0:0:0:70:hat.wav
64,192,61574,1,2,0:2:0:0:
192,192,61574,1,0,0:0:0:0:
320,192,61782,1,0,0:0:0:70:hat.wav
64,192,61991,1,8,0:2:0:0:
448,192,61991,1,0,0:0:0:0:
192,192,62199,1,0,0:0:0:70:hat.wav
320,192,62407,1,2,0:2:0:0:
448,192,62407,1,0,0:0:0:0:
64,192,62616,1,0,0:0:0:70:hat.wav
192,192,62824,1,8,0:2:0:0:
320,192,62824,1,0,0:0:0:0:
448,192,63032,1,0,0:0:0:70:hat.wav
64,192,63241,1,2,0:2:0:0:
192,192,63241,1,4,0:2:0:0:
320,192,63449,1,0,0:0:0:70:hat.wav
192,192,63657,1,8,0:2:0:0:
448,192,63657,1,0,0:0:0:0:
64,192,63866,1,0,0:0:0:70:tom1.wav
192,192,63970,1,0,0:0:0:70:tom4.wav
320,192,64074,1,2,0:2:0:0:
448,192,64282,1,0,0:0:0:70:hat.wav
320,192,64386,1,0,0:0:0:70:tom4.wav
192,192,64491,1,10,0:2:0:0:
64,192,64699,1,8,0:2:0:0:
448,192,64803,1,8,0:2:0:0:
64,192,65116,1,2,0:2:0:0:
192,192,65116,1,0,0:0:0:70:hat.wav
192,192,65428,1,2,0:2:0:0:
320,192,65428,1,0,0:0:0:70:hat.wav
320,192,65741,1,2,0:2:0:0:
448,192,65741,1,0,0:0:0:70:hat.wav
64,192,65949,1,0,0:0:0:0:
320,192,66157,128,0,66574:0:0:0:0:
64,192,66574,1,0,0:0:0:70:SVF_A#5.ogg
448,192,66574,128,2,66886:0:2:0:0:
192,192,66886,1,0,0:0:0:0:
448,192,67095,1,0,0:0:0:0:
64,192,67199,1,0,0:0:0:70:hat.wav
320,192,67407,1,2,0:2:0:0:
192,192,67616,1,0,0:0:0:70:hat.wav
320,192,67824,1,8,0:2:0:0:
448,192,67824,1,2,0:2:0:0:
64,192,68032,1,0,0:0:0:70:hat.wav
320,192,68241,1,2,0:2:0:0:
192,192,68553,1,0,0:0:0:0:
64,192,68657,1,0,0:0:0:70:SVF_D#6ss.ogg
448,192,68657,1,8,0:2:0:0:
320,192,68866,128,0,69491:0:0:0:70:hat.wav
192,192,69074,1,2,0:2:0:0:
64,192,69491,1,0,0:0:0:70:SVF_C6ss.ogg
192,192,69491,1,8,0:2:0:0:
320,192,69907,1,2,0:2:0:0:
448,192,69907,128,0,70220:0:0:0:70:SVF_A#5s.ogg
192,192,70220,1,0,0:0:0:0:
320,192,70428,1,0,0:0:0:0:
64,192,70532,1,0,0:0:0:70:hat.wav
448,192,70741,1,2,0:2:0:0:
320,192,70949,1,0,0:0:0:70:hat.wav
64,192,71157,1,8,0:2:0:0:
192,192,71157,1,2,0:2:0:0:
448,192,71366,1,0,0:0:0:70:hat.wav
64,192,71574,128,2,71782:0:2:0:0:
320,192,71574,128,0,71782:0:0:0:70:SVF_G5s.ogg
192,192,71991,128,8,72199:0:2:0:0:
448,192,71991,128,2,72199:0:2:0:0:
320,192,72407,128,2,72616:0:2:0:0:
448,192,72407,128,0,72616:0:0:0:0:
64,192,72824,1,0,0:0:0:70:SVF_D#5ss.ogg
192,192,72824,1,8,0:2:0:0:
320,192,73032,1,8,0:2:0:0:
64,192,73241,1,0,0:0:0:70:SVF_A#5.ogg
448,192,73241,1,2,0:2:0:0:
192,192,73449,1,0,0:0:0:70:hat.wav
448,192,73553,1,0,0:0:0:0:
320,192,73761,1,0,0:0:0:0:
64,192,73866,1,0,0:0:0:70:hat.wav
448,192,74074,1,2,0:2:0:0:
192,192,74282,1,0,0:0:0:70:hat.wav
64,192,74491,1,8,0:2:0:0:
320,192,74491,1,2,0:2:0:0:
448,192,74699,1,0,0:0:0:70:hat.wav
64,192,74907,1,2,0:2:0:0:
320,192,75220,1,0,0:0:0:0:
64,192,75324,1,0,0:0:0:70:SVF_D#6ss.ogg
192,192,75324,1,8,0:2:0:0:
448,192,75532,128,0,76157:0:0:0:70:hat.wav
320,192,75741,1,2,0:2:0:0:
64,192,76157,1,0,0:0:0:70:SVF_C6ss.ogg
192,192,76157,1,8,0:2:0:0:
320,192,76366,1,0,0:0:0:70:hat.wav
448,192,76574,128,2,76991:0:2:0:0:
64,192,76991,1,6,0:2:0:0:
192,192,76991,1,8,0:2:0:0:
448,192,77199,1,0,0:0:0:70:hat.wav
64,192,77407,128,2,77824:0:2:0:0:
320,192,77824,1,0,0:0:0:70:hat.wav
448,192,77824,1,2,0:2:0:0:
192,192,78032,1,0,0:0:0:70:hat.wav
64,192,78241,1,2,0:2:0:0:
448,192,78241,1,4,0:2:0:0:
320,192,78449,128,2,78657:0:2:0:0:
192,192,78657,128,2,78866:0:2:0:0:
448,192,78866,128,8,79074:0:2:0:0:
320,192,79074,128,8,79282:0:2:0:0:
64,192,79282,128,8,79491:0:2:0:0:
192,192,79491,128,2,79699:0:2:0:0:
448,192,79699,128,8,79907:0:2:0:0:
64,192,79907,1,2,0:2:0:0:
320,192,79907,1,4,0:2:0:0:
192,192,80324,1,0,0:0:0:70:ride.wav
448,192,80324,1,8,0:2:0:0:
320,192,80741,1,2,0:2:0:0:
192,192,81053,1,0,0:0:0:0:
64,192,81157,1,0,0:0:0:70:ride.wav
320,192,81157,1,2,0:2:0:0:
448,192,81366,1,0,0:0:0:70:hat.wav
192,192,81574,1,2,0:2:0:0:
64,192,81886,1,0,0:0:0:0:
320,192,81991,1,0,0:0:0:70:ride.wav
448,192,81991,1,8,0:2:0:0:
192,192,82199,1,0,0:0:0:70:hat.wav
448,192,82407,1,2,0:2:0:0:
64,192,82616,128,0,82824:0:0:0:70:hat.wav
320,192,82824,1,0,0:0:0:70:ride.wav
448,192,82824,128,8,83032:0:2:0:0:
192,192,83032,1,0,0:0:0:70:hat.wav
64,192,83241,1,2,0:2:0:0:
448,192,83449,1,0,0:0:0:70:hat.wav
320,192,83553,1,0,0:0:0:0:
64,192,83761,1,0,0:0:0:0:
192,192,83970,128,0,84282:0:0:0:0:
448,192,84282,128,0,84491:0:0:0:70:hat.wav
192,192,84491,128,0,84699:0:0:0:70:ride.wav
320,192,84491,1,8,0:2:0:0:
64,192,84699,128,0,84907:0:0:0:70:hat.wav
320,192,84907,128,2,85116:0:2:0:0:
448,192,84907,128,0,85116:0:0:0:70:ride.wav
192,192,85324,128,0,85532:0:0:0:70:ride.wav
320,192,85324,128,8,85532:0:2:0:0:
64,192,85741,128,2,85949:0:2:0:0:
192,192,85741,128,0,85949:0:0:0:70:hat.wav
320,192,86157,128,12,86366:0:2:0:0:
448,192,86157,128,2,86366:0:2:0:0:
64,192,86366,1,8,0:2:0:0:
320,192,86574,1,2,0:2:0:0:
448,192,86574,1,4,0:2:0:0:
64,192,86991,1,0,0:0:0:70:ride.wav
320,192,86991,1,2,0:2:0:0:
192,192,87407,1,2,0:2:0:0:
320,192,87720,1,0,0:0:0:0:
64,192,87824,1,0,0:0:0:70:ride.wav
448,192,87824,1,8,0:2:0:0:
192,192,88032,1,0,0:0:0:70:hat.wav
320,192,88241,1,2,0:2:0:0:
448,192,88553,1,0,0:0:0:0:
64,192,88657,1,0,0:0:0:70:ride.wav
192,192,88657,1,2,0:2:0:0:
320,192,88866,1,0,0:0:0:70:hat.wav
64,192,89074,1,2,0:2:0:0:
448,192,89282,128,0,89491:0:0:0:70:hat.wav
64,192,89491,128,0,89699:0:0:0:70:ride.wav
192,192,89491,1,2,0:2:0:0:
320,192,89699,1,0,0:0:0:70:hat.wav
448,192,89907,128,2,90324:0:2:0:0:
64,192,90324,1,0,0:0:0:70:ride.wav
192,192,90324,1,2,0:2:0:0:
320,192,90532,1,0,0:0:0:70:hat.wav
192,192,90741,128,2,91157:0:2:0:0:
64,192,91157,1,0,0:0:0:70:ride.wav
448,192,91157,1,2,0:2:0:0:
192,192,91366,1,8,0:2:0:0:
320,192,91470,1,8,0:2:0:0:
64,192,91782,1,2,0:2:0:0:
448,192,91991,1,2,0:2:0:0:
192,192,92199,1,8,0:2:0:0:
448,192,92407,1,8,0:2:0:0:
320,192,92616,1,0,0:0:0:70:hat.wav
192,192,92720,1,8,0:2:0:0:
64,192,92824,128,8,93032:0:2:0:0:
448,192,93032,128,0,93241:0:0:0:70:tom5.wav
64,192,93241,1,2,0:2:0:0:
192,192,93241,1,4,0:2:0:0:
320,192,93449,128,0,93657:0:0:0:70:hat.wav
64,192,93657,1,8,0:2:0:0:
448,192,93657,1,0,0:0:0:0:
192,192,93866,128,0,94074:0:0:0:70:hat.wav
320,192,94074,1,2,0:2:0:0:
448,192,94282,128,0,94491:0:0:0:70:hat.wav
192,192,94491,1,8,0:2:0:0:
320,192,94491,1,0,0:0:0:0:
64,192,94699,128,0,94907:0:0:0:70:hat.wav
448,192,94907,1,2,0:2:0:0:
320,192,95116,128,0,95324:0:0:0:70:hat.wav
192,192,95324,128,8,95532:0:2:0:0:
448,192,95324,128,0,95532:0:0:0:0:
64,192,95532,128,0,95741:0:0:0:70:hat.wav
320,192,95741,128,2,95949:0:2:0:0:
192,192,95949,128,0,96157:0:0:0:70:hat.wav
320,192,96157,1,8,0:2:0:0:
448,192,96157,1,0,0:0:0:0:
64,192,96366,1,0,0:0:0:70:hat.wav
320,192,96574,128,2,97199:0:2:0:0:
64,192,96991,1,8,0:2:0:0:
192,192,96991,1,0,0:0:0:0:
448,192,97199,1,0,0:0:0:70:hat.wav
192,192,97303,1,0,0:0:0:70:hat.wav
64,192,97407,128,2,97824:0:2:0:0:
192,192,97824,1,8,0:2:0:0:
320,192,97824,128,0,98241:0:0:0:70:SVF_G#5ss.ogg
448,192,98241,128,2,98657:0:2:0:0:
64,192,98657,1,8,0:2:0:0:
192,192,98657,128,0,99074:0:0:0:0:
64,192,99074,128,2,99491:0:2:0:0:
320,192,99491,128,8,99907:0:2:0:0:
448,192,99491,1,2,0:2:0:0:
192,192,99699,128,8,99907:0:2:0:0:
64,192,99907,1,4,0:2:0:0:
448,192,99907,1,2,0:2:0:0:
320,192,100116,128,0,100324:0:0:0:70:hat.wav
64,192,100324,1,8,0:2:0:0:
448,192,100324,1,0,0:0:0:0:
192,192,100532,128,0,100741:0:0:0:70:hat.wav
320,192,100741,1,2,0:2:0:0:
64,192,100949,128,0,101157:0:0:0:70:hat.wav
192,192,101157,1,8,0:2:0:0:
320,192,101157,1,0,0:0:0:0:
448,192,101366,128,0,101574:0:0:0:70:hat.wav
64,192,101574,1,2,0:2:0:0:
192,192,101782,128,0,101991:0:0:0:70:hat.wav
64,192,101991,128,8,102199:0:2:0:0:
320,192,101991,128,0,102199:0:0:0:0:
448,192,102199,128,0,102407:0:0:0:70:hat.wav
64,192,102407,128,2,102616:0:2:0:0:
320,192,102616,128,0,102824:0:0:0:70:hat.wav
64,192,102824,1,8,0:2:0:0:
192,192,102824,1,0,0:0:0:0:
448,192,103032,1,0,0:0:0:70:hat.wav
192,192,103241,128,2,104907:0:2:0:0:
320,192,103657,1,8,0:2:0:0:
448,192,103657,1,0,0:0:0:0:
64,192,104074,1,2,0:2:0:0:
320,192,104491,1,8,0:2:0:0:
448,192,104491,1,0,0:0:0:0:
448,192,104907,1,2,0:2:0:0:
64,192,105116,1,8,0:2:0:0:
320,192,105116,1,0,0:0:0:70:hat.wav
192,192,105428,1,8,0:2:0:0:
448,192,105428,1,0,0:0:0:70:hat.wav
64,192,105741,1,8,0:2:0:0:
448,192,105741,1,0,0:0:0:70:hat.wav
64,192,106053,1,8,0:2:0:0:
320,192,106053,1,0,0:0:0:70:hat.wav
192,192,106366,1,8,0:2:0:0:
320,192,106366,1,0,0:0:0:70:hat.wav
448,192,106574,1,0,0:0:0:0:
64,192,106782,1,0,0:0:0:70:hat.wav
192,192,106991,1,0,0:0:0:70:ride.wav
320,192,107199,1,0,0:0:0:70:hat.wav
448,192,107407,1,0,0:0:0:70:ride.wav
64,192,107616,1,0,0:0:0:70:hat.wav
192,192,107824,1,0,0:0:0:70:ride.wav
320,192,108032,1,0,0:0:0:70:hat.wav
448,192,108241,1,0,0:0:0:70:ride.wav
64,192,108449,1,0,0:0:0:70:hat.wav
320,192,108449,1,0,0:0:0:70:ride.wav
192,192,108657,1,0,0:0:0:70:ride.wav
448,192,108761,1,0,0:0:0:0:
64,192,108866,1,8,0:2:0:0:
320,192,109074,1,0,0:0:0:70:ride.wav
448,192,109074,1,0,0:0:0:0:
192,192,109282,1,0,0:0:0:70:hat.wav
64,192,109491,1,0,0:0:0:70:ride.wav
320,192,109699,128,0,110116:0:0:0:70:hat.wav
448,192,109699,1,0,0:0:0:70:ride.wav
64,192,110116,1,0,0:0:0:70:hat.wav
320,192,110324,1,0,0:0:0:70:ride.wav
192,192,110532,1,0,0:0:0:70:hat.wav
448,192,110532,128,0,110949:0:0:0:70:ride.wav
64,192,110949,1,0,0:0:0:70:hat.wav
320,192,111157,1,0,0:0:0:70:ride.wav
64,192,111366,1,0,0:0:0:70:hat.wav
192,192,111366,128,0,111782:0:0:0:70:ride.wav
448,192,111782,1,0,0:0:0:70:hat.wav
320,192,111991,1,0,0:0:0:70:ride.wav
64,192,112199,1,8,0:2:0:0:
192,192,112199,1,0,0:0:0:70:hat.wav
320,192,112407,1,0,0:0:0:70:ride.wav
64,192,112616,1,8,0:2:0:0:
448,192,112616,1,0,0:0:0:70:hat.wav
192,192,112824,1,0,0:0:0:70:ride.wav
320,192,113032,1,0,0:0:0:70:hat.wav
448,192,113241,128,0,114074:0:0:0:70:ride.wav
64,192,113657,128,0,114074:0:0:0:70:ride.wav
320,192,114074,128,0,114282:0:0:0:70:ride.wav
192,192,114386,128,0,114595:0:0:0:0:
448,192,114699,128,0,115116:0:0:0:70:hat.wav
64,192,115116,128,8,115324:0:2:0:0:
320,192,115324,128,0,115532:0:0:0:70:ride.wav
192,192,115532,128,0,115741:0:0:0:70:hat.wav
64,192,115741,1,0,0:0:0:70:ride.wav
448,192,115949,128,0,116157:0:0:0:70:hat.wav
192,192,116157,128,0,116366:0:0:0:70:ride.wav
320,192,116366,128,2,116574:0:2:0:0:
448,192,116366,1,0,0:0:0:70:hat.wav
64,192,116782,128,0,116991:0:0:0:0:
192,192,117199,1,2,0:2:0:0:
448,192,117199,128,0,117407:0:0:0:70:hat.wav
320,192,117511,1,0,0:0:0:0:
64,192,117616,128,0,117824:0:0:0:0:
448,192,117824,128,0,118032:0:0:0:0:
192,192,118032,128,0,118449:0:0:0:0:
320,192,118449,1,8,0:2:0:0:
448,192,118657,1,8,0:2:0:0:
64,192,118866,1,8,0:2:0:0:
320,192,119074,1,8,0:2:0:0:
192,192,119282,1,0,0:0:0:70:hat.wav
320,192,119491,1,8,0:2:0:0:
448,192,119491,1,0,0:0:0:70:hat.wav
64,192,119907,1,2,0:2:0:0:
192,192,119907,1,4,0:2:0:0:
320,192,120116,1,0,0:0:0:70:hat.wav
64,192,120324,1,8,0:2:0:0:
448,192,120324,1,0,0:0:0:0:
192,192,120532,1,0,0:0:0:70:hat.wav
320,192,120741,1,2,0:2:0:0:
448,192,120741,1,0,0:0:0:0:
64,192,121053,1,0,0:0:0:0:
192,192,121053,1,0,0:0:0:0:
320,192,121366,1,0,0:0:0:70:hat.wav
64,192,121574,1,2,0:2:0:0:
448,192,121574,1,0,0:0:0:0:
192,192,121782,1,0,0:0:0:70:hat.wav
320,192,121991,1,8,0:2:0:0:
448,192,121991,1,0,0:0:0:0:
192,192,122199,1,0,0:0:0:70:hat.wav
64,192,122407,1,2,0:2:0:0:
320,192,122407,1,0,0:0:0:0:
192,192,122720,1,0,0:0:0:0:
448,192,122720,1,0,0:0:0:0:
64,192,123032,1,0,0:0:0:70:hat.wav
192,192,123032,1,0,0:0:0:0:
320,192,123449,1,0,0:0:0:70:hat.wav
64,192,123657,1,8,0:2:0:0:
448,192,123657,1,0,0:0:0:0:
192,192,123866,1,0,0:0:0:70:hat.wav
320,192,124074,1,2,0:2:0:0:
448,192,124074,1,0,0:0:0:0:
64,192,124491,1,8,0:2:0:0:
192,192,124491,1,0,0:0:0:0:
320,192,124907,1,2,0:2:0:0:
192,192,125116,1,0,0:0:0:70:hat.wav
64,192,125324,1,8,0:2:0:0:
448,192,125324,1,0,0:0:0:0:
320,192,125532,1,0,0:0:0:70:hat.wav
192,192,125741,1,2,0:2:0:0:
64,192,125949,128,0,126157:0:0:0:70:hat.wav
320,192,126157,1,8,0:2:0:0:
448,192,126157,128,0,126470:0:0:0:0:
64,192,126470,1,8,0:2:0:0:
320,192,126991,1,2,0:2:0:0:
448,192,126991,1,4,0:2:0:0:
192,192,127199,1,0,0:0:0:70:hat.wav
64,192,127407,1,2,0:2:0:0:
320,192,127407,1,0,0:0:0:0:
192,192,127720,1,0,0:0:0:0:
320,192,127720,1,0,0:0:0:0:
448,192,128032,1,0,0:0:0:70:hat.wav
64,192,128241,1,2,0:2:0:0:
320,192,128241,1,0,0:0:0:0:
192,192,128449,1,0,0:0:0:70:hat.wav
320,192,128657,1,8,0:2:0:0:
448,192,128657,1,0,0:0:0:0:
64,192,128866,1,0,0:0:0:70:hat.wav
192,192,129074,1,2,0:2:0:0:
448,192,129074,1,0,0:0:0:0:
64,192,129386,1,0,0:0:0:0:
320,192,129386,1,0,0:0:0:0:
192,192,129699,1,0,0:0:0:70:hat.wav
64,192,129907,1,2,0:2:0:0:
448,192,129907,1,0,0:0:0:0:
192,192,130220,1,0,0:0:0:0:
320,192,130220,1,0,0:0:0:0:
320,192,130532,1,0,0:0:0:70:hat.wav
448,192,130532,1,0,0:0:0:0:
192,192,130845,1,0,0:0:0:0:
448,192,130845,1,0,0:0:0:0:
64,192,131157,1,8,0:2:0:0:
192,192,131157,1,0,0:0:0:0:
320,192,131366,1,2,0:2:0:0:
448,192,131366,1,4,0:2:0:0:
192,192,131782,1,2,0:2:0:0:
64,192,131991,1,8,0:2:0:0:
448,192,131991,1,0,0:0:0:70:hat.wav
320,192,132199,128,0,132407:0:0:0:70:hat.wav
64,192,132407,1,0,0:0:0:70:tom1.wav
192,192,132407,1,0,0:0:0:0:
448,192,132616,128,0,132824:0:0:0:0:
192,192,132824,1,8,0:2:0:0:
320,192,132824,1,0,0:0:0:0:
64,192,133032,1,0,0:0:0:70:tom4.wav
192,192,133241,1,2,0:2:0:0:
448,192,133241,1,4,0:2:0:0:
320,192,133553,1,0,0:0:0:0:
64,192,133657,1,8,0:2:0:0:
192,192,133657,1,0,0:0:0:0:
448,192,133866,1,0,0:0:0:70:hat.wav
64,192,134074,1,2,0:2:0:0:
192,192,134491,1,8,0:2:0:0:
448,192,134491,128,0,134907:0:0:0:0:
320,192,134907,1,2,0:2:0:0:
192,192,135220,1,0,0:0:0:0:
64,192,135324,1,8,0:2:0:0:
320,192,135324,1,0,0:0:0:0:
448,192,135532,1,0,0:0:0:70:hat.wav
64,192,135741,1,2,0:2:0:0:
320,192,135949,1,0,0:0:0:70:hat.wav
192,192,136157,1,8,0:2:0:0:
448,192,136157,1,0,0:0:0:0:
64,192,136366,1,0,0:0:0:70:hat.wav
448,192,136574,1,2,0:2:0:0:
192,192,136886,1,0,0:0:0:0:
64,192,136991,1,8,0:2:0:0:
448,192,136991,1,0,0:0:0:0:
320,192,137199,1,0,0:0:0:70:hat.wav
64,192,137407,1,2,0:2:0:0:
320,192,137720,1,0,0:0:0:0:
64,192,137824,1,8,0:2:0:0:
192,192,137824,1,0,0:0:0:0:
448,192,138032,1,0,0:0:0:70:hat.wav
192,192,138241,128,2,138657:0:2:0:0:
64,192,138657,1,8,0:2:0:0:
320,192,138657,1,0,0:0:0:0:
448,192,138866,1,0,0:0:0:70:hat.wav
64,192,138970,1,0,0:0:0:0:
192,192,139074,1,2,0:2:0:0:
320,192,139282,1,8,0:2:0:0:
64,192,139491,1,2,0:2:0:0:
448,192,139491,1,0,0:0:0:0:
192,192,139699,128,0,139907:0:0:0:70:hat.wav
320,192,139907,1,2,0:2:0:0:
448,192,139907,128,4,140116:0:2:0:0:
64,192,140116,128,0,140324:0:0:0:70:hat.wav
192,192,140324,1,8,0:2:0:0:
320,192,140324,128,0,140532:0:0:0:0:
448,192,140532,1,0,0:0:0:70:hat.wav
192,192,140636,1,0,0:0:0:0:
64,192,140741,1,2,0:2:0:0:
320,192,140949,1,0,0:0:0:70:hat.wav
64,192,141157,1,8,0:2:0:0:
192,192,141157,1,0,0:0:0:0:
448,192,141366,128,0,141574:0:0:0:70:hat.wav
192,192,141574,128,2,141782:0:2:0:0:
320,192,141782,128,0,141991:0:0:0:70:hat.wav
64,192,141991,128,8,142199:0:2:0:0:
448,192,141991,1,0,0:0:0:0:
192,192,142199,1,0,0:0:0:70:hat.wav
448,192,142303,128,0,142616:0:0:0:0:
64,192,142616,128,0,142824:0:0:0:70:hat.wav
192,192,142824,1,8,0:2:0:0:
320,192,142824,128,0,143032:0:0:0:0:
448,192,143032,1,0,0:0:0:70:hat.wav
64,192,143241,1,2,0:2:0:0:
192,192,143241,1,0,0:0:0:0:
448,192,143449,1,0,0:0:0:70:hat.wav
192,192,143657,1,8,0:2:0:0:
320,192,143657,1,0,0:0:0:0:
64,192,143866,1,0,0:0:0:70:hat.wav
448,192,144074,1,2,0:2:0:0:
192,192,144282,1,0,0:0:0:70:hat.wav
64,192,144491,1,8,0:2:0:0:
320,192,144491,1,0,0:0:0:0:
448,192,144699,1,0,0:0:0:70:hat.wav
64,192,144803,1,0,0:0:0:0:
192,192,145116,1,2,0:2:0:0:
448,192,145116,1,0,0:0:0:70:hat.wav
64,192,145428,1,2,0:2:0:0:
320,192,145428,1,0,0:0:0:70:hat.wav
64,192,145741,1,2,0:2:0:0:
192,192,145741,1,0,0:0:0:70:hat.wav
448,192,146157,128,8,146366:0:2:0:0:
64,192,146366,128,0,146574:0:0:0:70:tom4.wav
320,192,146574,1,2,0:2:0:0:
448,192,146574,1,4,0:2:0:0:
192,192,146782,1,0,0:0:0:70:hat.wav
64,192,146991,1,8,0:2:0:0:
448,192,146991,1,0,0:0:0:0:
320,192,147303,1,0,0:0:0:70:hat.wav
64,192,147616,1,0,0:0:0:70:hat.wav
320,192,147824,1,8,0:2:0:0:
448,192,147824,1,0,0:0:0:0:
192,192,148136,1,0,0:0:0:0:
448,192,148449,1,0,0:0:0:70:hat.wav
64,192,148657,1,8,0:2:0:0:
192,192,148657,1,0,0:0:0:0:
320,192,148970,1,0,0:0:0:70:hat.wav
64,192,149282,1,0,0:0:0:70:hat.wav
192,192,149491,1,8,0:2:0:0:
448,192,149491,1,0,0:0:0:0:
320,192,149803,1,0,0:0:0:0:
192,192,150116,1,0,0:0:0:70:hat.wav
64,192,150324,1,8,0:2:0:0:
448,192,150324,1,0,0:0:0:0:
320,192,150636,1,0,0:0:0:70:hat.wav
192,192,150949,1,0,0:0:0:70:hat.wav
64,192,151157,1,8,0:2:0:0:
320,192,151157,1,0,0:0:0:0:
448,192,151470,1,0,0:0:0:0:
64,192,151782,1,0,0:0:0:70:hat.wav
192,192,151991,1,8,0:2:0:0:
448,192,151991,1,0,0:0:0:0:
320,192,152303,1,8,0:2:0:0:
64,192,152616,1,0,0:0:0:70:tom5.wav
448,192,152824,1,2,0:2:0:0:
64,192,153136,1,8,0:2:0:0:
320,192,153241,1,2,0:2:0:0:
448,192,153241,1,4,0:2:0:0:
192,192,153449,1,0,0:0:0:70:hat.wav
64,192,153657,1,8,0:2:0:0:
320,192,153657,1,0,0:0:0:0:
448,192,153970,1,0,0:0:0:70:hat.wav
64,192,154282,1,0,0:0:0:70:hat.wav
192,192,154491,1,8,0:2:0:0:
448,192,154491,1,0,0:0:0:0:
320,192,154803,1,0,0:0:0:0:
192,192,155116,1,0,0:0:0:70:hat.wav
64,192,155324,1,8,0:2:0:0:
448,192,155324,1,0,0:0:0:0:
320,192,155636,1,0,0:0:0:70:hat.wav
64,192,155949,1,0,0:0:0:70:hat.wav
320,192,156157,1,8,0:2:0:0:
448,192,156157,1,0,0:0:0:0:
192,192,156470,1,0,0:0:0:0:
320,192,156782,1,0,0:0:0:70:hat.wav
64,192,156991,1,8,0:2:0:0:
192,192,156991,1,0,0:0:0:0:
448,192,157303,1,0,0:0:0:70:hat.wav
64,192,157616,1,0,0:0:0:70:hat.wav
192,192,157824,1,8,0:2:0:0:
448,192,157824,1,0,0:0:0:0:
320,192,158136,1,0,0:0:0:0:
64,192,158345,1,0,0:0:0:0:
192,192,158449,1,8,0:2:0:0:
448,192,158657,1,0,0:0:0:0:
64,192,158866,1,0,0:0:0:70:tom4.wav
320,192,158970,1,2,0:2:0:0:
448,192,158970,1,0,0:0:0:70:hat.wav
192,192,159178,1,0,0:0:0:0:
448,192,159282,128,2,159491:0:2:0:0:
64,192,159491,128,8,159699:0:2:0:0:
320,192,159699,1,0,0:0:0:70:tom5.wav
192,192,159907,1,0,0:0:0:70:SVF_A#5.ogg
448,192,159907,1,2,0:2:0:0:
64,192,160116,1,0,0:0:0:70:hat.wav
320,192,160324,1,8,0:2:0:0:
448,192,160324,1,0,0:0:0:0:
192,192,160532,1,0,0:0:0:70:hat.wav
448,192,160741,1,2,0:2:0:0:
320,192,160949,1,0,0:0:0:70:hat.wav
64,192,161157,1,8,0:2:0:0:
192,192,161157,1,0,0:0:0:0:
448,192,161366,1,0,0:0:0:70:hat.wav
64,192,161574,1,2,0:2:0:0:
192,192,161782,1,0,0:0:0:70:hat.wav
320,192,161991,1,8,0:2:0:0:
448,192,161991,128,0,162407:0:0:0:70:SVF_D#6ss.ogg
192,192,162407,128,2,162824:0:2:0:0:
64,192,162824,128,8,163241:0:2:0:0:
320,192,162824,1,0,0:0:0:70:SVF_C6ss.ogg
448,192,163241,128,2,164074:0:2:0:0:
64,192,163657,1,8,0:2:0:0:
192,192,163657,1,0,0:0:0:0:
192,192,164074,128,2,164907:0:2:0:0:
320,192,164491,1,8,0:2:0:0:
448,192,164491,1,0,0:0:0:0:
64,192,164907,128,2,165324:0:2:0:0:
320,192,165324,1,8,0:2:0:0:
448,192,165324,128,0,165741:0:0:0:0:
192,192,165741,128,2,166157:0:2:0:0:
64,192,166157,128,2,166574:0:2:0:0:
448,192,166157,1,0,0:0:0:70:SVF_D#5ss.ogg
320,192,166366,1,8,0:2:0:0:
192,192,166574,1,0,0:0:0:70:SVF_A#5.ogg
448,192,166574,1,2,0:2:0:0:
64,192,166991,1,8,0:2:0:0:
320,192,166991,1,0,0:0:0:0:
448,192,167199,1,0,0:0:0:70:hat.wav
192,192,167407,1,2,0:2:0:0:
64,192,167616,1,0,0:0:0:70:hat.wav
320,192,167824,1,8,0:2:0:0:
448,192,167824,1,0,0:0:0:0:
192,192,168032,1,0,0:0:0:70:hat.wav
320,192,168241,1,2,0:2:0:0:
64,192,168449,1,0,0:0:0:70:hat.wav
192,192,168657,1,8,0:2:0:0:
448,192,168657,128,0,169074:0:0:0:70:SVF_D#6ss.ogg
320,192,169074,128,2,169491:0:2:0:0:
64,192,169491,1,8,0:2:0:0:
192,192,169491,128,0,169907:0:0:0:70:SVF_C6ss.ogg
64,192,169907,128,2,170741:0:2:0:0:
320,192,170324,1,8,0:2:0:0:
448,192,170324,1,0,0:0:0:0:
448,192,170741,128,2,171574:0:2:0:0:
64,192,171157,1,8,0:2:0:0:
192,192,171157,1,0,0:0:0:70:SVF_D#5s.ogg
320,192,171574,1,2,0:2:0:0:
64,192,171782,1,8,0:2:0:0:
192,192,171782,1,0,0:0:0:70:SVF_A#5ss.ogg
320,192,172095,1,8,0:2:0:0:
448,192,172095,1,0,0:0:0:70:SVF_A#5ss.ogg
64,192,172407,1,8,0:2:0:0:
192,192,172407,1,0,0:0:0:70:SVF_A#5ss.ogg
64,192,173241,1,0,0:0:0:0:
448,192,173241,1,0,0:0:0:0:
320,192,173866,1,0,0:0:0:0:
192,192,174074,1,0,0:0:0:0:
448,192,174074,1,0,0:0:0:0:
64,192,174907,1,0,0:0:0:0:
192,192,174907,1,0,0:0:0:0:
448,192,175324,128,0,175532:0:0:0:70:D#6S_Eb6S.wav
192,192,175532,1,0,0:0:0:0:
64,192,175741,1,0,0:0:0:70:D6S.wav
320,192,175741,128,0,175949:0:0:0:0:
192,192,176157,128,0,176366:0:0:0:70:C6S.wav
64,192,176574,128,0,176782:0:0:0:70:A#5S_Bb5S.wav
448,192,176574,1,0,0:0:0:0:
320,192,176782,1,0,0:0:0:0:
64,192,176991,1,0,0:0:0:0:
448,192,177199,1,0,0:0:0:0:
64,192,177407,1,0,0:0:0:0:
192,192,177407,1,0,0:0:0:0:
192,192,178241,1,0,0:0:0:0:
448,192,178241,1,0,0:0:0:0:
64,192,178657,1,0,0:0:0:0:
320,192,178657,1,0,0:0:0:0:
64,192,179074,1,0,0:0:0:0:
192,192,179074,1,0,0:0:0:0:
320,192,179491,1,0,0:0:0:0:
448,192,179491,1,0,0:0:0:0:
64,192,179907,1,0,0:0:0:70:hat.wav
192,192,179907,1,0,0:0:0:0:
320,192,180532,1,0,0:0:0:70:ride.wav
192,192,180741,1,0,0:0:0:70:ride.wav
448,192,180741,1,0,0:0:0:0:
64,192,181366,1,0,0:0:0:70:ride.wav
192,192,181574,1,0,0:0:0:70:ride.wav
320,192,181574,1,0,0:0:0:0:
64,192,181991,1,0,0:0:0:0:
448,192,181991,1,0,0:0:0:0:
320,192,182199,1,0,0:0:0:70:ride.wav
64,192,182407,1,0,0:0:0:70:ride.wav
192,192,182407,1,0,0:0:0:0:
320,192,182824,1,0,0:0:0:70:ride.wav
64,192,183241,1,0,0:0:0:70:ride.wav
448,192,183241,1,0,0:0:0:70:A#6S_Bb6S.wav
192,192,183657,1,0,0:0:0:0:
320,192,184074,128,0,184907:0:0:0:0:
64,192,184491,128,0,184907:0:0:0:0:
192,192,184907,1,2,0:2:0:0:
448,192,184907,1,0,0:0:0:70:hat.wav
64,192,185116,1,0,0:0:0:0:
448,192,185324,1,0,0:0:0:0:
320,192,185532,1,0,0:0:0:0:
64,192,185949,1,0,0:0:0:0:
192,192,186157,1,8,0:2:0:0:
448,192,186157,1,0,0:0:0:70:hat.wav
320,192,186366,1,0,0:0:0:0:
64,192,186574,1,2,0:2:0:0:
192,192,186574,1,4,0:2:0:0:
320,192,186782,1,0,0:0:0:70:hat.wav
64,192,186991,1,8,0:2:0:0:
448,192,186991,1,0,0:0:0:70:hat.wav
192,192,187199,1,0,0:0:0:70:hat.wav
448,192,187407,1,2,0:2:0:0:
64,192,187616,1,0,0:0:0:70:hat.wav
320,192,187824,1,8,0:2:0:0:
448,192,187824,1,0,0:0:0:70:ride.wav
192,192,188032,128,0,188241:0:0:0:70:hat.wav
448,192,188241,128,2,188449:0:2:0:0:
64,192,188449,128,0,188657:0:0:0:70:hat.wav
192,192,188657,1,8,0:2:0:0:
320,192,188657,128,0,188866:0:0:0:70:ride.wav
448,192,188866,128,0,189074:0:0:0:70:hat.wav
64,192,189074,128,2,189282:0:2:0:0:
192,192,189282,1,0,0:0:0:70:hat.wav
64,192,189491,1,8,0:2:0:0:
448,192,189491,1,0,0:0:0:70:ride.wav
320,192,189699,1,0,0:0:0:70:hat.wav
192,192,189907,1,2,0:2:0:0:
448,192,190116,1,0,0:0:0:70:hat.wav
64,192,190220,1,0,0:0:0:0:
192,192,190428,1,0,0:0:0:0:
448,192,190636,1,0,0:0:0:0:
192,192,190949,1,0,0:0:0:70:hat.wav
320,192,191157,1,8,0:2:0:0:
448,192,191157,1,0,0:0:0:70:ride.wav
64,192,191366,1,0,0:0:0:70:hat.wav
192,192,191574,128,2,191782:0:2:0:0:
448,192,191574,128,0,191782:0:0:0:70:ride.wav
64,192,191991,128,8,192199:0:2:0:0:
320,192,191991,128,0,192199:0:0:0:70:ride.wav
64,192,192407,128,2,192616:0:2:0:0:
192,192,192407,128,0,192616:0:0:0:70:ride.wav
320,192,192824,128,8,193032:0:2:0:0:
448,192,192824,128,0,193032:0:0:0:70:hat.wav
64,192,193032,1,8,0:2:0:0:
192,192,193241,128,2,193657:0:2:0:0:
320,192,193241,1,4,0:2:0:0:
64,192,193657,1,8,0:2:0:0:
320,192,193657,128,0,194074:0:0:0:70:ride.wav
448,192,194074,128,2,194491:0:2:0:0:
64,192,194491,128,8,194907:0:2:0:0:
192,192,194491,1,0,0:0:0:70:ride.wav
320,192,194907,128,2,195324:0:2:0:0:
64,192,195324,1,8,0:2:0:0:
448,192,195324,128,0,195741:0:0:0:70:ride.wav
192,192,195741,128,2,196157:0:2:0:0:
320,192,196157,1,8,0:2:0:0:
448,192,196157,1,0,0:0:0:70:ride.wav
64,192,196366,128,0,196574:0:0:0:70:hat.wav
448,192,196574,128,2,196991:0:2:0:0:
64,192,196991,1,8,0:2:0:0:
192,192,196991,1,0,0:0:0:70:ride.wav
448,192,197199,128,0,197407:0:0:0:70:hat.wav
64,192,197407,128,2,197824:0:2:0:0:
320,192,197824,1,8,0:2:0:0:
448,192,197824,1,0,0:0:0:70:ride.wav
192,192,198032,1,8,0:2:0:0:
320,192,198136,1,8,0:2:0:0:
64,192,198449,1,2,0:2:0:0:
448,192,198657,1,2,0:2:0:0:
192,192,198866,1,8,0:2:0:0:
448,192,199074,1,8,0:2:0:0:
64,192,199386,1,8,0:2:0:0:
320,192,199491,128,2,199907:0:2:0:0:
64,192,199907,1,0,0:0:0:70:SVF_C6s.ogg
192,192,199907,1,2,0:2:0:0:
448,192,200116,1,0,0:0:0:70:hat.wav
192,192,200324,1,8,0:2:0:0:
320,192,200324,1,2,0:2:0:0:
64,192,200532,1,0,0:0:0:70:hat.wav
448,192,200741,128,2,201157:0:2:0:0:
192,192,201157,1,0,0:0:0:70:SVF_D6ss.ogg
320,192,201157,1,8,0:2:0:0:
64,192,201366,128,0,201782:0:0:0:70:hat.wav
448,192,201782,1,0,0:0:0:70:hat.wav
64,192,201991,1,8,0:2:0:0:
192,192,201991,1,2,0:2:0:0:
320,192,202199,1,0,0:0:0:70:hat.wav
192,192,202407,128,2,202824:0:2:0:0:
320,192,202824,1,0,0:0:0:70:SVF_C6ss.ogg
448,192,202824,1,8,0:2:0:0:
64,192,203032,128,0,203449:0:0:0:70:hat.wav
448,192,203449,1,0,0:0:0:70:hat.wav
64,192,203657,1,8,0:2:0:0:
192,192,203657,1,2,0:2:0:0:
320,192,203866,1,0,0:0:0:70:hat.wav
64,192,204074,1,2,0:2:0:0:
448,192,204282,1,0,0:0:0:70:hat.wav
64,192,204491,1,0,0:0:0:70:SVF_B5ss.ogg
192,192,204491,1,8,0:2:0:0:
320,192,204699,128,0,205116:0:0:0:70:hat.wav
64,192,205116,128,0,205324:0:0:0:70:hat.wav
320,192,205324,1,8,0:2:0:0:
448,192,205324,128,2,205532:0:2:0:0:
192,192,205532,128,0,205741:0:0:0:70:SVF_C6ss.ogg
448,192,205741,128,2,205949:0:2:0:0:
64,192,205949,1,8,0:2:0:0:
192,192,206157,1,2,0:2:0:0:
320,192,206157,1,0,0:0:0:70:hat.wav
448,192,206366,1,0,0:0:0:70:tom4.wav
64,192,206574,1,0,0:0:0:70:SVF_G6s.ogg
192,192,206574,1,2,0:2:0:0:
320,192,206782,1,0,0:0:0:70:hat.wav
64,192,206991,1,8,0:2:0:0:
448,192,206991,1,2,0:2:0:0:
192,192,207199,1,0,0:0:0:70:hat.wav
320,192,207407,128,2,207824:0:2:0:0:
64,192,207824,1,0,0:0:0:70:SVF_D6ss.ogg
448,192,207824,1,8,0:2:0:0:
192,192,208032,128,0,208449:0:0:0:70:SVF_C6ss.ogg
448,192,208449,1,0,0:0:0:70:SVF_G5ss.ogg
192,192,208657,1,0,0:0:0:70:SVF_D6ss.ogg
320,192,208657,1,8,0:2:0:0:
64,192,208866,1,0,0:0:0:70:SVF_F6ss.ogg
448,192,209074,1,2,0:2:0:0:
64,192,209491,1,0,0:0:0:70:SVF_D#6ss.ogg
192,192,209491,1,8,0:2:0:0:
448,192,209699,1,0,0:0:0:70:hat.wav
64,192,209907,1,2,0:2:0:0:
320,192,210324,1,10,0:2:0:0:
448,192,210324,1,4,0:2:0:0:
64,192,210532,1,0,0:0:0:70:hat.wav
192,192,210741,1,2,0:2:0:0:
448,192,210949,1,0,0:0:0:70:hat.wav
64,192,211157,1,8,0:2:0:0:
320,192,211157,1,2,0:2:0:0:
192,192,211366,1,0,0:0:0:70:SVF_D#6s.ogg
320,192,211574,1,2,0:2:0:0:
448,192,211574,1,4,0:2:0:0:
64,192,211782,128,0,211991:0:0:0:70:tom1.wav
192,192,211991,1,0,0:0:0:70:tom1.wav
448,192,211991,1,8,0:2:0:0:
320,192,212199,128,8,212407:0:2:0:0:
64,192,212407,1,2,0:2:0:0:
192,192,212616,128,8,212824:0:2:0:0:
64,192,212824,1,2,0:2:0:0:
320,192,212824,1,0,0:0:0:0:
448,192,213032,128,8,213241:0:2:0:0:
192,192,213241,1,0,0:0:0:70:SVF_C6s.ogg
320,192,213241,1,2,0:2:0:0:
64,192,213449,1,0,0:0:0:70:hat.wav
320,192,213657,1,0,0:0:0:70:ride.wav
448,192,213657,1,2,0:2:0:0:
192,192,213866,1,0,0:0:0:70:hat.wav
448,192,214074,128,2,214491:0:2:0:0:
64,192,214491,1,0,0:0:0:70:SVF_D6ss.ogg
192,192,214491,1,2,0:2:0:0:
320,192,214699,128,0,215116:0:0:0:70:hat.wav
64,192,215116,1,0,0:0:0:70:hat.wav
192,192,215324,1,0,0:0:0:70:ride.wav
320,192,215324,1,2,0:2:0:0:
448,192,215532,1,0,0:0:0:70:hat.wav
192,192,215741,128,2,216157:0:2:0:0:
64,192,216157,1,0,0:0:0:70:SVF_C6ss.ogg
320,192,216157,1,2,0:2:0:0:
448,192,216366,128,0,216782:0:0:0:70:hat.wav
320,192,216782,1,0,0:0:0:70:hat.wav
64,192,216991,1,0,0:0:0:70:ride.wav
192,192,216991,1,2,0:2:0:0:
320,192,217199,1,0,0:0:0:70:hat.wav
64,192,217407,1,2,0:2:0:0:
448,192,217616,1,0,0:0:0:70:hat.wav
64,192,217824,1,10,0:2:0:0:
192,192,217824,1,0,0:0:0:70:SVF_B5ss.ogg
320,192,218032,128,0,218449:0:0:0:70:hat.wav
64,192,218449,128,0,218657:0:0:0:70:hat.wav
320,192,218657,1,2,0:2:0:0:
448,192,218657,128,8,218866:0:2:0:0:
192,192,218866,128,0,219074:0:0:0:70:SVF_C6ss.ogg
448,192,219074,128,2,219282:0:2:0:0:
64,192,219282,1,8,0:2:0:0:
192,192,219491,1,2,0:2:0:0:
320,192,219491,1,0,0:0:0:0:
448,192,219699,1,8,0:2:0:0:
64,192,219907,1,0,0:0:0:70:SVF_G6s.ogg
192,192,219907,1,4,0:2:0:0:
320,192,220116,1,0,0:0:0:70:hat.wav
64,192,220324,1,0,0:0:0:70:ride.wav
448,192,220324,1,2,0:2:0:0:
192,192,220532,1,0,0:0:0:70:hat.wav
320,192,220741,128,2,221157:0:2:0:0:
192,192,221157,1,0,0:0:0:70:SVF_D6ss.ogg
448,192,221157,1,2,0:2:0:0:
64,192,221366,128,0,221782:0:0:0:70:SVF_C6ss.ogg
448,192,221782,1,0,0:0:0:70:SVF_G5ss.ogg
192,192,221991,1,0,0:0:0:70:SVF_D6ss.ogg
320,192,221991,1,2,0:2:0:0:
64,192,222199,1,0,0:0:0:70:SVF_F6ss.ogg
448,192,222407,128,2,222824:0:2:0:0:
64,192,222824,128,0,223032:0:0:0:70:SVF_D#6ss.ogg
320,192,222824,1,2,0:2:0:0:
448,192,223032,128,0,223657:0:0:0:70:hat.wav
64,192,223241,1,0,0:0:0:70:SVF_C6s.ogg
192,192,223241,1,2,0:2:0:0:
64,192,223657,1,2,0:2:0:0:
320,192,223657,1,8,0:2:0:0:
192,192,223866,128,0,224074:0:0:0:70:hat.wav
448,192,224074,128,0,224491:0:0:0:70:SVF_D6s.ogg
64,192,224491,1,2,0:2:0:0:
192,192,224491,128,8,224699:0:2:0:0:
320,192,224699,128,8,224907:0:2:0:0:
64,192,224907,128,0,225116:0:0:0:70:SVF_D#6s.ogg
448,192,224907,1,4,0:2:0:0:
192,192,225116,1,8,0:2:0:0:
320,192,225220,1,8,0:2:0:0:
192,192,225428,1,8,0:2:0:0:
320,192,225532,1,0,0:0:0:0:
448,192,225741,1,2,0:2:0:0:
64,192,225949,128,0,226157:0:0:0:0:
448,192,226157,128,0,226574:0:0:0:0:
64,192,226574,1,2,0:2:0:0:
192,192,226574,1,4,0:2:0:0:
320,192,226782,128,0,226991:0:0:0:70:hat.wav
64,192,226991,1,8,0:2:0:0:
448,192,226991,1,0,0:0:0:0:
192,192,227199,128,0,227407:0:0:0:70:hat.wav
320,192,227407,1,2,0:2:0:0:
448,192,227616,128,0,227824:0:0:0:70:hat.wav
192,192,227824,1,8,0:2:0:0:
320,192,227824,1,0,0:0:0:0:
64,192,228032,128,0,228241:0:0:0:70:hat.wav
448,192,228241,1,2,0:2:0:0:
320,192,228449,128,0,228657:0:0:0:70:hat.wav
192,192,228657,128,8,228866:0:2:0:0:
448,192,228657,128,0,228866:0:0:0:0:
64,192,228866,128,0,229074:0:0:0:70:hat.wav
320,192,229074,128,2,229282:0:2:0:0:
192,192,229282,128,0,229491:0:0:0:70:hat.wav
320,192,229491,1,8,0:2:0:0:
448,192,229491,1,0,0:0:0:0:
64,192,229699,1,0,0:0:0:70:hat.wav
320,192,229907,128,2,230532:0:2:0:0:
64,192,230324,1,8,0:2:0:0:
192,192,230324,1,0,0:0:0:0:
448,192,230532,1,0,0:0:0:70:hat.wav
192,192,230636,1,0,0:0:0:70:hat.wav
64,192,230741,128,2,231157:0:2:0:0:
192,192,231157,1,8,0:2:0:0:
320,192,231157,128,0,231574:0:0:0:70:SVF_G#5ss.ogg
448,192,231574,128,2,231991:0:2:0:0:
64,192,231991,1,8,0:2:0:0:
192,192,231991,128,0,232407:0:0:0:0:
64,192,232407,128,2,232824:0:2:0:0:
320,192,232824,128,8,233241:0:2:0:0:
448,192,232824,1,2,0:2:0:0:
192,192,233032,128,8,233241:0:2:0:0:
64,192,233241,1,4,0:2:0:0:
448,192,233241,1,2,0:2:0:0:
320,192,233449,128,0,233657:0:0:0:70:hat.wav
64,192,233657,1,8,0:2:0:0:
448,192,233657,1,0,0:0:0:0:
192,192,233866,128,0,234074:0:0:0:70:hat.wav
320,192,234074,1,2,0:2:0:0:
64,192,234282,128,0,234491:0:0:0:70:hat.wav
192,192,234491,1,8,0:2:0:0:
320,192,234491,1,0,0:0:0:0:
448,192,234699,128,0,234907:0:0:0:70:hat.wav
64,192,234907,1,2,0:2:0:0:
192,192,235116,128,0,235324:0:0:0:70:hat.wav
64,192,235324,128,8,235532:0:2:0:0:
320,192,235324,128,0,235532:0:0:0:0:
448,192,235532,128,0,235741:0:0:0:70:hat.wav
64,192,235741,128,2,235949:0:2:0:0:
320,192,235949,128,0,236157:0:0:0:70:hat.wav
64,192,236157,1,8,0:2:0:0:
192,192,236157,1,0,0:0:0:0:
448,192,236366,1,0,0:0:0:70:hat.wav
192,192,236574,128,2,238241:0:2:0:0:
320,192,236991,1,8,0:2:0:0:
448,192,236991,1,0,0:0:0:0:
64,192,237407,1,2,0:2:0:0:
320,192,237824,1,8,0:2:0:0:
448,192,237824,1,0,0:0:0:0:
448,192,238241,1,2,0:2:0:0:
64,192,238449,1,8,0:2:0:0:
320,192,238449,1,0,0:0:0:70:hat.wav
192,192,238761,1,8,0:2:0:0:
448,192,238761,1,0,0:0:0:70:hat.wav
64,192,239074,1,8,0:2:0:0:
448,192,239074,1,0,0:0:0:70:hat.wav
64,192,239386,1,8,0:2:0:0:
320,192,239386,1,0,0:0:0:70:hat.wav
192,192,239699,1,8,0:2:0:0:
320,192,239699,1,0,0:0:0:70:hat.wav
64,192,240324,128,0,246574:0:0:0:70:SVF_D5.ogg
448,192,240324,128,2,246574:0:2:0:0:
