osu file format v14

[General]
AudioFilename: audio.mp3
AudioLeadIn: 0
PreviewTime: 160389
Countdown: 0
SampleSet: Normal
StackLeniency: 0.7
Mode: 1
LetterboxInBreaks: 0
WidescreenStoryboard: 0

[Editor]
Bookmarks: 198,22786,45374,67962,115962,138550,161139,183727,206315,228903,251492,274080,296668,319256,341845
DistanceSpacing: 2.1
BeatDivisor: 8
GridSize: 4
TimelineZoom: 2.099999

[Metadata]
Title:N3XT C0L0R PL4N3T (saw_freak Classic SKTCHN J-Core Bootleg)
TitleUnicode:N3XT C0L0R PL4N3T (saw_freak Classic SKTCHN J-Core Bootleg)
Artist:Hoshimachi Suisei
ArtistUnicode:星街すいせい
Creator:Maimaing
Version:T0M0RR0W
Source:
Tags:jcore Still Still Stellar NEXT COLOR PLANET hololive ホロライブ vtuber virtual youtuber japanese pop jpop j-pop idol suichan hosimati hoshimati hosimachi suityan sui-chan suisui ncp dig delight direct drive dj d4dj groovy mix tomorrow Electronic
BeatmapID:3388275
BeatmapSetID:1659770

[Difficulty]
HPDrainRate:5
CircleSize:5
OverallDifficulty:6.5
ApproachRate:5
SliderMultiplier:1.4
SliderTickRate:1

[Events]
//Background and Video events
0,0,"suisei.png",0,80
//Break Periods
2,68162,78056
//Storyboard Layer 0 (Background)
//Storyboard Layer 1 (Fail)
//Storyboard Layer 2 (Pass)
//Storyboard Layer 3 (Foreground)
//Storyboard Layer 4 (Overlay)
//Storyboard Sound Samples

[TimingPoints]
198,352.941176470588,4,1,0,70,1,0
198,-105.263157894737,4,1,0,70,0,0
9992,-117.647058823529,4,1,0,70,0,0
10389,-103.092783505155,4,1,0,70,0,0
10565,-101.010101010101,4,1,0,70,0,0
10653,-99.009900990099,4,1,0,70,0,0
10742,-97.0873786407767,4,1,0,70,0,0
11447,-95.2380952380952,4,1,0,70,0,0
11536,-105.263157894737,4,1,0,70,0,0
17271,-104.803493449782,4,1,0,70,0,0
17447,-104.347826086957,4,1,0,70,0,0
17624,-103.896103896104,4,1,0,70,0,0
17712,-103.448275862069,4,1,0,70,0,0
17800,-103.004291845494,4,1,0,70,0,0
17977,-102.564102564103,4,1,0,70,0,0
18153,-102.127659574468,4,1,0,70,0,0
18330,-101.694915254237,4,1,0,70,0,0
18418,-101.26582278481,4,1,0,70,0,0
18506,-100.840336134454,4,1,0,70,0,0
18683,-100.418410041841,4,1,0,70,0,0
18859,-100,4,1,0,70,0,0
19036,-99.5850622406639,4,1,0,70,0,0
19124,-99.1735537190083,4,1,0,70,0,0
19212,-98.7654320987654,4,1,0,70,0,0
19389,-98.3606557377049,4,1,0,70,0,0
19565,-97.9591836734694,4,1,0,70,0,0
19653,-97.5609756097561,4,1,0,70,0,0
19742,-97.165991902834,4,1,0,70,0,0
19918,-96.7741935483871,4,1,0,70,0,0
20006,-96.3855421686747,4,1,0,70,0,0
20095,-96,4,1,0,70,0,0
20183,-95.6175298804781,4,1,0,70,0,0
20271,-95.2380952380952,4,1,0,70,0,0
20359,-94.8616600790514,4,1,0,70,0,0
20447,-94.488188976378,4,1,0,70,0,0
20536,-94.1176470588235,4,1,0,70,0,0
20624,-93.75,4,1,0,70,0,0
20712,-93.3852140077821,4,1,0,70,0,0
20800,-93.0232558139535,4,1,0,70,0,0
20889,-92.6640926640927,4,1,0,70,0,0
20977,-92.3076923076923,4,1,0,70,0,0
21065,-91.9540229885057,4,1,0,70,0,0
21153,-91.6030534351145,4,1,0,70,0,0
21242,-91.254752851711,4,1,0,70,0,0
21330,-90.9090909090909,4,1,0,70,0,0
21683,-93.0232558139535,4,1,0,70,0,0
22036,-95.2380952380952,4,1,0,70,0,0
22389,-97.5609756097561,4,1,0,70,0,0
22565,-100,4,1,0,70,0,0
22742,-95.2380952380952,4,1,0,70,0,0
23006,-105.263157894737,4,1,0,70,0,0
33330,-117.64705882353,4,1,0,70,0,0
33418,-105.263157894737,4,1,0,70,0,0
33683,-103.092783505155,4,1,0,70,0,0
33859,-101.010101010101,4,1,0,70,0,0
33947,-99.009900990099,4,1,0,70,0,0
34036,-97.0873786407767,4,1,0,70,0,0
34256,-105.263157894737,4,1,0,70,0,0
39683,-104.827586206897,4,1,0,70,0,0
39859,-104.395604395604,4,1,0,70,0,0
39947,-103.967168262654,4,1,0,70,0,0
40036,-103.542234332425,4,1,0,70,0,0
40212,-103.120759837178,4,1,0,70,0,0
40389,-102.702702702703,4,1,0,70,0,0
40477,-102.28802153432,4,1,0,70,0,0
40565,-101.876675603217,4,1,0,70,0,0
40653,-101.468624833111,4,1,0,70,0,0
40742,-101.063829787234,4,1,0,70,0,0
40918,-100.662251655629,4,1,0,70,0,0
41095,-100.263852242744,4,1,0,70,0,0
41271,-99.868593955322,4,1,0,70,0,0
41359,-99.4764397905759,4,1,0,70,0,0
41447,-99.0873533246415,4,1,0,70,0,0
41624,-98.7012987012987,4,1,0,70,0,0
41800,-98.3182406209573,4,1,0,70,0,0
41889,-97.9381443298969,4,1,0,70,0,0
41977,-97.5609756097561,4,1,0,70,0,0
42065,-97.1867007672634,4,1,0,70,0,0
42153,-96.8152866242038,4,1,0,70,0,0
42330,-96.4467005076142,4,1,0,70,0,0
42506,-96.0809102402023,4,1,0,70,0,0
42595,-95.7178841309824,4,1,0,70,0,0
42683,-95.357590966123,4,1,0,70,0,0
42771,-95,4,1,0,70,0,0
42859,-94.6450809464508,4,1,0,70,0,0
42947,-94.2928039702233,4,1,0,70,0,0
43036,-93.9431396786156,4,1,0,70,0,0
43124,-93.5960591133005,4,1,0,70,0,0
43212,-93.2515337423313,4,1,0,70,0,0
43300,-92.9095354523227,4,1,0,70,0,0
43389,-92.5700365408039,4,1,0,70,0,0
43477,-92.2330097087379,4,1,0,70,0,0
43565,-91.8984280532043,4,1,0,70,0,0
43653,-91.566265060241,4,1,0,70,0,0
43742,-91.2364945978391,4,1,0,70,0,0
43830,-90.9090909090909,4,1,0,70,0,0
43918,-50,4,1,0,70,0,0
44624,-125,4,1,0,70,0,0
44977,-125,4,1,0,70,0,0
45330,-95.2380952380952,4,1,0,80,0,0
45374,-95.2380952380952,4,1,0,80,0,1
62271,-95.6719817767654,4,1,0,80,0,1
62447,-96.1098398169336,4,1,0,80,0,1
62624,-96.551724137931,4,1,0,80,0,1
62800,-96.9976905311778,4,1,0,80,0,1
62977,-97.4477958236659,4,1,0,80,0,1
63153,-97.9020979020979,4,1,0,80,0,1
63242,-98.3606557377049,4,1,0,80,0,1
63418,-98.8235294117647,4,1,0,80,0,1
63506,-99.290780141844,4,1,0,80,0,1
63595,-99.7624703087886,4,1,0,80,0,1
63683,-100.238663484487,4,1,0,80,0,1
63859,-100.719424460432,4,1,0,80,0,1
64036,-101.204819277108,4,1,0,80,0,1
64212,-101.694915254237,4,1,0,80,0,1
64300,-102.189781021898,4,1,0,80,0,1
64389,-102.689486552567,4,1,0,80,0,1
64565,-103.194103194103,4,1,0,80,0,1
64742,-103.703703703704,4,1,0,80,0,1
64918,-104.218362282878,4,1,0,80,0,1
65006,-104.738154613466,4,1,0,80,0,1
65095,-105.263157894737,4,1,0,80,0,1
65183,-104.72972972973,4,1,0,80,0,1
65271,-104.201680672269,4,1,0,80,0,1
65359,-103.678929765886,4,1,0,80,0,1
65447,-103.161397670549,4,1,0,80,0,1
65536,-102.649006622517,4,1,0,80,0,1
65624,-102.141680395387,4,1,0,80,0,1
65712,-101.639344262295,4,1,0,80,0,1
65800,-101.141924959217,4,1,0,80,0,1
65889,-100.649350649351,4,1,0,80,0,1
65977,-100.16155088853,4,1,0,80,0,1
66065,-99.6784565916399,4,1,0,80,0,1
66153,-99.2,4,1,0,80,0,1
66242,-98.7261146496815,4,1,0,80,0,1
66330,-98.256735340729,4,1,0,80,0,1
66418,-97.7917981072555,4,1,0,80,0,1
66506,-97.331240188383,4,1,0,80,0,1
66595,-96.875,4,1,0,80,0,1
66683,-96.4230171073095,4,1,0,80,0,1
66771,-95.9752321981424,4,1,0,80,0,1
66859,-95.5315870570108,4,1,0,80,0,1
66947,-95.0920245398773,4,1,0,80,0,1
67036,-94.6564885496183,4,1,0,80,0,1
67124,-94.2249240121581,4,1,0,80,0,1
67212,-93.7972768532526,4,1,0,80,0,1
67300,-93.3734939759036,4,1,0,80,0,1
67389,-92.9535232383808,4,1,0,80,0,1
67477,-92.5373134328358,4,1,0,80,0,1
67565,-92.1248142644874,4,1,0,80,0,1
67653,-91.7159763313609,4,1,0,80,0,1
67742,-91.3107511045655,4,1,0,80,0,1
67918,-90.9090909090909,4,1,0,80,0,1
67962,-90.9090909090909,4,1,0,80,0,0
69374,-97.5609756097561,4,1,0,80,0,0
70786,-105.263157894737,4,1,0,80,0,0
72197,-114.285714285714,4,1,0,80,0,0
73609,-125,4,1,0,70,0,0
75021,-137.931034482759,4,1,0,70,0,0
76433,-153.846153846154,4,1,0,70,0,0
77845,-173.913043478261,4,1,0,70,0,0
79212,-200,4,1,0,60,0,0
89977,-190.47619047619,4,1,0,60,0,0
90153,-181.818181818182,4,1,0,60,0,0
90330,-173.913043478261,4,1,0,60,0,0
90506,-166.666666666667,4,1,0,60,0,0
110536,-163.265306122449,4,1,0,60,0,0
110800,-160,4,1,0,60,0,0
110977,-156.862745098039,4,1,0,60,0,0
111506,-153.846153846154,4,1,0,60,0,0
111595,-150.943396226415,4,1,0,60,0,0
111683,-148.148148148148,4,1,0,60,0,0
111947,-145.454545454545,4,1,0,60,0,0
112212,-142.857142857143,4,1,0,60,0,0
112389,-140.350877192982,4,1,0,60,0,0
112653,-137.931034482759,4,1,0,60,0,0
112918,-135.593220338983,4,1,0,60,0,0
113095,-133.333333333333,4,1,0,70,0,0
114506,-200,4,1,0,60,0,0
115918,-83.3333333333333,4,1,0,75,0,0
116447,-80,4,1,0,75,0,0
117374,-95.2380952380952,4,1,0,75,0,0
118389,-117.647058823529,4,1,0,75,0,0
118742,-83.3333333333333,4,1,0,75,0,0
119271,-80,4,1,0,75,0,0
120197,-95.2380952380952,4,1,0,75,0,0
121212,-117.647058823529,4,1,0,75,0,0
121565,-83.3333333333333,4,1,0,75,0,0
122095,-80,4,1,0,75,0,0
123021,-95.2380952380952,4,1,0,75,0,0
124036,-117.647058823529,4,1,0,75,0,0
124389,-83.3333333333333,4,1,0,75,0,0
124918,-80,4,1,0,75,0,0
125845,-95.2380952380952,4,1,0,75,0,0
126506,-125,4,1,0,75,0,0
126815,-120.000048000019,4,1,0,75,0,0
126992,-115.393491807062,4,1,0,75,0,0
127212,-111.111111111111,4,1,0,70,0,0
130036,-107.52688172043,4,1,0,70,0,0
132859,-104.166666666667,4,1,0,70,0,0
134095,-102.040816326531,4,1,0,70,0,0
134271,-100,4,1,0,70,0,0
135506,-98.0392156862745,4,1,0,70,0,0
135683,-96.1538461538461,4,1,0,70,0,0
135771,-95.5794504181601,4,1,0,70,0,0
135859,-95.0118764845606,4,1,0,70,0,0
135947,-94.4510035419126,4,1,0,70,0,0
136036,-93.8967136150235,4,1,0,70,0,0
136124,-93.3488914819137,4,1,0,70,0,0
136212,-92.8074245939675,4,1,0,70,0,0
136300,-92.2722029988466,4,1,0,70,0,0
136389,-91.7431192660551,4,1,0,70,0,0
136477,-91.2200684150513,4,1,0,70,0,0
136565,-90.702947845805,4,1,0,70,0,0
136653,-90.1916572717024,4,1,0,70,0,0
136742,-89.6860986547085,4,1,0,70,0,0
136830,-89.1861761426979,4,1,0,70,0,0
136918,-88.6917960088692,4,1,0,70,0,0
137006,-88.2028665931643,4,1,0,70,0,0
137095,-87.719298245614,4,1,0,80,0,0
137271,-89.2857142857143,4,1,0,80,0,0
137447,-90.9090909090909,4,1,0,80,0,0
137624,-92.5925925925926,4,1,0,80,0,0
137800,-94.3396226415094,4,1,0,80,0,0
138153,-96.1538461538461,4,1,0,80,0,0
138330,-98.0392156862745,4,1,0,80,0,0
138506,-94.3396226415094,4,1,0,80,0,0
149800,-92.5925925925926,4,1,0,80,0,0
161095,-90.9090909090909,4,1,0,90,0,0
161139,-90.9090909090909,4,1,0,90,0,1
180947,-90.6515580736544,4,1,0,90,0,1
181036,-90.3954802259887,4,1,0,90,0,1
181124,-90.1408450704225,4,1,0,90,0,1
181212,-89.8876404494382,4,1,0,90,0,1
181300,-89.6358543417367,4,1,0,90,0,1
181389,-89.3854748603352,4,1,0,90,0,1
181477,-89.1364902506964,4,1,0,90,0,1
181565,-88.8888888888889,4,1,0,90,0,1
181653,-88.6426592797784,4,1,0,90,0,1
181742,-88.3977900552486,4,1,0,90,0,1
181830,-88.1542699724518,4,1,0,90,0,1
181918,-87.9120879120879,4,1,0,90,0,1
182006,-87.6712328767123,4,1,0,90,0,1
182095,-87.4316939890711,4,1,0,90,0,1
182183,-87.1934604904632,4,1,0,90,0,1
182271,-86.9565217391304,4,1,0,90,0,1
182447,-89.171974522293,4,1,0,90,0,1
182800,-91.743119266055,4,1,0,90,0,1
183153,-94.3396226415094,4,1,0,90,0,1
183506,-97.0873786407767,4,1,0,90,0,1
183683,-100,4,1,0,90,0,1
183727,-100,4,1,0,90,0,0
184036,-100,4,1,0,80,0,0
194933,-98.0392156862745,4,1,0,80,0,0
200624,-96.1538461538461,4,1,0,80,0,0
202036,-94.3396226415094,4,1,0,80,0,0
203447,-92.5925925925926,4,1,0,80,0,0
203536,-92.3254472013849,4,1,0,80,0,0
203624,-92.0598388952819,4,1,0,80,0,0
203712,-91.7957544463569,4,1,0,80,0,0
203800,-91.533180778032,4,1,0,80,0,0
203889,-91.2721049629207,4,1,0,80,0,0
203977,-91.0125142207054,4,1,0,80,0,0
204065,-90.7543959160522,4,1,0,80,0,0
204153,-90.4977375565611,4,1,0,80,0,0
204242,-90.2425267907501,4,1,0,80,0,0
204330,-89.9887514060742,4,1,0,80,0,0
204418,-89.736399326977,4,1,0,80,0,0
204506,-89.4854586129754,4,1,0,80,0,0
204595,-89.2359174567763,4,1,0,80,0,0
204683,-88.9877641824249,4,1,0,80,0,0
204771,-88.7409872434831,4,1,0,80,0,0
204859,-88.495575221239,4,1,0,80,0,0
205565,-104.166666666667,4,1,0,75,0,0
205918,-107.52688172043,4,1,0,75,0,0
206271,-111.111111111111,4,1,0,70,0,0
226212,-108.843537414966,4,1,0,70,0,0
226389,-106.666666666667,4,1,0,70,0,0
226565,-104.575163398693,4,1,0,70,0,0
226742,-102.564102564103,4,1,0,70,0,0
227006,-100.62893081761,4,1,0,70,0,0
227095,-98.7654320987654,4,1,0,70,0,0
227271,-96.969696969697,4,1,0,70,0,0
227447,-95.2380952380952,4,1,0,70,0,0
228859,-166.666666666667,4,1,0,70,0,0
239977,-161.290322580645,4,1,0,70,0,0
240065,-156.25,4,1,0,70,0,0
240153,-151.515151515152,4,1,0,70,0,0
240506,-150.780829294561,4,1,0,70,0,0
240859,-150.05359056806,4,1,0,70,0,0
241036,-149.333333333333,4,1,0,70,0,0
241212,-148.619957537155,4,1,0,70,0,0
241389,-147.913365029054,4,1,0,70,0,0
241565,-147.213459516299,4,1,0,70,0,0
241742,-146.520146520147,4,1,0,70,0,0
241918,-145.833333333333,4,1,0,70,0,0
242183,-145.152928978745,4,1,0,70,0,0
242271,-144.478844169247,4,1,0,70,0,0
242447,-143.810991268618,4,1,0,70,0,0
242624,-143.149284253579,4,1,0,70,0,0
242977,-142.493638676845,4,1,0,70,0,0
243153,-141.843971631206,4,1,0,70,0,0
243330,-141.200201714574,4,1,0,70,0,0
243683,-140.562248995984,4,1,0,70,0,0
243859,-139.930034982509,4,1,0,70,0,0
244036,-139.303482587065,4,1,0,70,0,0
244212,-138.682516097078,4,1,0,70,0,0
244389,-138.067061143984,4,1,0,70,0,0
244565,-137.45704467354,4,1,0,70,0,0
244742,-136.852394916911,4,1,0,70,0,0
245006,-136.25304136253,4,1,0,70,0,0
245095,-135.658914728682,4,1,0,70,0,0
245271,-135.069946936807,4,1,0,70,0,0
245359,-134.486071085495,4,1,0,70,0,0
245447,-133.907221425155,4,1,0,70,0,0
245800,-133.333333333333,4,1,0,70,0,0
248624,-132.352941176471,4,1,0,70,0,0
248800,-131.386861313869,4,1,0,70,0,0
248977,-130.434782608696,4,1,0,70,0,0
249153,-129.496402877698,4,1,0,70,0,0
249330,-128.571428571429,4,1,0,70,0,0
249506,-127.659574468085,4,1,0,70,0,0
249683,-126.760563380282,4,1,0,70,0,0
249859,-125.874125874126,4,1,0,70,0,0
250036,-125,4,1,0,70,0,0
251447,-83.3333333333333,4,1,0,85,0,0
251977,-80,4,1,0,85,0,0
252903,-95.2380952380952,4,1,0,85,0,0
253565,-117.647058823529,4,1,0,85,0,0
253918,-105.263157894737,4,1,0,85,0,0
254271,-83.3333333333333,4,1,0,85,0,0
254800,-80,4,1,0,85,0,0
255727,-95.2380952380952,4,1,0,85,0,0
256389,-117.647058823529,4,1,0,85,0,0
256565,-111.111111111111,4,1,0,85,0,0
256742,-105.263157894737,4,1,0,85,0,0
257095,-83.3333333333333,4,1,0,85,0,0
257624,-80,4,1,0,85,0,0
258550,-95.2380952380952,4,1,0,85,0,0
259212,-117.647058823529,4,1,0,85,0,0
259389,-111.111111111111,4,1,0,85,0,0
259565,-105.263157894737,4,1,0,85,0,0
259918,-83.3333333333333,4,1,0,85,0,0
260447,-80,4,1,0,85,0,0
261374,-95.2380952380952,4,1,0,85,0,0
262036,-125,4,1,0,85,0,0
262742,-111.111111111111,4,1,0,85,0,0
268389,-110.734463276836,4,1,0,85,0,0
268477,-110.36036036036,4,1,0,85,0,0
268565,-109.988776655443,4,1,0,85,0,0
268653,-109.619686800895,4,1,0,85,0,0
268742,-109.253065774805,4,1,0,85,0,0
268830,-108.888888888889,4,1,0,85,0,0
268918,-108.527131782946,4,1,0,85,0,0
269006,-108.167770419426,4,1,0,85,0,0
269095,-107.810781078108,4,1,0,85,0,0
269183,-107.456140350877,4,1,0,85,0,0
269271,-107.103825136612,4,1,0,85,0,0
269359,-106.753812636166,4,1,0,85,0,0
269447,-106.406080347448,4,1,0,85,0,0
269536,-106.060606060606,4,1,0,85,0,0
269624,-105.71736785329,4,1,0,85,0,0
269712,-105.376344086022,4,1,0,85,0,0
269800,-105.037513397642,4,1,0,85,0,0
269889,-104.700854700855,4,1,0,85,0,0
269977,-104.366347177849,4,1,0,85,0,0
270065,-104.033970276008,4,1,0,85,0,0
270153,-103.703703703704,4,1,0,85,0,0
270242,-103.37552742616,4,1,0,85,0,0
270330,-103.049421661409,4,1,0,85,0,0
270418,-102.72536687631,4,1,0,85,0,0
270506,-102.403343782654,4,1,0,85,0,0
270595,-102.083333333333,4,1,0,85,0,0
270683,-101.765316718588,4,1,0,85,0,0
270771,-101.449275362319,4,1,0,85,0,0
270859,-101.135190918473,4,1,0,85,0,0
270947,-100.82304526749,4,1,0,85,0,0
271036,-100.512820512821,4,1,0,85,0,0
271124,-100.204498977505,4,1,0,85,0,0
271212,-99.8980632008155,4,1,0,85,0,0
271300,-99.5934959349594,4,1,0,85,0,0
271389,-99.290780141844,4,1,0,85,0,0
271477,-98.989898989899,4,1,0,85,0,0
271565,-98.6908358509567,4,1,0,85,0,0
271653,-98.3935742971888,4,1,0,85,0,0
271742,-98.0980980980981,4,1,0,85,0,0
271830,-97.8043912175649,4,1,0,85,0,0
271918,-97.5124378109453,4,1,0,85,0,0
272006,-97.2222222222222,4,1,0,85,0,0
272095,-96.9337289812067,4,1,0,85,0,0
272183,-96.646942800789,4,1,0,85,0,0
272271,-96.3618485742379,4,1,0,85,0,0
272359,-96.078431372549,4,1,0,85,0,0
272447,-95.7966764418377,4,1,0,85,0,0
272536,-95.5165692007797,4,1,0,85,0,0
272624,-95.2380952380952,4,1,0,85,0,0
272977,-96.3855421686747,4,1,0,85,0,0
273330,-97.5609756097561,4,1,0,85,0,0
273683,-98.7654320987654,4,1,0,85,0,0
273859,-100,4,1,0,85,0,0
274036,-89.2857142857143,4,1,0,90,0,0
274080,-89.2857142857143,4,1,0,90,0,1
293889,-89.157319528329,4,1,0,90,0,1
293977,-89.0292935094773,4,1,0,90,0,1
294065,-88.9016346429596,4,1,0,90,0,1
294153,-88.7743413516609,4,1,0,90,0,1
294242,-88.6474120674864,4,1,0,90,0,1
294330,-88.5208452312964,4,1,0,90,0,1
294418,-88.3946392928429,4,1,0,90,0,1
294506,-88.2687927107061,4,1,0,90,0,1
294595,-88.143303952232,4,1,0,90,0,1
294683,-88.0181714934696,4,1,0,90,0,1
294771,-87.8933938191097,4,1,0,90,0,1
294859,-87.7689694224236,4,1,0,90,0,1
294947,-87.6448968052021,4,1,0,90,0,1
295036,-87.5211744776962,4,1,0,90,0,1
295124,-87.3978009585565,4,1,0,90,0,1
295212,-87.2747747747748,4,1,0,90,0,1
295300,-87.152094461625,4,1,0,90,0,1
295389,-87.0297585626053,4,1,0,90,0,1
295477,-86.9077656293804,4,1,0,90,0,1
295565,-86.7861142217245,4,1,0,90,0,1
295653,-86.6648029074644,4,1,0,90,0,1
295742,-86.5438302624232,4,1,0,90,0,1
295830,-86.4231948703652,4,1,0,90,0,1
295918,-86.3028953229399,4,1,0,90,0,1
296006,-86.1829302196275,4,1,0,90,0,1
296095,-86.0632981676846,4,1,0,90,0,1
296183,-85.9439977820904,4,1,0,90,0,1
296271,-85.8250276854928,4,1,0,90,0,1
296359,-85.7063865081559,4,1,0,90,0,1
296447,-85.5880728879072,4,1,0,90,0,1
296624,-85.4700854700855,4,1,0,85,0,1
296668,-85.4700854700855,4,1,0,85,0,0
296889,-93.4579439252336,4,1,0,85,0,0
313565,-91.743119266055,4,1,0,85,0,0
313742,-92.1052631578947,4,1,0,85,0,0
313830,-92.4702774108322,4,1,0,85,0,0
313918,-92.8381962864721,4,1,0,85,0,0
314095,-93.2090545938748,4,1,0,85,0,0
314271,-93.5828877005347,4,1,0,85,0,0
314359,-93.9597315436242,4,1,0,85,0,0
314447,-94.3396226415094,4,1,0,85,0,0
314536,-94.722598105548,4,1,0,85,0,0
314624,-95.1086956521739,4,1,0,85,0,0
314800,-95.4979536152797,4,1,0,85,0,0
314977,-95.8904109589041,4,1,0,85,0,0
315153,-96.2861072902338,4,1,0,85,0,0
315242,-96.6850828729282,4,1,0,85,0,0
315330,-97.0873786407767,4,1,0,85,0,0
315506,-97.4930362116992,4,1,0,85,0,0
315683,-97.9020979020979,4,1,0,85,0,0
315771,-98.314606741573,4,1,0,85,0,0
315859,-98.7306064880113,4,1,0,85,0,0
316036,-99.1501416430595,4,1,0,85,0,0
316212,-99.5732574679943,4,1,0,85,0,0
316389,-100,4,1,0,85,0,0
316477,-99.2555831265509,4,1,0,85,0,0
316565,-98.5221674876847,4,1,0,85,0,0
316653,-97.799511002445,4,1,0,85,0,0
316742,-97.0873786407767,4,1,0,85,0,0
316830,-96.3855421686747,4,1,0,85,0,0
316918,-95.6937799043062,4,1,0,85,0,0
317006,-95.0118764845606,4,1,0,85,0,0
317095,-94.3396226415094,4,1,0,85,0,0
317183,-93.6768149882904,4,1,0,85,0,0
317271,-93.0232558139535,4,1,0,85,0,0
317359,-92.378752886836,4,1,0,85,0,0
317447,-91.743119266055,4,1,0,85,0,0
317536,-91.1161731207289,4,1,0,85,0,0
317624,-90.4977375565611,4,1,0,85,0,0
317712,-89.8876404494382,4,1,0,85,0,0
317800,-89.2857142857143,4,1,0,85,0,0
318153,-91.324200913242,4,1,0,85,0,0
318506,-93.4579439252336,4,1,0,85,0,0
318859,-95.6937799043062,4,1,0,85,0,0
319036,-98.0392156862745,4,1,0,85,0,0
319212,-93.4579439252336,4,1,0,80,0,0
329095,-103.092783505155,4,1,0,80,0,0
329183,-93.4579439252336,4,1,0,80,0,0
329624,-91.743119266055,4,1,0,80,0,0
329712,-90.0900900900901,4,1,0,80,0,0
329800,-88.4955752212389,4,1,0,80,0,0
330506,-86.9565217391304,4,1,0,80,0,0
330771,-93.4579439252336,4,1,0,80,0,0
336330,-93.2642487046632,4,1,0,80,0,0
336506,-93.071354705274,4,1,0,80,0,0
336683,-92.8792569659443,4,1,0,80,0,0
336859,-92.6879505664264,4,1,0,80,0,0
337036,-92.497430626927,4,1,0,80,0,0
337124,-92.3076923076923,4,1,0,80,0,0
337212,-92.1187308085977,4,1,0,80,0,0
337389,-91.9305413687436,4,1,0,80,0,0
337565,-91.743119266055,4,1,0,80,0,0
337742,-91.5564598168871,4,1,0,80,0,0
337830,-91.3705583756345,4,1,0,80,0,0
337918,-91.1854103343465,4,1,0,80,0,0
338095,-91.0010111223458,4,1,0,80,0,0
338271,-90.8173562058527,4,1,0,80,0,0
338359,-90.6344410876133,4,1,0,80,0,0
338447,-90.4522613065327,4,1,0,80,0,0
338536,-90.2708124373119,4,1,0,80,0,0
338624,-90.0900900900901,4,1,0,80,0,0
338800,-89.9100899100899,4,1,0,80,0,0
338977,-89.7308075772682,4,1,0,80,0,0
339065,-89.5522388059701,4,1,0,80,0,0
339153,-89.3743793445879,4,1,0,80,0,0
339242,-89.197224975223,4,1,0,80,0,0
339330,-89.0207715133531,4,1,0,80,0,0
339418,-88.8450148075025,4,1,0,80,0,0
339506,-88.6699507389163,4,1,0,80,0,0
339595,-88.495575221239,4,1,0,80,0,0
339683,-88.3218842001963,4,1,0,80,0,0
339771,-88.1488736532811,4,1,0,80,0,0
339859,-87.9765395894428,4,1,0,80,0,0
339947,-87.8048780487805,4,1,0,80,0,0
340036,-87.6338851022395,4,1,0,80,0,0
340124,-87.4635568513119,4,1,0,80,0,0
340212,-87.2938894277401,4,1,0,80,0,0
340300,-87.1248789932236,4,1,0,80,0,0
340389,-86.9565217391304,4,1,0,80,0,0
340742,-89.2857142857143,4,1,0,80,0,0
341095,-91.7431192660551,4,1,0,80,0,0
341447,-94.3396226415094,4,1,0,80,0,0
341624,-97.0873786407767,4,1,0,80,0,0
341800,-100,4,1,0,75,0,0
351683,-111.111111111111,4,1,0,75,0,0
352036,-98.0392156862745,4,1,0,75,0,0
352212,-96.1538461538461,4,1,0,75,0,0
352300,-94.3396226415094,4,1,0,75,0,0
352389,-92.5925925925926,4,1,0,75,0,0
353095,-90.9090909090909,4,1,0,75,0,0
353359,-100,4,1,0,75,0,0
355918,-98.0392156862745,4,1,0,75,0,0
358742,-96.1538461538461,4,1,0,75,0,0
360153,-94.3396226415094,4,1,0,75,0,0
361565,-92.5925925925926,4,1,0,75,0,0
361653,-92.3254472013849,4,1,0,75,0,0
361742,-92.0598388952819,4,1,0,75,0,0
361830,-91.7957544463569,4,1,0,75,0,0
361918,-91.533180778032,4,1,0,75,0,0
362006,-91.2721049629207,4,1,0,75,0,0
362095,-91.0125142207054,4,1,0,75,0,0
362183,-90.7543959160522,4,1,0,75,0,0
362271,-90.4977375565611,4,1,0,75,0,0
362359,-90.2425267907501,4,1,0,75,0,0
362447,-89.9887514060742,4,1,0,75,0,0
362536,-89.736399326977,4,1,0,75,0,0
362624,-89.4854586129754,4,1,0,75,0,0
362712,-89.2359174567763,4,1,0,75,0,0
362800,-88.9877641824249,4,1,0,75,0,0
362889,-88.7409872434831,4,1,0,75,0,0
362977,-88.495575221239,4,1,0,75,0,0
363065,-89.5140664961637,4,1,0,70,0,0
363153,-90.5562742561449,4,1,0,70,0,0
363242,-91.6230366492147,4,1,0,70,0,0
363330,-92.7152317880795,4,1,0,70,0,0
363418,-93.8337801608579,4,1,0,70,0,0
363506,-94.9796472184532,4,1,0,70,0,0
363595,-96.1538461538461,4,1,0,70,0,0
363683,-97.3574408901252,4,1,0,70,0,0
363771,-98.5915492957747,4,1,0,70,0,0
363859,-99.8573466476462,4,1,0,70,0,0
363947,-101.156069364162,4,1,0,70,0,0
364036,-102.489019033675,4,1,0,70,0,0
364124,-103.857566765579,4,1,0,70,0,0
364212,-105.263157894737,4,1,0,70,0,0

[HitObjects]
308,265,198,5,4,0:0:0:0:
126,216,550,1,0,0:0:0:0:
126,216,727,1,8,0:0:0:0:
126,216,903,1,0,0:0:0:0:
126,216,1256,1,8,0:0:0:0:
126,216,1609,1,0,0:0:0:0:
126,216,1962,1,8,0:0:0:0:
126,216,2315,1,0,0:0:0:0:
126,216,2668,1,8,0:0:0:0:
126,216,3021,1,0,0:0:0:0:
126,216,3374,1,8,0:0:0:0:
126,216,3550,1,0,0:0:0:0:
126,216,3727,1,0,0:0:0:0:
232,189,4080,1,8,0:0:0:0:
232,189,4433,1,0,0:0:0:0:
232,189,4786,1,8,0:0:0:0:
232,189,5139,1,0,0:0:0:0:
232,189,5492,1,8,0:0:0:0:
232,189,5845,1,0,0:0:0:0:
232,189,6197,1,8,0:0:0:0:
232,189,6374,1,0,0:0:0:0:
232,189,6550,1,0,0:0:0:0:
232,189,6903,1,8,0:0:0:0:
232,189,7256,1,0,0:0:0:0:
232,189,7609,1,8,0:0:0:0:
232,189,7962,1,0,0:0:0:0:
232,189,8315,1,8,0:0:0:0:
151,127,8668,1,0,0:0:0:0:
151,127,9021,1,0,0:0:0:0:
151,127,9197,1,8,0:0:0:0:
151,127,9374,1,0,0:0:0:0:
151,127,9727,1,8,0:0:0:0:
151,127,10080,1,0,0:0:0:0:
151,127,10433,1,8,0:0:0:0:
175,222,10609,1,8,0:0:0:0:
174,214,10697,1,8,0:0:0:0:
286,116,10786,1,4,0:0:0:0:
362,165,11139,1,4,0:0:0:0:
362,165,11492,1,12,0:0:0:0:
261,288,11668,1,8,0:0:0:0:
261,288,11845,1,0,0:0:0:0:
261,288,12109,1,8,0:0:0:0:
261,288,12197,1,0,0:0:0:0:
261,288,12374,1,8,0:0:0:0:
268,282,12550,1,0,0:0:0:0:
303,168,12903,1,0,0:0:0:0:
303,168,12992,1,0,0:0:0:0:
303,168,13080,1,8,0:0:0:0:
303,168,13256,1,0,0:0:0:0:
303,168,13521,1,8,0:0:0:0:
303,168,13609,1,0,0:0:0:0:
303,168,13786,1,8,0:0:0:0:
306,163,13962,1,0,0:0:0:0:
193,163,14315,1,0,0:0:0:0:
193,163,14492,1,8,0:0:0:0:
193,163,14668,1,0,0:0:0:0:
193,163,14933,1,8,0:0:0:0:
193,163,15021,1,0,0:0:0:0:
193,163,15197,1,8,0:0:0:0:
193,163,15374,1,0,0:0:0:0:
263,222,15727,1,0,0:0:0:0:
263,222,15815,1,0,0:0:0:0:
263,222,15903,1,8,0:0:0:0:
263,222,16080,1,0,0:0:0:0:
263,222,16345,1,8,0:0:0:0:
263,222,16433,1,0,0:0:0:0:
263,222,16609,1,0,0:0:0:0:
204,171,16697,1,0,0:0:0:0:
263,222,16786,1,8,0:0:0:0:
263,222,16962,1,8,0:0:0:0:
225,139,17139,1,4,0:0:0:0:
218,175,17315,1,8,0:0:0:0:
218,175,17492,1,8,0:0:0:0:
218,175,17668,1,8,0:0:0:0:
103,121,17756,1,8,0:0:0:0:
218,175,17845,1,0,0:0:0:0:
117,225,18021,1,8,0:0:0:0:
117,225,18197,1,8,0:0:0:0:
117,225,18374,1,0,0:0:0:0:
117,225,18462,1,8,0:0:0:0:
116,218,18550,1,0,0:0:0:0:
113,208,18727,1,0,0:0:0:0:
113,207,18903,1,8,0:0:0:0:
111,203,19080,1,8,0:0:0:0:
111,193,19168,1,8,0:0:0:0:
111,191,19256,1,0,0:0:0:0:
222,136,19433,1,8,0:0:0:0:
222,136,19609,1,0,0:0:0:0:
379,209,19697,1,0,0:0:0:0:
222,136,19786,1,8,0:0:0:0:
361,187,19962,1,8,0:0:0:0:
361,187,20050,1,0,0:0:0:0:
361,187,20139,1,0,0:0:0:0:
361,187,20227,1,8,0:0:0:0:
361,187,20315,1,0,0:0:0:0:
361,187,20403,1,0,0:0:0:0:
361,187,20492,1,8,0:0:0:0:
361,187,20580,1,0,0:0:0:0:
361,187,20668,1,8,0:0:0:0:
361,187,20756,1,8,0:0:0:0:
361,187,20845,1,0,0:0:0:0:
361,187,20933,1,8,0:0:0:0:
361,187,21021,1,0,0:0:0:0:
361,187,21109,1,0,0:0:0:0:
361,187,21197,1,8,0:0:0:0:
361,187,21286,1,0,0:0:0:0:
211,150,21374,1,8,0:0:0:0:
211,150,21727,1,8,0:0:0:0:
211,150,22080,1,8,0:0:0:0:
211,150,22433,1,8,0:0:0:0:
186,167,22609,1,0,0:0:0:0:
186,167,22786,1,12,0:0:0:0:
319,228,23050,1,8,0:0:0:0:
319,228,23139,1,0,0:0:0:0:
319,228,23315,1,8,0:0:0:0:
324,217,23492,1,0,0:0:0:0:
324,213,23580,1,0,0:0:0:0:
333,208,23668,1,0,0:0:0:0:
337,205,23845,1,8,0:0:0:0:
337,201,24021,1,8,0:0:0:0:
337,201,24197,1,0,0:0:0:0:
159,144,24374,1,8,0:0:0:0:
36,158,24462,1,8,0:0:0:0:
61,163,24550,1,0,0:0:0:0:
293,256,24727,1,8,0:0:0:0:
269,160,24903,1,0,0:0:0:0:
176,37,24992,1,0,0:0:0:0:
240,157,25080,1,8,0:0:0:0:
244,143,25168,1,8,0:0:0:0:
244,143,25256,1,0,0:0:0:0:
273,141,25433,1,8,0:0:0:0:
273,141,25609,1,0,0:0:0:0:
386,102,25786,1,0,0:0:0:0:
386,102,25874,1,8,0:0:0:0:
386,102,25962,1,0,0:0:0:0:
386,102,26139,1,8,0:0:0:0:
106,198,26315,1,0,0:0:0:0:
106,203,26403,1,0,0:0:0:0:
166,59,26492,1,0,0:0:0:0:
106,198,26580,1,8,0:0:0:0:
313,200,26668,1,0,0:0:0:0:
334,188,26845,1,8,0:0:0:0:
220,151,27021,1,0,0:0:0:0:
220,151,27197,1,8,0:0:0:0:
220,151,27286,1,8,0:0:0:0:
220,151,27374,1,0,0:0:0:0:
293,256,27550,1,8,0:0:0:0:
131,227,27727,1,0,0:0:0:0:
131,227,27815,1,0,0:0:0:0:
293,256,27903,1,8,0:0:0:0:
132,220,28080,1,0,0:0:0:0:
132,220,28168,1,0,0:0:0:0:
132,220,28256,1,0,0:0:0:0:
179,283,28433,1,8,0:0:0:0:
299,170,28697,1,0,0:0:0:0:
299,170,28786,1,0,0:0:0:0:
299,170,28962,1,8,0:0:0:0:
299,170,29050,1,0,0:0:0:0:
299,170,29139,1,0,0:0:0:0:
299,170,29315,1,8,0:0:0:0:
109,194,29492,1,0,0:0:0:0:
109,194,29580,1,8,0:0:0:0:
109,194,29668,1,8,0:0:0:0:
209,217,29845,1,0,0:0:0:0:
209,217,30021,1,8,0:0:0:0:
209,217,30109,1,8,0:0:0:0:
209,217,30197,1,0,0:0:0:0:
209,217,30286,1,0,0:0:0:0:
231,204,30374,1,8,0:0:0:0:
231,204,30550,1,0,0:0:0:0:
236,193,30727,1,0,0:0:0:0:
297,96,30815,1,8,0:0:0:0:
297,96,30903,1,0,0:0:0:0:
194,97,31080,1,8,0:0:0:0:
194,97,31256,1,0,0:0:0:0:
145,183,31433,1,8,0:0:0:0:
145,183,31521,1,0,0:0:0:0:
150,178,31609,1,0,0:0:0:0:
155,174,31786,1,8,0:0:0:0:
179,303,31962,1,0,0:0:0:0:
179,303,32050,1,8,0:0:0:0:
181,295,32139,1,0,0:0:0:0:
181,295,32227,1,0,0:0:0:0:
186,290,32315,1,8,0:0:0:0:
191,285,32492,1,0,0:0:0:0:
302,106,32668,1,8,0:0:0:0:
302,106,32845,1,0,0:0:0:0:
302,106,32933,1,8,0:0:0:0:
302,106,33021,1,8,0:0:0:0:
302,106,33197,1,8,0:0:0:0:
316,245,33374,1,0,0:0:0:0:
316,245,33727,1,0,0:0:0:0:
316,245,33903,1,0,0:0:0:0:
316,245,33992,1,0,0:0:0:0:
164,199,34080,1,12,0:0:0:0:
213,213,34433,1,8,0:0:0:0:
211,207,34609,1,0,0:0:0:0:
211,206,34786,1,0,0:0:0:0:
216,204,34874,1,0,0:0:0:0:
204,209,34962,1,0,0:0:0:0:
199,196,35139,1,8,0:0:0:0:
201,179,35227,1,0,0:0:0:0:
201,179,35315,1,0,0:0:0:0:
286,94,35492,1,8,0:0:0:0:
200,152,35668,1,0,0:0:0:0:
200,152,35756,1,0,0:0:0:0:
199,137,35845,1,8,0:0:0:0:
192,108,36021,1,8,0:0:0:0:
192,108,36197,1,0,0:0:0:0:
192,108,36286,1,8,0:0:0:0:
191,100,36374,1,0,0:0:0:0:
191,99,36462,1,0,0:0:0:0:
191,99,36550,1,8,0:0:0:0:
191,99,36727,1,0,0:0:0:0:
191,97,36903,1,8,0:0:0:0:
301,187,37256,1,8,0:0:0:0:
301,187,37433,1,0,0:0:0:0:
224,258,37609,1,0,0:0:0:0:
223,252,37697,1,0,0:0:0:0:
222,238,37786,1,8,0:0:0:0:
300,175,37962,1,8,0:0:0:0:
206,214,38050,1,8,0:0:0:0:
202,208,38139,1,0,0:0:0:0:
366,158,38315,1,8,0:0:0:0:
441,138,38492,1,0,0:0:0:0:
441,138,38580,1,0,0:0:0:0:
441,138,38668,1,8,0:0:0:0:
300,174,38756,1,0,0:0:0:0:
441,138,38845,1,8,0:0:0:0:
196,91,39021,1,0,0:0:0:0:
196,91,39109,1,0,0:0:0:0:
196,91,39197,1,8,0:0:0:0:
196,91,39374,1,0,0:0:0:0:
213,169,39727,1,12,0:0:0:0:
213,169,39903,1,0,0:0:0:0:
213,169,39992,1,0,0:0:0:0:
199,165,40080,1,8,0:0:0:0:
212,155,40256,1,0,0:0:0:0:
251,66,40433,1,0,0:0:0:0:
251,66,40521,1,8,0:0:0:0:
241,58,40609,1,0,0:0:0:0:
248,59,40697,1,0,0:0:0:0:
248,56,40786,1,8,0:0:0:0:
251,47,40962,1,0,0:0:0:0:
251,47,41139,1,8,0:0:0:0:
248,37,41315,1,0,0:0:0:0:
243,33,41403,1,8,0:0:0:0:
243,33,41492,1,8,0:0:0:0:
250,31,41668,1,0,0:0:0:0:
250,31,41845,1,8,0:0:0:0:
190,118,41933,1,0,0:0:0:0:
190,118,42021,1,0,0:0:0:0:
448,259,42109,1,0,0:0:0:0:
448,259,42197,1,8,0:0:0:0:
271,158,42374,1,0,0:0:0:0:
176,218,42550,1,8,0:0:0:0:
174,213,42639,1,8,0:0:0:0:
174,204,42727,1,0,0:0:0:0:
231,220,42815,1,0,0:0:0:0:
279,235,42903,1,8,0:0:0:0:
296,246,42992,1,0,0:0:0:0:
300,252,43080,1,0,0:0:0:0:
300,252,43168,1,8,0:0:0:0:
300,252,43256,1,0,0:0:0:0:
300,252,43345,1,0,0:0:0:0:
300,252,43433,1,8,0:0:0:0:
300,252,43521,1,0,0:0:0:0:
300,252,43609,1,8,0:0:0:0:
300,252,43697,1,8,0:0:0:0:
300,252,43786,1,0,0:0:0:0:
300,252,43874,1,8,0:0:0:0:
309,106,44668,1,0,0:0:0:0:
309,106,45021,1,0,0:0:0:0:
134,183,45374,1,12,0:0:0:0:
196,128,45550,1,0,0:0:0:0:
218,100,45639,1,8,0:0:0:0:
218,100,45815,1,0,0:0:0:0:
76,72,45992,1,8,0:0:0:0:
317,265,46168,1,8,0:0:0:0:
317,265,46256,1,0,0:0:0:0:
317,265,46433,1,0,0:0:0:0:
153,57,46609,1,8,0:0:0:0:
153,57,46697,1,8,0:0:0:0:
130,58,46786,1,0,0:0:0:0:
91,52,46962,1,0,0:0:0:0:
89,43,47050,1,8,0:0:0:0:
300,123,47139,1,8,0:0:0:0:
89,36,47227,1,0,0:0:0:0:
89,36,47403,1,8,0:0:0:0:
151,222,47580,1,0,0:0:0:0:
161,218,47668,1,8,0:0:0:0:
151,222,47845,1,0,0:0:0:0:
229,138,48021,1,8,0:0:0:0:
255,219,48109,1,0,0:0:0:0:
229,138,48197,1,8,0:0:0:0:
226,126,48374,1,0,0:0:0:0:
221,127,48462,1,0,0:0:0:0:
211,119,48639,1,8,0:0:0:0:
104,173,48815,1,8,0:0:0:0:
211,117,48903,1,0,0:0:0:0:
300,123,48992,1,0,0:0:0:0:
104,173,49080,1,8,0:0:0:0:
196,115,49256,1,0,0:0:0:0:
104,173,49345,1,0,0:0:0:0:
196,115,49433,1,0,0:0:0:0:
321,186,49609,1,8,0:0:0:0:
321,186,49786,1,0,0:0:0:0:
328,190,49874,1,0,0:0:0:0:
329,190,49962,1,8,0:0:0:0:
196,115,50139,1,0,0:0:0:0:
196,115,50315,1,8,0:0:0:0:
87,90,50403,1,0,0:0:0:0:
63,128,50492,1,0,0:0:0:0:
63,128,50668,1,8,0:0:0:0:
196,115,50845,1,0,0:0:0:0:
196,115,51021,1,8,0:0:0:0:
218,100,51197,1,0,0:0:0:0:
196,128,51286,1,8,0:0:0:0:
190,47,51462,1,8,0:0:0:0:
76,72,51639,1,8,0:0:0:0:
330,77,51727,1,0,0:0:0:0:
317,265,51815,1,0,0:0:0:0:
317,265,51903,1,8,0:0:0:0:
317,265,52080,1,0,0:0:0:0:
153,57,52256,1,8,0:0:0:0:
153,57,52345,1,8,0:0:0:0:
130,58,52433,1,0,0:0:0:0:
91,52,52609,1,0,0:0:0:0:
89,43,52697,1,8,0:0:0:0:
89,36,52874,1,8,0:0:0:0:
89,36,53050,1,0,0:0:0:0:
316,88,53139,1,0,0:0:0:0:
151,222,53227,1,8,0:0:0:0:
161,218,53315,1,8,0:0:0:0:
151,222,53492,1,0,0:0:0:0:
229,138,53668,1,8,0:0:0:0:
255,219,53756,1,0,0:0:0:0:
229,138,53845,1,8,0:0:0:0:
226,126,54021,1,0,0:0:0:0:
221,127,54109,1,8,0:0:0:0:
211,119,54286,1,8,0:0:0:0:
211,119,54374,1,0,0:0:0:0:
211,117,54550,1,0,0:0:0:0:
104,173,54727,1,8,0:0:0:0:
104,173,54815,1,8,0:0:0:0:
196,115,54903,1,0,0:0:0:0:
196,115,55080,1,8,0:0:0:0:
321,186,55256,1,0,0:0:0:0:
321,186,55433,1,8,0:0:0:0:
328,190,55521,1,0,0:0:0:0:
329,190,55609,1,8,0:0:0:0:
332,227,55697,1,8,0:0:0:0:
196,115,55786,1,0,0:0:0:0:
196,115,55962,1,8,0:0:0:0:
87,90,56050,1,0,0:0:0:0:
63,128,56139,1,0,0:0:0:0:
63,128,56315,1,8,0:0:0:0:
181,72,56668,1,4,0:0:0:0:
201,170,56845,1,0,0:0:0:0:
201,170,56933,1,0,0:0:0:0:
201,170,57021,1,8,0:0:0:0:
203,163,57197,1,0,0:0:0:0:
203,163,57374,1,8,0:0:0:0:
203,163,57462,1,0,0:0:0:0:
185,172,57550,1,8,0:0:0:0:
193,165,57639,1,8,0:0:0:0:
193,165,57727,1,0,0:0:0:0:
193,165,57903,1,0,0:0:0:0:
193,165,57992,1,8,0:0:0:0:
193,165,58080,1,8,0:0:0:0:
193,165,58256,1,8,0:0:0:0:
193,165,58433,1,0,0:0:0:0:
193,165,58609,1,8,0:0:0:0:
193,165,58697,1,0,0:0:0:0:
193,165,58786,1,8,0:0:0:0:
193,165,58962,1,8,0:0:0:0:
193,165,59139,1,0,0:0:0:0:
130,118,59403,1,0,0:0:0:0:
130,118,59492,1,8,0:0:0:0:
130,118,59668,1,8,0:0:0:0:
130,118,59845,1,0,0:0:0:0:
130,118,60021,1,0,0:0:0:0:
130,118,60109,1,0,0:0:0:0:
130,118,60197,1,8,0:0:0:0:
261,73,60374,1,8,0:0:0:0:
147,20,60550,1,0,0:0:0:0:
158,121,60727,1,8,0:0:0:0:
158,121,60815,1,8,0:0:0:0:
158,121,60903,1,0,0:0:0:0:
158,121,61080,1,8,0:0:0:0:
158,121,61256,1,0,0:0:0:0:
158,121,61345,1,0,0:0:0:0:
158,121,61433,1,8,0:0:0:0:
206,237,61521,1,8,0:0:0:0:
251,194,61609,1,0,0:0:0:0:
256,194,61786,1,0,0:0:0:0:
256,194,61962,1,8,0:0:0:0:
171,163,62315,1,4,0:0:0:0:
426,222,62492,1,0,0:0:0:0:
171,163,62668,1,8,0:0:0:0:
171,163,62845,1,0,0:0:0:0:
171,163,63021,1,8,0:0:0:0:
171,163,63197,1,8,0:0:0:0:
171,163,63286,1,0,0:0:0:0:
171,163,63462,1,0,0:0:0:0:
194,171,63550,1,8,0:0:0:0:
276,109,63639,1,0,0:0:0:0:
193,171,63727,1,8,0:0:0:0:
193,167,63903,1,8,0:0:0:0:
193,163,64080,1,0,0:0:0:0:
127,86,64256,1,0,0:0:0:0:
127,86,64345,1,0,0:0:0:0:
127,86,64433,1,8,0:0:0:0:
127,86,64609,1,8,0:0:0:0:
99,144,64786,1,0,0:0:0:0:
253,102,64962,1,8,0:0:0:0:
253,102,65050,1,8,0:0:0:0:
185,147,65139,1,0,0:0:0:0:
335,188,65227,1,0,0:0:0:0:
335,188,65315,1,8,0:0:0:0:
335,188,65403,1,0,0:0:0:0:
335,188,65492,1,8,0:0:0:0:
335,188,65580,1,8,0:0:0:0:
335,188,65668,1,0,0:0:0:0:
335,188,65756,1,0,0:0:0:0:
335,188,65845,1,8,0:0:0:0:
335,188,65933,1,0,0:0:0:0:
335,188,66021,1,0,0:0:0:0:
335,188,66109,1,8,0:0:0:0:
335,188,66197,1,0,0:0:0:0:
335,188,66286,1,0,0:0:0:0:
335,188,66374,1,8,0:0:0:0:
335,188,66462,1,8,0:0:0:0:
335,188,66550,1,0,0:0:0:0:
335,188,66639,1,0,0:0:0:0:
335,188,66727,1,8,0:0:0:0:
335,188,66815,1,0,0:0:0:0:
335,188,66903,1,8,0:0:0:0:
335,188,66992,1,8,0:0:0:0:
335,188,67080,1,0,0:0:0:0:
335,188,67168,1,8,0:0:0:0:
335,188,67256,1,0,0:0:0:0:
335,188,67345,1,0,0:0:0:0:
335,188,67433,1,0,0:0:0:0:
335,188,67521,1,0,0:0:0:0:
335,188,67609,1,8,0:0:0:0:
335,188,67697,1,8,0:0:0:0:
335,188,67786,1,0,0:0:0:0:
234,236,67962,1,12,0:0:0:0:
312,222,79256,5,8,0:0:0:0:
312,222,79786,1,8,0:0:0:0:
291,175,82080,1,8,0:0:0:0:
291,175,82609,1,0,0:0:0:0:
324,138,84903,1,8,0:0:0:0:
324,138,85433,1,0,0:0:0:0:
324,138,87727,1,0,0:0:0:0:
324,138,88256,1,8,0:0:0:0:
304,166,88786,1,0,0:0:0:0:
304,166,90021,1,0,0:0:0:0:
304,166,90197,1,0,0:0:0:0:
304,166,90374,1,0,0:0:0:0:
304,166,90550,1,12,0:0:0:0:
210,129,91433,1,8,0:0:0:0:
210,129,91609,1,8,0:0:0:0:
210,129,91786,1,0,0:0:0:0:
210,129,91962,1,8,0:0:0:0:
251,106,92845,1,8,0:0:0:0:
251,106,93021,1,8,0:0:0:0:
251,106,93197,1,0,0:0:0:0:
251,106,93374,1,0,0:0:0:0:
251,106,93903,1,0,0:0:0:0:
251,106,94609,1,0,0:0:0:0:
251,106,94786,1,8,0:0:0:0:
251,106,94962,1,8,0:0:0:0:
251,106,95139,1,0,0:0:0:0:
251,106,95315,1,0,0:0:0:0:
418,133,95668,1,8,0:0:0:0:
418,133,95845,1,0,0:0:0:0:
418,133,96021,1,0,0:0:0:0:
418,133,96197,1,8,0:0:0:0:
422,135,97080,1,0,0:0:0:0:
422,135,97256,1,0,0:0:0:0:
224,138,97433,1,8,0:0:0:0:
224,138,97609,1,8,0:0:0:0:
321,80,98139,1,0,0:0:0:0:
321,80,98845,1,0,0:0:0:0:
224,138,98933,1,0,0:0:0:0:
321,80,99021,1,8,0:0:0:0:
203,120,99197,1,0,0:0:0:0:
321,80,99374,1,8,0:0:0:0:
321,80,99550,1,8,0:0:0:0:
54,148,99639,1,8,0:0:0:0:
194,218,99903,1,8,0:0:0:0:
194,218,100080,1,8,0:0:0:0:
194,218,100256,1,0,0:0:0:0:
194,218,100433,1,8,0:0:0:0:
363,169,100609,1,8,0:0:0:0:
194,218,100697,1,0,0:0:0:0:
194,218,100962,1,8,0:0:0:0:
306,92,101315,1,0,0:0:0:0:
306,92,101492,1,8,0:0:0:0:
306,92,101668,1,8,0:0:0:0:
306,92,101845,1,0,0:0:0:0:
306,92,102109,1,0,0:0:0:0:
306,92,102374,1,8,0:0:0:0:
268,117,104139,1,8,0:0:0:0:
268,117,104315,1,8,0:0:0:0:
268,117,104492,1,8,0:0:0:0:
268,117,104668,1,0,0:0:0:0:
268,117,104933,1,0,0:0:0:0:
268,117,105197,1,0,0:0:0:0:
268,117,105374,1,8,0:0:0:0:
268,117,105639,1,8,0:0:0:0:
268,117,105903,1,8,0:0:0:0:
268,117,106080,1,0,0:0:0:0:
268,117,106345,1,0,0:0:0:0:
268,117,106609,1,8,0:0:0:0:
94,137,106962,1,0,0:0:0:0:
94,137,107139,1,8,0:0:0:0:
94,137,107315,1,8,0:0:0:0:
94,137,107492,1,0,0:0:0:0:
94,137,107756,1,0,0:0:0:0:
94,137,108021,1,8,0:0:0:0:
191,177,110315,1,0,0:0:0:0:
191,177,110580,1,0,0:0:0:0:
191,177,110845,1,0,0:0:0:0:
191,177,111021,1,8,0:0:0:0:
191,177,111550,1,8,0:0:0:0:
191,177,111639,1,8,0:0:0:0:
191,177,111727,1,0,0:0:0:0:
187,167,111992,1,8,0:0:0:0:
191,177,112256,1,0,0:0:0:0:
191,177,112433,1,8,0:0:0:0:
191,177,112697,1,8,0:0:0:0:
193,173,112962,1,8,0:0:0:0:
191,177,113139,1,4,0:0:0:0:
256,192,114550,8,0,115786,0:0:0:0:
157,160,115962,5,4,0:0:0:0:
157,160,116492,1,4,0:0:0:0:
256,192,116668,12,0,118256,0:0:0:0:
131,117,118433,5,8,0:0:0:0:
191,153,118786,1,4,0:0:0:0:
191,153,119315,1,4,0:0:0:0:
256,192,119492,8,0,121080,0:0:0:0:
131,117,121256,5,8,0:0:0:0:
191,153,121609,1,4,0:0:0:0:
191,153,122139,1,4,0:0:0:0:
256,192,122315,8,0,123903,0:0:0:0:
289,153,124080,5,8,0:0:0:0:
205,168,124433,1,4,0:0:0:0:
205,168,124962,1,4,0:0:0:0:
256,192,125139,8,0,126374,0:0:0:0:
231,153,126550,5,8,0:0:0:0:
231,153,126903,1,8,0:0:0:0:
309,82,127080,1,0,0:0:0:0:
231,153,127256,1,12,0:0:0:0:
400,232,127433,1,0,0:0:0:0:
400,232,127609,1,8,0:0:0:0:
400,232,127786,1,0,0:0:0:0:
400,232,127874,1,0,0:0:0:0:
384,218,127962,1,8,0:0:0:0:
383,218,128139,1,8,0:0:0:0:
383,218,128315,1,0,0:0:0:0:
382,218,128492,1,8,0:0:0:0:
382,218,128580,1,8,0:0:0:0:
382,218,128668,1,0,0:0:0:0:
382,218,128845,1,8,0:0:0:0:
383,218,129021,1,0,0:0:0:0:
234,107,129197,1,0,0:0:0:0:
234,107,129286,1,0,0:0:0:0:
203,111,129374,1,8,0:0:0:0:
189,109,129462,1,8,0:0:0:0:
169,106,129550,1,0,0:0:0:0:
169,106,129727,1,8,0:0:0:0:
169,106,129903,1,8,0:0:0:0:
239,222,130080,1,4,0:0:0:0:
303,112,130256,1,8,0:0:0:0:
303,112,130345,1,8,0:0:0:0:
303,112,130433,1,0,0:0:0:0:
303,112,130609,1,8,0:0:0:0:
303,112,130786,1,0,0:0:0:0:
303,112,130962,1,0,0:0:0:0:
303,112,131050,1,0,0:0:0:0:
303,112,131139,1,8,0:0:0:0:
127,129,131227,1,0,0:0:0:0:
303,112,131315,1,8,0:0:0:0:
306,170,131492,1,0,0:0:0:0:
306,170,131668,1,8,0:0:0:0:
306,170,131756,1,8,0:0:0:0:
306,170,131845,1,8,0:0:0:0:
302,158,132021,1,8,0:0:0:0:
302,158,132197,1,0,0:0:0:0:
302,158,132374,1,0,0:0:0:0:
302,158,132462,1,0,0:0:0:0:
302,158,132550,1,8,0:0:0:0:
170,162,132727,1,8,0:0:0:0:
298,265,132903,1,0,0:0:0:0:
298,265,132992,1,0,0:0:0:0:
298,265,133080,1,8,0:0:0:0:
248,202,133168,1,8,0:0:0:0:
298,265,133256,1,0,0:0:0:0:
298,265,133345,1,8,0:0:0:0:
298,265,133433,1,0,0:0:0:0:
298,265,133521,1,0,0:0:0:0:
298,265,133609,1,8,0:0:0:0:
298,265,133697,1,0,0:0:0:0:
398,199,133786,1,8,0:0:0:0:
315,147,133874,1,8,0:0:0:0:
398,199,133962,1,0,0:0:0:0:
298,265,134139,1,8,0:0:0:0:
201,94,134315,1,0,0:0:0:0:
201,94,134403,1,8,0:0:0:0:
182,97,134492,1,0,0:0:0:0:
182,97,134580,1,0,0:0:0:0:
182,97,134668,1,8,0:0:0:0:
182,97,134756,1,8,0:0:0:0:
182,97,134845,1,0,0:0:0:0:
182,97,134933,1,8,0:0:0:0:
182,97,135021,1,0,0:0:0:0:
182,97,135109,1,0,0:0:0:0:
182,97,135197,1,8,0:0:0:0:
182,97,135286,1,0,0:0:0:0:
182,97,135374,1,8,0:0:0:0:
182,97,135550,1,0,0:0:0:0:
324,117,135727,1,8,0:0:0:0:
324,117,135815,1,8,0:0:0:0:
324,117,135903,1,0,0:0:0:0:
324,117,135992,1,0,0:0:0:0:
324,117,136080,1,8,0:0:0:0:
324,117,136168,1,0,0:0:0:0:
324,117,136256,1,8,0:0:0:0:
324,117,136345,1,8,0:0:0:0:
324,117,136433,1,0,0:0:0:0:
324,117,136521,1,8,0:0:0:0:
324,117,136609,1,8,0:0:0:0:
324,117,136697,1,8,0:0:0:0:
324,117,136786,1,0,0:0:0:0:
324,117,136874,1,0,0:0:0:0:
324,117,136962,1,8,0:0:0:0:
324,117,137050,1,0,0:0:0:0:
324,117,137139,1,8,0:0:0:0:
88,201,137492,1,8,0:0:0:0:
88,201,137845,1,8,0:0:0:0:
88,201,138197,1,8,0:0:0:0:
88,201,138374,1,0,0:0:0:0:
88,201,138550,1,12,0:0:0:0:
146,186,138815,1,0,0:0:0:0:
146,186,138903,1,8,0:0:0:0:
146,186,139080,1,0,0:0:0:0:
146,186,139256,1,8,0:0:0:0:
156,190,139345,1,8,0:0:0:0:
150,195,139433,1,0,0:0:0:0:
150,195,139521,1,8,0:0:0:0:
150,195,139609,1,0,0:0:0:0:
150,195,139786,1,0,0:0:0:0:
150,195,139962,1,8,0:0:0:0:
150,195,140139,1,0,0:0:0:0:
150,195,140227,1,0,0:0:0:0:
150,195,140315,1,8,0:0:0:0:
150,195,140492,1,0,0:0:0:0:
150,195,140668,1,8,0:0:0:0:
184,142,141021,1,0,0:0:0:0:
141,110,141197,1,0,0:0:0:0:
270,102,141286,1,0,0:0:0:0:
270,102,141374,1,8,0:0:0:0:
200,174,141639,1,0,0:0:0:0:
200,174,141727,1,8,0:0:0:0:
200,174,141903,1,0,0:0:0:0:
200,174,142080,1,8,0:0:0:0:
200,174,142168,1,8,0:0:0:0:
187,173,142256,1,0,0:0:0:0:
187,173,142345,1,0,0:0:0:0:
187,173,142433,1,8,0:0:0:0:
357,176,142609,1,0,0:0:0:0:
357,176,142786,1,8,0:0:0:0:
357,176,142962,1,0,0:0:0:0:
357,176,143050,1,8,0:0:0:0:
357,176,143139,1,8,0:0:0:0:
281,119,143315,1,0,0:0:0:0:
281,119,143492,1,8,0:0:0:0:
222,148,143845,1,0,0:0:0:0:
222,148,144021,1,0,0:0:0:0:
222,148,144109,1,0,0:0:0:0:
222,148,144197,1,8,0:0:0:0:
216,239,144462,1,0,0:0:0:0:
216,239,144550,1,8,0:0:0:0:
216,239,144727,1,0,0:0:0:0:
216,239,144903,1,8,0:0:0:0:
216,239,144992,1,0,0:0:0:0:
216,239,145080,1,8,0:0:0:0:
220,236,145168,1,8,0:0:0:0:
220,236,145256,1,0,0:0:0:0:
220,235,145433,1,0,0:0:0:0:
220,235,145609,1,8,0:0:0:0:
221,233,145786,1,0,0:0:0:0:
221,233,145874,1,0,0:0:0:0:
221,230,145962,1,8,0:0:0:0:
221,230,146139,1,0,0:0:0:0:
221,230,146315,1,8,0:0:0:0:
101,121,146668,1,0,0:0:0:0:
298,167,146845,1,0,0:0:0:0:
298,167,146933,1,8,0:0:0:0:
298,167,147021,1,8,0:0:0:0:
240,58,147197,1,8,0:0:0:0:
224,84,147374,1,0,0:0:0:0:
194,82,147550,1,8,0:0:0:0:
194,82,147727,1,0,0:0:0:0:
266,123,148080,1,0,0:0:0:0:
266,123,148256,1,8,0:0:0:0:
266,123,148345,1,8,0:0:0:0:
266,123,148433,1,0,0:0:0:0:
266,123,148609,1,0,0:0:0:0:
266,123,148786,1,8,0:0:0:0:
266,123,148962,1,8,0:0:0:0:
266,123,149139,1,0,0:0:0:0:
146,236,149227,1,0,0:0:0:0:
146,236,149315,1,0,0:0:0:0:
266,123,149492,1,8,0:0:0:0:
251,217,149668,1,0,0:0:0:0:
251,217,149756,1,0,0:0:0:0:
88,201,149845,1,12,0:0:0:0:
146,186,150109,1,0,0:0:0:0:
146,186,150197,1,8,0:0:0:0:
146,186,150374,1,0,0:0:0:0:
146,186,150550,1,8,0:0:0:0:
156,190,150639,1,8,0:0:0:0:
150,195,150727,1,0,0:0:0:0:
150,195,150815,1,8,0:0:0:0:
150,195,150903,1,0,0:0:0:0:
150,195,151080,1,0,0:0:0:0:
150,195,151256,1,8,0:0:0:0:
150,195,151433,1,0,0:0:0:0:
150,195,151521,1,0,0:0:0:0:
150,195,151609,1,8,0:0:0:0:
150,195,151786,1,0,0:0:0:0:
150,195,151962,1,8,0:0:0:0:
184,142,152315,1,0,0:0:0:0:
141,110,152492,1,0,0:0:0:0:
270,102,152580,1,0,0:0:0:0:
270,102,152668,1,8,0:0:0:0:
200,174,152933,1,0,0:0:0:0:
200,174,153021,1,8,0:0:0:0:
200,174,153197,1,0,0:0:0:0:
200,174,153374,1,8,0:0:0:0:
200,174,153462,1,8,0:0:0:0:
187,173,153550,1,0,0:0:0:0:
187,173,153639,1,0,0:0:0:0:
187,173,153727,1,8,0:0:0:0:
357,176,153903,1,0,0:0:0:0:
357,176,154080,1,8,0:0:0:0:
357,176,154256,1,0,0:0:0:0:
357,176,154345,1,8,0:0:0:0:
357,176,154433,1,8,0:0:0:0:
281,119,154609,1,0,0:0:0:0:
281,119,154786,1,8,0:0:0:0:
222,148,155139,1,0,0:0:0:0:
222,148,155315,1,0,0:0:0:0:
222,148,155403,1,0,0:0:0:0:
222,148,155492,1,8,0:0:0:0:
216,239,155756,1,0,0:0:0:0:
216,239,155845,1,8,0:0:0:0:
216,239,156021,1,0,0:0:0:0:
216,239,156197,1,8,0:0:0:0:
216,239,156286,1,0,0:0:0:0:
216,239,156374,1,8,0:0:0:0:
220,236,156462,1,8,0:0:0:0:
220,236,156550,1,0,0:0:0:0:
220,235,156727,1,0,0:0:0:0:
220,235,156903,1,8,0:0:0:0:
221,233,157080,1,0,0:0:0:0:
221,233,157168,1,0,0:0:0:0:
221,230,157256,1,8,0:0:0:0:
221,230,157433,1,0,0:0:0:0:
221,230,157609,1,8,0:0:0:0:
316,110,157697,1,8,0:0:0:0:
316,110,157786,1,0,0:0:0:0:
101,121,157962,1,8,0:0:0:0:
206,34,158139,1,0,0:0:0:0:
206,34,158227,1,8,0:0:0:0:
298,167,158315,1,0,0:0:0:0:
373,70,158403,1,0,0:0:0:0:
373,70,158492,1,8,0:0:0:0:
373,70,158580,1,0,0:0:0:0:
373,70,158668,1,8,0:0:0:0:
373,70,158756,1,8,0:0:0:0:
373,70,158845,1,0,0:0:0:0:
373,70,158933,1,8,0:0:0:0:
373,70,159021,1,0,0:0:0:0:
373,70,159109,1,0,0:0:0:0:
373,70,159197,1,0,0:0:0:0:
373,70,159286,1,0,0:0:0:0:
373,70,159374,1,8,0:0:0:0:
373,70,159462,1,0,0:0:0:0:
373,70,159550,1,8,0:0:0:0:
373,70,159639,1,8,0:0:0:0:
373,70,159727,1,0,0:0:0:0:
373,70,159815,1,8,0:0:0:0:
373,70,159903,1,0,0:0:0:0:
373,70,159992,1,0,0:0:0:0:
373,70,160080,1,8,0:0:0:0:
373,70,160168,1,0,0:0:0:0:
373,70,160256,1,8,0:0:0:0:
373,70,160345,1,8,0:0:0:0:
373,70,160433,1,0,0:0:0:0:
373,70,160521,1,8,0:0:0:0:
373,70,160609,1,0,0:0:0:0:
373,70,160697,1,0,0:0:0:0:
373,70,160786,1,8,0:0:0:0:
373,70,160874,1,8,0:0:0:0:
373,70,160962,1,0,0:0:0:0:
134,183,161139,1,12,0:0:0:0:
196,128,161315,1,0,0:0:0:0:
218,100,161403,1,8,0:0:0:0:
190,47,161492,1,8,0:0:0:0:
218,100,161580,1,0,0:0:0:0:
76,72,161756,1,8,0:0:0:0:
317,265,161933,1,0,0:0:0:0:
317,265,162021,1,8,0:0:0:0:
317,265,162197,1,0,0:0:0:0:
153,57,162374,1,8,0:0:0:0:
153,57,162462,1,8,0:0:0:0:
130,58,162550,1,0,0:0:0:0:
91,52,162727,1,0,0:0:0:0:
89,43,162815,1,8,0:0:0:0:
89,36,162992,1,0,0:0:0:0:
89,36,163168,1,8,0:0:0:0:
151,222,163256,1,8,0:0:0:0:
151,222,163345,1,0,0:0:0:0:
161,218,163433,1,8,0:0:0:0:
151,222,163609,1,0,0:0:0:0:
229,138,163786,1,8,0:0:0:0:
255,219,163874,1,0,0:0:0:0:
229,138,163962,1,8,0:0:0:0:
226,126,164139,1,0,0:0:0:0:
221,127,164227,1,0,0:0:0:0:
211,119,164315,1,0,0:0:0:0:
211,119,164403,1,8,0:0:0:0:
104,173,164580,1,8,0:0:0:0:
211,117,164668,1,0,0:0:0:0:
104,173,164845,1,8,0:0:0:0:
196,115,165021,1,0,0:0:0:0:
104,173,165109,1,0,0:0:0:0:
196,115,165197,1,0,0:0:0:0:
321,186,165374,1,8,0:0:0:0:
321,186,165550,1,0,0:0:0:0:
328,190,165639,1,0,0:0:0:0:
329,190,165727,1,8,0:0:0:0:
332,227,165815,1,8,0:0:0:0:
196,115,165903,1,0,0:0:0:0:
196,115,166080,1,8,0:0:0:0:
87,90,166168,1,0,0:0:0:0:
63,128,166256,1,0,0:0:0:0:
371,148,166345,1,0,0:0:0:0:
63,128,166433,1,8,0:0:0:0:
196,115,166609,1,0,0:0:0:0:
196,115,166786,1,8,0:0:0:0:
196,128,166962,1,8,0:0:0:0:
218,100,167050,1,8,0:0:0:0:
218,100,167139,1,0,0:0:0:0:
190,47,167227,1,8,0:0:0:0:
76,72,167403,1,8,0:0:0:0:
317,265,167580,1,0,0:0:0:0:
317,265,167668,1,8,0:0:0:0:
317,265,167845,1,0,0:0:0:0:
153,57,168021,1,8,0:0:0:0:
153,57,168109,1,8,0:0:0:0:
130,58,168197,1,0,0:0:0:0:
91,52,168374,1,0,0:0:0:0:
89,43,168462,1,8,0:0:0:0:
89,36,168639,1,8,0:0:0:0:
89,36,168815,1,0,0:0:0:0:
151,222,168903,1,0,0:0:0:0:
151,222,168992,1,0,0:0:0:0:
161,218,169080,1,8,0:0:0:0:
151,222,169256,1,0,0:0:0:0:
229,138,169433,1,8,0:0:0:0:
255,219,169521,1,0,0:0:0:0:
229,138,169609,1,8,0:0:0:0:
226,126,169786,1,0,0:0:0:0:
221,127,169874,1,8,0:0:0:0:
211,119,170050,1,8,0:0:0:0:
211,119,170139,1,0,0:0:0:0:
211,117,170315,1,0,0:0:0:0:
104,173,170492,1,8,0:0:0:0:
104,173,170580,1,8,0:0:0:0:
196,115,170668,1,0,0:0:0:0:
196,115,170845,1,8,0:0:0:0:
321,186,171021,1,0,0:0:0:0:
321,186,171197,1,8,0:0:0:0:
328,190,171286,1,0,0:0:0:0:
329,190,171374,1,8,0:0:0:0:
332,227,171462,1,8,0:0:0:0:
196,115,171550,1,0,0:0:0:0:
196,115,171727,1,8,0:0:0:0:
87,90,171815,1,0,0:0:0:0:
63,128,171903,1,0,0:0:0:0:
63,128,172080,1,8,0:0:0:0:
316,117,172256,1,8,0:0:0:0:
316,117,172345,1,8,0:0:0:0:
181,72,172433,1,4,0:0:0:0:
201,170,172609,1,0,0:0:0:0:
201,170,172697,1,0,0:0:0:0:
201,170,172786,1,8,0:0:0:0:
203,163,172962,1,0,0:0:0:0:
203,163,173139,1,8,0:0:0:0:
203,163,173227,1,0,0:0:0:0:
185,172,173315,1,8,0:0:0:0:
193,165,173403,1,8,0:0:0:0:
193,165,173492,1,0,0:0:0:0:
193,165,173668,1,0,0:0:0:0:
193,165,173756,1,8,0:0:0:0:
193,165,173845,1,8,0:0:0:0:
193,165,174021,1,8,0:0:0:0:
193,165,174197,1,0,0:0:0:0:
193,165,174374,1,8,0:0:0:0:
193,165,174462,1,0,0:0:0:0:
193,165,174550,1,8,0:0:0:0:
193,165,174727,1,8,0:0:0:0:
193,165,174903,1,0,0:0:0:0:
130,118,175168,1,0,0:0:0:0:
130,118,175256,1,8,0:0:0:0:
130,118,175433,1,8,0:0:0:0:
130,118,175609,1,0,0:0:0:0:
130,118,175786,1,0,0:0:0:0:
130,118,175874,1,0,0:0:0:0:
130,118,175962,1,8,0:0:0:0:
261,73,176139,1,8,0:0:0:0:
147,20,176315,1,0,0:0:0:0:
158,121,176492,1,8,0:0:0:0:
158,121,176580,1,8,0:0:0:0:
158,121,176668,1,0,0:0:0:0:
158,121,176845,1,8,0:0:0:0:
158,121,177021,1,0,0:0:0:0:
158,121,177109,1,0,0:0:0:0:
158,121,177197,1,8,0:0:0:0:
206,237,177286,1,8,0:0:0:0:
251,194,177374,1,0,0:0:0:0:
256,194,177550,1,0,0:0:0:0:
256,194,177727,1,8,0:0:0:0:
171,163,178080,1,4,0:0:0:0:
426,222,178256,1,0,0:0:0:0:
171,163,178433,1,8,0:0:0:0:
171,163,178609,1,0,0:0:0:0:
171,163,178786,1,8,0:0:0:0:
171,163,178962,1,8,0:0:0:0:
171,163,179050,1,0,0:0:0:0:
171,163,179227,1,0,0:0:0:0:
194,171,179315,1,8,0:0:0:0:
276,109,179403,1,0,0:0:0:0:
193,171,179492,1,8,0:0:0:0:
193,167,179668,1,8,0:0:0:0:
193,163,179845,1,0,0:0:0:0:
127,86,180021,1,0,0:0:0:0:
127,86,180109,1,0,0:0:0:0:
127,86,180197,1,8,0:0:0:0:
127,86,180374,1,8,0:0:0:0:
99,144,180550,1,0,0:0:0:0:
253,102,180727,1,8,0:0:0:0:
253,102,180815,1,8,0:0:0:0:
185,147,180903,1,0,0:0:0:0:
335,188,180992,1,0,0:0:0:0:
335,188,181080,1,8,0:0:0:0:
335,188,181168,1,0,0:0:0:0:
335,188,181256,1,8,0:0:0:0:
335,188,181345,1,8,0:0:0:0:
335,188,181433,1,0,0:0:0:0:
335,188,181521,1,0,0:0:0:0:
335,188,181609,1,8,0:0:0:0:
335,188,181697,1,0,0:0:0:0:
335,188,181786,1,0,0:0:0:0:
335,188,181874,1,8,0:0:0:0:
335,188,181962,1,0,0:0:0:0:
335,188,182050,1,0,0:0:0:0:
335,188,182139,1,8,0:0:0:0:
335,188,182227,1,0,0:0:0:0:
335,188,182315,1,8,0:0:0:0:
148,247,182668,1,8,0:0:0:0:
148,247,183021,1,8,0:0:0:0:
148,247,183374,1,8,0:0:0:0:
148,247,183550,1,0,0:0:0:0:
148,247,183727,1,4,0:0:0:0:
295,248,184080,1,8,0:0:0:0:
255,163,184345,1,8,0:0:0:0:
255,163,184433,1,0,0:0:0:0:
255,163,184609,1,0,0:0:0:0:
255,163,184786,1,8,0:0:0:0:
255,163,184874,1,8,0:0:0:0:
255,163,184962,1,8,0:0:0:0:
255,163,185139,1,0,0:0:0:0:
255,163,185315,1,0,0:0:0:0:
255,163,185492,1,8,0:0:0:0:
165,156,185668,1,0,0:0:0:0:
165,156,185756,1,0,0:0:0:0:
255,163,185845,1,8,0:0:0:0:
165,156,185933,1,0,0:0:0:0:
165,156,186021,1,0,0:0:0:0:
255,163,186197,1,8,0:0:0:0:
65,139,186550,1,0,0:0:0:0:
65,139,186727,1,0,0:0:0:0:
65,139,186903,1,8,0:0:0:0:
255,163,187168,1,8,0:0:0:0:
255,163,187256,1,0,0:0:0:0:
255,163,187433,1,0,0:0:0:0:
258,156,187609,1,8,0:0:0:0:
145,70,187697,1,0,0:0:0:0:
258,156,187786,1,8,0:0:0:0:
258,156,187962,1,0,0:0:0:0:
258,156,188139,1,0,0:0:0:0:
258,156,188315,1,8,0:0:0:0:
126,185,188492,1,0,0:0:0:0:
126,185,188580,1,8,0:0:0:0:
171,83,188668,1,8,0:0:0:0:
126,185,188756,1,8,0:0:0:0:
126,185,188845,1,0,0:0:0:0:
126,185,189021,1,8,0:0:0:0:
224,140,189374,1,0,0:0:0:0:
256,62,189550,1,0,0:0:0:0:
266,203,189727,1,8,0:0:0:0:
320,207,189992,1,8,0:0:0:0:
320,207,190080,1,0,0:0:0:0:
320,207,190256,1,0,0:0:0:0:
320,207,190433,1,8,0:0:0:0:
320,207,190521,1,8,0:0:0:0:
320,207,190609,1,8,0:0:0:0:
320,207,190786,1,0,0:0:0:0:
320,207,190962,1,0,0:0:0:0:
181,125,191139,1,8,0:0:0:0:
329,98,191315,1,0,0:0:0:0:
329,98,191403,1,0,0:0:0:0:
329,98,191492,1,8,0:0:0:0:
306,109,191580,1,8,0:0:0:0:
310,109,191668,1,0,0:0:0:0:
311,109,191845,1,8,0:0:0:0:
169,150,192197,1,0,0:0:0:0:
169,150,192286,1,0,0:0:0:0:
169,150,192374,1,0,0:0:0:0:
169,150,192550,1,8,0:0:0:0:
169,150,192727,1,8,0:0:0:0:
169,150,192903,1,0,0:0:0:0:
169,150,193256,1,8,0:0:0:0:
169,150,193433,1,8,0:0:0:0:
178,154,193521,1,8,0:0:0:0:
177,150,193609,1,0,0:0:0:0:
179,138,193786,1,0,0:0:0:0:
179,138,193962,1,8,0:0:0:0:
179,132,194139,1,8,0:0:0:0:
179,131,194315,1,0,0:0:0:0:
166,119,194492,1,0,0:0:0:0:
67,71,194580,1,0,0:0:0:0:
166,119,194668,1,8,0:0:0:0:
166,119,194845,1,0,0:0:0:0:
148,247,195021,1,12,0:0:0:0:
219,197,195286,1,0,0:0:0:0:
219,197,195374,1,8,0:0:0:0:
219,197,195550,1,0,0:0:0:0:
219,197,195727,1,8,0:0:0:0:
219,197,195815,1,8,0:0:0:0:
219,197,195903,1,0,0:0:0:0:
219,197,195992,1,8,0:0:0:0:
219,197,196080,1,0,0:0:0:0:
191,94,196256,1,0,0:0:0:0:
191,94,196433,1,8,0:0:0:0:
191,94,196521,1,8,0:0:0:0:
191,94,196609,1,0,0:0:0:0:
191,94,196786,1,8,0:0:0:0:
261,142,196962,1,0,0:0:0:0:
266,155,197050,1,0,0:0:0:0:
191,94,197139,1,8,0:0:0:0:
300,123,197227,1,8,0:0:0:0:
191,94,197315,1,0,0:0:0:0:
160,143,197492,1,8,0:0:0:0:
148,247,197845,1,12,0:0:0:0:
219,197,198109,1,0,0:0:0:0:
219,197,198197,1,8,0:0:0:0:
219,197,198374,1,0,0:0:0:0:
219,197,198550,1,8,0:0:0:0:
219,197,198639,1,0,0:0:0:0:
219,197,198727,1,8,0:0:0:0:
219,197,198815,1,8,0:0:0:0:
219,197,198903,1,0,0:0:0:0:
191,94,199080,1,0,0:0:0:0:
191,94,199256,1,8,0:0:0:0:
191,94,199345,1,0,0:0:0:0:
191,94,199433,1,0,0:0:0:0:
191,94,199609,1,8,0:0:0:0:
261,142,199786,1,0,0:0:0:0:
266,155,199874,1,8,0:0:0:0:
191,94,199962,1,8,0:0:0:0:
300,123,200050,1,8,0:0:0:0:
191,94,200139,1,0,0:0:0:0:
160,143,200315,1,8,0:0:0:0:
229,176,200668,1,4,0:0:0:0:
244,166,200845,1,0,0:0:0:0:
244,166,201021,1,8,0:0:0:0:
244,166,201197,1,0,0:0:0:0:
244,166,201374,1,8,0:0:0:0:
244,166,201550,1,8,0:0:0:0:
244,166,201727,1,0,0:0:0:0:
244,166,201903,1,8,0:0:0:0:
264,114,202080,1,4,0:0:0:0:
84,145,202256,1,0,0:0:0:0:
84,145,202433,1,8,0:0:0:0:
84,145,202609,1,0,0:0:0:0:
84,145,202786,1,8,0:0:0:0:
84,145,202962,1,8,0:0:0:0:
84,145,203139,1,0,0:0:0:0:
84,145,203315,1,0,0:0:0:0:
216,194,203492,1,8,0:0:0:0:
216,194,203580,1,0,0:0:0:0:
216,194,203668,1,0,0:0:0:0:
216,194,203756,1,0,0:0:0:0:
216,194,203845,1,8,0:0:0:0:
216,194,203933,1,0,0:0:0:0:
216,194,204021,1,8,0:0:0:0:
216,194,204109,1,8,0:0:0:0:
96,144,204197,1,0,0:0:0:0:
216,194,204286,1,0,0:0:0:0:
216,194,204374,1,8,0:0:0:0:
96,144,204462,1,8,0:0:0:0:
216,194,204550,1,0,0:0:0:0:
216,194,204639,1,8,0:0:0:0:
216,194,204727,1,8,0:0:0:0:
216,194,204815,1,8,0:0:0:0:
210,82,204903,1,0,0:0:0:0:
179,288,205609,1,8,0:0:0:0:
204,153,205962,1,0,0:0:0:0:
204,153,206315,1,12,0:0:0:0:
213,131,206492,1,0,0:0:0:0:
213,131,206580,1,0,0:0:0:0:
213,131,206756,1,0,0:0:0:0:
213,131,206933,1,8,0:0:0:0:
338,103,207550,1,8,0:0:0:0:
338,103,207639,1,8,0:0:0:0:
338,103,207727,1,0,0:0:0:0:
338,103,207903,1,0,0:0:0:0:
338,103,207992,1,8,0:0:0:0:
338,103,208168,1,0,0:0:0:0:
338,103,208345,1,8,0:0:0:0:
228,97,208962,1,0,0:0:0:0:
228,97,209139,1,8,0:0:0:0:
228,97,209403,1,8,0:0:0:0:
228,97,209580,1,0,0:0:0:0:
228,97,209756,1,0,0:0:0:0:
228,97,209845,1,0,0:0:0:0:
228,97,210021,1,8,0:0:0:0:
228,97,210197,1,0,0:0:0:0:
338,129,210550,1,8,0:0:0:0:
338,129,210903,1,8,0:0:0:0:
338,129,211080,1,0,0:0:0:0:
338,129,211256,1,8,0:0:0:0:
206,65,211786,1,0,0:0:0:0:
206,65,211962,1,8,0:0:0:0:
206,65,212139,1,8,0:0:0:0:
206,65,212227,1,0,0:0:0:0:
206,65,212403,1,8,0:0:0:0:
206,65,212580,1,8,0:0:0:0:
103,143,213197,1,0,0:0:0:0:
103,143,213286,1,8,0:0:0:0:
103,143,213374,1,8,0:0:0:0:
190,127,213550,1,8,0:0:0:0:
190,127,213639,1,0,0:0:0:0:
190,127,213815,1,0,0:0:0:0:
190,127,213992,1,8,0:0:0:0:
364,142,214609,1,0,0:0:0:0:
364,142,214786,1,8,0:0:0:0:
364,142,215050,1,8,0:0:0:0:
139,81,215315,1,0,0:0:0:0:
178,252,215668,1,8,0:0:0:0:
178,252,215845,1,8,0:0:0:0:
178,252,216021,1,0,0:0:0:0:
294,127,216374,1,0,0:0:0:0:
294,127,216550,1,8,0:0:0:0:
294,127,216903,1,8,0:0:0:0:
294,127,217080,1,8,0:0:0:0:
294,127,217256,1,0,0:0:0:0:
294,127,217433,1,0,0:0:0:0:
171,119,217609,1,8,0:0:0:0:
171,119,217786,1,0,0:0:0:0:
171,119,217874,1,0,0:0:0:0:
203,77,217962,1,8,0:0:0:0:
325,172,218139,1,0,0:0:0:0:
325,172,218315,1,8,0:0:0:0:
325,172,218492,1,8,0:0:0:0:
339,170,218845,1,0,0:0:0:0:
339,170,218933,1,8,0:0:0:0:
339,170,219021,1,8,0:0:0:0:
341,167,219197,1,8,0:0:0:0:
341,167,219374,1,0,0:0:0:0:
339,170,219550,1,0,0:0:0:0:
339,170,219639,1,0,0:0:0:0:
339,170,219727,1,8,0:0:0:0:
339,170,219903,1,8,0:0:0:0:
339,170,220080,1,0,0:0:0:0:
224,104,220345,1,8,0:0:0:0:
224,104,220433,1,0,0:0:0:0:
224,104,220609,1,0,0:0:0:0:
224,104,220786,1,8,0:0:0:0:
224,104,220962,1,0,0:0:0:0:
224,104,221050,1,0,0:0:0:0:
224,104,221139,1,8,0:0:0:0:
224,104,221315,1,8,0:0:0:0:
171,223,221668,1,0,0:0:0:0:
171,223,221756,1,8,0:0:0:0:
171,223,221845,1,0,0:0:0:0:
171,223,222021,1,0,0:0:0:0:
171,223,222197,1,8,0:0:0:0:
171,223,222374,1,8,0:0:0:0:
171,223,222550,1,0,0:0:0:0:
171,223,222727,1,0,0:0:0:0:
171,223,222903,1,8,0:0:0:0:
138,184,223256,1,0,0:0:0:0:
138,184,223433,1,0,0:0:0:0:
138,184,223609,1,8,0:0:0:0:
141,173,223786,1,0,0:0:0:0:
141,173,223962,1,8,0:0:0:0:
141,173,224227,1,0,0:0:0:0:
243,235,224492,1,0,0:0:0:0:
243,235,224580,1,8,0:0:0:0:
243,235,224668,1,8,0:0:0:0:
243,235,224845,1,0,0:0:0:0:
243,235,225021,1,8,0:0:0:0:
243,235,225197,1,0,0:0:0:0:
243,235,225286,1,0,0:0:0:0:
243,235,225374,1,8,0:0:0:0:
147,119,225550,1,0,0:0:0:0:
243,235,225727,1,8,0:0:0:0:
256,160,225903,1,0,0:0:0:0:
256,160,225992,1,8,0:0:0:0:
256,160,226080,1,0,0:0:0:0:
256,160,226256,1,0,0:0:0:0:
256,160,226433,1,8,0:0:0:0:
256,160,226609,1,8,0:0:0:0:
256,160,226786,1,0,0:0:0:0:
225,66,227139,1,8,0:0:0:0:
225,66,227315,1,8,0:0:0:0:
225,66,227492,1,4,0:0:0:0:
263,171,228903,1,8,0:0:0:0:
263,171,229168,1,8,0:0:0:0:
263,171,229433,1,8,0:0:0:0:
263,171,229697,1,8,0:0:0:0:
263,171,229962,1,8,0:0:0:0:
263,171,230315,1,8,0:0:0:0:
263,171,230580,1,8,0:0:0:0:
263,171,230845,1,8,0:0:0:0:
263,171,231109,1,8,0:0:0:0:
157,93,231374,1,8,0:0:0:0:
157,93,231550,1,8,0:0:0:0:
157,93,231727,1,0,0:0:0:0:
157,93,231992,1,0,0:0:0:0:
157,93,232256,1,0,0:0:0:0:
157,93,232521,1,0,0:0:0:0:
157,93,232786,1,0,0:0:0:0:
157,93,233139,1,0,0:0:0:0:
157,93,233403,1,0,0:0:0:0:
157,93,233668,1,0,0:0:0:0:
157,93,233933,1,0,0:0:0:0:
157,93,234197,1,0,0:0:0:0:
157,93,234374,1,0,0:0:0:0:
219,111,234550,1,8,0:0:0:0:
219,111,234815,1,8,0:0:0:0:
219,111,235080,1,8,0:0:0:0:
219,111,235345,1,8,0:0:0:0:
219,111,235609,1,8,0:0:0:0:
219,111,235962,1,8,0:0:0:0:
219,111,236227,1,8,0:0:0:0:
219,111,236492,1,8,0:0:0:0:
219,111,236756,1,8,0:0:0:0:
219,111,237021,1,8,0:0:0:0:
219,111,237197,1,0,0:0:0:0:
219,111,237374,1,0,0:0:0:0:
219,111,237639,1,0,0:0:0:0:
70,198,237903,1,0,0:0:0:0:
70,198,238168,1,0,0:0:0:0:
70,198,238433,1,0,0:0:0:0:
70,198,238786,1,0,0:0:0:0:
70,198,239050,1,0,0:0:0:0:
70,198,239315,1,0,0:0:0:0:
70,198,239580,1,0,0:0:0:0:
70,198,239845,1,8,0:0:0:0:
96,87,240021,1,8,0:0:0:0:
96,87,240109,1,8,0:0:0:0:
182,145,240197,1,0,0:0:0:0:
182,145,240550,1,8,0:0:0:0:
182,145,240903,1,0,0:0:0:0:
217,95,241080,1,0,0:0:0:0:
186,75,241256,1,8,0:0:0:0:
217,95,241433,1,8,0:0:0:0:
217,95,241609,1,0,0:0:0:0:
217,95,241786,1,0,0:0:0:0:
217,95,241962,1,8,0:0:0:0:
217,95,242227,1,8,0:0:0:0:
217,95,242315,1,0,0:0:0:0:
217,95,242492,1,0,0:0:0:0:
217,95,242668,1,8,0:0:0:0:
288,118,243021,1,0,0:0:0:0:
351,116,243197,1,0,0:0:0:0:
288,118,243374,1,8,0:0:0:0:
288,118,243727,1,0,0:0:0:0:
360,116,243903,1,0,0:0:0:0:
288,118,244080,1,8,0:0:0:0:
351,116,244256,1,8,0:0:0:0:
288,118,244433,1,0,0:0:0:0:
136,77,244609,1,0,0:0:0:0:
288,118,244786,1,8,0:0:0:0:
259,58,245050,1,8,0:0:0:0:
288,118,245139,1,0,0:0:0:0:
193,111,245315,1,0,0:0:0:0:
193,111,245403,1,0,0:0:0:0:
288,118,245492,1,8,0:0:0:0:
238,127,245845,1,0,0:0:0:0:
218,62,246021,1,0,0:0:0:0:
238,127,246197,1,8,0:0:0:0:
218,62,246374,1,8,0:0:0:0:
218,62,246462,1,8,0:0:0:0:
238,127,246550,1,0,0:0:0:0:
267,56,246727,1,0,0:0:0:0:
238,127,246903,1,8,0:0:0:0:
193,33,247080,1,8,0:0:0:0:
238,127,247256,1,0,0:0:0:0:
201,38,247433,1,0,0:0:0:0:
238,127,247609,1,8,0:0:0:0:
198,32,247786,1,8,0:0:0:0:
198,32,247874,1,8,0:0:0:0:
238,127,247962,1,0,0:0:0:0:
198,32,248050,1,8,0:0:0:0:
44,120,248139,1,8,0:0:0:0:
238,127,248315,1,8,0:0:0:0:
318,143,248492,1,0,0:0:0:0:
318,143,248668,1,0,0:0:0:0:
204,155,248845,1,8,0:0:0:0:
204,155,249021,1,0,0:0:0:0:
204,155,249197,1,8,0:0:0:0:
204,155,249374,1,0,0:0:0:0:
204,155,249550,1,0,0:0:0:0:
204,155,249727,1,8,0:0:0:0:
204,155,249903,1,8,0:0:0:0:
256,192,250080,8,0,251315,0:0:0:0:
76,244,251492,5,4,0:0:0:0:
76,244,252021,1,4,0:0:0:0:
256,192,252197,8,0,253433,0:0:0:0:
215,83,253609,5,0,0:0:0:0:
215,83,253962,1,8,0:0:0:0:
215,83,254315,1,4,0:0:0:0:
215,83,254845,1,4,0:0:0:0:
256,192,255021,8,0,256256,0:0:0:0:
141,105,256433,5,0,0:0:0:0:
141,105,256609,1,0,0:0:0:0:
141,105,256786,1,8,0:0:0:0:
147,203,257139,1,4,0:0:0:0:
147,203,257668,1,4,0:0:0:0:
256,192,257845,8,0,259080,0:0:0:0:
227,179,259256,5,8,0:0:0:0:
227,179,259433,1,0,0:0:0:0:
227,179,259609,1,8,0:0:0:0:
220,128,259962,1,4,0:0:0:0:
220,128,260492,1,4,0:0:0:0:
256,192,260668,8,0,261903,0:0:0:0:
375,201,262080,5,8,0:0:0:0:
375,201,262433,1,8,0:0:0:0:
375,201,262609,1,0,0:0:0:0:
375,201,262786,1,12,0:0:0:0:
209,250,262962,1,0,0:0:0:0:
209,250,263050,1,0,0:0:0:0:
209,250,263139,1,8,0:0:0:0:
120,174,263315,1,0,0:0:0:0:
120,174,263492,1,8,0:0:0:0:
120,174,263580,1,0,0:0:0:0:
120,174,263668,1,0,0:0:0:0:
120,174,263756,1,0,0:0:0:0:
120,174,263845,1,8,0:0:0:0:
120,174,264021,1,0,0:0:0:0:
120,174,264197,1,8,0:0:0:0:
120,174,264374,1,0,0:0:0:0:
120,174,264462,1,8,0:0:0:0:
120,174,264550,1,8,0:0:0:0:
120,174,264727,1,0,0:0:0:0:
120,174,264903,1,8,0:0:0:0:
205,132,264992,1,0,0:0:0:0:
205,132,265168,1,0,0:0:0:0:
205,132,265256,1,8,0:0:0:0:
205,132,265345,1,8,0:0:0:0:
205,132,265433,1,0,0:0:0:0:
205,132,265609,1,12,0:0:0:0:
205,132,265786,1,0,0:0:0:0:
205,132,265874,1,0,0:0:0:0:
201,136,265962,1,8,0:0:0:0:
205,132,266050,1,8,0:0:0:0:
148,80,266139,1,0,0:0:0:0:
263,79,266315,1,8,0:0:0:0:
263,79,266492,1,0,0:0:0:0:
263,79,266580,1,0,0:0:0:0:
263,79,266668,1,8,0:0:0:0:
268,157,266845,1,0,0:0:0:0:
268,157,267021,1,8,0:0:0:0:
268,157,267109,1,8,0:0:0:0:
268,157,267197,1,0,0:0:0:0:
268,157,267286,1,0,0:0:0:0:
268,157,267374,1,8,0:0:0:0:
268,157,267462,1,0,0:0:0:0:
268,157,267550,1,0,0:0:0:0:
268,157,267639,1,0,0:0:0:0:
268,157,267727,1,8,0:0:0:0:
142,92,267903,1,0,0:0:0:0:
142,92,267992,1,8,0:0:0:0:
142,92,268080,1,8,0:0:0:0:
142,92,268256,1,0,0:0:0:0:
220,137,268433,1,8,0:0:0:0:
220,137,268521,1,8,0:0:0:0:
220,137,268609,1,0,0:0:0:0:
220,137,268697,1,0,0:0:0:0:
220,137,268786,1,8,0:0:0:0:
126,109,268874,1,0,0:0:0:0:
220,137,268962,1,8,0:0:0:0:
220,137,269050,1,8,0:0:0:0:
126,109,269139,1,0,0:0:0:0:
126,109,269227,1,0,0:0:0:0:
126,109,269315,1,8,0:0:0:0:
126,109,269403,1,0,0:0:0:0:
126,109,269492,1,8,0:0:0:0:
126,109,269580,1,8,0:0:0:0:
126,109,269668,1,0,0:0:0:0:
126,109,269756,1,0,0:0:0:0:
295,93,269845,1,8,0:0:0:0:
295,93,269933,1,8,0:0:0:0:
295,93,270021,1,0,0:0:0:0:
295,93,270109,1,8,0:0:0:0:
295,93,270197,1,0,0:0:0:0:
295,93,270286,1,0,0:0:0:0:
295,93,270374,1,8,0:0:0:0:
295,93,270462,1,8,0:0:0:0:
295,93,270550,1,0,0:0:0:0:
295,93,270639,1,8,0:0:0:0:
295,93,270727,1,0,0:0:0:0:
295,93,270815,1,0,0:0:0:0:
295,93,270903,1,8,0:0:0:0:
295,93,270992,1,8,0:0:0:0:
295,93,271080,1,0,0:0:0:0:
295,93,271168,1,0,0:0:0:0:
122,195,271256,1,8,0:0:0:0:
122,195,271345,1,0,0:0:0:0:
122,195,271433,1,8,0:0:0:0:
122,195,271521,1,0,0:0:0:0:
126,77,271609,1,8,0:0:0:0:
126,77,271697,1,8,0:0:0:0:
126,86,271786,1,0,0:0:0:0:
126,86,271874,1,0,0:0:0:0:
126,86,271962,1,8,0:0:0:0:
126,86,272050,1,0,0:0:0:0:
80,163,272139,1,8,0:0:0:0:
80,163,272227,1,8,0:0:0:0:
80,163,272315,1,8,0:0:0:0:
80,163,272403,1,8,0:0:0:0:
228,81,272492,1,0,0:0:0:0:
228,81,272580,1,0,0:0:0:0:
228,81,272668,1,8,0:0:0:0:
255,84,273021,1,8,0:0:0:0:
255,84,273374,1,8,0:0:0:0:
255,84,273727,1,8,0:0:0:0:
255,84,273903,1,0,0:0:0:0:
134,183,274080,1,12,0:0:0:0:
325,150,274256,1,0,0:0:0:0:
325,150,274345,1,8,0:0:0:0:
309,165,274433,1,8,0:0:0:0:
325,150,274521,1,0,0:0:0:0:
192,122,274697,1,8,0:0:0:0:
158,216,274874,1,0,0:0:0:0:
158,216,274962,1,8,0:0:0:0:
158,216,275139,1,0,0:0:0:0:
158,216,275315,1,8,0:0:0:0:
218,95,275403,1,0,0:0:0:0:
158,216,275492,1,8,0:0:0:0:
151,199,275668,1,8,0:0:0:0:
151,199,275756,1,0,0:0:0:0:
151,199,275933,1,0,0:0:0:0:
151,199,276109,1,8,0:0:0:0:
151,199,276197,1,0,0:0:0:0:
285,102,276286,1,0,0:0:0:0:
151,199,276374,1,8,0:0:0:0:
151,199,276462,1,0,0:0:0:0:
151,199,276550,1,8,0:0:0:0:
363,229,276727,1,0,0:0:0:0:
363,229,276815,1,0,0:0:0:0:
363,229,276903,1,8,0:0:0:0:
363,229,277080,1,0,0:0:0:0:
363,229,277168,1,8,0:0:0:0:
363,229,277256,1,0,0:0:0:0:
363,229,277345,1,8,0:0:0:0:
263,197,277521,1,8,0:0:0:0:
164,252,277609,1,0,0:0:0:0:
151,159,277697,1,0,0:0:0:0:
263,197,277786,1,8,0:0:0:0:
263,197,277874,1,8,0:0:0:0:
263,197,277962,1,0,0:0:0:0:
263,197,278139,1,0,0:0:0:0:
351,99,278315,1,8,0:0:0:0:
351,99,278492,1,0,0:0:0:0:
351,89,278580,1,0,0:0:0:0:
351,89,278668,1,8,0:0:0:0:
351,89,278756,1,8,0:0:0:0:
351,89,278845,1,0,0:0:0:0:
351,89,279021,1,8,0:0:0:0:
351,89,279109,1,0,0:0:0:0:
351,89,279197,1,0,0:0:0:0:
351,89,279374,1,8,0:0:0:0:
172,107,279550,1,0,0:0:0:0:
151,103,279639,1,0,0:0:0:0:
151,103,279727,1,8,0:0:0:0:
176,123,279903,1,8,0:0:0:0:
176,123,279992,1,0,0:0:0:0:
252,108,280080,1,0,0:0:0:0:
176,123,280168,1,8,0:0:0:0:
176,121,280345,1,8,0:0:0:0:
316,198,280521,1,0,0:0:0:0:
316,198,280609,1,8,0:0:0:0:
316,198,280786,1,0,0:0:0:0:
316,198,280962,1,8,0:0:0:0:
316,198,281050,1,0,0:0:0:0:
316,198,281139,1,8,0:0:0:0:
316,198,281315,1,8,0:0:0:0:
316,198,281403,1,8,0:0:0:0:
316,198,281492,1,0,0:0:0:0:
316,198,281580,1,8,0:0:0:0:
316,198,281756,1,0,0:0:0:0:
148,178,281845,1,0,0:0:0:0:
148,178,281933,1,8,0:0:0:0:
148,178,282021,1,0,0:0:0:0:
148,178,282109,1,0,0:0:0:0:
148,178,282197,1,8,0:0:0:0:
214,112,282374,1,8,0:0:0:0:
214,112,282550,1,0,0:0:0:0:
232,204,282727,1,8,0:0:0:0:
232,204,282815,1,0,0:0:0:0:
232,204,282992,1,0,0:0:0:0:
232,204,283080,1,8,0:0:0:0:
126,105,283168,1,8,0:0:0:0:
232,204,283256,1,0,0:0:0:0:
126,105,283345,1,0,0:0:0:0:
232,204,283433,1,8,0:0:0:0:
232,204,283521,1,0,0:0:0:0:
232,204,283609,1,8,0:0:0:0:
232,204,283786,1,8,0:0:0:0:
355,299,283962,1,0,0:0:0:0:
356,328,284050,1,0,0:0:0:0:
356,328,284139,1,8,0:0:0:0:
356,328,284227,1,0,0:0:0:0:
364,328,284315,1,8,0:0:0:0:
364,328,284403,1,8,0:0:0:0:
366,328,284492,1,0,0:0:0:0:
363,325,284668,1,8,0:0:0:0:
363,325,284756,1,0,0:0:0:0:
374,330,284845,1,0,0:0:0:0:
218,338,284933,1,0,0:0:0:0:
374,330,285021,1,8,0:0:0:0:
374,330,285197,1,8,0:0:0:0:
181,72,285374,1,4,0:0:0:0:
201,170,285550,1,0,0:0:0:0:
201,170,285639,1,0,0:0:0:0:
201,170,285727,1,8,0:0:0:0:
203,163,285903,1,0,0:0:0:0:
203,163,286080,1,8,0:0:0:0:
203,163,286168,1,0,0:0:0:0:
185,172,286256,1,8,0:0:0:0:
193,165,286345,1,8,0:0:0:0:
193,165,286433,1,0,0:0:0:0:
193,165,286609,1,0,0:0:0:0:
193,165,286697,1,8,0:0:0:0:
193,165,286786,1,8,0:0:0:0:
193,165,286962,1,8,0:0:0:0:
193,165,287139,1,0,0:0:0:0:
193,165,287315,1,8,0:0:0:0:
193,165,287403,1,0,0:0:0:0:
193,165,287492,1,8,0:0:0:0:
193,165,287668,1,8,0:0:0:0:
193,165,287845,1,0,0:0:0:0:
130,118,288109,1,0,0:0:0:0:
130,118,288197,1,8,0:0:0:0:
130,118,288374,1,8,0:0:0:0:
130,118,288550,1,0,0:0:0:0:
130,118,288727,1,0,0:0:0:0:
130,118,288815,1,0,0:0:0:0:
130,118,288903,1,8,0:0:0:0:
261,73,289080,1,8,0:0:0:0:
147,20,289256,1,0,0:0:0:0:
158,121,289433,1,8,0:0:0:0:
158,121,289521,1,8,0:0:0:0:
158,121,289609,1,0,0:0:0:0:
158,121,289786,1,8,0:0:0:0:
158,121,289962,1,0,0:0:0:0:
158,121,290050,1,0,0:0:0:0:
158,121,290139,1,8,0:0:0:0:
206,237,290227,1,8,0:0:0:0:
251,194,290315,1,0,0:0:0:0:
256,194,290492,1,0,0:0:0:0:
256,194,290668,1,8,0:0:0:0:
171,163,291021,1,4,0:0:0:0:
426,222,291197,1,0,0:0:0:0:
171,163,291374,1,8,0:0:0:0:
171,163,291550,1,0,0:0:0:0:
171,163,291727,1,8,0:0:0:0:
171,163,291903,1,8,0:0:0:0:
171,163,291992,1,0,0:0:0:0:
171,163,292168,1,0,0:0:0:0:
194,171,292256,1,8,0:0:0:0:
276,109,292345,1,0,0:0:0:0:
193,171,292433,1,8,0:0:0:0:
193,167,292609,1,8,0:0:0:0:
193,163,292786,1,0,0:0:0:0:
127,86,292962,1,0,0:0:0:0:
127,86,293050,1,0,0:0:0:0:
127,86,293139,1,8,0:0:0:0:
127,86,293315,1,8,0:0:0:0:
99,144,293492,1,0,0:0:0:0:
253,102,293668,1,8,0:0:0:0:
253,102,293756,1,8,0:0:0:0:
185,147,293845,1,0,0:0:0:0:
335,188,293933,1,0,0:0:0:0:
335,188,294021,1,8,0:0:0:0:
335,188,294109,1,0,0:0:0:0:
335,188,294197,1,8,0:0:0:0:
335,188,294286,1,8,0:0:0:0:
335,188,294374,1,0,0:0:0:0:
335,188,294462,1,0,0:0:0:0:
335,188,294550,1,8,0:0:0:0:
335,188,294639,1,0,0:0:0:0:
335,188,294727,1,0,0:0:0:0:
335,188,294815,1,8,0:0:0:0:
335,188,294903,1,0,0:0:0:0:
335,188,294992,1,0,0:0:0:0:
335,188,295080,1,8,0:0:0:0:
335,188,295168,1,8,0:0:0:0:
335,188,295256,1,0,0:0:0:0:
335,188,295345,1,0,0:0:0:0:
335,188,295433,1,0,0:0:0:0:
335,188,295521,1,0,0:0:0:0:
335,188,295609,1,8,0:0:0:0:
335,188,295697,1,8,0:0:0:0:
335,188,295786,1,0,0:0:0:0:
335,188,295874,1,8,0:0:0:0:
335,188,295962,1,0,0:0:0:0:
335,188,296050,1,0,0:0:0:0:
335,188,296139,1,8,0:0:0:0:
335,188,296227,1,8,0:0:0:0:
335,188,296315,1,0,0:0:0:0:
335,188,296403,1,8,0:0:0:0:
335,188,296492,1,0,0:0:0:0:
88,201,296668,1,12,0:0:0:0:
146,186,296933,1,0,0:0:0:0:
146,186,297021,1,8,0:0:0:0:
146,186,297197,1,0,0:0:0:0:
146,186,297374,1,8,0:0:0:0:
156,190,297462,1,8,0:0:0:0:
150,195,297550,1,0,0:0:0:0:
150,195,297639,1,8,0:0:0:0:
150,195,297727,1,0,0:0:0:0:
150,195,297903,1,0,0:0:0:0:
150,195,298080,1,8,0:0:0:0:
150,195,298256,1,0,0:0:0:0:
150,195,298345,1,0,0:0:0:0:
150,195,298433,1,8,0:0:0:0:
247,182,298521,1,8,0:0:0:0:
150,195,298609,1,0,0:0:0:0:
150,195,298786,1,8,0:0:0:0:
314,190,298874,1,8,0:0:0:0:
314,190,298962,1,8,0:0:0:0:
184,142,299139,1,0,0:0:0:0:
141,110,299315,1,0,0:0:0:0:
270,102,299403,1,0,0:0:0:0:
270,102,299492,1,8,0:0:0:0:
200,174,299756,1,0,0:0:0:0:
200,174,299845,1,8,0:0:0:0:
200,174,300021,1,0,0:0:0:0:
200,174,300197,1,8,0:0:0:0:
200,174,300286,1,8,0:0:0:0:
187,173,300374,1,0,0:0:0:0:
187,173,300462,1,0,0:0:0:0:
187,173,300550,1,8,0:0:0:0:
357,176,300727,1,0,0:0:0:0:
357,176,300903,1,8,0:0:0:0:
357,176,301080,1,0,0:0:0:0:
357,176,301168,1,8,0:0:0:0:
357,176,301256,1,8,0:0:0:0:
281,119,301433,1,0,0:0:0:0:
281,119,301609,1,8,0:0:0:0:
314,190,301697,1,8,0:0:0:0:
314,190,301786,1,0,0:0:0:0:
116,78,301874,1,8,0:0:0:0:
222,148,301962,1,0,0:0:0:0:
222,148,302139,1,0,0:0:0:0:
222,148,302227,1,0,0:0:0:0:
222,148,302315,1,8,0:0:0:0:
216,239,302580,1,0,0:0:0:0:
216,239,302668,1,8,0:0:0:0:
216,239,302845,1,0,0:0:0:0:
216,239,303021,1,8,0:0:0:0:
216,239,303109,1,0,0:0:0:0:
216,239,303197,1,8,0:0:0:0:
220,236,303286,1,8,0:0:0:0:
220,236,303374,1,0,0:0:0:0:
220,235,303550,1,0,0:0:0:0:
220,235,303727,1,8,0:0:0:0:
221,233,303903,1,0,0:0:0:0:
221,233,303992,1,0,0:0:0:0:
221,230,304080,1,8,0:0:0:0:
221,230,304256,1,8,0:0:0:0:
221,230,304433,1,0,0:0:0:0:
170,155,304521,1,8,0:0:0:0:
252,97,304609,1,0,0:0:0:0:
252,97,304697,1,0,0:0:0:0:
101,121,304786,1,0,0:0:0:0:
298,167,304962,1,0,0:0:0:0:
298,167,305050,1,8,0:0:0:0:
298,167,305139,1,8,0:0:0:0:
240,58,305315,1,8,0:0:0:0:
224,84,305492,1,0,0:0:0:0:
194,82,305668,1,8,0:0:0:0:
194,82,305845,1,0,0:0:0:0:
56,143,306109,1,0,0:0:0:0:
266,123,306197,1,0,0:0:0:0:
266,123,306374,1,8,0:0:0:0:
266,123,306462,1,8,0:0:0:0:
266,123,306550,1,0,0:0:0:0:
266,123,306727,1,0,0:0:0:0:
266,123,306903,1,8,0:0:0:0:
266,123,307080,1,8,0:0:0:0:
331,182,307168,1,8,0:0:0:0:
266,123,307256,1,0,0:0:0:0:
146,236,307345,1,0,0:0:0:0:
146,236,307433,1,0,0:0:0:0:
266,123,307609,1,8,0:0:0:0:
251,217,307697,1,8,0:0:0:0:
251,217,307786,1,0,0:0:0:0:
88,201,307962,1,12,0:0:0:0:
146,186,308227,1,0,0:0:0:0:
146,186,308315,1,8,0:0:0:0:
146,186,308492,1,0,0:0:0:0:
146,186,308668,1,8,0:0:0:0:
150,195,308845,1,0,0:0:0:0:
150,195,308933,1,8,0:0:0:0:
150,195,309021,1,0,0:0:0:0:
150,195,309197,1,0,0:0:0:0:
150,195,309374,1,8,0:0:0:0:
342,191,309462,1,8,0:0:0:0:
150,195,309550,1,0,0:0:0:0:
150,195,309639,1,0,0:0:0:0:
150,195,309727,1,8,0:0:0:0:
150,195,309903,1,0,0:0:0:0:
150,195,310080,1,8,0:0:0:0:
184,142,310433,1,0,0:0:0:0:
141,110,310609,1,0,0:0:0:0:
270,102,310697,1,0,0:0:0:0:
270,102,310786,1,12,0:0:0:0:
200,174,311050,1,0,0:0:0:0:
200,174,311139,1,8,0:0:0:0:
200,174,311315,1,0,0:0:0:0:
200,174,311492,1,8,0:0:0:0:
200,174,311580,1,8,0:0:0:0:
187,173,311668,1,0,0:0:0:0:
187,173,311756,1,0,0:0:0:0:
187,173,311845,1,8,0:0:0:0:
357,176,312021,1,0,0:0:0:0:
357,176,312197,1,8,0:0:0:0:
357,176,312374,1,0,0:0:0:0:
357,176,312462,1,8,0:0:0:0:
357,176,312550,1,8,0:0:0:0:
281,119,312727,1,0,0:0:0:0:
281,119,312903,1,8,0:0:0:0:
406,199,313168,1,8,0:0:0:0:
222,148,313256,1,0,0:0:0:0:
222,148,313433,1,0,0:0:0:0:
222,148,313609,1,12,0:0:0:0:
373,92,313786,1,8,0:0:0:0:
216,239,313874,1,0,0:0:0:0:
216,239,313962,1,8,0:0:0:0:
216,239,314139,1,0,0:0:0:0:
216,239,314315,1,8,0:0:0:0:
216,239,314403,1,0,0:0:0:0:
216,239,314492,1,8,0:0:0:0:
220,236,314580,1,8,0:0:0:0:
220,236,314668,1,0,0:0:0:0:
220,235,314845,1,0,0:0:0:0:
220,235,315021,1,12,0:0:0:0:
221,233,315197,1,0,0:0:0:0:
221,233,315286,1,0,0:0:0:0:
221,230,315374,1,8,0:0:0:0:
221,230,315550,1,8,0:0:0:0:
221,230,315727,1,0,0:0:0:0:
316,110,315815,1,0,0:0:0:0:
316,110,315903,1,0,0:0:0:0:
101,121,316080,1,8,0:0:0:0:
206,34,316256,1,0,0:0:0:0:
298,167,316433,1,8,0:0:0:0:
373,70,316521,1,8,0:0:0:0:
373,70,316609,1,0,0:0:0:0:
373,70,316697,1,0,0:0:0:0:
373,70,316786,1,8,0:0:0:0:
373,70,316874,1,0,0:0:0:0:
373,70,316962,1,8,0:0:0:0:
373,70,317050,1,8,0:0:0:0:
373,70,317139,1,0,0:0:0:0:
373,70,317227,1,0,0:0:0:0:
373,70,317315,1,0,0:0:0:0:
373,70,317403,1,0,0:0:0:0:
373,70,317492,1,8,0:0:0:0:
373,70,317580,1,0,0:0:0:0:
373,70,317668,1,8,0:0:0:0:
373,70,317756,1,8,0:0:0:0:
373,70,317845,1,0,0:0:0:0:
163,159,318197,1,8,0:0:0:0:
163,159,318550,1,8,0:0:0:0:
163,159,318903,1,8,0:0:0:0:
163,159,319080,1,0,0:0:0:0:
163,159,319256,1,12,0:0:0:0:
233,283,319521,1,0,0:0:0:0:
233,283,319609,1,8,0:0:0:0:
233,283,319786,1,0,0:0:0:0:
233,283,319962,1,8,0:0:0:0:
233,283,320139,1,0,0:0:0:0:
85,117,320227,1,0,0:0:0:0:
233,283,320315,1,8,0:0:0:0:
245,279,320492,1,8,0:0:0:0:
245,279,320668,1,0,0:0:0:0:
288,174,320845,1,8,0:0:0:0:
288,174,320933,1,8,0:0:0:0:
317,154,321021,1,0,0:0:0:0:
317,154,321197,1,8,0:0:0:0:
171,145,321374,1,0,0:0:0:0:
171,145,321462,1,0,0:0:0:0:
171,145,321550,1,8,0:0:0:0:
171,145,321639,1,8,0:0:0:0:
171,145,321727,1,0,0:0:0:0:
171,145,321903,1,8,0:0:0:0:
171,145,322080,1,0,0:0:0:0:
353,143,322345,1,8,0:0:0:0:
353,143,322433,1,0,0:0:0:0:
353,143,322609,1,8,0:0:0:0:
353,143,322786,1,0,0:0:0:0:
353,143,322962,1,8,0:0:0:0:
353,143,323050,1,0,0:0:0:0:
353,143,323139,1,0,0:0:0:0:
353,143,323315,1,8,0:0:0:0:
353,143,323492,1,0,0:0:0:0:
353,143,323668,1,8,0:0:0:0:
353,143,323756,1,8,0:0:0:0:
208,128,323845,1,0,0:0:0:0:
386,165,324021,1,8,0:0:0:0:
257,219,324197,1,0,0:0:0:0:
240,224,324286,1,0,0:0:0:0:
275,220,324374,1,8,0:0:0:0:
321,183,324462,1,0,0:0:0:0:
321,183,324550,1,0,0:0:0:0:
309,183,324727,1,8,0:0:0:0:
309,183,324903,1,8,0:0:0:0:
375,103,325168,1,0,0:0:0:0:
375,103,325256,1,8,0:0:0:0:
375,103,325433,1,0,0:0:0:0:
375,103,325609,1,8,0:0:0:0:
179,222,325697,1,8,0:0:0:0:
375,103,325786,1,0,0:0:0:0:
189,217,325874,1,0,0:0:0:0:
375,103,325962,1,8,0:0:0:0:
375,103,326139,1,8,0:0:0:0:
375,103,326315,1,0,0:0:0:0:
375,103,326492,1,8,0:0:0:0:
201,127,326580,1,0,0:0:0:0:
201,127,326668,1,0,0:0:0:0:
208,127,326845,1,8,0:0:0:0:
208,127,327021,1,0,0:0:0:0:
208,127,327109,1,8,0:0:0:0:
215,130,327197,1,8,0:0:0:0:
242,136,327286,1,8,0:0:0:0:
242,136,327374,1,0,0:0:0:0:
248,130,327550,1,8,0:0:0:0:
251,129,327727,1,0,0:0:0:0:
361,117,327992,1,8,0:0:0:0:
361,117,328080,1,0,0:0:0:0:
361,117,328256,1,8,0:0:0:0:
361,117,328433,1,0,0:0:0:0:
361,117,328609,1,0,0:0:0:0:
361,117,328697,1,8,0:0:0:0:
376,122,328786,1,0,0:0:0:0:
377,122,328962,1,8,0:0:0:0:
377,122,329139,1,0,0:0:0:0:
392,132,329492,1,8,0:0:0:0:
256,152,329668,1,8,0:0:0:0:
178,95,329756,1,8,0:0:0:0:
406,132,329845,1,4,0:0:0:0:
421,146,330197,1,4,0:0:0:0:
163,159,330550,1,12,0:0:0:0:
233,283,330815,1,0,0:0:0:0:
233,283,330903,1,8,0:0:0:0:
233,283,331080,1,0,0:0:0:0:
233,283,331256,1,8,0:0:0:0:
233,283,331433,1,0,0:0:0:0:
85,117,331521,1,0,0:0:0:0:
233,283,331609,1,8,0:0:0:0:
245,279,331786,1,8,0:0:0:0:
245,279,331962,1,0,0:0:0:0:
288,174,332139,1,8,0:0:0:0:
288,174,332227,1,8,0:0:0:0:
317,154,332315,1,0,0:0:0:0:
317,154,332492,1,8,0:0:0:0:
171,145,332668,1,0,0:0:0:0:
171,145,332756,1,0,0:0:0:0:
171,145,332845,1,8,0:0:0:0:
171,145,332933,1,8,0:0:0:0:
171,145,333021,1,0,0:0:0:0:
171,145,333197,1,8,0:0:0:0:
171,145,333374,1,0,0:0:0:0:
353,143,333639,1,8,0:0:0:0:
353,143,333727,1,0,0:0:0:0:
353,143,333903,1,8,0:0:0:0:
353,143,334080,1,0,0:0:0:0:
353,143,334256,1,8,0:0:0:0:
353,143,334345,1,0,0:0:0:0:
353,143,334433,1,0,0:0:0:0:
353,143,334609,1,8,0:0:0:0:
353,143,334786,1,0,0:0:0:0:
353,143,334962,1,8,0:0:0:0:
353,143,335050,1,8,0:0:0:0:
208,128,335139,1,0,0:0:0:0:
386,165,335315,1,8,0:0:0:0:
257,219,335492,1,0,0:0:0:0:
240,224,335580,1,0,0:0:0:0:
275,220,335668,1,8,0:0:0:0:
321,183,335756,1,0,0:0:0:0:
321,183,335845,1,0,0:0:0:0:
309,183,336021,1,8,0:0:0:0:
309,183,336197,1,12,0:0:0:0:
129,191,336374,1,0,0:0:0:0:
129,191,336550,1,8,0:0:0:0:
129,191,336727,1,0,0:0:0:0:
129,191,336903,1,8,0:0:0:0:
129,191,337080,1,0,0:0:0:0:
141,192,337168,1,0,0:0:0:0:
146,196,337256,1,8,0:0:0:0:
148,196,337433,1,8,0:0:0:0:
148,196,337609,1,4,0:0:0:0:
148,196,337786,1,8,0:0:0:0:
148,196,337874,1,8,0:0:0:0:
148,196,337962,1,0,0:0:0:0:
148,196,338139,1,8,0:0:0:0:
138,192,338315,1,0,0:0:0:0:
138,192,338403,1,0,0:0:0:0:
140,192,338492,1,8,0:0:0:0:
144,189,338580,1,8,0:0:0:0:
144,189,338668,1,0,0:0:0:0:
166,186,338845,1,8,0:0:0:0:
167,186,339021,1,0,0:0:0:0:
274,154,339109,1,0,0:0:0:0:
274,154,339197,1,8,0:0:0:0:
274,154,339286,1,0,0:0:0:0:
279,161,339374,1,8,0:0:0:0:
286,161,339462,1,8,0:0:0:0:
287,161,339550,1,0,0:0:0:0:
296,158,339639,1,0,0:0:0:0:
295,158,339727,1,8,0:0:0:0:
297,156,339815,1,8,0:0:0:0:
296,153,339903,1,0,0:0:0:0:
289,155,339992,1,8,0:0:0:0:
286,155,340080,1,0,0:0:0:0:
286,155,340168,1,0,0:0:0:0:
284,155,340256,1,8,0:0:0:0:
286,156,340345,1,0,0:0:0:0:
218,141,340433,1,8,0:0:0:0:
218,141,340786,1,8,0:0:0:0:
218,141,341139,1,8,0:0:0:0:
218,141,341492,1,8,0:0:0:0:
218,141,341668,1,0,0:0:0:0:
218,141,341845,1,4,0:0:0:0:
320,282,342021,1,8,0:0:0:0:
320,282,342197,1,0,0:0:0:0:
320,282,342462,1,8,0:0:0:0:
320,282,342550,1,0,0:0:0:0:
320,282,342727,1,8,0:0:0:0:
320,282,342903,1,0,0:0:0:0:
161,172,343256,1,0,0:0:0:0:
161,172,343345,1,0,0:0:0:0:
161,172,343433,1,8,0:0:0:0:
161,172,343609,1,0,0:0:0:0:
161,172,343874,1,8,0:0:0:0:
161,172,343962,1,0,0:0:0:0:
161,172,344139,1,8,0:0:0:0:
161,172,344315,1,0,0:0:0:0:
218,141,344668,1,0,0:0:0:0:
320,282,344845,1,8,0:0:0:0:
320,282,345021,1,0,0:0:0:0:
320,282,345286,1,8,0:0:0:0:
320,282,345374,1,0,0:0:0:0:
320,282,345550,1,8,0:0:0:0:
320,282,345727,1,0,0:0:0:0:
161,172,346080,1,0,0:0:0:0:
161,172,346168,1,0,0:0:0:0:
161,172,346256,1,8,0:0:0:0:
161,172,346433,1,0,0:0:0:0:
161,172,346697,1,8,0:0:0:0:
161,172,346786,1,0,0:0:0:0:
161,172,346962,1,8,0:0:0:0:
284,148,347050,1,8,0:0:0:0:
161,172,347139,1,0,0:0:0:0:
284,148,347315,1,8,0:0:0:0:
218,141,347492,1,0,0:0:0:0:
320,282,347668,1,8,0:0:0:0:
320,282,347845,1,0,0:0:0:0:
320,282,348109,1,8,0:0:0:0:
320,282,348197,1,0,0:0:0:0:
320,282,348374,1,8,0:0:0:0:
320,282,348550,1,0,0:0:0:0:
161,172,348903,1,0,0:0:0:0:
161,172,348992,1,0,0:0:0:0:
161,172,349080,1,8,0:0:0:0:
161,172,349256,1,0,0:0:0:0:
161,172,349521,1,8,0:0:0:0:
161,172,349609,1,0,0:0:0:0:
161,172,349786,1,8,0:0:0:0:
161,172,349962,1,0,0:0:0:0:
218,141,350315,1,0,0:0:0:0:
320,282,350492,1,8,0:0:0:0:
320,282,350668,1,0,0:0:0:0:
320,282,350933,1,8,0:0:0:0:
320,282,351021,1,0,0:0:0:0:
320,282,351197,1,8,0:0:0:0:
320,282,351374,1,0,0:0:0:0:
161,172,351727,1,0,0:0:0:0:
353,138,352080,1,8,0:0:0:0:
353,138,352256,1,8,0:0:0:0:
353,138,352345,1,8,0:0:0:0:
353,138,352433,1,4,0:0:0:0:
353,138,352786,1,4,0:0:0:0:
353,138,353139,1,12,0:0:0:0:
151,99,353403,1,0,0:0:0:0:
151,99,353492,1,8,0:0:0:0:
151,99,353668,1,0,0:0:0:0:
151,99,353845,1,8,0:0:0:0:
151,99,353933,1,8,0:0:0:0:
151,99,354021,1,0,0:0:0:0:
145,97,354197,1,8,0:0:0:0:
145,97,354374,1,0,0:0:0:0:
145,97,354550,1,8,0:0:0:0:
145,97,354727,1,0,0:0:0:0:
145,97,354815,1,0,0:0:0:0:
145,97,354903,1,8,0:0:0:0:
145,97,355080,1,0,0:0:0:0:
145,97,355256,1,8,0:0:0:0:
145,97,355345,1,0,0:0:0:0:
145,97,355433,1,0,0:0:0:0:
145,97,355609,1,8,0:0:0:0:
208,132,355962,1,4,0:0:0:0:
86,159,356227,1,8,0:0:0:0:
208,132,356315,1,0,0:0:0:0:
398,183,356492,1,8,0:0:0:0:
208,132,356668,1,0,0:0:0:0:
398,183,356845,1,8,0:0:0:0:
398,183,356933,1,8,0:0:0:0:
208,132,357021,1,0,0:0:0:0:
350,216,357197,1,8,0:0:0:0:
208,132,357374,1,0,0:0:0:0:
350,216,357550,1,0,0:0:0:0:
350,216,357639,1,8,0:0:0:0:
208,132,357727,1,0,0:0:0:0:
371,127,357903,1,8,0:0:0:0:
334,112,357992,1,8,0:0:0:0:
208,132,358080,1,0,0:0:0:0:
268,61,358168,1,0,0:0:0:0:
268,61,358256,1,8,0:0:0:0:
208,132,358433,1,0,0:0:0:0:
229,176,358786,1,4,0:0:0:0:
244,166,358962,1,0,0:0:0:0:
244,166,359139,1,8,0:0:0:0:
244,166,359315,1,0,0:0:0:0:
244,166,359492,1,8,0:0:0:0:
244,166,359668,1,8,0:0:0:0:
244,166,359845,1,0,0:0:0:0:
244,166,360021,1,8,0:0:0:0:
264,114,360197,1,4,0:0:0:0:
84,145,360374,1,0,0:0:0:0:
84,145,360550,1,8,0:0:0:0:
84,145,360727,1,0,0:0:0:0:
84,145,360903,1,8,0:0:0:0:
84,145,361080,1,8,0:0:0:0:
84,145,361256,1,0,0:0:0:0:
84,145,361433,1,0,0:0:0:0:
216,194,361609,1,8,0:0:0:0:
216,194,361697,1,8,0:0:0:0:
216,194,361786,1,0,0:0:0:0:
216,194,361874,1,0,0:0:0:0:
216,194,361962,1,8,0:0:0:0:
216,194,362050,1,0,0:0:0:0:
216,194,362139,1,8,0:0:0:0:
216,194,362227,1,8,0:0:0:0:
96,144,362315,1,0,0:0:0:0:
216,194,362403,1,0,0:0:0:0:
216,194,362492,1,8,0:0:0:0:
96,144,362580,1,0,0:0:0:0:
216,194,362668,1,8,0:0:0:0:
216,194,362756,1,8,0:0:0:0:
216,194,362845,1,0,0:0:0:0:
216,194,362933,1,8,0:0:0:0:
286,100,363197,1,0,0:0:0:0:
286,100,363639,1,0,0:0:0:0:
286,100,363727,1,0,0:0:0:0:
286,100,363903,1,0,0:0:0:0:
279,122,363992,1,0,0:0:0:0:
286,100,364080,1,8,0:0:0:0:
286,100,364256,1,8,0:0:0:0:
