osu file format v14

[General]
AudioFilename: audio.mp3
AudioLeadIn: 0
PreviewTime: 161931
Countdown: 0
SampleSet: Soft
StackLeniency: 0.4
Mode: 3
LetterboxInBreaks: 0
SpecialStyle: 0
WidescreenStoryboard: 1

[Editor]
Bookmarks: 511,6818,17727,28636,34090,45000,66818,72272,83181,94090,115909,125284,136363,147102,162272,173181,184090,211363,223508,226789,227386
DistanceSpacing: 0.7
BeatDivisor: 12
GridSize: 32
TimelineZoom: 2.499999

[Metadata]
Title:Kakero
TitleUnicode:駆けろ
Artist:Hoshimachi Suisei
ArtistUnicode:星街すいせい
Creator:Amiichii
Version:Shooting Star!!!
Source:
Tags:vtuber virtual youtuber hololive ホロライブ mikitop みきとp japanese pop jpop j-pop still stellar suichan hosimati hoshimati hosimachi sui-chan full ver Takodachi Virtue- FAMoss Syadow- _Asha ChinoAngel run shin サイトウユウマ saitou yuuma yuma saito
BeatmapID:3378048
BeatmapSetID:1654907

[Difficulty]
HPDrainRate:8.5
CircleSize:4
OverallDifficulty:8
ApproachRate:9.2
SliderMultiplier:1.8
SliderTickRate:1

[Events]
//Background and Video events
0,0,"kakero bg.jpg",0,0
Video,-120,"Hoshimachi Suisei - Kakero.mp4"
//Break Periods
//Storyboard Layer 0 (Background)
//Storyboard Layer 1 (Fail)
//Storyboard Layer 2 (Pass)
//Storyboard Layer 3 (Foreground)
//Storyboard Layer 4 (Overlay)
//Storyboard Sound Samples

[TimingPoints]
0,340.909090909091,4,2,1,70,1,0
2727,-333.333333333333,4,2,1,70,0,0
2755,-322.58064516129,4,2,1,70,0,0
2783,-312.5,4,2,1,70,0,0
2812,-303.030303030303,4,2,1,70,0,0
2840,-294.117647058824,4,2,1,70,0,0
2869,-285.714285714286,4,2,1,70,0,0
2897,-277.777777777778,4,2,1,70,0,0
2925,-263.157894736842,4,2,1,70,0,0
2954,-256.410256410256,4,2,1,70,0,0
2982,-250,4,2,1,70,0,0
3011,-243.90243902439,4,2,1,70,0,0
3039,-238.095238095238,4,2,1,70,0,0
3067,-232.558139534884,4,2,1,70,0,0
3096,-227.272727272727,4,2,1,70,0,0
3124,-222.222222222222,4,2,1,70,0,0
3153,-217.391304347826,4,2,1,70,0,0
3181,-212.765957446809,4,2,1,70,0,0
3209,-208.333333333333,4,2,1,70,0,0
3238,-204.081632653061,4,2,1,70,0,0
3266,-200,4,2,1,70,0,0
3295,-196.078431372549,4,2,1,70,0,0
3323,-192.307692307692,4,2,1,70,0,0
3351,-185.185185185185,4,2,1,70,0,0
3380,-181.818181818182,4,2,1,70,0,0
3408,-178.571428571429,4,2,1,70,0,0
3437,-175.438596491228,4,2,1,70,0,0
3465,-172.413793103448,4,2,1,70,0,0
3493,-169.491525423729,4,2,1,70,0,0
3522,-166.666666666667,4,2,1,70,0,0
3550,-163.934426229508,4,2,1,70,0,0
3579,-161.290322580645,4,2,1,70,0,0
3607,-158.730158730159,4,2,1,70,0,0
3635,-156.25,4,2,1,70,0,0
3664,-153.846153846154,4,2,1,70,0,0
3692,-151.515151515152,4,2,1,70,0,0
3721,-147.058823529412,4,2,1,70,0,0
3749,-144.927536231884,4,2,1,70,0,0
3777,-142.857142857143,4,2,1,70,0,0
3806,-140.845070422535,4,2,1,70,0,0
3834,-138.888888888889,4,2,1,70,0,0
3863,-136.986301369863,4,2,1,70,0,0
3891,-135.135135135135,4,2,1,70,0,0
3920,-133.333333333333,4,2,1,70,0,0
3948,-131.578947368421,4,2,1,70,0,0
3976,-129.87012987013,4,2,1,70,0,0
4005,-128.205128205128,4,2,1,70,0,0
4033,-126.582278481013,4,2,1,70,0,0
4062,-125,4,2,1,70,0,0
4090,-123.456790123457,4,2,1,70,0,0
4118,-120.481927710843,4,2,1,70,0,0
4147,-119.047619047619,4,2,1,70,0,0
4175,-117.647058823529,4,2,1,70,0,0
4204,-116.279069767442,4,2,1,70,0,0
4232,-114.942528735632,4,2,1,70,0,0
4260,-113.636363636364,4,2,1,70,0,0
4289,-112.359550561798,4,2,1,70,0,0
4317,-111.111111111111,4,2,1,70,0,0
4346,-109.89010989011,4,2,1,70,0,0
4374,-108.695652173913,4,2,1,70,0,0
4402,-107.52688172043,4,2,1,70,0,0
4431,-106.382978723404,4,2,1,70,0,0
4459,-105.263157894737,4,2,1,70,0,0
4488,-104.166666666667,4,2,1,70,0,0
4516,-103.092783505155,4,2,1,70,0,0
4544,-101.010101010101,4,2,1,70,0,0
4573,-100,4,2,1,70,0,0
4601,-99.009900990099,4,2,1,70,0,0
4630,-98.0392156862745,4,2,1,70,0,0
4658,-97.0873786407767,4,2,1,70,0,0
4686,-96.1538461538461,4,2,1,70,0,0
4715,-95.2380952380952,4,2,1,70,0,0
4743,-94.3396226415094,4,2,1,70,0,0
4772,-93.4579439252336,4,2,1,70,0,0
4800,-92.5925925925926,4,2,1,70,0,0
4828,-91.743119266055,4,2,1,70,0,0
4857,-90.9090909090909,4,2,1,70,0,0
4885,-90.0900900900901,4,2,1,70,0,0
4914,-88.495575221239,4,2,1,70,0,0
4942,-87.719298245614,4,2,1,70,0,0
4970,-86.9565217391304,4,2,1,70,0,0
4999,-86.2068965517241,4,2,1,70,0,0
5027,-85.4700854700855,4,2,1,70,0,0
5056,-84.7457627118644,4,2,1,70,0,0
5084,-84.0336134453782,4,2,1,70,0,0
5113,-25,4,2,1,70,0,0
5134,-175.438596491228,4,2,1,70,0,0
5284,-100,4,2,1,70,0,0
6477,-200,4,2,1,70,0,0
6562,-133.333333333333,4,2,1,70,0,0
6647,-100,4,2,1,70,0,0
6690,-90.9090909090909,4,2,1,70,0,0
6732,-83.3333333333333,4,2,1,70,0,0
6754,-76.9230769230769,4,2,1,70,0,0
6775,-71.4285714285714,4,2,1,70,0,0
6796,-66.6666666666667,4,2,1,70,0,0
6818,-100,4,2,1,70,0,0
17386,-200,4,2,1,70,0,0
17471,-133.333333333333,4,2,1,70,0,0
17556,-100,4,2,1,70,0,0
17599,-90.9090909090909,4,2,1,70,0,0
17641,-83.3333333333333,4,2,1,70,0,0
17663,-76.9230769230769,4,2,1,70,0,0
17684,-71.4285714285714,4,2,1,70,0,0
17705,-66.6666666666667,4,2,1,70,0,0
17727,-100,4,2,1,70,0,0
27784,-200,4,2,1,70,0,0
27869,-133.333333333333,4,2,1,70,0,0
27954,-100,4,2,1,70,0,0
27997,-90.9090909090909,4,2,1,70,0,0
28039,-83.3333333333333,4,2,1,70,0,0
28061,-76.9230769230769,4,2,1,70,0,0
28082,-71.4285714285714,4,2,1,70,0,0
28103,-66.6666666666667,4,2,1,70,0,0
28125,-100,4,2,1,70,0,0
44318,-22.2222222222222,4,2,1,70,0,0
44360,-200,4,2,1,70,0,0
44659,-40,4,2,1,70,0,0
44744,-200,4,2,1,70,0,0
44914,-166.666666666667,4,2,1,70,0,0
44936,-142.857142857143,4,2,1,70,0,0
44957,-125,4,2,1,70,0,0
44978,-111.111111111111,4,2,1,70,0,0
45000,-100,4,2,1,70,0,1
66818,-100,4,2,1,70,0,0
71931,-200,4,2,1,70,0,0
72016,-133.333333333333,4,2,1,70,0,0
72101,-100,4,2,1,70,0,0
72144,-90.9090909090909,4,2,1,70,0,0
72186,-83.3333333333333,4,2,1,70,0,0
72208,-76.9230769230769,4,2,1,70,0,0
72229,-71.4285714285714,4,2,1,70,0,0
72250,-66.6666666666667,4,2,1,70,0,0
72272,-100,4,2,1,70,0,0
93409,-22.2222222222222,4,2,1,70,0,0
93451,-200,4,2,1,70,0,0
93750,-40,4,2,1,70,0,0
93835,-200,4,2,1,70,0,0
93920,-166.666666666667,4,2,1,70,0,0
93963,-142.857142857143,4,2,1,70,0,0
94005,-125,4,2,1,70,0,0
94048,-111.111111111111,4,2,1,70,0,0
94090,-100,4,2,1,70,0,1
115909,-200,4,2,1,70,0,0
115994,-133.333333333333,4,2,1,70,0,0
116079,-100,4,2,1,70,0,0
116122,-90.9090909090909,4,2,1,70,0,0
116164,-83.3333333333333,4,2,1,70,0,0
116186,-76.9230769230769,4,2,1,70,0,0
116207,-71.4285714285714,4,2,1,70,0,0
116228,-66.6666666666667,4,2,1,70,0,0
116250,-100,4,2,1,70,0,0
116420,-200,4,2,1,70,0,0
116505,-133.333333333333,4,2,1,70,0,0
116590,-100,4,2,1,70,0,0
116633,-90.9090909090909,4,2,1,70,0,0
116675,-83.3333333333333,4,2,1,70,0,0
116697,-76.9230769230769,4,2,1,70,0,0
116718,-71.4285714285714,4,2,1,70,0,0
116739,-66.6666666666667,4,2,1,70,0,0
116761,-100,4,2,1,70,0,0
116931,-200,4,2,1,70,0,0
117016,-133.333333333333,4,2,1,70,0,0
117101,-100,4,2,1,70,0,0
117144,-90.9090909090909,4,2,1,70,0,0
117186,-83.3333333333333,4,2,1,70,0,0
117208,-76.9230769230769,4,2,1,70,0,0
117229,-71.4285714285714,4,2,1,70,0,0
117250,-66.6666666666667,4,2,1,70,0,0
117272,-100,4,2,1,70,0,0
118465,-200,4,2,1,70,0,0
118550,-133.333333333333,4,2,1,70,0,0
118635,-100,4,2,1,70,0,0
118678,-90.9090909090909,4,2,1,70,0,0
118720,-83.3333333333333,4,2,1,70,0,0
118742,-76.9230769230769,4,2,1,70,0,0
118763,-71.4285714285714,4,2,1,70,0,0
118784,-66.6666666666667,4,2,1,70,0,0
118806,-100,4,2,1,70,0,0
118977,-200,4,2,1,70,0,0
119062,-133.333333333333,4,2,1,70,0,0
119147,-100,4,2,1,70,0,0
119190,-90.9090909090909,4,2,1,70,0,0
119232,-83.3333333333333,4,2,1,70,0,0
119254,-76.9230769230769,4,2,1,70,0,0
119275,-71.4285714285714,4,2,1,70,0,0
119296,-66.6666666666667,4,2,1,70,0,0
119318,-100,4,2,1,70,0,0
120000,-200,4,2,1,70,0,0
120085,-133.333333333333,4,2,1,70,0,0
120170,-100,4,2,1,70,0,0
120213,-90.9090909090909,4,2,1,70,0,0
120255,-83.3333333333333,4,2,1,70,0,0
120277,-76.9230769230769,4,2,1,70,0,0
120298,-71.4285714285714,4,2,1,70,0,0
120319,-66.6666666666667,4,2,1,70,0,0
120341,-100,4,2,1,70,0,0
125284,-200,4,2,1,70,0,0
125369,-133.333333333333,4,2,1,70,0,0
125454,-100,4,2,1,70,0,0
125497,-90.9090909090909,4,2,1,70,0,0
125539,-83.3333333333333,4,2,1,70,0,0
125561,-76.9230769230769,4,2,1,70,0,0
125582,-71.4285714285714,4,2,1,70,0,0
125603,-66.6666666666667,4,2,1,70,0,0
125625,-100,4,2,1,70,0,0
155454,-102.040816326531,4,2,1,70,0,0
155475,-105.263157894737,4,2,1,70,0,0
155496,-107.52688172043,4,2,1,70,0,0
155518,-109.89010989011,4,2,1,70,0,0
155539,-113.636363636364,4,2,1,70,0,0
155560,-116.279069767442,4,2,1,70,0,0
155582,-119.047619047619,4,2,1,70,0,0
155603,-123.456790123457,4,2,1,70,0,0
155624,-126.582278481013,4,2,1,70,0,0
155645,-131.578947368421,4,2,1,70,0,0
155667,-135.135135135135,4,2,1,70,0,0
155688,-138.888888888889,4,2,1,70,0,0
155709,-144.927536231884,4,2,1,70,0,0
155731,-149.253731343284,4,2,1,70,0,0
155752,-153.846153846154,4,2,1,70,0,0
155773,-161.290322580645,4,2,1,70,0,0
155795,-166.666666666667,4,2,1,70,0,0
156988,-161.290322580645,4,2,1,70,0,0
157009,-153.846153846154,4,2,1,70,0,0
157031,-149.253731343284,4,2,1,70,0,0
157052,-142.857142857143,4,2,1,70,0,0
157073,-138.888888888889,4,2,1,70,0,0
157095,-135.135135135135,4,2,1,70,0,0
157116,-129.87012987013,4,2,1,70,0,0
157137,-126.582278481013,4,2,1,70,0,0
157159,-121.951219512195,4,2,1,70,0,0
157180,-119.047619047619,4,2,1,70,0,0
157201,-116.279069767442,4,2,1,70,0,0
157223,-112.359550561798,4,2,1,70,0,0
157244,-109.89010989011,4,2,1,70,0,0
157266,-106.382978723404,4,2,1,70,0,0
157287,-104.166666666667,4,2,1,70,0,0
157308,-102.040816326531,4,2,1,70,0,0
157330,-99.009900990099,4,2,1,70,0,0
157351,-97.0873786407767,4,2,1,70,0,0
157372,-94.3396226415094,4,2,1,70,0,0
157394,-92.5925925925926,4,2,1,70,0,0
157415,-90.9090909090909,4,2,1,70,0,0
157436,-88.495575221239,4,2,1,70,0,0
157458,-86.9565217391304,4,2,1,70,0,0
157479,-84.7457627118644,4,2,1,70,0,0
157501,-100,4,2,1,70,0,0
159545,-100,4,2,1,70,0,0
159715,-100,4,2,1,50,0,0
173181,-111.111111111111,4,2,1,50,0,0
178295,-200,4,2,1,50,0,0
178380,-133.333333333333,4,2,1,50,0,0
178465,-100,4,2,1,50,0,0
178508,-90.9090909090909,4,2,1,50,0,0
178550,-83.3333333333333,4,2,1,50,0,0
178572,-76.9230769230769,4,2,1,50,0,0
178593,-71.4285714285714,4,2,1,50,0,0
178614,-66.6666666666667,4,2,1,50,0,0
178636,-111.111111111111,4,2,1,60,0,0
180000,-105.263157894737,4,2,1,60,0,0
181363,-100,4,2,1,60,0,0
182727,-66.6666666666667,4,2,1,60,0,0
182897,-200,4,2,1,60,0,0
183068,-66.6666666666667,4,2,1,60,0,0
183238,-200,4,2,1,60,0,0
183409,-66.6666666666667,4,2,1,60,0,0
183579,-200,4,2,1,60,0,0
183750,-40,4,2,1,60,0,0
183835,-200,4,2,1,60,0,0
184005,-166.666666666667,4,2,1,60,0,0
184026,-142.857142857143,4,2,1,60,0,0
184048,-125,4,2,1,60,0,0
184069,-111.111111111111,4,2,1,60,0,0
184090,-100,4,2,1,70,0,1
205909,-200,4,2,1,70,0,1
205994,-133.333333333333,4,2,1,70,0,1
206079,-100,4,2,1,70,0,1
206122,-90.9090909090909,4,2,1,70,0,1
206164,-83.3333333333333,4,2,1,70,0,1
206186,-76.9230769230769,4,2,1,70,0,1
206207,-71.4285714285714,4,2,1,70,0,1
206228,-66.6666666666667,4,2,1,70,0,1
206250,-100,4,2,1,70,0,1
210000,-105.263157894737,4,2,1,70,0,0
210021,-111.111111111111,4,2,1,70,0,0
210042,-117.647058823529,4,2,1,70,0,0
210063,-125,4,2,1,70,0,0
210085,-133.333333333333,4,2,1,70,0,0
210851,-131.578947368421,4,2,1,70,0,0
210872,-129.87012987013,4,2,1,70,0,0
210893,-128.205128205128,4,2,1,70,0,0
210915,-126.582278481013,4,2,1,70,0,0
210936,-125,4,2,1,70,0,0
210957,-123.456790123457,4,2,1,70,0,0
210979,-121.951219512195,4,2,1,70,0,0
211000,-120.481927710843,4,2,1,70,0,0
211021,-119.047619047619,4,2,1,70,0,0
211043,-117.647058823529,4,2,1,70,0,0
211064,-116.279069767442,4,2,1,70,0,0
211085,-114.942528735632,4,2,1,70,0,0
211107,-113.636363636364,4,2,1,70,0,0
211128,-112.359550561798,4,2,1,70,0,0
211149,-111.111111111111,4,2,1,70,0,0
211171,-109.89010989011,4,2,1,70,0,0
211192,-108.695652173913,4,2,1,70,0,0
211213,-107.52688172043,4,2,1,70,0,0
211235,-106.382978723404,4,2,1,70,0,0
211256,-105.263157894737,4,2,1,70,0,0
211277,-104.166666666667,4,2,1,70,0,0
211299,-103.092783505155,4,2,1,70,0,0
211320,-102.040816326531,4,2,1,70,0,0
211341,-101.010101010101,4,2,1,70,0,0
211363,-100,4,2,1,70,0,0

[HitObjects]
64,192,511,5,0,0:0:0:0:
448,192,511,128,0,596:0:0:0:0:
192,192,596,1,0,0:0:0:0:
64,192,681,1,2,0:0:0:0:
320,192,681,1,4,0:0:0:0:
448,192,681,128,0,1278:0:0:0:0:
64,192,852,1,8,0:0:0:0:
192,192,852,1,0,0:0:0:0:
320,192,937,1,8,0:0:0:0:
64,192,1022,1,8,0:0:0:0:
192,192,1022,1,0,0:0:0:0:
320,192,1193,128,8,1278:0:0:0:0:
64,192,1363,128,2,1960:0:0:0:0:
320,192,1363,1,4,0:0:0:0:
448,192,1363,1,0,0:0:0:0:
192,192,1534,1,8,0:0:0:0:
448,192,1534,1,0,0:0:0:0:
320,192,1619,1,8,0:0:0:0:
192,192,1704,1,8,0:0:0:0:
448,192,1704,1,0,0:0:0:0:
320,192,1875,128,8,1960:0:0:0:0:
64,192,2045,1,2,0:0:0:0:
320,192,2045,1,4,0:0:0:0:
448,192,2045,128,0,2642:0:0:0:0:
64,192,2215,1,8,0:0:0:0:
192,192,2215,1,0,0:0:0:0:
320,192,2301,1,8,0:0:0:0:
64,192,2386,1,8,0:0:0:0:
192,192,2386,1,0,0:0:0:0:
320,192,2556,128,8,2642:0:0:0:0:
64,192,2727,128,2,5113:0:0:0:0:
320,192,2727,128,4,5113:0:0:0:0:
448,192,2727,128,0,5113:0:0:0:0:
192,192,4090,128,0,5113:0:0:0:0:
320,192,5284,1,8,0:0:0:0:
448,192,5284,1,0,0:0:0:0:
64,192,5369,1,8,0:0:0:0:
192,192,5369,1,0,0:0:0:0:
320,192,5454,1,8,0:0:0:0:
448,192,5454,1,0,0:0:0:0:
64,192,5625,1,8,0:0:0:0:
192,192,5625,1,0,0:0:0:0:
320,192,5710,1,8,0:0:0:0:
448,192,5710,1,0,0:0:0:0:
64,192,5795,1,8,0:0:0:0:
192,192,5795,1,0,0:0:0:0:
64,192,5965,1,8,0:0:0:0:
448,192,5965,1,0,0:0:0:0:
192,192,6051,1,8,0:0:0:0:
320,192,6051,1,0,0:0:0:0:
64,192,6136,1,8,0:0:0:0:
448,192,6136,1,0,0:0:0:0:
192,192,6306,1,8,0:0:0:0:
320,192,6306,1,0,0:0:0:0:
64,192,6392,1,8,0:0:0:0:
448,192,6392,1,0,0:0:0:0:
192,192,6477,1,8,0:0:0:0:
320,192,6477,1,0,0:0:0:0:
64,192,6818,128,2,6988:0:0:0:0:
192,192,6818,1,4,0:0:0:0:
448,192,6818,1,0,0:0:0:0:
320,192,6988,128,0,7159:0:0:0:0:
64,192,7159,1,8,0:0:0:0:
192,192,7159,1,2,0:0:0:0:
448,192,7159,1,0,0:0:0:0:
448,192,7329,128,0,7500:0:0:0:0:
64,192,7500,1,2,0:0:0:0:
320,192,7500,1,0,0:0:0:0:
192,192,7670,128,0,7840:0:0:0:0:
64,192,7840,1,8,0:0:0:0:
320,192,7840,1,2,0:0:0:0:
448,192,7840,1,0,0:0:0:0:
320,192,8011,128,0,8181:0:0:0:0:
64,192,8181,1,2,0:0:0:0:
192,192,8181,1,0,0:0:0:0:
448,192,8352,128,0,8522:0:0:0:0:
64,192,8522,1,8,0:0:0:0:
192,192,8522,1,2,0:0:0:0:
320,192,8522,1,0,0:0:0:0:
64,192,8693,128,0,8863:0:0:0:0:
192,192,8863,1,2,0:0:0:0:
448,192,8863,1,0,0:0:0:0:
320,192,9034,128,8,9204:0:0:0:0:
448,192,9034,1,0,0:0:0:0:
64,192,9204,128,2,9375:0:0:0:0:
192,192,9204,1,0,0:0:0:0:
320,192,9375,1,8,0:0:0:0:
448,192,9375,1,0,0:0:0:0:
192,192,9460,1,8,0:0:0:0:
64,192,9545,1,2,0:0:0:0:
320,192,9545,1,4,0:0:0:0:
448,192,9545,128,0,9715:0:0:0:0:
192,192,9715,128,0,9886:0:0:0:0:
64,192,9886,1,8,0:0:0:0:
320,192,9886,1,2,0:0:0:0:
448,192,9886,1,0,0:0:0:0:
320,192,10056,128,0,10227:0:0:0:0:
192,192,10227,1,2,0:0:0:0:
448,192,10227,1,0,0:0:0:0:
64,192,10397,128,0,10568:0:0:0:0:
192,192,10568,1,8,0:0:0:0:
320,192,10568,1,2,0:0:0:0:
448,192,10568,1,0,0:0:0:0:
448,192,10738,128,0,10909:0:0:0:0:
64,192,10909,1,2,0:0:0:0:
192,192,10909,1,0,0:0:0:0:
320,192,11079,128,0,11250:0:0:0:0:
64,192,11250,1,8,0:0:0:0:
192,192,11250,1,2,0:0:0:0:
448,192,11250,1,0,0:0:0:0:
192,192,11420,128,0,11590:0:0:0:0:
320,192,11590,1,2,0:0:0:0:
448,192,11590,1,0,0:0:0:0:
64,192,11761,1,8,0:0:0:0:
192,192,11761,1,0,0:0:0:0:
320,192,11846,1,8,0:0:0:0:
448,192,11846,1,0,0:0:0:0:
64,192,11931,1,10,0:0:0:0:
320,192,12017,1,8,0:0:0:0:
448,192,12017,1,0,0:0:0:0:
64,192,12102,1,8,0:0:0:0:
192,192,12102,1,0,0:0:0:0:
320,192,12187,1,8,0:0:0:0:
64,192,12272,128,4,12443:0:0:0:0:
192,192,12272,1,2,0:0:0:0:
448,192,12272,1,0,0:0:0:0:
320,192,12443,128,0,12613:0:0:0:0:
64,192,12613,1,8,0:0:0:0:
192,192,12613,1,2,0:0:0:0:
448,192,12613,1,0,0:0:0:0:
192,192,12784,128,0,12954:0:0:0:0:
64,192,12954,1,2,0:0:0:0:
320,192,12954,1,0,0:0:0:0:
448,192,13125,128,0,13295:0:0:0:0:
64,192,13295,1,8,0:0:0:0:
192,192,13295,1,2,0:0:0:0:
320,192,13295,1,0,0:0:0:0:
64,192,13465,128,0,13636:0:0:0:0:
192,192,13636,1,2,0:0:0:0:
448,192,13636,1,0,0:0:0:0:
320,192,13806,128,0,13977:0:0:0:0:
64,192,13977,1,8,0:0:0:0:
192,192,13977,1,2,0:0:0:0:
448,192,13977,1,0,0:0:0:0:
448,192,14147,128,0,14318:0:0:0:0:
192,192,14318,1,2,0:0:0:0:
320,192,14318,1,0,0:0:0:0:
64,192,14488,1,8,0:0:0:0:
192,192,14488,1,0,0:0:0:0:
448,192,14488,1,0,0:0:0:0:
64,192,14659,1,2,0:0:0:0:
320,192,14659,1,0,0:0:0:0:
192,192,14829,1,8,0:0:0:0:
448,192,14829,1,0,0:0:0:0:
320,192,14914,1,8,0:0:0:0:
64,192,15000,128,4,15170:0:0:0:0:
192,192,15000,1,2,0:0:0:0:
448,192,15000,1,0,0:0:0:0:
320,192,15170,128,0,15340:0:0:0:0:
64,192,15340,1,8,0:0:0:0:
192,192,15340,1,2,0:0:0:0:
448,192,15340,1,0,0:0:0:0:
192,192,15511,128,0,15681:0:0:0:0:
64,192,15681,1,2,0:0:0:0:
320,192,15681,1,0,0:0:0:0:
448,192,15852,128,0,16022:0:0:0:0:
64,192,16022,1,8,0:0:0:0:
192,192,16022,1,2,0:0:0:0:
320,192,16022,1,0,0:0:0:0:
320,192,16193,1,8,0:0:0:0:
448,192,16193,1,0,0:0:0:0:
64,192,16278,1,8,0:0:0:0:
192,192,16278,1,0,0:0:0:0:
320,192,16363,1,8,0:0:0:0:
448,192,16363,1,0,0:0:0:0:
64,192,16534,1,8,0:0:0:0:
192,192,16534,1,0,0:0:0:0:
320,192,16619,1,8,0:0:0:0:
448,192,16619,1,0,0:0:0:0:
64,192,16704,1,8,0:0:0:0:
192,192,16704,1,0,0:0:0:0:
192,192,16875,1,8,0:0:0:0:
448,192,16875,1,0,0:0:0:0:
64,192,16960,1,8,0:0:0:0:
320,192,16960,1,0,0:0:0:0:
192,192,17045,1,8,0:0:0:0:
448,192,17045,1,0,0:0:0:0:
64,192,17215,1,8,0:0:0:0:
320,192,17215,1,0,0:0:0:0:
192,192,17301,1,8,0:0:0:0:
448,192,17301,1,0,0:0:0:0:
64,192,17386,1,8,0:0:0:0:
320,192,17386,1,0,0:0:0:0:
64,192,17727,1,4,0:0:0:0:
192,192,17727,1,2,0:0:0:0:
448,192,17727,1,0,0:0:0:0:
320,192,17897,1,0,0:0:0:0:
64,192,18068,1,8,0:0:0:0:
320,192,18068,1,2,0:0:0:0:
448,192,18068,1,0,0:0:0:0:
192,192,18238,1,0,0:0:0:0:
64,192,18409,1,2,0:0:0:0:
320,192,18409,1,0,0:0:0:0:
448,192,18579,1,0,0:0:0:0:
64,192,18750,1,2,0:0:0:0:
192,192,18750,1,8,0:0:0:0:
320,192,18750,1,0,0:0:0:0:
448,192,18920,1,0,0:0:0:0:
192,192,19090,1,2,0:0:0:0:
320,192,19090,1,0,0:0:0:0:
64,192,19261,1,0,0:0:0:0:
192,192,19431,1,2,0:0:0:0:
320,192,19431,1,8,0:0:0:0:
448,192,19431,1,0,0:0:0:0:
64,192,19602,1,0,0:0:0:0:
192,192,19772,1,2,0:0:0:0:
320,192,19772,1,0,0:0:0:0:
448,192,19943,1,0,0:0:0:0:
64,192,20113,1,8,0:0:0:0:
192,192,20113,1,2,0:0:0:0:
320,192,20113,1,0,0:0:0:0:
448,192,20284,1,0,0:0:0:0:
64,192,20454,128,2,20795:0:0:0:0:
320,192,20454,1,0,0:0:0:0:
192,192,20625,1,0,0:0:0:0:
192,192,20795,1,8,0:0:0:0:
320,192,20795,128,2,21136:0:0:0:0:
448,192,20795,1,0,0:0:0:0:
64,192,20965,1,0,0:0:0:0:
192,192,21136,128,2,21477:0:0:0:0:
448,192,21136,1,0,0:0:0:0:
320,192,21306,1,0,0:0:0:0:
64,192,21477,1,2,0:0:0:0:
320,192,21477,1,8,0:0:0:0:
448,192,21477,128,0,21818:0:0:0:0:
192,192,21647,1,0,0:0:0:0:
64,192,21818,1,2,0:0:0:0:
320,192,21818,128,0,22159:0:0:0:0:
192,192,21988,1,0,0:0:0:0:
64,192,22159,1,2,0:0:0:0:
192,192,22159,128,8,22500:0:0:0:0:
448,192,22159,1,0,0:0:0:0:
320,192,22329,1,0,0:0:0:0:
64,192,22500,128,2,22840:0:0:0:0:
448,192,22500,1,0,0:0:0:0:
320,192,22670,1,0,0:0:0:0:
192,192,22840,1,8,0:0:0:0:
320,192,22840,128,2,23181:0:0:0:0:
448,192,22840,1,0,0:0:0:0:
64,192,23011,1,0,0:0:0:0:
64,192,23181,1,2,0:0:0:0:
192,192,23181,128,0,23352:0:0:0:0:
448,192,23181,1,0,0:0:0:0:
320,192,23352,128,0,23522:0:0:0:0:
64,192,23522,128,8,23863:0:0:0:0:
192,192,23522,1,2,0:0:0:0:
448,192,23522,1,0,0:0:0:0:
320,192,23693,1,0,0:0:0:0:
192,192,23863,1,2,0:0:0:0:
448,192,23863,1,0,0:0:0:0:
64,192,24034,1,0,0:0:0:0:
192,192,24204,1,2,0:0:0:0:
320,192,24204,1,8,0:0:0:0:
448,192,24204,1,0,0:0:0:0:
64,192,24375,128,0,24545:0:0:0:0:
320,192,24545,128,2,24715:0:0:0:0:
448,192,24545,1,0,0:0:0:0:
192,192,24715,128,0,24886:0:0:0:0:
64,192,24886,1,2,0:0:0:0:
320,192,24886,1,8,0:0:0:0:
448,192,24886,128,0,25227:0:0:0:0:
192,192,25056,1,0,0:0:0:0:
64,192,25227,1,2,0:0:0:0:
320,192,25227,1,0,0:0:0:0:
448,192,25397,1,0,0:0:0:0:
64,192,25568,1,8,0:0:0:0:
192,192,25568,1,2,0:0:0:0:
320,192,25568,1,0,0:0:0:0:
448,192,25738,1,0,0:0:0:0:
64,192,25909,1,2,0:0:0:0:
192,192,25909,128,0,26250:0:0:0:0:
320,192,26079,1,0,0:0:0:0:
64,192,26250,1,8,0:0:0:0:
320,192,26250,1,2,0:0:0:0:
448,192,26250,128,0,26420:0:0:0:0:
64,192,26420,128,0,26590:0:0:0:0:
192,192,26590,1,2,0:0:0:0:
320,192,26590,128,0,26931:0:0:0:0:
64,192,26761,1,0,0:0:0:0:
64,192,26931,1,2,0:0:0:0:
192,192,26931,128,8,27272:0:0:0:0:
448,192,26931,1,0,0:0:0:0:
320,192,27102,1,0,0:0:0:0:
64,192,27272,1,2,0:0:0:0:
448,192,27272,1,0,0:0:0:0:
64,192,27443,1,2,0:0:0:0:
320,192,27443,1,0,0:0:0:0:
192,192,27613,1,8,0:0:0:0:
320,192,27613,1,0,0:0:0:0:
448,192,27613,1,0,0:0:0:0:
64,192,27784,1,2,0:0:0:0:
192,192,27784,1,0,0:0:0:0:
448,192,27784,1,0,0:0:0:0:
320,192,28125,1,8,0:0:0:0:
448,192,28125,1,0,0:0:0:0:
64,192,28210,1,8,0:0:0:0:
192,192,28210,1,0,0:0:0:0:
320,192,28295,1,8,0:0:0:0:
448,192,28295,1,0,0:0:0:0:
64,192,28380,1,8,0:0:0:0:
192,192,28380,1,0,0:0:0:0:
320,192,28465,1,8,0:0:0:0:
448,192,28465,1,0,0:0:0:0:
192,192,28551,1,8,0:0:0:0:
64,192,28636,128,2,28806:0:0:0:0:
320,192,28636,1,4,0:0:0:0:
448,192,28636,1,0,0:0:0:0:
320,192,28806,128,0,28977:0:0:0:0:
64,192,28977,1,2,0:0:0:0:
192,192,28977,1,8,0:0:0:0:
448,192,28977,1,0,0:0:0:0:
448,192,29147,128,0,29488:0:0:0:70:ride05.wav
64,192,29318,1,2,0:0:0:0:
320,192,29318,1,0,0:0:0:0:
192,192,29488,128,0,29659:0:0:0:70:ride05.wav
64,192,29659,1,8,0:0:0:0:
320,192,29659,1,2,0:0:0:0:
448,192,29659,1,0,0:0:0:0:
320,192,29829,128,0,30170:0:0:0:70:ride05.wav
64,192,30000,1,2,0:0:0:0:
192,192,30000,1,0,0:0:0:0:
448,192,30170,128,0,30340:0:0:0:70:ride05.wav
64,192,30340,1,8,0:0:0:0:
192,192,30340,1,2,0:0:0:0:
320,192,30340,1,0,0:0:0:0:
64,192,30511,128,0,30681:0:0:0:70:ride05.wav
192,192,30681,1,2,0:0:0:0:
448,192,30681,1,0,0:0:0:0:
320,192,30852,128,8,31022:0:0:0:0:
448,192,30852,1,0,0:0:0:70:ride05.wav
64,192,31022,128,2,31193:0:0:0:0:
192,192,31022,1,0,0:0:0:0:
320,192,31193,1,8,0:0:0:0:
448,192,31193,1,0,0:0:0:0:
192,192,31278,1,8,0:0:0:0:
64,192,31363,1,2,0:0:0:0:
320,192,31363,1,4,0:0:0:0:
448,192,31363,128,0,31534:0:0:0:0:
192,192,31534,128,0,31704:0:0:0:0:
64,192,31704,1,2,0:0:0:0:
320,192,31704,1,8,0:0:0:0:
448,192,31704,1,0,0:0:0:0:
320,192,31875,128,0,32215:0:0:0:70:ride05.wav
64,192,32045,1,2,0:0:0:0:
448,192,32045,1,0,0:0:0:0:
192,192,32215,128,0,32386:0:0:0:70:ride05.wav
64,192,32386,1,8,0:0:0:0:
320,192,32386,1,2,0:0:0:0:
448,192,32386,1,0,0:0:0:0:
448,192,32556,128,0,32897:0:0:0:70:ride05.wav
64,192,32727,1,2,0:0:0:0:
192,192,32727,1,0,0:0:0:0:
320,192,32897,128,0,33238:0:0:0:70:ride05.wav
64,192,33068,1,8,0:0:0:0:
192,192,33068,1,2,0:0:0:0:
448,192,33068,1,0,0:0:0:0:
64,192,33238,128,0,33579:0:0:0:70:ride05.wav
320,192,33409,1,2,0:0:0:0:
448,192,33409,1,8,0:0:0:0:
192,192,33579,1,8,0:0:0:0:
320,192,33579,1,0,0:0:0:0:
64,192,33664,1,8,0:0:0:0:
448,192,33664,1,0,0:0:0:0:
192,192,33750,1,10,0:0:0:0:
320,192,33835,1,8,0:0:0:0:
448,192,33835,1,0,0:0:0:0:
64,192,33920,1,8,0:0:0:0:
192,192,33920,1,2,0:0:0:0:
64,192,34090,1,2,0:0:0:0:
320,192,34090,1,4,0:0:0:0:
448,192,34090,128,0,34431:0:0:0:0:
192,192,34261,1,0,0:0:0:0:
64,192,34431,128,2,34772:0:0:0:0:
192,192,34431,1,8,0:0:0:0:
320,192,34431,1,0,0:0:0:0:
448,192,34602,1,0,0:0:0:0:
192,192,34772,1,2,0:0:0:0:
320,192,34772,128,0,35113:0:0:0:0:
64,192,34943,1,0,0:0:0:0:
64,192,35113,1,8,0:0:0:0:
192,192,35113,1,2,0:0:0:0:
448,192,35113,1,0,0:0:0:0:
320,192,35284,1,0,0:0:0:0:
64,192,35454,128,2,35795:0:0:0:0:
448,192,35454,1,0,0:0:0:0:
192,192,35625,1,0,0:0:0:0:
192,192,35795,1,8,0:0:0:0:
320,192,35795,1,2,0:0:0:0:
448,192,35795,128,0,36136:0:0:0:0:
64,192,35965,1,0,0:0:0:0:
320,192,36051,1,0,0:0:0:0:
64,192,36136,1,2,0:0:0:0:
192,192,36136,128,0,36477:0:0:0:0:
320,192,36306,1,0,0:0:0:0:
64,192,36477,1,2,0:0:0:0:
320,192,36477,1,8,0:0:0:0:
448,192,36477,1,0,0:0:0:0:
448,192,36647,1,0,0:0:0:0:
64,192,36818,128,2,37159:0:0:0:0:
320,192,36818,1,0,0:0:0:0:
192,192,36988,1,0,0:0:0:0:
192,192,37159,1,2,0:0:0:0:
320,192,37159,128,8,37500:0:0:0:0:
448,192,37159,1,0,0:0:0:0:
64,192,37329,1,0,0:0:0:0:
192,192,37500,128,2,37840:0:0:0:0:
448,192,37500,1,0,0:0:0:0:
320,192,37670,1,0,0:0:0:0:
64,192,37840,1,8,0:0:0:0:
320,192,37840,1,2,0:0:0:0:
448,192,37840,128,0,38181:0:0:0:0:
192,192,38011,1,0,0:0:0:0:
320,192,38096,1,0,0:0:0:0:
64,192,38181,128,2,38522:0:0:0:0:
192,192,38181,1,0,0:0:0:0:
320,192,38352,1,0,0:0:0:0:
192,192,38522,1,8,0:0:0:0:
320,192,38522,128,2,38863:0:0:0:0:
448,192,38522,1,0,0:0:0:0:
64,192,38693,1,0,0:0:0:0:
192,192,38863,128,2,39204:0:0:0:0:
448,192,38863,1,0,0:0:0:0:
320,192,39034,1,0,0:0:0:0:
448,192,39119,1,0,0:0:0:0:
64,192,39204,128,2,39545:0:0:0:0:
320,192,39204,1,8,0:0:0:0:
192,192,39375,1,0,0:0:0:0:
320,192,39545,128,2,39715:0:0:0:0:
448,192,39545,1,0,0:0:0:0:
192,192,39715,128,0,39886:0:0:0:0:
64,192,39886,1,2,0:0:0:0:
320,192,39886,1,8,0:0:0:0:
448,192,39886,128,0,40227:0:0:0:0:
192,192,40056,1,0,0:0:0:0:
64,192,40227,1,2,0:0:0:0:
320,192,40227,1,0,0:0:0:0:
448,192,40397,1,0,0:0:0:0:
64,192,40568,1,8,0:0:0:0:
192,192,40568,1,2,0:0:0:0:
320,192,40568,1,0,0:0:0:0:
448,192,40738,128,0,40909:0:0:0:0:
320,192,40823,1,0,0:0:0:0:
64,192,40909,1,2,0:0:0:0:
192,192,40909,128,0,41079:0:0:0:0:
320,192,41079,128,0,41250:0:0:0:0:
64,192,41250,128,8,41590:0:0:0:0:
192,192,41250,1,2,0:0:0:0:
448,192,41250,1,0,0:0:0:0:
320,192,41420,1,0,0:0:0:0:
192,192,41590,1,2,0:0:0:0:
448,192,41590,1,0,0:0:0:0:
64,192,41761,1,0,0:0:0:0:
192,192,41846,1,0,0:0:0:0:
64,192,41931,1,2,0:0:0:0:
320,192,41931,1,8,0:0:0:0:
448,192,41931,1,0,0:0:0:0:
192,192,42102,1,0,0:0:0:0:
448,192,42187,1,0,0:0:0:0:
64,192,42272,1,2,0:0:0:0:
192,192,42272,128,0,42443:0:0:0:0:
320,192,42443,128,0,42613:0:0:0:0:
64,192,42613,128,2,42784:0:0:0:0:
192,192,42613,1,8,0:0:0:0:
448,192,42613,1,0,0:0:0:0:
448,192,42784,128,0,42954:0:0:0:0:
192,192,42954,128,2,43295:0:0:0:0:
320,192,42954,1,0,0:0:0:0:
448,192,43125,1,0,0:0:0:0:
64,192,43295,1,8,0:0:0:0:
320,192,43295,128,2,43636:0:0:0:0:
448,192,43295,1,0,0:0:0:0:
192,192,43465,1,0,0:0:0:0:
64,192,43636,1,2,0:0:0:0:
448,192,43636,1,0,0:0:0:0:
192,192,43806,1,2,0:0:0:0:
320,192,43806,1,0,0:0:0:0:
64,192,43977,1,8,0:0:0:0:
192,192,43977,1,0,0:0:0:0:
448,192,43977,1,0,0:0:0:0:
64,192,44147,1,2,0:0:0:0:
320,192,44147,1,0,0:0:0:0:
192,192,44318,1,8,0:0:0:0:
320,192,44318,1,0,0:0:0:0:
448,192,44318,1,0,0:0:0:0:
64,192,44659,1,0,0:0:0:0:
448,192,44659,1,0,0:0:0:0:
64,192,45000,1,4,0:0:0:0:
320,192,45000,1,2,0:0:0:0:
448,192,45000,1,0,0:0:0:0:
320,192,45170,1,2,0:0:0:0:
448,192,45170,1,0,0:0:0:0:
64,192,45340,1,8,0:0:0:0:
192,192,45340,1,2,0:0:0:0:
448,192,45340,1,0,0:0:0:0:
64,192,45511,1,0,0:0:0:0:
192,192,45511,1,0,0:0:0:0:
320,192,45596,1,8,0:0:0:0:
448,192,45596,1,0,0:0:0:0:
64,192,45681,1,2,0:0:0:0:
192,192,45681,1,0,0:0:0:0:
192,192,45852,1,2,0:0:0:0:
320,192,45852,1,0,0:0:0:0:
64,192,46022,1,8,0:0:0:0:
320,192,46022,1,2,0:0:0:0:
448,192,46022,1,0,0:0:0:0:
192,192,46193,1,0,0:0:0:0:
320,192,46363,1,2,0:0:0:0:
448,192,46363,1,0,0:0:0:0:
64,192,46534,1,2,0:0:0:0:
192,192,46534,1,0,0:0:0:0:
192,192,46704,1,2,0:0:0:0:
320,192,46704,1,8,0:0:0:0:
448,192,46704,1,0,0:0:0:0:
64,192,46875,1,0,0:0:0:0:
448,192,46875,1,0,0:0:0:0:
192,192,46960,1,8,0:0:0:0:
320,192,46960,1,0,0:0:0:0:
64,192,47045,1,2,0:0:0:0:
448,192,47045,1,0,0:0:0:0:
192,192,47130,1,8,0:0:0:0:
320,192,47130,1,0,0:0:0:0:
64,192,47215,1,2,0:0:0:0:
448,192,47215,1,0,0:0:0:0:
64,192,47386,1,2,0:0:0:0:
192,192,47386,1,8,0:0:0:0:
320,192,47386,1,0,0:0:0:0:
448,192,47556,1,0,0:0:0:0:
192,192,47642,1,8,0:0:0:0:
64,192,47727,1,2,0:0:0:0:
320,192,47727,1,4,0:0:0:0:
448,192,47727,1,0,0:0:0:0:
192,192,47897,1,2,0:0:0:0:
320,192,47897,1,0,0:0:0:0:
64,192,48068,1,8,0:0:0:0:
192,192,48068,1,2,0:0:0:0:
448,192,48068,1,0,0:0:0:0:
320,192,48238,1,0,0:0:0:0:
448,192,48238,1,0,0:0:0:0:
64,192,48323,1,8,0:0:0:0:
192,192,48323,1,0,0:0:0:0:
320,192,48409,1,2,0:0:0:0:
448,192,48409,1,0,0:0:0:0:
64,192,48579,1,2,0:0:0:0:
192,192,48579,1,0,0:0:0:0:
64,192,48750,1,8,0:0:0:0:
320,192,48750,1,2,0:0:0:0:
448,192,48750,1,0,0:0:0:0:
192,192,48920,1,0,0:0:0:0:
64,192,49090,1,2,0:0:0:0:
448,192,49090,1,0,0:0:0:0:
192,192,49261,1,2,0:0:0:0:
320,192,49261,1,0,0:0:0:0:
64,192,49431,1,2,0:0:0:0:
192,192,49431,1,8,0:0:0:0:
448,192,49431,1,0,0:0:0:0:
320,192,49602,1,0,0:0:0:0:
64,192,49687,1,8,0:0:0:0:
192,192,49687,1,0,0:0:0:0:
320,192,49772,1,2,0:0:0:0:
448,192,49772,128,0,50113:0:0:0:0:
64,192,49857,1,8,0:0:0:0:
192,192,49857,1,0,0:0:0:0:
320,192,49943,1,2,0:0:0:0:
64,192,50113,128,2,50454:0:0:0:0:
192,192,50113,1,8,0:0:0:0:
320,192,50113,1,0,0:0:0:0:
448,192,50284,1,8,0:0:0:0:
192,192,50454,1,4,0:0:0:0:
320,192,50454,1,2,0:0:0:0:
448,192,50454,1,0,0:0:0:0:
64,192,50625,1,2,0:0:0:0:
320,192,50625,1,0,0:0:0:0:
64,192,50795,1,8,0:0:0:0:
192,192,50795,1,2,0:0:0:0:
448,192,50795,1,0,0:0:0:0:
192,192,50965,1,0,0:0:0:0:
320,192,50965,1,0,0:0:0:0:
64,192,51051,1,8,0:0:0:0:
448,192,51051,1,0,0:0:0:0:
192,192,51136,1,2,0:0:0:0:
320,192,51136,1,0,0:0:0:0:
64,192,51306,1,2,0:0:0:0:
448,192,51306,1,0,0:0:0:0:
192,192,51477,1,8,0:0:0:0:
320,192,51477,1,2,0:0:0:0:
448,192,51477,1,0,0:0:0:0:
64,192,51647,1,0,0:0:0:0:
320,192,51818,1,2,0:0:0:0:
448,192,51818,1,0,0:0:0:0:
64,192,51988,1,2,0:0:0:0:
192,192,51988,1,0,0:0:0:0:
192,192,52159,1,2,0:0:0:0:
320,192,52159,1,8,0:0:0:0:
448,192,52159,1,0,0:0:0:0:
64,192,52329,1,0,0:0:0:0:
448,192,52329,1,0,0:0:0:0:
192,192,52414,1,8,0:0:0:0:
320,192,52414,1,0,0:0:0:0:
64,192,52500,1,2,0:0:0:0:
448,192,52500,1,0,0:0:0:0:
192,192,52585,1,8,0:0:0:0:
320,192,52585,1,0,0:0:0:0:
64,192,52670,1,2,0:0:0:0:
448,192,52670,1,0,0:0:0:0:
64,192,52840,1,2,0:0:0:0:
192,192,52840,1,8,0:0:0:0:
320,192,52840,1,0,0:0:0:0:
448,192,53011,1,0,0:0:0:0:
192,192,53096,1,8,0:0:0:0:
64,192,53181,1,2,0:0:0:0:
320,192,53181,1,4,0:0:0:0:
448,192,53181,128,0,53522:0:0:0:0:
64,192,53352,1,2,0:0:0:0:
192,192,53352,1,0,0:0:0:0:
64,192,53522,128,8,53693:0:0:0:0:
192,192,53522,1,2,0:0:0:0:
320,192,53522,1,0,0:0:0:0:
320,192,53693,128,0,54034:0:0:0:0:
192,192,53778,1,8,0:0:0:0:
448,192,53778,1,0,0:0:0:0:
64,192,53863,1,2,0:0:0:0:
192,192,54034,1,2,0:0:0:0:
448,192,54034,1,0,0:0:0:0:
64,192,54204,128,8,54375:0:0:0:0:
192,192,54204,1,2,0:0:0:0:
320,192,54204,1,0,0:0:0:0:
448,192,54375,128,0,55227:0:0:0:0:
320,192,54460,1,8,0:0:0:0:
64,192,54545,1,2,0:0:0:0:
192,192,54545,1,0,0:0:0:0:
192,192,54715,1,2,0:0:0:0:
320,192,54715,1,0,0:0:0:0:
64,192,54886,1,4,0:0:0:0:
192,192,54886,1,2,0:0:0:0:
320,192,54886,1,8,0:0:0:0:
64,192,55056,1,0,0:0:0:0:
320,192,55142,1,8,0:0:0:0:
64,192,55227,1,2,0:0:0:0:
192,192,55227,1,8,0:0:0:0:
320,192,55312,1,8,0:0:0:0:
448,192,55312,1,0,0:0:0:0:
64,192,55397,1,2,0:0:0:0:
192,192,55397,1,8,0:0:0:0:
320,192,55482,1,8,0:0:0:0:
192,192,55568,1,2,0:0:0:0:
448,192,55568,1,8,0:0:0:0:
64,192,55653,1,8,0:0:0:0:
320,192,55653,1,0,0:0:0:0:
192,192,55738,1,8,0:0:0:0:
448,192,55738,1,0,0:0:0:0:
64,192,55823,1,8,0:0:0:0:
192,192,55909,1,2,0:0:0:0:
320,192,55909,1,4,0:0:0:0:
448,192,55909,1,0,0:0:0:0:
64,192,56079,1,0,0:0:0:0:
192,192,56250,1,2,0:0:0:0:
320,192,56250,1,8,0:0:0:0:
448,192,56250,1,0,0:0:0:0:
64,192,56420,1,0,0:0:0:0:
192,192,56590,1,2,0:0:0:0:
448,192,56590,1,0,0:0:0:0:
320,192,56761,1,0,0:0:0:0:
64,192,56931,1,8,0:0:0:0:
192,192,56931,1,2,0:0:0:0:
448,192,56931,1,0,0:0:0:0:
320,192,57102,1,0,0:0:0:0:
64,192,57272,1,2,0:0:0:0:
448,192,57272,1,0,0:0:0:0:
192,192,57443,1,0,0:0:0:0:
64,192,57613,1,8,0:0:0:0:
320,192,57613,1,2,0:0:0:0:
448,192,57613,1,0,0:0:0:0:
192,192,57784,1,0,0:0:0:0:
64,192,57954,1,2,0:0:0:0:
448,192,57954,1,0,0:0:0:0:
320,192,58125,1,0,0:0:0:0:
64,192,58295,1,2,0:0:0:0:
192,192,58295,1,8,0:0:0:0:
448,192,58295,1,0,0:0:0:0:
320,192,58465,1,0,0:0:0:0:
64,192,58636,128,2,58977:0:0:0:0:
192,192,58636,1,4,0:0:0:0:
448,192,58636,128,0,59318:0:0:0:0:
320,192,58806,1,0,0:0:0:0:
192,192,58977,1,2,0:0:0:0:
320,192,58977,128,8,59147:0:0:0:0:
64,192,59147,128,0,59318:0:0:0:0:
192,192,59318,128,2,60000:0:0:0:0:
320,192,59318,128,0,59488:0:0:0:0:
64,192,59488,1,0,0:0:0:0:
64,192,59659,1,8,0:0:0:0:
320,192,59659,1,2,0:0:0:0:
448,192,59659,128,0,59829:0:0:0:0:
320,192,59829,1,0,0:0:0:0:
64,192,60000,128,2,60681:0:0:0:0:
448,192,60000,128,0,60340:0:0:0:0:
320,192,60170,1,0,0:0:0:0:
192,192,60340,1,8,0:0:0:0:
320,192,60340,1,2,0:0:0:0:
448,192,60511,1,0,0:0:0:0:
192,192,60596,1,8,0:0:0:0:
320,192,60681,1,2,0:0:0:0:
448,192,60681,1,8,0:0:0:0:
64,192,60767,1,8,0:0:0:0:
192,192,60767,1,0,0:0:0:0:
320,192,60852,1,8,0:0:0:0:
448,192,60852,1,0,0:0:0:0:
64,192,60937,1,8,0:0:0:0:
192,192,60937,1,0,0:0:0:0:
320,192,61022,1,2,0:0:0:0:
448,192,61022,1,8,0:0:0:0:
64,192,61107,1,8,0:0:0:0:
192,192,61107,1,0,0:0:0:0:
320,192,61193,1,8,0:0:0:0:
448,192,61193,1,0,0:0:0:0:
192,192,61278,1,8,0:0:0:0:
64,192,61363,1,4,0:0:0:0:
320,192,61363,1,2,0:0:0:0:
448,192,61363,128,0,61704:0:0:0:0:
192,192,61534,1,2,0:0:0:0:
320,192,61534,1,0,0:0:0:0:
64,192,61704,1,8,0:0:0:0:
192,192,61704,1,2,0:0:0:0:
320,192,61704,1,0,0:0:0:0:
448,192,61875,1,0,0:0:0:0:
64,192,61960,1,8,0:0:0:0:
192,192,61960,1,0,0:0:0:0:
320,192,62045,1,2,0:0:0:0:
448,192,62045,1,0,0:0:0:0:
192,192,62215,1,2,0:0:0:0:
320,192,62215,1,0,0:0:0:0:
64,192,62386,1,8,0:0:0:0:
192,192,62386,1,2,0:0:0:0:
448,192,62386,1,0,0:0:0:0:
320,192,62556,1,0,0:0:0:0:
64,192,62727,128,2,63068:0:0:0:0:
448,192,62727,1,0,0:0:0:0:
192,192,62897,1,2,0:0:0:0:
320,192,62897,1,0,0:0:0:0:
192,192,63068,1,2,0:0:0:0:
320,192,63068,1,8,0:0:0:0:
448,192,63068,1,0,0:0:0:0:
64,192,63238,1,0,0:0:0:0:
320,192,63323,1,8,0:0:0:0:
448,192,63323,1,0,0:0:0:0:
64,192,63409,1,2,0:0:0:0:
192,192,63409,1,0,0:0:0:0:
192,192,63579,1,2,0:0:0:0:
320,192,63579,1,0,0:0:0:0:
64,192,63750,1,2,0:0:0:0:
320,192,63750,1,8,0:0:0:0:
448,192,63750,1,0,0:0:0:0:
192,192,63920,1,0,0:0:0:0:
64,192,64090,1,2,0:0:0:0:
320,192,64090,1,4,0:0:0:0:
448,192,64090,128,0,64431:0:0:0:0:
192,192,64261,1,2,0:0:0:0:
320,192,64261,1,0,0:0:0:0:
64,192,64431,1,8,0:0:0:0:
192,192,64431,1,2,0:0:0:0:
320,192,64431,1,0,0:0:0:0:
448,192,64602,1,0,0:0:0:0:
64,192,64687,1,8,0:0:0:0:
192,192,64687,1,0,0:0:0:0:
320,192,64772,1,2,0:0:0:0:
448,192,64772,1,0,0:0:0:0:
192,192,64943,1,2,0:0:0:0:
320,192,64943,1,0,0:0:0:0:
64,192,65113,1,8,0:0:0:0:
192,192,65113,1,2,0:0:0:0:
448,192,65113,1,0,0:0:0:0:
64,192,65284,1,2,0:0:0:0:
320,192,65284,1,0,0:0:0:0:
192,192,65454,1,8,0:0:0:0:
320,192,65454,1,4,0:0:0:0:
448,192,65454,1,0,0:0:0:0:
64,192,65625,1,2,0:0:0:0:
448,192,65625,1,0,0:0:0:0:
192,192,65795,1,2,0:0:0:0:
448,192,65795,1,0,0:0:0:0:
64,192,65965,128,8,66306:0:0:0:0:
192,192,65965,1,4,0:0:0:0:
320,192,65965,1,0,0:0:0:0:
320,192,66306,1,2,0:0:0:0:
448,192,66306,1,0,0:0:0:0:
192,192,66392,1,0,0:0:0:0:
320,192,66477,1,8,0:0:0:0:
448,192,66477,1,0,0:0:0:0:
64,192,66562,1,8,0:0:0:0:
192,192,66562,1,0,0:0:0:0:
320,192,66647,1,8,0:0:0:0:
448,192,66647,1,0,0:0:0:0:
192,192,66732,1,8,0:0:0:0:
64,192,66818,1,4,0:0:0:0:
320,192,66818,1,2,0:0:0:0:
448,192,66818,128,0,66988:0:0:0:0:
192,192,66988,128,0,67159:0:0:0:0:
64,192,67159,1,2,0:0:0:0:
320,192,67159,1,8,0:0:0:0:
448,192,67159,1,0,0:0:0:0:
320,192,67329,128,0,67670:0:0:0:0:
192,192,67500,1,2,0:0:0:0:
448,192,67500,1,0,0:0:0:0:
64,192,67670,128,0,67840:0:0:0:0:
192,192,67840,1,2,0:0:0:0:
320,192,67840,1,8,0:0:0:0:
448,192,67840,1,0,0:0:0:0:
448,192,68011,128,0,68352:0:0:0:0:
192,192,68181,1,2,0:0:0:0:
320,192,68181,1,0,0:0:0:0:
64,192,68352,128,0,68522:0:0:0:0:
192,192,68522,1,2,0:0:0:0:
320,192,68522,1,8,0:0:0:0:
448,192,68522,1,0,0:0:0:0:
320,192,68693,128,0,69034:0:0:0:0:
64,192,68863,1,2,0:0:0:0:
192,192,68863,1,0,0:0:0:0:
192,192,69034,128,8,69204:0:0:0:0:
448,192,69034,1,0,0:0:0:0:
64,192,69204,128,2,69375:0:0:0:0:
320,192,69204,1,0,0:0:0:0:
192,192,69375,1,8,0:0:0:0:
448,192,69375,1,0,0:0:0:0:
320,192,69460,1,8,0:0:0:0:
64,192,69545,1,4,0:0:0:0:
192,192,69545,128,2,69715:0:0:0:0:
448,192,69545,1,0,0:0:0:0:
320,192,69715,128,0,69886:0:0:0:0:
64,192,69886,1,2,0:0:0:0:
192,192,69886,1,8,0:0:0:0:
448,192,69886,1,0,0:0:0:0:
448,192,70056,128,0,70397:0:0:0:0:
192,192,70227,1,2,0:0:0:0:
320,192,70227,1,0,0:0:0:0:
64,192,70397,128,0,70568:0:0:0:0:
192,192,70568,1,2,0:0:0:0:
320,192,70568,1,8,0:0:0:0:
448,192,70568,1,0,0:0:0:0:
64,192,70738,1,8,0:0:0:0:
192,192,70738,1,0,0:0:0:0:
320,192,70823,1,8,0:0:0:0:
448,192,70823,1,0,0:0:0:0:
64,192,70909,1,2,0:0:0:0:
192,192,70909,1,8,0:0:0:0:
448,192,71079,1,0,0:0:0:70:tom01.wav
320,192,71164,1,0,0:0:0:70:tom01.wav
448,192,71250,1,0,0:0:0:70:tom01.wav
64,192,71420,1,8,0:0:0:0:
192,192,71420,1,2,0:0:0:0:
320,192,71505,1,8,0:0:0:0:
448,192,71505,1,2,0:0:0:0:
64,192,71590,1,8,0:0:0:0:
192,192,71590,1,2,0:0:0:0:
320,192,71761,1,8,0:0:0:0:
448,192,71761,1,2,0:0:0:0:
64,192,71846,1,2,0:0:0:0:
192,192,71846,1,8,0:0:0:0:
320,192,71931,1,8,0:0:0:0:
448,192,71931,1,2,0:0:0:0:
64,192,72272,1,4,0:0:0:0:
320,192,72272,1,2,0:0:0:0:
448,192,72272,1,0,0:0:0:0:
192,192,72443,1,0,0:0:0:0:
64,192,72613,1,8,0:0:0:0:
192,192,72613,1,0,0:0:0:0:
448,192,72613,1,0,0:0:0:0:
320,192,72784,1,0,0:0:0:0:
64,192,72869,1,8,0:0:0:0:
192,192,72869,1,0,0:0:0:0:
320,192,72954,1,2,0:0:0:0:
448,192,72954,1,0,0:0:0:0:
64,192,73125,1,2,0:0:0:0:
192,192,73125,1,0,0:0:0:0:
64,192,73295,1,8,0:0:0:0:
320,192,73295,1,0,0:0:0:0:
448,192,73295,1,0,0:0:0:0:
192,192,73465,1,0,0:0:0:0:
64,192,73636,1,2,0:0:0:0:
320,192,73636,1,0,0:0:0:0:
448,192,73806,1,0,0:0:0:0:
64,192,73977,1,8,0:0:0:0:
192,192,73977,1,0,0:0:0:0:
320,192,73977,1,0,0:0:0:0:
448,192,74147,1,0,0:0:0:0:
192,192,74232,1,8,0:0:0:0:
320,192,74232,1,0,0:0:0:0:
64,192,74318,1,2,0:0:0:0:
448,192,74318,1,0,0:0:0:0:
192,192,74488,1,2,0:0:0:0:
320,192,74488,1,0,0:0:0:0:
64,192,74659,1,8,0:0:0:0:
320,192,74659,1,0,0:0:0:0:
448,192,74659,1,0,0:0:0:0:
192,192,74829,1,0,0:0:0:0:
64,192,75000,128,2,75340:0:0:0:0:
448,192,75000,1,0,0:0:0:0:
320,192,75170,1,0,0:0:0:0:
192,192,75340,1,8,0:0:0:0:
320,192,75340,128,0,75681:0:0:0:0:
448,192,75340,1,0,0:0:0:0:
64,192,75511,1,0,0:0:0:0:
448,192,75596,1,8,0:0:0:0:
64,192,75681,1,2,0:0:0:0:
192,192,75681,128,0,76022:0:0:0:0:
320,192,75852,1,2,0:0:0:0:
448,192,75852,1,0,0:0:0:0:
64,192,76022,1,8,0:0:0:0:
320,192,76022,1,0,0:0:0:0:
448,192,76022,128,0,76363:0:0:0:0:
192,192,76193,1,0,0:0:0:0:
64,192,76363,1,2,0:0:0:0:
320,192,76363,128,0,76704:0:0:0:0:
192,192,76534,1,2,0:0:0:0:
64,192,76704,1,8,0:0:0:0:
192,192,76704,128,0,77045:0:0:0:0:
448,192,76704,1,0,0:0:0:0:
320,192,76875,1,0,0:0:0:0:
448,192,76960,1,8,0:0:0:0:
64,192,77045,128,2,77386:0:0:0:0:
320,192,77045,1,0,0:0:0:0:
192,192,77215,1,2,0:0:0:0:
448,192,77215,1,0,0:0:0:0:
192,192,77386,1,8,0:0:0:0:
320,192,77386,1,0,0:0:0:0:
448,192,77386,128,0,77727:0:0:0:0:
64,192,77556,1,2,0:0:0:0:
192,192,77727,128,2,77897:0:0:0:0:
320,192,77727,1,0,0:0:0:0:
448,192,77897,128,0,78068:0:0:0:0:
64,192,78068,128,8,78409:0:0:0:0:
192,192,78068,1,0,0:0:0:0:
320,192,78068,1,0,0:0:0:0:
448,192,78238,1,0,0:0:0:0:
192,192,78323,1,8,0:0:0:0:
320,192,78409,1,2,0:0:0:0:
448,192,78409,1,0,0:0:0:0:
192,192,78579,1,2,0:0:0:0:
320,192,78579,1,0,0:0:0:0:
64,192,78750,1,8,0:0:0:0:
320,192,78750,1,0,0:0:0:0:
448,192,78750,1,0,0:0:0:0:
192,192,78920,128,0,79090:0:0:0:0:
64,192,79005,1,0,0:0:0:0:
320,192,79090,128,2,79261:0:0:0:0:
448,192,79090,1,0,0:0:0:0:
64,192,79261,128,2,79431:0:0:0:0:
192,192,79431,1,8,0:0:0:0:
320,192,79431,1,0,0:0:0:0:
448,192,79431,128,0,79772:0:0:0:0:
64,192,79602,1,0,0:0:0:0:
320,192,79687,1,8,0:0:0:0:
64,192,79772,1,2,0:0:0:0:
192,192,79772,1,0,0:0:0:0:
320,192,79943,1,2,0:0:0:0:
448,192,79943,1,0,0:0:0:0:
64,192,80113,1,8,0:0:0:0:
192,192,80113,1,0,0:0:0:0:
448,192,80113,1,0,0:0:0:0:
320,192,80284,128,0,80454:0:0:0:0:
64,192,80454,1,2,0:0:0:0:
192,192,80454,128,0,80795:0:0:0:0:
320,192,80625,128,0,80795:0:0:0:0:
64,192,80795,1,8,0:0:0:0:
448,192,80795,128,0,80965:0:0:0:0:
64,192,80965,128,0,81136:0:0:0:0:
448,192,81051,1,8,0:0:0:0:
192,192,81136,1,2,0:0:0:0:
320,192,81136,128,0,81477:0:0:0:0:
64,192,81306,1,2,0:0:0:0:
448,192,81306,1,0,0:0:0:0:
64,192,81477,1,8,0:0:0:0:
192,192,81477,128,0,81818:0:0:0:0:
448,192,81477,1,0,0:0:0:0:
320,192,81647,1,0,0:0:0:0:
64,192,81818,1,2,0:0:0:0:
448,192,81818,128,0,82159:0:0:0:0:
192,192,81988,1,2,0:0:0:0:
320,192,81988,1,0,0:0:0:0:
64,192,82159,128,8,82500:0:0:0:0:
192,192,82159,1,0,0:0:0:0:
320,192,82159,1,0,0:0:0:0:
320,192,82329,1,2,0:0:0:0:
448,192,82329,1,0,0:0:0:0:
192,192,82414,1,8,0:0:0:0:
320,192,82500,1,2,0:0:0:0:
448,192,82500,128,0,82840:0:0:0:0:
64,192,82670,1,8,0:0:0:0:
192,192,82670,1,0,0:0:0:0:
320,192,82670,1,0,0:0:0:0:
64,192,82840,1,2,0:0:0:0:
192,192,82840,1,8,0:0:0:0:
320,192,82926,1,8,0:0:0:0:
64,192,83011,1,8,0:0:0:0:
448,192,83011,1,2,0:0:0:0:
192,192,83096,1,10,0:0:0:0:
64,192,83181,128,2,83522:0:0:0:0:
320,192,83181,1,4,0:0:0:0:
448,192,83181,1,0,0:0:0:0:
320,192,83522,128,0,83693:0:0:0:0:
192,192,83693,128,0,83863:0:0:0:0:
448,192,83693,1,0,0:0:0:0:
64,192,83863,1,8,0:0:0:0:
320,192,83863,1,4,0:0:0:0:
448,192,83863,128,0,84204:0:0:0:0:
64,192,84034,1,2,0:0:0:0:
192,192,84034,1,0,0:0:0:0:
64,192,84204,1,8,0:0:0:0:
192,192,84204,1,4,0:0:0:0:
320,192,84204,1,0,0:0:0:0:
448,192,84375,1,0,0:0:0:0:
64,192,84545,1,4,0:0:0:0:
192,192,84545,128,2,84886:0:0:0:0:
64,192,84715,1,8,0:0:0:0:
320,192,84715,1,0,0:0:0:0:
448,192,84715,1,0,0:0:0:0:
320,192,84886,128,0,85056:0:0:0:0:
64,192,85056,128,2,85227:0:0:0:0:
192,192,85056,1,0,0:0:0:0:
320,192,85227,1,8,0:0:0:0:
448,192,85227,128,0,85568:0:0:0:0:
64,192,85397,1,0,0:0:0:70:tom03.wav
192,192,85397,1,0,0:0:0:0:
64,192,85568,1,0,0:0:0:70:tom04.wav
320,192,85568,1,0,0:0:0:0:
192,192,85738,1,2,0:0:0:0:
448,192,85738,1,0,0:0:0:0:
320,192,85909,128,2,86250:0:0:0:0:
448,192,85909,1,0,0:0:0:0:
64,192,86079,1,2,0:0:0:0:
192,192,86079,1,0,0:0:0:0:
64,192,86250,1,8,0:0:0:0:
192,192,86250,128,4,86590:0:0:0:0:
448,192,86250,1,0,0:0:0:0:
320,192,86420,1,2,0:0:0:0:
448,192,86420,1,0,0:0:0:0:
64,192,86590,128,8,86931:0:0:0:0:
320,192,86590,1,4,0:0:0:0:
448,192,86590,1,0,0:0:0:0:
192,192,86761,1,0,0:0:0:0:
320,192,86931,1,2,0:0:0:0:
448,192,86931,128,0,87102:0:0:0:0:
192,192,87102,128,2,87272:0:0:0:0:
64,192,87272,1,2,0:0:0:0:
320,192,87272,128,0,87613:0:0:0:0:
192,192,87443,1,2,0:0:0:0:
448,192,87443,1,0,0:0:0:0:
64,192,87613,128,2,87954:0:0:0:0:
448,192,87613,1,0,0:0:0:0:
192,192,87784,1,2,0:0:0:0:
320,192,87784,1,4,0:0:0:0:
448,192,87784,1,0,0:0:0:0:
320,192,87954,128,0,88295:0:0:0:0:
64,192,88125,1,8,0:0:0:0:
192,192,88125,1,4,0:0:0:0:
448,192,88125,1,0,0:0:0:0:
64,192,88295,1,8,0:0:0:0:
192,192,88295,1,4,0:0:0:0:
448,192,88295,128,0,88636:0:0:0:0:
192,192,88465,1,2,0:0:0:0:
320,192,88465,1,0,0:0:0:0:
64,192,88636,128,4,88806:0:0:0:0:
192,192,88636,1,2,0:0:0:0:
320,192,88636,1,0,0:0:0:0:
448,192,88806,128,0,88977:0:0:0:0:
192,192,88977,128,0,89147:0:0:0:0:
64,192,89147,1,8,0:0:0:0:
320,192,89147,1,0,0:0:0:0:
448,192,89147,1,0,0:0:0:0:
192,192,89318,1,0,0:0:0:0:
64,192,89488,1,2,0:0:0:0:
320,192,89488,1,0,0:0:0:0:
64,192,89659,1,8,0:0:0:0:
192,192,89659,1,0,0:0:0:0:
448,192,89659,1,0,0:0:0:0:
320,192,89829,128,0,90000:0:0:0:0:
448,192,89914,1,0,0:0:0:0:
64,192,90000,128,2,90170:0:0:0:0:
192,192,90000,1,4,0:0:0:0:
320,192,90170,1,2,0:0:0:0:
448,192,90170,128,0,90340:0:0:0:0:
192,192,90340,128,0,90511:0:0:0:0:
64,192,90511,1,8,0:0:0:0:
320,192,90511,1,0,0:0:0:0:
448,192,90511,1,0,0:0:0:0:
192,192,90681,1,2,0:0:0:0:
320,192,90681,1,0,0:0:0:0:
64,192,90852,1,8,0:0:0:0:
192,192,90852,1,0,0:0:0:0:
448,192,90852,1,0,0:0:0:0:
320,192,91022,1,2,0:0:0:0:
448,192,91022,1,0,0:0:0:0:
64,192,91107,1,0,0:0:0:70:tom03.wav
192,192,91107,1,0,0:0:0:0:
320,192,91193,1,0,0:0:0:70:tom03.wav
448,192,91193,1,0,0:0:0:0:
192,192,91278,1,0,0:0:0:70:tom04.wav
64,192,91363,1,2,0:0:0:0:
320,192,91363,1,4,0:0:0:0:
448,192,91363,128,0,91619:0:0:0:0:
64,192,91619,1,8,0:0:0:0:
192,192,91619,1,0,0:0:0:0:
320,192,91704,128,2,91960:0:0:0:0:
448,192,91704,1,0,0:0:0:0:
192,192,91875,1,0,0:0:0:0:
64,192,92045,128,4,92215:0:0:0:0:
448,192,92045,1,2,0:0:0:0:
320,192,92215,1,8,0:0:0:0:
448,192,92215,1,0,0:0:0:0:
64,192,92301,1,8,0:0:0:0:
192,192,92301,1,0,0:0:0:0:
320,192,92386,1,8,0:0:0:0:
448,192,92386,1,0,0:0:0:0:
64,192,92471,1,8,0:0:0:0:
192,192,92471,1,0,0:0:0:0:
320,192,92556,1,8,0:0:0:0:
448,192,92556,1,2,0:0:0:0:
192,192,92642,1,10,0:0:0:0:
64,192,92727,1,2,0:0:0:0:
320,192,92727,1,4,0:0:0:0:
448,192,92727,1,0,0:0:0:0:
192,192,92897,1,2,0:0:0:0:
320,192,92897,1,0,0:0:0:0:
64,192,93068,1,8,0:0:0:0:
192,192,93068,1,0,0:0:0:0:
448,192,93068,1,0,0:0:0:0:
64,192,93238,1,2,0:0:0:0:
320,192,93238,1,0,0:0:0:0:
192,192,93409,1,8,0:0:0:0:
320,192,93409,1,0,0:0:0:0:
448,192,93409,1,0,0:0:0:0:
192,192,93750,1,0,0:0:0:0:
64,192,94090,1,2,0:0:0:0:
320,192,94090,1,4,0:0:0:0:
448,192,94090,1,0,0:0:0:0:
320,192,94261,1,2,0:0:0:0:
448,192,94261,1,0,0:0:0:0:
64,192,94431,1,2,0:0:0:0:
192,192,94431,1,8,0:0:0:0:
448,192,94431,1,0,0:0:0:0:
64,192,94602,1,0,0:0:0:0:
192,192,94602,1,0,0:0:0:0:
320,192,94687,1,8,0:0:0:0:
448,192,94687,1,0,0:0:0:0:
64,192,94772,1,2,0:0:0:0:
192,192,94772,1,0,0:0:0:0:
192,192,94943,1,2,0:0:0:0:
320,192,94943,1,0,0:0:0:0:
64,192,95113,1,2,0:0:0:0:
320,192,95113,1,8,0:0:0:0:
448,192,95113,1,0,0:0:0:0:
192,192,95284,1,0,0:0:0:0:
320,192,95454,1,2,0:0:0:0:
448,192,95454,1,0,0:0:0:0:
64,192,95625,1,2,0:0:0:0:
192,192,95625,1,0,0:0:0:0:
192,192,95795,1,8,0:0:0:0:
320,192,95795,1,2,0:0:0:0:
448,192,95795,1,0,0:0:0:0:
64,192,95965,1,0,0:0:0:0:
448,192,95965,1,0,0:0:0:0:
192,192,96051,1,8,0:0:0:0:
320,192,96051,1,0,0:0:0:0:
64,192,96136,1,2,0:0:0:0:
448,192,96136,1,0,0:0:0:0:
192,192,96221,1,8,0:0:0:0:
320,192,96221,1,0,0:0:0:0:
64,192,96306,1,2,0:0:0:0:
448,192,96306,1,0,0:0:0:0:
64,192,96477,1,8,0:0:0:0:
192,192,96477,1,2,0:0:0:0:
320,192,96477,1,0,0:0:0:0:
448,192,96647,1,0,0:0:0:0:
192,192,96732,1,8,0:0:0:0:
64,192,96818,1,4,0:0:0:0:
320,192,96818,1,2,0:0:0:0:
448,192,96818,1,0,0:0:0:0:
192,192,96988,1,2,0:0:0:0:
320,192,96988,1,0,0:0:0:0:
64,192,97159,1,2,0:0:0:0:
192,192,97159,1,8,0:0:0:0:
448,192,97159,1,0,0:0:0:0:
320,192,97329,1,0,0:0:0:0:
448,192,97329,1,0,0:0:0:0:
64,192,97414,1,8,0:0:0:0:
192,192,97414,1,0,0:0:0:0:
320,192,97500,1,2,0:0:0:0:
448,192,97500,1,0,0:0:0:0:
64,192,97670,1,2,0:0:0:0:
192,192,97670,1,0,0:0:0:0:
64,192,97840,1,2,0:0:0:0:
320,192,97840,1,8,0:0:0:0:
448,192,97840,1,0,0:0:0:0:
192,192,98011,1,0,0:0:0:0:
64,192,98181,1,2,0:0:0:0:
448,192,98181,1,0,0:0:0:0:
192,192,98352,1,2,0:0:0:0:
320,192,98352,1,0,0:0:0:0:
64,192,98522,1,8,0:0:0:0:
192,192,98522,1,2,0:0:0:0:
448,192,98522,1,0,0:0:0:0:
320,192,98693,1,0,0:0:0:0:
64,192,98778,1,8,0:0:0:0:
192,192,98778,1,0,0:0:0:0:
320,192,98863,1,2,0:0:0:0:
448,192,98863,128,0,99204:0:0:0:0:
64,192,98948,1,8,0:0:0:0:
192,192,98948,1,0,0:0:0:0:
320,192,99034,1,2,0:0:0:0:
64,192,99204,128,8,99545:0:0:0:0:
192,192,99204,1,2,0:0:0:0:
320,192,99204,1,0,0:0:0:0:
192,192,99375,1,8,0:0:0:0:
448,192,99375,1,0,0:0:0:0:
320,192,99460,1,8,0:0:0:0:
192,192,99545,1,2,0:0:0:0:
448,192,99545,1,4,0:0:0:0:
64,192,99715,1,2,0:0:0:0:
320,192,99715,1,0,0:0:0:0:
64,192,99886,1,2,0:0:0:0:
192,192,99886,1,8,0:0:0:0:
448,192,99886,1,0,0:0:0:0:
192,192,100056,1,0,0:0:0:0:
320,192,100056,1,0,0:0:0:0:
64,192,100142,1,8,0:0:0:0:
448,192,100142,1,0,0:0:0:0:
192,192,100227,1,2,0:0:0:0:
320,192,100227,1,0,0:0:0:0:
64,192,100397,1,2,0:0:0:0:
448,192,100397,1,0,0:0:0:0:
192,192,100568,1,2,0:0:0:0:
320,192,100568,1,8,0:0:0:0:
448,192,100568,1,0,0:0:0:0:
64,192,100738,1,0,0:0:0:0:
320,192,100909,1,2,0:0:0:0:
448,192,100909,1,0,0:0:0:0:
64,192,101079,1,2,0:0:0:0:
192,192,101079,1,0,0:0:0:0:
192,192,101250,1,8,0:0:0:0:
320,192,101250,1,2,0:0:0:0:
448,192,101250,1,0,0:0:0:0:
64,192,101420,1,0,0:0:0:0:
448,192,101420,1,0,0:0:0:0:
192,192,101505,1,8,0:0:0:0:
320,192,101505,1,0,0:0:0:0:
64,192,101590,1,2,0:0:0:0:
448,192,101590,1,0,0:0:0:0:
192,192,101676,1,8,0:0:0:0:
320,192,101676,1,0,0:0:0:0:
64,192,101761,1,2,0:0:0:0:
448,192,101761,1,0,0:0:0:0:
64,192,101931,1,8,0:0:0:0:
192,192,101931,1,2,0:0:0:0:
320,192,101931,1,0,0:0:0:0:
448,192,102102,1,0,0:0:0:0:
192,192,102187,1,8,0:0:0:0:
64,192,102272,1,4,0:0:0:0:
320,192,102272,1,2,0:0:0:0:
448,192,102272,128,0,102613:0:0:0:0:
64,192,102443,1,2,0:0:0:0:
192,192,102443,1,0,0:0:0:0:
64,192,102613,128,2,102784:0:0:0:0:
192,192,102613,1,8,0:0:0:0:
320,192,102613,1,0,0:0:0:0:
320,192,102784,128,0,103125:0:0:0:0:
192,192,102869,1,8,0:0:0:0:
448,192,102869,1,0,0:0:0:0:
64,192,102954,1,2,0:0:0:0:
192,192,103125,1,2,0:0:0:0:
448,192,103125,1,0,0:0:0:0:
64,192,103295,128,2,103465:0:0:0:0:
192,192,103295,1,8,0:0:0:0:
320,192,103295,1,0,0:0:0:0:
448,192,103465,128,0,104318:0:0:0:0:
320,192,103551,1,8,0:0:0:0:
64,192,103636,1,2,0:0:0:0:
192,192,103636,1,0,0:0:0:0:
192,192,103806,1,8,0:0:0:0:
320,192,103806,1,0,0:0:0:0:
64,192,103892,1,8,0:0:0:0:
192,192,103977,1,2,0:0:0:0:
320,192,103977,1,0,0:0:0:0:
64,192,104147,1,8,0:0:0:0:
192,192,104147,1,0,0:0:0:0:
320,192,104232,1,8,0:0:0:0:
64,192,104318,1,2,0:0:0:0:
192,192,104318,1,0,0:0:0:0:
320,192,104488,1,8,0:0:0:0:
448,192,104488,1,0,0:0:0:0:
192,192,104573,1,8,0:0:0:0:
64,192,104659,1,8,0:0:0:0:
448,192,104659,1,2,0:0:0:0:
192,192,104744,1,8,0:0:0:0:
320,192,104744,1,0,0:0:0:0:
64,192,104829,1,8,0:0:0:0:
448,192,104829,1,0,0:0:0:0:
320,192,104914,1,8,0:0:0:0:
64,192,105000,1,4,0:0:0:0:
192,192,105000,1,2,0:0:0:0:
448,192,105000,1,0,0:0:0:0:
320,192,105170,1,0,0:0:0:0:
64,192,105340,1,8,0:0:0:0:
192,192,105340,1,2,0:0:0:0:
448,192,105340,1,0,0:0:0:0:
320,192,105511,1,0,0:0:0:0:
64,192,105681,1,2,0:0:0:0:
448,192,105681,1,0,0:0:0:0:
192,192,105852,1,0,0:0:0:0:
64,192,106022,1,2,0:0:0:0:
320,192,106022,1,8,0:0:0:0:
448,192,106022,1,0,0:0:0:0:
192,192,106193,1,0,0:0:0:0:
320,192,106363,1,2,0:0:0:0:
448,192,106363,1,0,0:0:0:0:
64,192,106534,1,0,0:0:0:0:
192,192,106704,1,2,0:0:0:0:
320,192,106704,1,8,0:0:0:0:
448,192,106704,1,0,0:0:0:0:
64,192,106875,1,0,0:0:0:0:
192,192,107045,1,2,0:0:0:0:
448,192,107045,1,0,0:0:0:0:
320,192,107215,1,0,0:0:0:0:
64,192,107386,1,8,0:0:0:0:
192,192,107386,1,2,0:0:0:0:
448,192,107386,1,0,0:0:0:0:
320,192,107556,1,0,0:0:0:0:
64,192,107727,128,4,108068:0:0:0:0:
192,192,107727,1,2,0:0:0:0:
448,192,107727,128,0,108409:0:0:0:0:
320,192,107897,1,0,0:0:0:0:
192,192,108068,1,8,0:0:0:0:
320,192,108068,128,2,108238:0:0:0:0:
64,192,108238,128,0,108409:0:0:0:0:
192,192,108409,128,2,109090:0:0:0:0:
320,192,108409,128,0,108579:0:0:0:0:
64,192,108579,1,0,0:0:0:0:
64,192,108750,1,2,0:0:0:0:
320,192,108750,1,8,0:0:0:0:
448,192,108750,128,0,108920:0:0:0:0:
320,192,108920,1,0,0:0:0:0:
64,192,109090,128,2,109772:0:0:0:0:
448,192,109090,128,0,109431:0:0:0:0:
320,192,109261,1,0,0:0:0:0:
192,192,109431,1,2,0:0:0:0:
320,192,109431,1,8,0:0:0:0:
448,192,109602,1,0,0:0:0:0:
192,192,109687,1,8,0:0:0:0:
320,192,109772,1,8,0:0:0:0:
448,192,109772,1,2,0:0:0:0:
64,192,109857,1,8,0:0:0:0:
192,192,109857,1,0,0:0:0:0:
320,192,109943,1,8,0:0:0:0:
448,192,109943,1,0,0:0:0:0:
64,192,110028,1,8,0:0:0:0:
192,192,110028,1,0,0:0:0:0:
320,192,110113,1,8,0:0:0:0:
448,192,110113,1,2,0:0:0:0:
64,192,110198,1,8,0:0:0:0:
192,192,110198,1,0,0:0:0:0:
320,192,110284,1,8,0:0:0:0:
448,192,110284,1,0,0:0:0:0:
192,192,110369,1,8,0:0:0:0:
64,192,110454,1,2,0:0:0:0:
320,192,110454,1,4,0:0:0:0:
448,192,110454,128,0,110795:0:0:0:0:
192,192,110625,1,2,0:0:0:0:
320,192,110625,1,0,0:0:0:0:
64,192,110795,1,2,0:0:0:0:
192,192,110795,1,8,0:0:0:0:
320,192,110795,1,0,0:0:0:0:
448,192,110965,1,0,0:0:0:0:
64,192,111051,1,8,0:0:0:0:
192,192,111051,1,0,0:0:0:0:
320,192,111136,1,2,0:0:0:0:
448,192,111136,1,0,0:0:0:0:
192,192,111306,1,2,0:0:0:0:
320,192,111306,1,0,0:0:0:0:
64,192,111477,1,2,0:0:0:0:
192,192,111477,1,8,0:0:0:0:
448,192,111477,1,0,0:0:0:0:
320,192,111647,1,0,0:0:0:0:
64,192,111818,128,2,112159:0:0:0:0:
192,192,111818,1,4,0:0:0:0:
448,192,111818,1,0,0:0:0:0:
192,192,111988,1,2,0:0:0:0:
320,192,111988,1,0,0:0:0:0:
192,192,112159,1,8,0:0:0:0:
320,192,112159,1,2,0:0:0:0:
448,192,112159,1,0,0:0:0:0:
64,192,112329,1,0,0:0:0:0:
320,192,112414,1,8,0:0:0:0:
448,192,112414,1,0,0:0:0:0:
64,192,112500,1,2,0:0:0:0:
192,192,112500,1,0,0:0:0:0:
192,192,112670,1,2,0:0:0:0:
320,192,112670,1,0,0:0:0:0:
64,192,112840,1,8,0:0:0:0:
320,192,112840,1,2,0:0:0:0:
448,192,112840,1,0,0:0:0:0:
192,192,113011,1,0,0:0:0:0:
64,192,113181,1,4,0:0:0:0:
320,192,113181,1,2,0:0:0:0:
448,192,113181,128,0,113522:0:0:0:0:
192,192,113352,1,2,0:0:0:0:
320,192,113352,1,0,0:0:0:0:
64,192,113522,1,2,0:0:0:0:
192,192,113522,1,8,0:0:0:0:
320,192,113522,1,0,0:0:0:0:
448,192,113693,1,0,0:0:0:0:
64,192,113778,1,8,0:0:0:0:
192,192,113778,1,0,0:0:0:0:
320,192,113863,1,2,0:0:0:0:
448,192,113863,1,0,0:0:0:0:
192,192,114034,1,2,0:0:0:0:
320,192,114034,1,0,0:0:0:0:
64,192,114204,1,2,0:0:0:0:
192,192,114204,1,8,0:0:0:0:
448,192,114204,1,0,0:0:0:0:
64,192,114375,1,0,0:0:0:0:
320,192,114375,1,0,0:0:0:0:
192,192,114545,1,4,0:0:0:0:
320,192,114545,1,2,0:0:0:0:
448,192,114545,1,0,0:0:0:0:
64,192,114715,1,2,0:0:0:0:
448,192,114715,1,0,0:0:0:0:
64,192,114886,1,8,0:0:0:0:
192,192,114886,1,0,0:0:0:0:
320,192,114886,1,0,0:0:0:0:
320,192,115056,1,8,0:0:0:0:
448,192,115056,1,0,0:0:0:0:
64,192,115142,1,8,0:0:0:0:
192,192,115142,1,0,0:0:0:0:
320,192,115227,1,8,0:0:0:0:
448,192,115227,1,0,0:0:0:0:
192,192,115397,1,2,0:0:0:0:
320,192,115397,1,0,0:0:0:0:
64,192,115568,1,8,0:0:0:0:
192,192,115568,1,0,0:0:0:0:
448,192,115568,1,0,0:0:0:0:
320,192,115738,1,8,0:0:0:0:
448,192,115738,1,0,0:0:0:0:
192,192,115823,1,8,0:0:0:0:
64,192,115909,1,2,0:0:0:0:
320,192,115909,1,4,0:0:0:0:
448,192,115909,128,0,116250:0:0:0:0:
64,192,116250,1,8,0:0:0:0:
192,192,116250,1,0,0:0:0:0:
320,192,116250,1,0,0:0:0:0:
64,192,116420,128,2,116761:0:0:0:0:
192,192,116420,1,4,0:0:0:0:
448,192,116420,1,0,0:0:0:0:
192,192,116761,1,8,0:0:0:0:
320,192,116761,1,0,0:0:0:0:
448,192,116761,1,0,0:0:0:0:
64,192,116931,1,2,0:0:0:0:
320,192,116931,128,4,117272:0:0:0:0:
448,192,116931,1,0,0:0:0:0:
64,192,117272,1,2,0:0:0:0:
192,192,117272,1,0,0:0:0:0:
320,192,117443,1,8,0:0:0:0:
448,192,117443,1,0,0:0:0:0:
64,192,117528,1,8,0:0:0:0:
192,192,117528,1,0,0:0:0:0:
320,192,117613,1,8,0:0:0:0:
448,192,117613,1,0,0:0:0:0:
192,192,117784,1,2,0:0:0:0:
320,192,117784,1,0,0:0:0:0:
64,192,117954,1,8,0:0:0:0:
192,192,117954,1,0,0:0:0:0:
448,192,117954,1,0,0:0:0:0:
64,192,118125,1,2,0:0:0:0:
320,192,118125,1,0,0:0:0:0:
192,192,118295,1,2,0:0:0:0:
448,192,118295,1,0,0:0:0:0:
64,192,118465,1,8,0:0:0:0:
320,192,118465,1,0,0:0:0:0:
448,192,118465,1,0,0:0:0:0:
192,192,118806,1,8,0:0:0:0:
448,192,118806,1,0,0:0:0:0:
64,192,118977,1,4,0:0:0:0:
192,192,118977,128,2,119318:0:0:0:0:
320,192,118977,1,0,0:0:0:0:
64,192,119318,1,2,0:0:0:0:
448,192,119318,1,0,0:0:0:0:
192,192,119460,1,0,0:0:0:0:
320,192,119460,1,0,0:0:0:0:
64,192,119545,1,0,0:0:0:0:
448,192,119545,1,0,0:0:0:0:
192,192,119659,1,8,0:0:0:0:
320,192,119659,1,2,0:0:0:0:
320,192,119829,1,8,0:0:0:0:
448,192,119829,1,0,0:0:0:0:
192,192,119914,1,8,0:0:0:0:
64,192,120000,1,4,0:0:0:0:
320,192,120000,1,2,0:0:0:0:
448,192,120000,128,0,120340:0:0:0:0:
64,192,120340,1,2,0:0:0:0:
192,192,120340,1,8,0:0:0:0:
320,192,120426,1,8,0:0:0:0:
448,192,120426,1,0,0:0:0:0:
64,192,120511,1,8,0:0:0:0:
192,192,120511,1,0,0:0:0:0:
320,192,120596,1,8,0:0:0:0:
64,192,120681,1,2,0:0:0:0:
448,192,120681,1,8,0:0:0:0:
192,192,120767,1,8,0:0:0:0:
320,192,120767,1,0,0:0:0:0:
64,192,120852,1,8,0:0:0:0:
448,192,120852,1,0,0:0:0:0:
192,192,120937,1,8,0:0:0:0:
320,192,121022,1,2,0:0:0:0:
448,192,121022,1,8,0:0:0:0:
64,192,121107,1,8,0:0:0:0:
192,192,121107,1,0,0:0:0:0:
320,192,121193,1,8,0:0:0:0:
448,192,121193,1,0,0:0:0:0:
64,192,121278,1,8,0:0:0:0:
192,192,121363,1,2,0:0:0:0:
320,192,121363,1,8,0:0:0:0:
64,192,121448,1,8,0:0:0:0:
448,192,121448,1,0,0:0:0:0:
192,192,121534,1,8,0:0:0:0:
320,192,121534,1,0,0:0:0:0:
448,192,121619,1,8,0:0:0:0:
64,192,121704,1,8,0:0:0:0:
192,192,121704,1,2,0:0:0:0:
320,192,121789,1,8,0:0:0:0:
448,192,121789,1,0,0:0:0:0:
64,192,121875,1,8,0:0:0:0:
192,192,121875,1,0,0:0:0:0:
320,192,121960,1,8,0:0:0:0:
64,192,122045,1,8,0:0:0:0:
448,192,122045,1,2,0:0:0:0:
192,192,122130,1,8,0:0:0:0:
320,192,122130,1,0,0:0:0:0:
64,192,122215,1,8,0:0:0:0:
448,192,122215,1,0,0:0:0:0:
192,192,122301,1,8,0:0:0:0:
320,192,122386,1,8,0:0:0:0:
448,192,122386,1,0,0:0:0:0:
64,192,122443,1,0,0:0:0:0:
192,192,122443,1,0,0:0:0:0:
320,192,122556,1,2,0:0:0:0:
448,192,122556,1,0,0:0:0:0:
192,192,122642,1,2,0:0:0:0:
64,192,122727,1,8,0:0:0:0:
320,192,122727,1,4,0:0:0:0:
448,192,122727,1,0,0:0:0:0:
192,192,122897,1,2,0:0:0:0:
320,192,122897,1,0,0:0:0:0:
64,192,123068,1,8,0:0:0:0:
192,192,123068,1,4,0:0:0:0:
448,192,123068,1,0,0:0:0:0:
64,192,123238,1,2,0:0:0:0:
320,192,123238,1,0,0:0:0:0:
192,192,123409,1,4,0:0:0:0:
320,192,123409,1,8,0:0:0:0:
448,192,123409,1,0,0:0:0:0:
64,192,123579,1,2,0:0:0:0:
448,192,123579,1,0,0:0:0:0:
64,192,123750,1,8,0:0:0:0:
192,192,123750,1,4,0:0:0:0:
320,192,123750,1,0,0:0:0:0:
448,192,123920,1,0,0:0:0:0:
64,192,124005,1,0,0:0:0:0:
448,192,124090,1,0,0:0:0:0:
64,192,124261,1,0,0:0:0:0:
448,192,124346,1,0,0:0:0:0:
64,192,124431,1,0,0:0:0:0:
448,192,124602,1,0,0:0:0:0:
192,192,124687,1,0,0:0:0:0:
448,192,124772,1,0,0:0:0:0:
192,192,124943,1,0,0:0:0:0:
448,192,125028,1,0,0:0:0:0:
192,192,125113,1,0,0:0:0:0:
64,192,125284,1,4,0:0:0:0:
320,192,125284,1,2,0:0:0:0:
448,192,125284,1,0,0:0:0:0:
192,192,125625,1,0,0:0:0:0:
320,192,125795,1,2,0:0:0:0:
448,192,125795,1,0,0:0:0:0:
64,192,125965,1,0,0:0:0:0:
192,192,126136,1,2,0:0:0:0:
448,192,126136,1,0,0:0:0:0:
192,192,126306,1,0,0:0:0:70:tom01.wav
320,192,126306,1,0,0:0:0:0:
64,192,126477,1,2,0:0:0:0:
448,192,126477,1,0,0:0:0:0:
192,192,126647,1,0,0:0:0:70:tom02.wav
320,192,126647,1,0,0:0:0:0:
64,192,126818,1,2,0:0:0:0:
192,192,126818,1,0,0:0:0:0:
448,192,126988,1,0,0:0:0:0:
64,192,127159,1,2,0:0:0:0:
320,192,127159,1,0,0:0:0:0:
192,192,127329,1,0,0:0:0:0:
320,192,127500,1,2,0:0:0:0:
448,192,127500,1,0,0:0:0:0:
64,192,127670,1,0,0:0:0:70:tom01.wav
448,192,127755,1,0,0:0:0:0:
192,192,127840,1,2,0:0:0:0:
320,192,127840,1,0,0:0:0:0:
64,192,128011,1,8,0:0:0:0:
192,192,128011,1,4,0:0:0:0:
448,192,128011,1,0,0:0:0:0:
64,192,128181,1,2,0:0:0:0:
320,192,128181,1,0,0:0:0:0:
192,192,128352,1,0,0:0:0:0:
320,192,128522,1,2,0:0:0:0:
448,192,128522,1,0,0:0:0:0:
64,192,128693,1,0,0:0:0:0:
192,192,128863,1,2,0:0:0:0:
320,192,128863,1,0,0:0:0:0:
320,192,129034,1,0,0:0:0:70:tom04.wav
448,192,129034,1,0,0:0:0:0:
64,192,129204,1,2,0:0:0:0:
192,192,129204,1,0,0:0:0:0:
192,192,129375,1,0,0:0:0:70:tom03.wav
320,192,129375,1,0,0:0:0:0:
64,192,129545,1,2,0:0:0:0:
448,192,129545,1,0,0:0:0:0:
320,192,129715,1,0,0:0:0:0:
192,192,129886,1,2,0:0:0:0:
448,192,129886,1,0,0:0:0:0:
64,192,130056,1,0,0:0:0:0:
320,192,130227,1,2,0:0:0:0:
448,192,130227,1,0,0:0:0:0:
192,192,130397,1,0,0:0:0:0:
320,192,130482,1,2,0:0:0:0:
448,192,130482,1,0,0:0:0:0:
64,192,130568,1,2,0:0:0:0:
192,192,130568,1,0,0:0:0:0:
64,192,130738,1,4,0:0:0:0:
320,192,130738,1,8,0:0:0:0:
448,192,130738,1,0,0:0:0:0:
192,192,130909,1,2,0:0:0:0:
320,192,130909,1,0,0:0:0:0:
64,192,131079,1,0,0:0:0:0:
192,192,131250,1,2,0:0:0:0:
448,192,131250,1,0,0:0:0:0:
320,192,131420,1,0,0:0:0:0:
64,192,131505,1,0,0:0:0:0:
192,192,131505,1,0,0:0:0:0:
320,192,131590,1,2,0:0:0:0:
448,192,131590,1,0,0:0:0:0:
64,192,131761,1,0,0:0:0:70:tom01.wav
448,192,131761,1,0,0:0:0:0:
192,192,131931,1,2,0:0:0:0:
320,192,131931,1,0,0:0:0:0:
64,192,132102,1,0,0:0:0:70:tom02.wav
192,192,132102,1,0,0:0:0:0:
320,192,132272,1,2,0:0:0:0:
448,192,132272,1,0,0:0:0:0:
192,192,132443,1,0,0:0:0:0:
64,192,132613,1,2,0:0:0:0:
320,192,132613,1,0,0:0:0:0:
448,192,132784,1,0,0:0:0:0:
192,192,132954,1,2,0:0:0:0:
320,192,132954,1,0,0:0:0:0:
64,192,133125,1,0,0:0:0:0:
192,192,133210,1,2,0:0:0:0:
448,192,133210,1,0,0:0:0:0:
64,192,133295,1,2,0:0:0:0:
320,192,133295,1,0,0:0:0:0:
192,192,133465,1,4,0:0:0:0:
320,192,133465,1,8,0:0:0:0:
448,192,133465,1,0,0:0:0:0:
64,192,133636,1,2,0:0:0:0:
448,192,133636,1,0,0:0:0:0:
192,192,133806,1,0,0:0:0:0:
64,192,133977,1,2,0:0:0:0:
320,192,133977,1,0,0:0:0:0:
448,192,134147,1,0,0:0:0:0:
320,192,134232,1,0,0:0:0:0:
64,192,134318,1,2,0:0:0:0:
192,192,134318,1,0,0:0:0:0:
320,192,134488,1,0,0:0:0:70:tom04.wav
448,192,134488,1,0,0:0:0:0:
64,192,134659,1,2,0:0:0:0:
448,192,134659,1,0,0:0:0:0:
192,192,134829,1,0,0:0:0:70:tom03.wav
320,192,134829,1,0,0:0:0:0:
192,192,135000,1,2,0:0:0:0:
448,192,135000,1,0,0:0:0:0:
320,192,135170,1,2,0:0:0:0:
448,192,135170,1,0,0:0:0:0:
64,192,135255,1,0,0:0:0:0:
192,192,135255,1,0,0:0:0:0:
320,192,135340,1,2,0:0:0:0:
448,192,135340,1,0,0:0:0:0:
64,192,135511,1,2,0:0:0:0:
192,192,135511,1,0,0:0:0:0:
320,192,135596,1,2,0:0:0:0:
448,192,135596,1,0,0:0:0:0:
64,192,135681,1,2,0:0:0:0:
192,192,135681,1,0,0:0:0:0:
64,192,135852,1,0,0:0:0:0:
448,192,135852,1,0,0:0:0:0:
192,192,135937,1,2,0:0:0:0:
320,192,135937,1,0,0:0:0:0:
64,192,136022,1,2,0:0:0:0:
448,192,136022,1,0,0:0:0:0:
192,192,136193,128,8,136534:0:0:0:0:
320,192,136193,1,4,0:0:0:0:
448,192,136193,1,0,0:0:0:0:
64,192,136363,1,2,0:0:0:0:
320,192,136363,1,0,0:0:0:0:
448,192,136534,128,0,136704:0:0:0:0:
64,192,136704,128,2,136875:0:0:0:0:
192,192,136704,1,0,0:0:0:0:
320,192,136875,128,0,137045:0:0:0:0:
64,192,137045,128,2,137215:0:0:0:0:
192,192,137045,1,0,0:0:0:0:
320,192,137215,1,0,0:0:0:70:tom01.wav
448,192,137215,128,0,137386:0:0:0:0:
64,192,137386,1,2,0:0:0:0:
192,192,137386,1,0,0:0:0:0:
192,192,137556,1,0,0:0:0:70:tom02.wav
320,192,137556,128,0,137897:0:0:0:0:
64,192,137727,1,2,0:0:0:0:
448,192,137727,1,0,0:0:0:0:
192,192,137897,128,0,138068:0:0:0:0:
320,192,138068,1,2,0:0:0:0:
448,192,138068,128,0,138238:0:0:0:0:
64,192,138238,128,0,138409:0:0:0:0:
192,192,138409,1,2,0:0:0:0:
320,192,138409,1,0,0:0:0:0:
448,192,138579,1,0,0:0:0:70:tom01.wav
64,192,138664,1,0,0:0:0:0:
192,192,138664,1,0,0:0:0:0:
320,192,138750,1,2,0:0:0:0:
448,192,138750,1,0,0:0:0:0:
64,192,138920,128,8,139261:0:0:0:0:
192,192,138920,1,4,0:0:0:0:
448,192,138920,1,0,0:0:0:0:
192,192,139090,1,2,0:0:0:0:
320,192,139090,1,0,0:0:0:0:
448,192,139261,128,0,139431:0:0:0:0:
64,192,139431,1,2,0:0:0:0:
192,192,139431,128,0,139602:0:0:0:0:
320,192,139602,1,0,0:0:0:0:
64,192,139687,1,2,0:0:0:0:
192,192,139687,1,0,0:0:0:0:
320,192,139772,1,2,0:0:0:0:
448,192,139772,1,0,0:0:0:0:
64,192,139943,1,0,0:0:0:70:tom04.wav
192,192,139943,128,0,140113:0:0:0:0:
320,192,140113,1,2,0:0:0:0:
448,192,140113,1,0,0:0:0:0:
64,192,140284,1,0,0:0:0:70:tom03.wav
448,192,140284,128,0,140625:0:0:0:0:
192,192,140454,1,2,0:0:0:0:
320,192,140454,1,0,0:0:0:0:
64,192,140625,128,0,140795:0:0:0:0:
320,192,140795,128,2,140965:0:0:0:0:
448,192,140795,1,0,0:0:0:0:
192,192,140965,128,0,141136:0:0:0:0:
64,192,141136,1,2,0:0:0:0:
448,192,141136,1,0,0:0:0:0:
320,192,141306,1,0,0:0:0:0:
192,192,141392,1,0,0:0:0:0:
320,192,141477,1,2,0:0:0:0:
448,192,141477,1,0,0:0:0:0:
64,192,141647,1,4,0:0:0:0:
192,192,141647,128,8,141988:0:0:0:0:
448,192,141647,1,0,0:0:0:0:
64,192,141818,1,2,0:0:0:0:
320,192,141818,1,0,0:0:0:0:
448,192,141988,128,0,142159:0:0:0:0:
64,192,142159,128,2,142329:0:0:0:0:
192,192,142159,1,0,0:0:0:0:
320,192,142329,128,0,142500:0:0:0:0:
64,192,142500,1,2,0:0:0:0:
192,192,142500,1,0,0:0:0:0:
320,192,142670,1,0,0:0:0:70:tom01.wav
448,192,142670,128,0,142840:0:0:0:0:
64,192,142840,1,2,0:0:0:0:
192,192,142840,1,0,0:0:0:0:
192,192,143011,1,0,0:0:0:70:tom02.wav
320,192,143011,128,0,143352:0:0:0:0:
64,192,143181,1,2,0:0:0:0:
448,192,143181,1,0,0:0:0:0:
192,192,143352,128,0,143522:0:0:0:0:
320,192,143522,1,2,0:0:0:0:
448,192,143522,128,0,143693:0:0:0:0:
64,192,143693,128,2,143863:0:0:0:0:
192,192,143863,1,2,0:0:0:0:
320,192,143863,1,0,0:0:0:0:
448,192,144034,1,0,0:0:0:0:
64,192,144119,1,2,0:0:0:0:
192,192,144119,1,0,0:0:0:0:
320,192,144204,1,2,0:0:0:0:
448,192,144204,1,0,0:0:0:0:
64,192,144375,128,4,144715:0:0:0:0:
192,192,144375,1,8,0:0:0:0:
320,192,144375,1,0,0:0:0:0:
192,192,144545,1,2,0:0:0:0:
448,192,144545,1,0,0:0:0:0:
320,192,144715,1,0,0:0:0:0:
64,192,144886,1,2,0:0:0:0:
192,192,144886,128,0,145056:0:0:0:0:
448,192,145056,128,0,145227:0:0:0:0:
64,192,145227,1,2,0:0:0:0:
320,192,145227,1,0,0:0:0:0:
64,192,145397,1,0,0:0:0:70:tom04.wav
192,192,145397,128,0,145568:0:0:0:0:
320,192,145568,1,2,0:0:0:0:
448,192,145568,1,0,0:0:0:0:
64,192,145738,1,0,0:0:0:70:tom03.wav
448,192,145738,128,0,146079:0:0:0:0:
192,192,145909,1,2,0:0:0:0:
320,192,145909,1,0,0:0:0:0:
64,192,146079,128,0,146250:0:0:0:0:
320,192,146250,128,2,146420:0:0:0:0:
448,192,146250,1,0,0:0:0:0:
192,192,146420,128,0,146590:0:0:0:0:
64,192,146590,1,2,0:0:0:0:
448,192,146590,1,0,0:0:0:0:
320,192,146761,128,0,146931:0:0:0:0:
192,192,146846,1,2,0:0:0:0:
64,192,146931,128,2,147102:0:0:0:0:
448,192,146931,1,0,0:0:0:0:
192,192,147102,1,8,0:0:0:0:
320,192,147102,1,4,0:0:0:0:
448,192,147102,128,0,147272:0:0:0:0:
64,192,147272,1,2,0:0:0:0:
192,192,147272,1,0,0:0:0:0:
320,192,147443,128,8,147613:0:0:0:0:
64,192,147613,128,2,147784:0:0:0:0:
192,192,147613,1,0,0:0:0:0:
448,192,147613,1,0,0:0:0:0:
448,192,147784,128,0,147954:0:0:0:0:
64,192,147954,1,2,0:0:0:0:
192,192,147954,1,0,0:0:0:0:
64,192,148125,128,8,148295:0:0:0:0:
320,192,148125,1,0,0:0:0:0:
448,192,148125,1,0,0:0:0:0:
192,192,148295,1,2,0:0:0:0:
320,192,148295,128,0,148465:0:0:0:0:
64,192,148465,1,8,0:0:0:0:
192,192,148465,1,0,0:0:0:0:
448,192,148465,128,0,148636:0:0:0:0:
192,192,148636,1,2,0:0:0:0:
320,192,148636,1,0,0:0:0:0:
64,192,148806,128,8,148977:0:0:0:0:
192,192,148977,1,2,0:0:0:0:
320,192,148977,128,0,149147:0:0:0:0:
448,192,148977,1,0,0:0:0:0:
448,192,149147,128,0,149318:0:0:0:0:
64,192,149318,1,2,0:0:0:0:
192,192,149318,1,0,0:0:0:0:
320,192,149318,1,0,0:0:0:0:
64,192,149488,128,0,149659:0:0:0:0:
320,192,149573,1,8,0:0:0:0:
192,192,149659,1,2,0:0:0:0:
448,192,149659,128,0,149829:0:0:0:0:
64,192,149829,1,8,0:0:0:0:
192,192,149829,128,0,150000:0:0:0:0:
320,192,149829,1,0,0:0:0:0:
320,192,150000,1,2,0:0:0:0:
448,192,150000,1,0,0:0:0:0:
64,192,150170,128,8,150340:0:0:0:0:
192,192,150340,1,2,0:0:0:0:
320,192,150340,1,0,0:0:0:0:
448,192,150340,128,0,150511:0:0:0:0:
192,192,150511,128,0,150681:0:0:0:0:
320,192,150596,1,8,0:0:0:0:
64,192,150681,1,2,0:0:0:0:
448,192,150681,1,0,0:0:0:0:
192,192,150852,1,8,0:0:0:0:
320,192,150852,128,0,151022:0:0:0:0:
448,192,150852,1,0,0:0:0:0:
64,192,151022,1,2,0:0:0:0:
192,192,151022,128,0,151193:0:0:0:0:
64,192,151193,1,8,0:0:0:0:
320,192,151193,1,0,0:0:0:0:
448,192,151193,128,0,151363:0:0:0:0:
64,192,151363,1,2,0:0:0:0:
192,192,151363,1,0,0:0:0:0:
320,192,151534,128,8,151704:0:0:0:0:
64,192,151704,1,2,0:0:0:0:
192,192,151704,128,0,151875:0:0:0:0:
448,192,151704,1,0,0:0:0:0:
448,192,151875,128,0,152045:0:0:0:0:
192,192,152045,1,2,0:0:0:0:
320,192,152045,1,0,0:0:0:0:
64,192,152215,128,0,152386:0:0:0:0:
320,192,152301,1,8,0:0:0:0:
192,192,152386,128,2,152556:0:0:0:0:
448,192,152386,1,0,0:0:0:0:
64,192,152556,1,4,0:0:0:0:
320,192,152556,1,8,0:0:0:0:
448,192,152556,128,0,152727:0:0:0:0:
192,192,152727,1,2,0:0:0:0:
320,192,152727,1,0,0:0:0:0:
64,192,152897,128,8,153068:0:0:0:0:
192,192,153068,128,2,153238:0:0:0:0:
320,192,153068,1,0,0:0:0:0:
448,192,153068,1,0,0:0:0:0:
448,192,153238,128,0,153409:0:0:0:0:
320,192,153323,1,8,0:0:0:0:
64,192,153409,1,2,0:0:0:0:
192,192,153409,1,0,0:0:0:0:
192,192,153579,1,8,0:0:0:0:
320,192,153579,128,0,153750:0:0:0:0:
448,192,153579,1,0,0:0:0:0:
64,192,153750,1,2,0:0:0:0:
192,192,153750,128,0,153920:0:0:0:0:
64,192,153920,1,8,0:0:0:0:
320,192,153920,1,0,0:0:0:0:
448,192,153920,128,0,154090:0:0:0:0:
64,192,154090,1,2,0:0:0:0:
192,192,154090,1,0,0:0:0:0:
320,192,154261,128,8,154431:0:0:0:0:
64,192,154431,1,2,0:0:0:0:
192,192,154431,128,0,154602:0:0:0:0:
448,192,154431,1,0,0:0:0:0:
448,192,154602,128,0,154772:0:0:0:0:
64,192,154772,1,2,0:0:0:0:
192,192,154772,1,0,0:0:0:0:
320,192,154772,1,0,0:0:0:0:
320,192,154943,1,8,0:0:0:0:
448,192,154943,1,0,0:0:0:0:
64,192,155028,1,8,0:0:0:0:
192,192,155028,1,0,0:0:0:0:
320,192,155113,1,2,0:0:0:0:
448,192,155113,1,8,0:0:0:0:
64,192,155198,1,8,0:0:0:0:
192,192,155198,1,0,0:0:0:0:
320,192,155284,1,8,0:0:0:0:
448,192,155284,1,0,0:0:0:0:
64,192,155369,1,0,0:0:0:0:
192,192,155369,1,0,0:0:0:0:
448,192,155454,1,0,0:0:0:0:
64,192,155795,1,0,0:0:0:0:
448,192,156136,1,0,0:0:0:0:
192,192,156477,1,0,0:0:0:0:
320,192,156647,1,0,0:0:0:0:
192,192,156988,1,0,0:0:0:0:
448,192,157329,128,0,157500:0:0:0:0:
64,192,157500,128,2,158011:0:0:0:0:
192,192,157500,1,4,0:0:0:0:
320,192,157670,1,8,0:0:0:0:
448,192,157670,1,0,0:0:0:0:
192,192,157755,1,8,0:0:0:0:
320,192,157840,1,8,0:0:0:0:
448,192,157840,1,0,0:0:0:0:
192,192,158011,128,8,158181:0:0:0:0:
64,192,158181,1,4,0:0:0:0:
320,192,158181,1,2,0:0:0:0:
448,192,158181,128,0,158693:0:0:0:0:
192,192,158352,1,8,0:0:0:0:
320,192,158352,1,0,0:0:0:0:
64,192,158437,1,8,0:0:0:0:
192,192,158522,1,8,0:0:0:0:
320,192,158522,1,0,0:0:0:0:
64,192,158693,128,8,158863:0:0:0:0:
192,192,158863,1,4,0:0:0:0:
320,192,158863,128,2,159375:0:0:0:0:
448,192,158863,1,0,0:0:0:0:
64,192,159034,1,8,0:0:0:0:
448,192,159034,1,0,0:0:0:0:
192,192,159119,1,8,0:0:0:0:
64,192,159204,1,8,0:0:0:0:
448,192,159204,1,0,0:0:0:0:
192,192,159375,128,8,159545:0:0:0:0:
64,192,159545,1,4,0:0:0:0:
320,192,159545,1,2,0:0:0:0:
448,192,159545,1,0,0:0:0:0:
192,192,159715,1,8,0:0:0:0:
320,192,159801,1,8,0:0:0:0:
448,192,159801,1,0,0:0:0:0:
64,192,159886,1,8,0:0:0:0:
192,192,159886,1,0,0:0:0:0:
320,192,159971,1,8,0:0:0:0:
192,192,160056,1,8,0:0:0:0:
448,192,160142,1,8,0:0:0:0:
64,192,160227,1,8,0:0:0:0:
320,192,160227,1,0,0:0:0:0:
192,192,160312,1,8,0:0:0:0:
448,192,160397,1,8,0:0:0:0:
64,192,160482,1,8,0:0:0:0:
192,192,160482,1,0,0:0:0:0:
320,192,160568,1,8,0:0:0:0:
448,192,160568,1,0,0:0:0:0:
64,192,160653,1,8,0:0:0:0:
192,192,160738,1,8,0:0:0:0:
320,192,160738,1,0,0:0:0:0:
448,192,160823,1,8,0:0:0:0:
64,192,160909,1,8,0:0:0:0:
192,192,160909,1,0,0:0:0:0:
320,192,160994,1,8,0:0:0:0:
64,192,161079,1,8,0:0:0:0:
320,192,161164,1,8,0:0:0:0:
448,192,161164,1,0,0:0:0:0:
64,192,161250,1,8,0:0:0:0:
192,192,161250,1,0,0:0:0:0:
448,192,161335,1,8,0:0:0:0:
64,192,161420,1,8,0:0:0:0:
320,192,161420,1,0,0:0:0:0:
192,192,161505,1,8,0:0:0:0:
320,192,161590,1,8,0:0:0:0:
448,192,161590,1,0,0:0:0:0:
64,192,161676,1,8,0:0:0:0:
448,192,161761,1,8,0:0:0:0:
192,192,161846,1,8,0:0:0:0:
320,192,161846,1,0,0:0:0:0:
64,192,161931,1,8,0:0:0:0:
448,192,161931,1,0,0:0:0:0:
192,192,162017,1,8,0:0:0:0:
320,192,162102,1,8,0:0:0:0:
192,192,162187,1,8,0:0:0:0:
64,192,162272,1,8,0:0:0:0:
320,192,162272,1,4,0:0:0:0:
448,192,162272,1,2,0:0:0:0:
448,192,162443,1,8,0:0:0:0:
320,192,162528,1,8,0:0:0:0:
64,192,162613,1,8,0:0:0:0:
192,192,162613,1,0,0:0:0:0:
448,192,162613,1,0,0:0:0:0:
320,192,162784,1,8,0:0:0:0:
448,192,162869,1,8,0:0:0:0:
64,192,162954,1,8,0:0:0:0:
192,192,162954,1,0,0:0:0:0:
320,192,163039,1,8,0:0:0:0:
64,192,163125,1,8,0:0:0:0:
192,192,163210,1,8,0:0:0:0:
64,192,163295,1,8,0:0:0:0:
320,192,163295,1,0,0:0:0:0:
448,192,163295,1,0,0:0:0:0:
192,192,163380,1,8,0:0:0:0:
448,192,163465,1,8,0:0:0:0:
320,192,163551,1,8,0:0:0:0:
64,192,163636,1,8,0:0:0:0:
192,192,163636,1,0,0:0:0:0:
320,192,163721,1,8,0:0:0:0:
448,192,163806,1,8,0:0:0:0:
64,192,163892,1,8,0:0:0:0:
192,192,163977,1,8,0:0:0:0:
320,192,163977,1,0,0:0:0:0:
448,192,163977,1,0,0:0:0:0:
64,192,164147,1,8,0:0:0:0:
192,192,164232,1,8,0:0:0:0:
320,192,164318,1,8,0:0:0:0:
448,192,164318,1,0,0:0:0:0:
192,192,164403,1,8,0:0:0:0:
320,192,164488,1,8,0:0:0:0:
64,192,164573,1,8,0:0:0:0:
192,192,164659,1,8,0:0:0:0:
320,192,164659,1,0,0:0:0:0:
448,192,164659,1,0,0:0:0:0:
64,192,164744,1,8,0:0:0:0:
448,192,164829,1,8,0:0:0:0:
320,192,164914,1,8,0:0:0:0:
64,192,165000,1,8,0:0:0:0:
192,192,165000,1,2,0:0:0:0:
448,192,165085,1,8,0:0:0:0:
64,192,165170,1,8,0:0:0:0:
320,192,165255,1,8,0:0:0:0:
64,192,165340,1,8,0:0:0:0:
192,192,165340,1,0,0:0:0:0:
448,192,165340,1,0,0:0:0:0:
320,192,165511,1,8,0:0:0:0:
192,192,165596,1,8,0:0:0:0:
64,192,165681,1,8,0:0:0:0:
448,192,165681,1,0,0:0:0:0:
320,192,165767,1,8,0:0:0:0:
192,192,165852,1,8,0:0:0:0:
448,192,165937,1,8,0:0:0:0:
64,192,166022,1,8,0:0:0:0:
192,192,166022,1,0,0:0:0:0:
320,192,166022,1,0,0:0:0:0:
448,192,166107,1,8,0:0:0:0:
64,192,166193,1,8,0:0:0:0:
192,192,166278,1,8,0:0:0:0:
320,192,166363,1,8,0:0:0:0:
448,192,166363,1,0,0:0:0:0:
192,192,166448,1,8,0:0:0:0:
448,192,166534,1,8,0:0:0:0:
64,192,166619,1,8,0:0:0:0:
192,192,166704,1,8,0:0:0:0:
320,192,166704,1,0,0:0:0:0:
448,192,166704,1,0,0:0:0:0:
64,192,166875,1,8,0:0:0:0:
192,192,166960,1,8,0:0:0:0:
320,192,167045,1,8,0:0:0:0:
448,192,167045,1,0,0:0:0:0:
192,192,167130,1,8,0:0:0:0:
448,192,167215,1,8,0:0:0:0:
320,192,167301,1,8,0:0:0:0:
64,192,167386,1,8,0:0:0:0:
192,192,167386,1,0,0:0:0:0:
448,192,167386,1,0,0:0:0:0:
320,192,167471,1,8,0:0:0:0:
64,192,167556,1,8,0:0:0:0:
192,192,167642,1,8,0:0:0:0:
64,192,167727,1,2,0:0:0:0:
320,192,167727,1,4,0:0:0:0:
448,192,167727,1,8,0:0:0:0:
192,192,167812,1,8,0:0:0:0:
448,192,167897,1,8,0:0:0:0:
320,192,167982,1,8,0:0:0:0:
64,192,168068,1,8,0:0:0:0:
192,192,168068,1,0,0:0:0:0:
448,192,168068,1,0,0:0:0:0:
320,192,168238,1,8,0:0:0:0:
192,192,168323,1,8,0:0:0:0:
64,192,168409,1,8,0:0:0:0:
448,192,168409,1,0,0:0:0:0:
320,192,168494,1,8,0:0:0:0:
192,192,168579,1,8,0:0:0:0:
320,192,168664,1,8,0:0:0:0:
64,192,168750,1,8,0:0:0:0:
192,192,168750,1,0,0:0:0:0:
448,192,168750,1,0,0:0:0:0:
320,192,168920,1,8,0:0:0:0:
192,192,169005,1,8,0:0:0:0:
64,192,169090,1,8,0:0:0:0:
320,192,169090,1,0,0:0:0:0:
448,192,169176,1,8,0:0:0:0:
192,192,169261,1,8,0:0:0:0:
320,192,169346,1,8,0:0:0:0:
64,192,169431,1,8,0:0:0:0:
192,192,169431,1,0,0:0:0:0:
448,192,169431,1,0,0:0:0:0:
320,192,169602,1,8,0:0:0:0:
192,192,169687,1,8,0:0:0:0:
64,192,169772,1,8,0:0:0:0:
448,192,169772,1,0,0:0:0:0:
320,192,169857,1,8,0:0:0:0:
192,192,169943,1,8,0:0:0:0:
320,192,170028,1,8,0:0:0:0:
64,192,170113,1,8,0:0:0:0:
192,192,170113,1,0,0:0:0:0:
448,192,170113,1,0,0:0:0:0:
320,192,170284,1,8,0:0:0:0:
448,192,170284,1,0,0:0:0:0:
192,192,170369,1,8,0:0:0:0:
64,192,170454,1,2,0:0:0:0:
320,192,170454,1,8,0:0:0:0:
448,192,170454,1,0,0:0:0:0:
192,192,170625,1,8,0:0:0:0:
320,192,170710,1,8,0:0:0:0:
64,192,170795,1,8,0:0:0:0:
192,192,170795,1,0,0:0:0:0:
448,192,170795,1,0,0:0:0:0:
320,192,170880,1,8,0:0:0:0:
64,192,170965,1,8,0:0:0:0:
448,192,171051,1,8,0:0:0:0:
192,192,171136,1,8,0:0:0:0:
320,192,171136,1,0,0:0:0:0:
64,192,171221,1,8,0:0:0:0:
448,192,171306,1,8,0:0:0:0:
320,192,171392,1,8,0:0:0:0:
64,192,171477,1,8,0:0:0:0:
192,192,171477,1,0,0:0:0:0:
448,192,171477,1,0,0:0:0:0:
320,192,171562,1,8,0:0:0:0:
64,192,171647,1,8,0:0:0:0:
192,192,171732,1,8,0:0:0:0:
64,192,171818,1,8,0:0:0:0:
448,192,171818,1,0,0:0:0:0:
320,192,171903,1,8,0:0:0:0:
64,192,171988,1,8,0:0:0:0:
448,192,171988,1,0,0:0:0:0:
192,192,172073,1,8,0:0:0:0:
64,192,172159,1,8,0:0:0:0:
448,192,172159,1,0,0:0:0:0:
320,192,172244,1,8,0:0:0:0:
64,192,172329,1,8,0:0:0:0:
448,192,172329,1,0,0:0:0:0:
192,192,172414,1,8,0:0:0:0:
64,192,172500,1,8,0:0:0:0:
448,192,172500,1,0,0:0:0:0:
192,192,172585,1,8,0:0:0:0:
320,192,172585,1,0,0:0:0:0:
64,192,172670,1,8,0:0:0:0:
448,192,172670,1,0,0:0:0:0:
192,192,172755,1,8,0:0:0:0:
320,192,172755,1,0,0:0:0:0:
64,192,172840,1,8,0:0:0:0:
448,192,172840,1,0,0:0:0:0:
192,192,172926,1,8,0:0:0:0:
320,192,172926,1,0,0:0:0:0:
64,192,173011,1,8,0:0:0:0:
448,192,173011,1,0,0:0:0:0:
192,192,173096,1,8,0:0:0:0:
320,192,173096,1,0,0:0:0:0:
64,192,173181,128,0,174545:0:0:0:0:
448,192,173181,1,0,0:0:0:0:
192,192,173522,128,0,173693:0:0:0:0:
320,192,173693,128,0,173863:0:0:0:0:
448,192,173863,128,0,174204:0:0:0:0:
192,192,174204,128,0,174545:0:0:0:0:
320,192,174375,128,0,174545:0:0:0:0:
448,192,174545,128,0,175909:0:0:0:0:
64,192,174801,128,0,175227:0:0:0:0:
192,192,174886,128,0,175227:0:0:0:0:
320,192,175227,128,0,175568:0:0:0:0:
192,192,175568,128,0,175909:0:0:0:0:
64,192,175909,128,0,176590:0:0:0:0:
320,192,175909,128,0,176250:0:0:0:0:
192,192,176250,128,0,176420:0:0:0:0:
320,192,176420,128,0,176590:0:0:0:0:
192,192,176590,128,0,176761:0:0:0:0:
448,192,176590,128,0,177272:0:0:0:0:
64,192,176931,128,0,177102:0:0:0:0:
320,192,176931,128,0,177102:0:0:0:0:
192,192,177102,1,0,0:0:0:0:
64,192,177272,128,0,177954:0:0:0:0:
320,192,177272,128,0,177613:0:0:0:0:
192,192,177613,1,0,0:0:0:0:
320,192,177954,128,0,178551:0:0:0:0:
448,192,177954,128,0,178551:0:0:0:0:
64,192,178295,128,0,178551:0:0:0:0:
192,192,178295,128,0,178551:0:0:0:0:
64,192,178636,1,2,0:0:0:0:
192,192,178636,1,4,0:0:0:0:
320,192,178636,1,0,0:0:0:0:
448,192,178636,1,0,0:0:0:0:
64,192,178977,1,8,0:0:0:0:
192,192,178977,1,0,0:0:0:0:
192,192,179147,1,8,0:0:0:0:
320,192,179147,1,0,0:0:0:0:
64,192,179318,1,8,0:0:0:0:
448,192,179318,1,0,0:0:0:0:
192,192,179488,1,8,0:0:0:0:
448,192,179488,1,0,0:0:0:0:
64,192,179659,1,8,0:0:0:0:
320,192,179659,1,0,0:0:0:0:
64,192,179829,1,8,0:0:0:0:
192,192,179829,1,0,0:0:0:0:
192,192,180000,1,8,0:0:0:0:
320,192,180000,1,2,0:0:0:0:
448,192,180000,1,0,0:0:0:0:
64,192,180170,1,8,0:0:0:0:
448,192,180170,1,0,0:0:0:0:
64,192,180340,1,8,0:0:0:0:
192,192,180340,1,0,0:0:0:0:
320,192,180340,1,0,0:0:0:0:
192,192,180511,1,8,0:0:0:0:
448,192,180511,1,0,0:0:0:0:
64,192,180681,1,8,0:0:0:0:
320,192,180681,1,2,0:0:0:0:
448,192,180681,1,0,0:0:0:0:
192,192,180852,1,8,0:0:0:0:
320,192,180852,1,0,0:0:0:0:
64,192,181022,1,8,0:0:0:0:
192,192,181022,1,0,0:0:0:0:
448,192,181022,1,0,0:0:0:0:
64,192,181193,1,8,0:0:0:0:
320,192,181193,1,0,0:0:0:0:
64,192,181363,1,2,0:0:0:0:
192,192,181363,1,8,0:0:0:0:
320,192,181363,1,0,0:0:0:0:
448,192,181363,1,0,0:0:0:0:
320,192,181534,1,8,0:0:0:0:
448,192,181534,1,0,0:0:0:0:
64,192,181704,1,8,0:0:0:0:
192,192,181704,1,2,0:0:0:0:
320,192,181704,1,0,0:0:0:0:
448,192,181704,1,0,0:0:0:0:
64,192,181875,1,8,0:0:0:0:
192,192,181875,1,0,0:0:0:0:
64,192,182045,1,8,0:0:0:0:
192,192,182045,1,2,0:0:0:0:
320,192,182045,1,0,0:0:0:0:
448,192,182045,1,0,0:0:0:0:
192,192,182215,1,8,0:0:0:0:
320,192,182215,1,0,0:0:0:0:
64,192,182386,1,8,0:0:0:0:
192,192,182386,1,2,0:0:0:0:
320,192,182386,1,0,0:0:0:0:
448,192,182386,1,0,0:0:0:0:
64,192,182556,1,8,0:0:0:0:
448,192,182556,1,0,0:0:0:0:
320,192,182727,1,0,0:0:0:0:
192,192,183068,1,0,0:0:0:0:
64,192,183409,1,0,0:0:0:0:
64,192,183750,1,2,0:0:0:0:
192,192,183750,1,0,0:0:0:0:
320,192,183750,1,0,0:0:0:0:
448,192,183750,1,0,0:0:0:0:
64,192,184090,1,4,0:0:0:0:
320,192,184090,1,2,0:0:0:0:
448,192,184090,1,0,0:0:0:0:
320,192,184261,1,2,0:0:0:0:
448,192,184261,1,0,0:0:0:0:
64,192,184431,1,8,0:0:0:0:
192,192,184431,1,2,0:0:0:0:
448,192,184431,1,0,0:0:0:0:
64,192,184602,1,0,0:0:0:0:
192,192,184602,1,0,0:0:0:0:
320,192,184687,1,8,0:0:0:0:
448,192,184687,1,0,0:0:0:0:
64,192,184772,1,2,0:0:0:0:
192,192,184772,1,0,0:0:0:0:
192,192,184943,1,2,0:0:0:0:
320,192,184943,1,0,0:0:0:0:
64,192,185113,1,8,0:0:0:0:
320,192,185113,1,2,0:0:0:0:
448,192,185113,1,0,0:0:0:0:
192,192,185284,1,0,0:0:0:0:
320,192,185454,1,2,0:0:0:0:
448,192,185454,1,0,0:0:0:0:
320,192,185625,1,2,0:0:0:0:
448,192,185625,1,0,0:0:0:0:
64,192,185795,1,2,0:0:0:0:
192,192,185795,1,8,0:0:0:0:
320,192,185795,1,0,0:0:0:0:
64,192,185965,1,0,0:0:0:0:
192,192,185965,1,0,0:0:0:0:
320,192,186051,1,8,0:0:0:0:
448,192,186051,1,0,0:0:0:0:
64,192,186136,1,2,0:0:0:0:
192,192,186136,1,0,0:0:0:0:
320,192,186221,1,8,0:0:0:0:
448,192,186221,1,0,0:0:0:0:
64,192,186306,1,2,0:0:0:0:
192,192,186306,1,0,0:0:0:0:
192,192,186477,1,2,0:0:0:0:
320,192,186477,1,8,0:0:0:0:
448,192,186477,1,0,0:0:0:0:
64,192,186647,1,0,0:0:0:0:
448,192,186647,1,0,0:0:0:0:
320,192,186732,1,8,0:0:0:0:
64,192,186818,1,2,0:0:0:0:
192,192,186818,1,4,0:0:0:0:
448,192,186818,1,0,0:0:0:0:
192,192,186988,1,2,0:0:0:0:
320,192,186988,1,0,0:0:0:0:
64,192,187159,1,8,0:0:0:0:
320,192,187159,1,2,0:0:0:0:
448,192,187159,1,0,0:0:0:0:
64,192,187329,1,0,0:0:0:0:
192,192,187329,1,0,0:0:0:0:
320,192,187414,1,8,0:0:0:0:
448,192,187414,1,0,0:0:0:0:
64,192,187500,1,2,0:0:0:0:
192,192,187500,1,0,0:0:0:0:
320,192,187670,1,2,0:0:0:0:
448,192,187670,1,0,0:0:0:0:
64,192,187840,1,8,0:0:0:0:
192,192,187840,1,2,0:0:0:0:
448,192,187840,1,0,0:0:0:0:
320,192,188011,1,0,0:0:0:0:
64,192,188181,1,2,0:0:0:0:
448,192,188181,1,0,0:0:0:0:
192,192,188352,1,2,0:0:0:0:
320,192,188352,1,0,0:0:0:0:
64,192,188522,1,2,0:0:0:0:
192,192,188522,1,8,0:0:0:0:
448,192,188522,1,0,0:0:0:0:
320,192,188693,1,0,0:0:0:0:
192,192,188778,1,8,0:0:0:0:
64,192,188863,128,2,189204:0:0:0:0:
320,192,188863,1,8,0:0:0:0:
448,192,188863,1,0,0:0:0:0:
192,192,188948,1,8,0:0:0:0:
320,192,189034,1,8,0:0:0:0:
448,192,189034,1,0,0:0:0:0:
192,192,189119,1,8,0:0:0:0:
320,192,189204,1,2,0:0:0:0:
448,192,189204,128,8,189545:0:0:0:0:
192,192,189289,1,8,0:0:0:0:
64,192,189375,1,8,0:0:0:0:
320,192,189375,1,0,0:0:0:0:
192,192,189460,1,8,0:0:0:0:
64,192,189545,1,4,0:0:0:0:
320,192,189545,1,2,0:0:0:0:
192,192,189715,1,2,0:0:0:0:
448,192,189715,1,0,0:0:0:0:
64,192,189886,1,8,0:0:0:0:
320,192,189886,1,2,0:0:0:0:
448,192,189886,1,0,0:0:0:0:
192,192,190056,1,0,0:0:0:0:
320,192,190056,1,0,0:0:0:0:
64,192,190142,1,8,0:0:0:0:
448,192,190142,1,0,0:0:0:0:
192,192,190227,1,2,0:0:0:0:
320,192,190227,1,0,0:0:0:0:
64,192,190397,1,2,0:0:0:0:
448,192,190397,1,0,0:0:0:0:
64,192,190568,1,8,0:0:0:0:
192,192,190568,1,2,0:0:0:0:
320,192,190568,1,0,0:0:0:0:
320,192,190738,1,8,0:0:0:0:
448,192,190738,1,0,0:0:0:0:
64,192,190823,1,8,0:0:0:0:
192,192,190823,1,0,0:0:0:0:
320,192,190909,1,2,0:0:0:0:
448,192,190909,1,0,0:0:0:0:
64,192,191079,1,2,0:0:0:0:
192,192,191079,1,0,0:0:0:0:
192,192,191250,1,2,0:0:0:0:
320,192,191250,1,8,0:0:0:0:
448,192,191250,1,0,0:0:0:0:
64,192,191420,1,8,0:0:0:0:
448,192,191420,1,0,0:0:0:0:
192,192,191505,1,8,0:0:0:0:
320,192,191505,1,0,0:0:0:0:
64,192,191590,1,2,0:0:0:0:
448,192,191590,1,8,0:0:0:0:
192,192,191676,1,8,0:0:0:0:
320,192,191676,1,0,0:0:0:0:
64,192,191761,1,2,0:0:0:0:
448,192,191761,1,8,0:0:0:0:
192,192,191931,1,8,0:0:0:0:
320,192,191931,1,0,0:0:0:0:
448,192,191931,1,0,0:0:0:0:
64,192,192102,1,8,0:0:0:0:
192,192,192102,1,0,0:0:0:0:
320,192,192187,1,8,0:0:0:0:
64,192,192272,1,2,0:0:0:0:
192,192,192272,1,4,0:0:0:0:
448,192,192272,128,0,192613:0:0:0:0:
192,192,192443,1,2,0:0:0:0:
320,192,192443,1,0,0:0:0:0:
64,192,192613,128,8,192784:0:0:0:0:
192,192,192613,1,2,0:0:0:0:
320,192,192613,1,0,0:0:0:0:
448,192,192784,128,0,193125:0:0:0:0:
320,192,192869,1,8,0:0:0:0:
64,192,192954,1,2,0:0:0:0:
192,192,192954,1,0,0:0:0:0:
320,192,193039,1,8,0:0:0:0:
64,192,193125,1,2,0:0:0:0:
192,192,193125,128,0,193295:0:0:0:0:
64,192,193295,1,8,0:0:0:0:
320,192,193295,1,2,0:0:0:0:
448,192,193295,1,0,0:0:0:0:
448,192,193465,128,0,193636:0:0:0:0:
320,192,193551,1,8,0:0:0:0:
64,192,193636,1,2,0:0:0:0:
192,192,193636,1,8,0:0:0:0:
320,192,193721,1,8,0:0:0:0:
448,192,193721,1,0,0:0:0:0:
64,192,193806,1,8,0:0:0:0:
192,192,193806,1,0,0:0:0:0:
320,192,193892,1,8,0:0:0:0:
64,192,193977,1,2,0:0:0:0:
192,192,193977,1,0,0:0:0:0:
448,192,193977,1,0,0:0:0:0:
320,192,194147,1,8,0:0:0:0:
448,192,194147,1,0,0:0:0:0:
192,192,194232,1,8,0:0:0:0:
64,192,194318,1,2,0:0:0:0:
320,192,194318,1,4,0:0:0:0:
448,192,194318,1,0,0:0:0:0:
64,192,194488,1,8,0:0:0:0:
192,192,194488,1,0,0:0:0:0:
320,192,194573,1,8,0:0:0:0:
448,192,194573,1,0,0:0:0:0:
64,192,194659,1,8,0:0:0:0:
192,192,194659,1,2,0:0:0:0:
320,192,194744,1,8,0:0:0:0:
448,192,194744,1,0,0:0:0:0:
64,192,194829,1,8,0:0:0:0:
192,192,194829,1,0,0:0:0:0:
320,192,194914,1,8,0:0:0:0:
64,192,195000,128,2,195170:0:0:0:0:
192,192,195000,1,4,0:0:0:0:
448,192,195000,1,0,0:0:0:0:
320,192,195170,128,0,195340:0:0:0:0:
64,192,195340,1,2,0:0:0:0:
192,192,195340,1,8,0:0:0:0:
448,192,195340,128,0,195511:0:0:0:0:
320,192,195511,128,0,195681:0:0:0:0:
64,192,195681,128,2,195852:0:0:0:0:
448,192,195681,1,0,0:0:0:0:
192,192,195852,1,0,0:0:0:0:
64,192,196022,1,8,0:0:0:0:
320,192,196022,1,2,0:0:0:0:
448,192,196022,128,0,196193:0:0:0:0:
192,192,196193,128,0,196363:0:0:0:0:
64,192,196363,128,2,196534:0:0:0:0:
320,192,196363,1,0,0:0:0:0:
448,192,196534,128,0,196704:0:0:0:0:
64,192,196704,1,8,0:0:0:0:
192,192,196704,128,2,196875:0:0:0:0:
320,192,196704,1,0,0:0:0:0:
320,192,196875,128,0,197045:0:0:0:0:
64,192,197045,1,2,0:0:0:0:
448,192,197045,128,0,197215:0:0:0:0:
192,192,197215,1,0,0:0:0:0:
64,192,197386,1,2,0:0:0:0:
320,192,197386,1,8,0:0:0:0:
448,192,197386,1,0,0:0:0:0:
192,192,197556,128,0,197727:0:0:0:0:
64,192,197727,128,2,198068:0:0:0:0:
320,192,197727,1,4,0:0:0:0:
448,192,197727,128,0,198409:0:0:0:0:
192,192,197897,1,0,0:0:0:0:
192,192,198068,1,2,0:0:0:0:
320,192,198068,128,8,198238:0:0:0:0:
64,192,198238,128,0,198409:0:0:0:0:
192,192,198409,128,2,199090:0:0:0:0:
320,192,198409,128,0,198579:0:0:0:0:
64,192,198579,1,0,0:0:0:0:
64,192,198750,1,8,0:0:0:0:
320,192,198750,1,2,0:0:0:0:
448,192,198750,128,0,198920:0:0:0:0:
320,192,198920,1,0,0:0:0:0:
64,192,199090,128,2,199772:0:0:0:0:
448,192,199090,128,0,199431:0:0:0:0:
320,192,199261,1,0,0:0:0:0:
192,192,199431,1,8,0:0:0:0:
320,192,199431,1,2,0:0:0:0:
448,192,199602,1,0,0:0:0:0:
192,192,199687,1,8,0:0:0:0:
320,192,199772,1,2,0:0:0:0:
448,192,199772,1,8,0:0:0:0:
64,192,199857,1,8,0:0:0:0:
192,192,199857,1,0,0:0:0:0:
320,192,199943,1,8,0:0:0:0:
448,192,199943,1,0,0:0:0:0:
64,192,200028,1,8,0:0:0:0:
192,192,200028,1,0,0:0:0:0:
320,192,200113,1,2,0:0:0:0:
448,192,200113,1,8,0:0:0:0:
64,192,200198,1,8,0:0:0:0:
192,192,200198,1,0,0:0:0:0:
320,192,200284,1,8,0:0:0:0:
448,192,200284,1,0,0:0:0:0:
192,192,200369,1,8,0:0:0:0:
64,192,200454,1,4,0:0:0:0:
320,192,200454,1,2,0:0:0:0:
448,192,200454,128,0,200795:0:0:0:0:
192,192,200625,1,2,0:0:0:0:
320,192,200625,1,0,0:0:0:0:
64,192,200795,1,8,0:0:0:0:
192,192,200795,1,2,0:0:0:0:
320,192,200795,1,0,0:0:0:0:
448,192,200965,1,0,0:0:0:0:
64,192,201051,1,8,0:0:0:0:
192,192,201051,1,0,0:0:0:0:
320,192,201136,1,2,0:0:0:0:
448,192,201136,1,0,0:0:0:0:
192,192,201306,1,2,0:0:0:0:
320,192,201306,1,0,0:0:0:0:
64,192,201477,1,8,0:0:0:0:
192,192,201477,1,2,0:0:0:0:
448,192,201477,1,0,0:0:0:0:
320,192,201647,1,0,0:0:0:0:
64,192,201818,128,4,202159:0:0:0:0:
448,192,201818,1,2,0:0:0:0:
192,192,201988,1,2,0:0:0:0:
320,192,201988,1,0,0:0:0:0:
192,192,202159,128,2,202500:0:0:0:0:
320,192,202159,1,8,0:0:0:0:
448,192,202159,1,0,0:0:0:0:
64,192,202329,1,0,0:0:0:0:
320,192,202414,1,8,0:0:0:0:
64,192,202500,1,2,0:0:0:0:
448,192,202500,128,0,202840:0:0:0:0:
192,192,202670,1,2,0:0:0:0:
320,192,202670,1,0,0:0:0:0:
64,192,202840,128,2,203181:0:0:0:0:
192,192,202840,1,8,0:0:0:0:
320,192,202840,1,0,0:0:0:0:
448,192,203011,1,0,0:0:0:0:
192,192,203181,1,2,0:0:0:0:
320,192,203181,128,4,203522:0:0:0:0:
64,192,203352,1,2,0:0:0:0:
448,192,203352,1,0,0:0:0:0:
64,192,203522,1,8,0:0:0:0:
192,192,203522,1,2,0:0:0:0:
448,192,203522,1,0,0:0:0:0:
320,192,203693,1,0,0:0:0:0:
192,192,203778,1,8,0:0:0:0:
448,192,203778,1,0,0:0:0:0:
64,192,203863,1,2,0:0:0:0:
320,192,203863,1,0,0:0:0:0:
192,192,204034,1,2,0:0:0:0:
448,192,204034,1,0,0:0:0:0:
64,192,204204,1,8,0:0:0:0:
320,192,204204,1,2,0:0:0:0:
448,192,204204,1,0,0:0:0:0:
192,192,204375,1,2,0:0:0:0:
320,192,204375,1,0,0:0:0:0:
64,192,204545,128,8,204886:0:0:0:0:
192,192,204545,1,4,0:0:0:0:
448,192,204545,1,0,0:0:0:0:
320,192,204715,1,2,0:0:0:0:
448,192,204715,1,0,0:0:0:0:
192,192,204886,1,8,0:0:0:0:
320,192,204886,1,4,0:0:0:0:
448,192,204886,128,0,205227:0:0:0:0:
64,192,205056,1,0,0:0:0:0:
192,192,205227,1,2,0:0:0:0:
320,192,205227,1,8,0:0:0:0:
64,192,205312,1,8,0:0:0:0:
448,192,205312,1,0,0:0:0:0:
192,192,205397,1,8,0:0:0:0:
320,192,205397,1,0,0:0:0:0:
64,192,205482,1,8,0:0:0:0:
448,192,205482,1,0,0:0:0:0:
192,192,205568,1,2,0:0:0:0:
320,192,205568,1,0,0:0:0:0:
64,192,205738,1,2,0:0:0:0:
192,192,205738,1,0,0:0:0:0:
320,192,205823,1,2,0:0:0:0:
64,192,205909,1,2,0:0:0:0:
192,192,205909,1,4,0:0:0:0:
448,192,205909,1,0,0:0:0:0:
64,192,206250,1,8,0:0:0:0:
448,192,206250,1,0,0:0:0:0:
192,192,206420,1,8,0:0:0:0:
448,192,206420,1,0,0:0:0:0:
64,192,206590,1,8,0:0:0:0:
320,192,206590,1,0,0:0:0:0:
64,192,206761,1,8,0:0:0:0:
448,192,206761,1,0,0:0:0:0:
192,192,206931,1,8,0:0:0:0:
320,192,206931,1,0,0:0:0:0:
64,192,207102,1,8,0:0:0:0:
320,192,207102,1,0,0:0:0:0:
64,192,207272,1,8,0:0:0:0:
192,192,207272,1,2,0:0:0:0:
448,192,207272,1,0,0:0:0:0:
192,192,207443,1,8,0:0:0:0:
320,192,207443,1,0,0:0:0:0:
64,192,207613,1,8,0:0:0:0:
320,192,207613,1,0,0:0:0:0:
448,192,207613,1,0,0:0:0:0:
192,192,207784,1,8,0:0:0:0:
448,192,207784,1,0,0:0:0:0:
64,192,207954,1,8,0:0:0:0:
192,192,207954,1,2,0:0:0:0:
320,192,207954,1,0,0:0:0:0:
64,192,208125,1,8,0:0:0:0:
448,192,208125,1,0,0:0:0:0:
192,192,208295,1,8,0:0:0:0:
320,192,208295,1,0,0:0:0:0:
448,192,208295,1,0,0:0:0:0:
64,192,208465,1,8,0:0:0:0:
320,192,208465,1,0,0:0:0:0:
64,192,208636,1,8,0:0:0:0:
192,192,208636,1,2,0:0:0:0:
448,192,208636,1,0,0:0:0:0:
192,192,208806,1,8,0:0:0:0:
320,192,208806,1,0,0:0:0:0:
64,192,208977,1,2,0:0:0:0:
320,192,208977,1,8,0:0:0:0:
448,192,208977,1,0,0:0:0:0:
192,192,209147,1,8,0:0:0:0:
448,192,209147,1,0,0:0:0:0:
64,192,209318,1,2,0:0:0:0:
192,192,209318,1,8,0:0:0:0:
320,192,209318,1,0,0:0:0:0:
64,192,209488,1,8,0:0:0:0:
448,192,209488,1,0,0:0:0:0:
192,192,209659,1,2,0:0:0:0:
320,192,209659,1,8,0:0:0:0:
448,192,209659,1,0,0:0:0:0:
64,192,209829,1,8,0:0:0:0:
320,192,209829,1,0,0:0:0:0:
64,192,210000,128,2,211278:0:0:0:0:
192,192,210000,1,4,0:0:0:0:
320,192,210000,1,0,0:0:0:0:
448,192,210000,128,0,210340:0:0:0:0:
320,192,210340,128,0,211107:0:0:0:0:
448,192,210511,128,0,211278:0:0:0:0:
192,192,210852,128,0,211278:0:0:0:0:
320,192,211193,128,0,211278:0:0:0:0:
192,192,211363,1,2,0:0:0:0:
320,192,211363,128,4,211534:0:0:0:0:
448,192,211363,1,0,0:0:0:0:
64,192,211534,128,0,211704:0:0:0:0:
192,192,211704,1,8,0:0:0:0:
320,192,211704,1,2,0:0:0:0:
448,192,211704,1,0,0:0:0:0:
448,192,211875,128,0,212215:0:0:0:0:
64,192,212045,1,2,0:0:0:0:
320,192,212045,1,0,0:0:0:0:
192,192,212215,128,0,212386:0:0:0:0:
64,192,212386,1,8,0:0:0:0:
320,192,212386,1,2,0:0:0:0:
448,192,212386,1,0,0:0:0:0:
320,192,212556,128,0,212897:0:0:0:0:
64,192,212727,1,2,0:0:0:0:
192,192,212727,1,0,0:0:0:0:
448,192,212897,128,0,213068:0:0:0:0:
64,192,213068,1,8,0:0:0:0:
192,192,213068,1,2,0:0:0:0:
320,192,213068,1,0,0:0:0:0:
64,192,213238,128,0,213579:0:0:0:0:
192,192,213409,1,2,0:0:0:0:
448,192,213409,1,0,0:0:0:0:
320,192,213579,128,8,213750:0:0:0:0:
448,192,213579,1,0,0:0:0:0:
64,192,213750,128,2,213920:0:0:0:0:
192,192,213750,1,0,0:0:0:0:
320,192,213920,1,8,0:0:0:0:
448,192,213920,1,0,0:0:0:0:
192,192,214005,1,8,0:0:0:0:
64,192,214090,1,2,0:0:0:0:
320,192,214090,1,4,0:0:0:0:
448,192,214090,128,0,214261:0:0:0:0:
192,192,214261,128,0,214431:0:0:0:0:
64,192,214431,1,8,0:0:0:0:
320,192,214431,1,2,0:0:0:0:
448,192,214431,1,0,0:0:0:0:
320,192,214602,128,0,214943:0:0:0:0:
64,192,214772,1,2,0:0:0:0:
448,192,214772,1,0,0:0:0:0:
192,192,214943,128,0,215113:0:0:0:0:
64,192,215113,1,8,0:0:0:0:
320,192,215113,1,2,0:0:0:0:
448,192,215113,1,0,0:0:0:0:
448,192,215284,128,0,215625:0:0:0:0:
64,192,215454,128,2,215795:0:0:0:0:
192,192,215454,1,0,0:0:0:0:
320,192,215625,128,0,215965:0:0:0:0:
192,192,215795,1,8,0:0:0:0:
448,192,215795,128,2,215965:0:0:0:0:
64,192,215965,128,0,216136:0:0:0:0:
192,192,215965,128,0,216136:0:0:0:0:
320,192,216136,1,2,0:0:0:0:
448,192,216136,1,0,0:0:0:0:
64,192,216306,1,8,0:0:0:0:
192,192,216306,1,0,0:0:0:0:
320,192,216392,1,8,0:0:0:0:
448,192,216392,1,0,0:0:0:0:
64,192,216477,1,10,0:0:0:0:
320,192,216562,1,8,0:0:0:0:
448,192,216562,1,0,0:0:0:0:
64,192,216647,1,8,0:0:0:0:
192,192,216647,1,0,0:0:0:0:
320,192,216732,1,8,0:0:0:0:
64,192,216818,128,4,216988:0:0:0:0:
192,192,216818,1,2,0:0:0:0:
448,192,216818,1,0,0:0:0:0:
320,192,216988,128,0,217159:0:0:0:0:
64,192,217159,1,8,0:0:0:0:
192,192,217159,1,2,0:0:0:0:
448,192,217159,1,0,0:0:0:0:
192,192,217329,128,0,217670:0:0:0:0:
64,192,217500,1,2,0:0:0:0:
320,192,217500,1,0,0:0:0:0:
448,192,217670,128,0,217840:0:0:0:0:
64,192,217840,1,8,0:0:0:0:
192,192,217840,1,2,0:0:0:0:
320,192,217840,1,0,0:0:0:0:
64,192,218011,128,0,218352:0:0:0:0:
192,192,218181,1,2,0:0:0:0:
448,192,218181,1,0,0:0:0:0:
320,192,218352,128,0,218522:0:0:0:0:
64,192,218522,1,8,0:0:0:0:
192,192,218522,1,2,0:0:0:0:
448,192,218522,1,0,0:0:0:0:
448,192,218693,128,0,219034:0:0:0:0:
192,192,218863,1,2,0:0:0:0:
320,192,218863,1,0,0:0:0:0:
64,192,219034,1,8,0:0:0:0:
192,192,219034,1,0,0:0:0:0:
320,192,219034,1,0,0:0:0:0:
64,192,219204,1,2,0:0:0:0:
448,192,219204,1,0,0:0:0:0:
192,192,219375,1,8,0:0:0:0:
320,192,219375,1,0,0:0:0:0:
448,192,219460,1,8,0:0:0:0:
64,192,219545,128,4,219715:0:0:0:0:
192,192,219545,1,2,0:0:0:0:
320,192,219545,1,0,0:0:0:0:
448,192,219715,128,0,219886:0:0:0:0:
64,192,219886,1,8,0:0:0:0:
192,192,219886,1,2,0:0:0:0:
320,192,219886,1,0,0:0:0:0:
192,192,220056,128,0,220397:0:0:0:0:
64,192,220227,1,2,0:0:0:0:
320,192,220227,1,0,0:0:0:0:
448,192,220397,128,0,220568:0:0:0:0:
64,192,220568,1,8,0:0:0:0:
192,192,220568,1,2,0:0:0:0:
320,192,220568,1,0,0:0:0:0:
320,192,220738,1,8,0:0:0:0:
448,192,220738,1,0,0:0:0:0:
64,192,220823,1,8,0:0:0:0:
192,192,220823,1,0,0:0:0:0:
320,192,220909,1,8,0:0:0:0:
448,192,220909,1,0,0:0:0:0:
64,192,221079,1,8,0:0:0:0:
192,192,221079,1,0,0:0:0:0:
320,192,221164,1,8,0:0:0:0:
448,192,221164,1,0,0:0:0:0:
64,192,221250,1,8,0:0:0:0:
192,192,221250,1,0,0:0:0:0:
192,192,221420,1,8,0:0:0:0:
448,192,221420,1,0,0:0:0:0:
64,192,221505,1,8,0:0:0:0:
320,192,221505,1,0,0:0:0:0:
192,192,221590,1,8,0:0:0:0:
448,192,221590,1,0,0:0:0:0:
64,192,221761,1,8,0:0:0:0:
320,192,221761,1,0,0:0:0:0:
192,192,221846,1,8,0:0:0:0:
448,192,221846,1,0,0:0:0:0:
64,192,221931,1,8,0:0:0:0:
320,192,221931,1,0,0:0:0:0:
64,192,222102,1,8,0:0:0:0:
320,192,222102,1,0,0:0:0:0:
192,192,222187,1,8,0:0:0:0:
448,192,222187,1,0,0:0:0:0:
64,192,222272,1,8,0:0:0:0:
320,192,222272,1,0,0:0:0:0:
192,192,222443,1,0,0:0:0:70:tom01.wav
448,192,222443,1,0,0:0:0:0:
64,192,222528,1,0,0:0:0:70:tom01.wav
320,192,222528,1,0,0:0:0:0:
192,192,222613,1,0,0:0:0:70:tom01.wav
448,192,222613,1,0,0:0:0:0:
64,192,222784,1,0,0:0:0:70:tom02.wav
192,192,222784,1,0,0:0:0:0:
320,192,222869,1,0,0:0:0:70:tom02.wav
448,192,222869,1,0,0:0:0:0:
64,192,222954,1,0,0:0:0:70:tom02.wav
192,192,222954,1,0,0:0:0:0:
320,192,223125,1,8,0:0:0:0:
448,192,223125,1,0,0:0:0:0:
64,192,223210,1,8,0:0:0:0:
192,192,223210,1,0,0:0:0:0:
320,192,223295,1,8,0:0:0:0:
448,192,223295,1,0,0:0:0:0:
64,192,223465,128,4,224147:0:0:0:0:
192,192,223465,1,2,0:0:0:0:
448,192,223465,128,0,224147:0:0:0:0:
64,192,224232,1,4,0:0:0:0:
192,192,224232,1,2,0:0:0:0:
448,192,224232,1,8,0:0:0:0:
320,192,224318,1,8,0:0:0:0:
192,192,224375,1,8,0:0:0:0:
320,192,224431,1,8,0:0:0:0:
448,192,224431,1,0,0:0:0:0:
64,192,224517,1,0,0:0:0:0:
192,192,224517,1,8,0:0:0:0:
448,192,224573,1,8,0:0:0:0:
320,192,224573,1,0,0:0:0:0:
64,192,224687,1,8,0:0:0:0:
192,192,224687,1,0,0:0:0:0:
448,192,224687,1,2,0:0:0:0:
320,192,224744,1,8,0:0:0:0:
64,192,224808,1,8,0:0:0:0:
192,192,224914,1,8,0:0:0:0:
320,192,224914,1,0,0:0:0:0:
448,192,224971,1,8,0:0:0:0:
64,192,225028,1,8,0:0:0:0:
192,192,225028,1,0,0:0:0:0:
64,192,225170,1,8,0:0:0:0:
448,192,225170,1,2,0:0:0:0:
320,192,225170,1,4,0:0:0:0:
192,192,225227,1,8,0:0:0:0:
320,192,225284,1,8,0:0:0:0:
64,192,225369,1,8,0:0:0:0:
320,192,225426,1,8,0:0:0:0:
448,192,225426,1,0,0:0:0:0:
64,192,225511,1,8,0:0:0:0:
192,192,225511,1,0,0:0:0:0:
320,192,225596,1,8,0:0:0:0:
448,192,225596,1,0,0:0:0:0:
64,192,225681,1,0,0:0:0:0:
192,192,225681,1,0,0:0:0:70:tom01.wav
448,192,225745,1,0,0:0:0:0:
320,192,225745,1,0,0:0:0:70:tom02.wav
64,192,225809,1,0,0:0:0:0:
192,192,225809,1,0,0:0:0:70:tom03.wav
320,192,225894,1,0,0:0:0:70:tom04.wav
192,192,225980,1,0,0:0:0:70:tom04.wav
64,192,226051,1,8,0:0:0:0:
320,192,226051,1,0,0:0:0:0:
448,192,226051,1,0,0:0:0:0:
192,192,226129,1,0,0:0:0:70:tom04.wav
320,192,226171,1,0,0:0:0:70:tom04.wav
64,192,226278,1,2,0:0:0:0:
192,192,226278,1,0,0:0:0:0:
320,192,226321,1,8,0:0:0:0:
448,192,226321,1,0,0:0:0:0:
64,192,226406,128,2,226704:0:0:0:0:
192,192,226406,128,0,226704:0:0:0:0:
320,192,226704,128,0,226789:0:0:0:0:
64,192,226789,128,2,227471:0:0:0:0:
192,192,226789,128,4,227428:0:0:0:0:
448,192,226789,128,0,227386:0:0:0:0:
