osu file format v14

[General]
AudioFilename: audio.mp3
AudioLeadIn: 0
PreviewTime: 44616
Countdown: 0
SampleSet: Soft
StackLeniency: 0.4
Mode: 0
LetterboxInBreaks: 0
WidescreenStoryboard: 0

[Editor]
Bookmarks: 511,6818,17727,28636,34090,45000,66818,72272,83181,94090,115909,125284,136363,147102,162272,173181,184090,211363,223508,226789,227386
DistanceSpacing: 0.3
BeatDivisor: 4
GridSize: 32
TimelineZoom: 2.599999

[Metadata]
Title:Kakero
TitleUnicode:駆けろ
Artist:Hoshimachi Suisei
ArtistUnicode:星街すいせい
Creator:Amateurre
Version:Shooting Star
Source:
Tags:vtuber virtual youtuber hololive ホロライブ mikitop みきとp japanese pop jpop j-pop still stellar suichan hosimati hoshimati hosimachi sui-chan jiysea lecandy pile ayamemymommy airiesu mujina aerous
BeatmapID:3109226
BeatmapSetID:1518924

[Difficulty]
HPDrainRate:5
CircleSize:4
OverallDifficulty:8.8
ApproachRate:9.4
SliderMultiplier:1.8
SliderTickRate:1

[Events]
//Background and Video events
0,0,"kakero bg.jpg",0,0
Video,-120,"Hoshimachi Suisei - Kakero.mp4"
//Break Periods
//Storyboard Layer 0 (Background)
//Storyboard Layer 1 (Fail)
//Storyboard Layer 2 (Pass)
//Storyboard Layer 3 (Foreground)
//Storyboard Layer 4 (Overlay)
//Storyboard Sound Samples

[TimingPoints]
0,340.909090909091,4,2,1,60,1,0
6818,-83.3333333333333,4,2,1,70,0,0
17727,-100,4,2,1,65,0,0
44659,-250,4,2,1,65,0,0
45000,-83.3333333333333,4,2,1,80,0,1
66818,-83.3333333333333,4,2,1,70,0,0
72272,-125,4,2,1,65,0,0
82159,-100,4,2,1,65,0,0
83181,-125,4,2,1,60,0,0
91022,-100,4,2,1,60,0,0
93750,-250,4,2,1,60,0,0
94090,-83.3333333333333,4,2,1,80,0,1
115909,-83.3333333333333,4,2,1,70,0,0
123920,-83.3333333333333,4,2,1,55,0,0
125284,-125,4,2,1,60,0,0
136363,-125,4,2,1,65,0,0
147102,-83.3333333333333,4,2,1,70,0,0
157329,-100,4,2,1,65,0,0
161931,-500,4,2,1,65,0,0
162272,-166.666666666667,4,2,1,60,0,0
171818,-100,4,2,1,60,0,0
173181,-333.333333333333,4,2,1,50,0,0
178636,-125,4,2,1,65,0,0
183750,-250,4,2,1,65,0,0
184090,-83.3333333333333,4,2,1,80,0,1
210000,-125,4,2,1,80,0,0
211363,-83.3333333333333,4,2,1,70,0,0
223508,-133.333333333333,4,2,1,65,0,0
226789,-250,4,2,1,60,0,0

[Colours]
Combo1 : 183,183,183
Combo2 : 156,210,254
Combo3 : 92,170,248

[HitObjects]
67,43,511,6,0,L|61:87,1,45,2|0,1:2|1:2,0:2:0:0:
104,308,681,2,0,L|122:179,1,90,6|0,1:2|1:2,0:2:0:0:
124,202,937,1,0,1:2:0:0:
124,202,1022,1,8,0:2:0:0:
20,274,1193,6,0,L|25:229,1,45,2|0,1:2|1:2,0:2:0:0:
226,89,1363,2,0,L|213:178,1,90,6|0,1:2|1:2,0:2:0:0:
218,195,1619,1,0,1:2:0:0:
218,195,1704,1,8,0:2:0:0:
142,72,1875,6,0,L|136:116,1,45,2|0,1:2|1:2,0:2:0:0:
303,215,2045,2,0,L|321:86,1,90,6|0,1:2|1:2,0:2:0:0:
319,106,2301,1,0,1:2:0:0:
319,106,2386,1,8,0:2:0:0:
392,163,2556,1,2,1:2:0:0:
24,229,2727,5,6,1:2:0:0:
256,192,2812,12,0,5113,0:2:0:0:
37,253,5284,5,10,0:2:0:0:
20,292,5369,1,10,0:2:0:0:
42,330,5454,1,10,0:2:0:0:
182,235,5625,5,10,0:2:0:0:
155,200,5710,1,10,0:2:0:0:
112,201,5795,1,10,0:2:0:0:
127,370,5965,5,10,0:2:0:0:
171,364,6050,1,10,0:2:0:0:
191,326,6135,1,10,0:2:0:0:
115,279,6306,5,10,0:2:0:0:
115,286,6391,1,10,0:2:0:0:
116,294,6476,1,10,0:2:0:0:
505,49,6818,5,6,1:2:0:0:
275,118,6988,2,0,P|260:66|299:19,1,107.999996704102,2|8,0:2|0:2,0:2:0:0:
416,183,7329,2,0,P|430:234|391:281,1,107.999996704102,2|0,0:2|1:2,0:2:0:0:
212,233,7670,2,0,P|268:223|318:216,1,107.999996704102,2|8,0:2|0:2,0:2:0:0:
143,129,8011,5,2,0:2:0:0:
332,220,8181,1,0,1:2:0:0:
137,138,8352,2,0,P|83:145|30:154,1,107.999996704102,2|8,0:2|0:2,0:2:0:0:
180,384,8693,2,0,P|192:303|204:223,1,161.999995056153,2|0,0:2|0:2,0:2:0:0:
199,208,9034,1,10,0:2:0:0:
413,307,9204,2,0,P|359:314|306:324,1,107.999996704102,2|10,1:2|0:2,0:2:0:0:
301,342,9460,1,10,0:2:0:0:
301,342,9545,5,6,1:2:0:0:
482,153,9715,2,0,P|496:214|456:244,1,107.999996704102,2|8,0:2|0:2,0:2:0:0:
265,110,10056,2,0,P|250:48|290:18,1,107.999996704102,2|0,0:2|1:2,0:2:0:0:
397,178,10397,2,0,P|343:185|290:195,1,107.999996704102,2|8,0:2|0:2,0:2:0:0:
83,238,10738,6,0,B|128:218|169:249|143:266|185:297|244:274,1,161.999995056153,2|0,0:2|0:2,0:2:0:0:
239,267,11079,1,2,0:2:0:0:
3,335,11250,1,8,0:2:0:0:
65,137,11420,2,0,P|72:190|78:244,1,107.999996704102,2|0,0:2|1:2,0:2:0:0:
283,343,11761,5,10,0:2:0:0:
297,346,11846,1,8,0:2:0:0:
311,348,11931,2,0,P|316:321|322:295,1,53.9999983520508,8|8,0:2|0:2,0:2:0:0:
248,199,12102,2,0,P|242:225|236:251,1,53.9999983520508,8|8,0:2|0:2,0:2:0:0:
153,337,12272,5,6,1:2:0:0:
426,300,12443,2,0,P|372:289|319:283,1,107.999996704102,2|8,0:2|0:2,0:2:0:0:
281,117,12784,2,0,P|329:134|340:184,1,107.999996704102,2|0,0:2|1:2,0:2:0:0:
244,359,13125,2,0,P|237:305|227:252,1,107.999996704102,2|8,0:2|0:2,0:2:0:0:
34,152,13465,5,2,0:2:0:0:
189,77,13636,1,0,1:2:0:0:
25,147,13806,2,0,P|5:98|31:53,1,107.999996704102,2|8,0:2|0:2,0:2:0:0:
148,165,14147,2,0,P|133:244|123:324,1,161.999995056153,2|0,0:2|0:2,0:2:0:0:
131,338,14488,1,10,0:2:0:0:
262,133,14659,2,0,P|252:186|245:239,1,107.999996704102,2|10,1:2|0:2,0:2:0:0:
254,251,14914,1,10,0:2:0:0:
254,251,15000,5,6,1:2:0:0:
459,226,15170,2,0,P|410:216|353:204,1,107.999996704102,2|8,0:2|0:2,0:2:0:0:
218,336,15511,2,0,P|268:349|307:316,1,107.999996704102,2|0,0:2|1:2,0:2:0:0:
262,133,15852,2,0,P|252:186|245:239,1,107.999996704102,2|8,0:2|0:2,0:2:0:0:
1,259,16193,5,10,0:2:0:0:
0,216,16278,1,10,0:2:0:0:
33,188,16363,1,10,0:2:0:0:
130,332,16534,5,10,0:2:0:0:
93,355,16619,1,10,0:2:0:0:
53,339,16704,1,10,0:2:0:0:
122,174,16874,5,10,0:2:0:0:
161,195,16959,1,10,0:2:0:0:
166,238,17044,1,10,0:2:0:0:
87,265,17215,5,10,0:2:0:0:
84,258,17300,1,10,0:2:0:0:
81,249,17386,2,0,P|160:262|238:285,1,161.999995056153,10|0,0:2|0:2,0:2:0:0:
257,272,17727,6,0,P|251:227|243:182,1,90,6|0,1:2|0:2,0:2:0:0:
415,70,18068,2,0,P|423:114|428:158,1,90,10|0,0:2|0:2,0:2:0:0:
356,278,18409,2,0,P|345:189|329:101,1,180,2|8,1:2|0:2,0:2:0:0:
85,131,18920,5,2,0:2:0:0:
238,42,19090,1,2,1:2:0:0:
150,12,19261,2,0,P|158:56|163:100,1,90,2|8,0:2|0:2,0:2:0:0:
251,190,19602,1,2,0:2:0:0:
251,190,19687,1,0,0:2:0:0:
251,190,19772,1,2,1:2:0:0:
68,266,19943,2,0,P|112:257|156:252,1,90,2|8,0:2|0:2,0:2:0:0:
244,289,20284,5,2,0:2:0:0:
83,183,20454,2,0,P|51:212|61:253,1,90,2|0,1:2|0:2,0:2:0:0:
147,357,20795,2,0,P|152:312|160:268,1,90,10|0,0:2|0:2,0:2:0:0:
263,119,21136,2,0,P|254:163|249:207,1,90,2|0,1:2|0:2,0:2:0:0:
332,322,21477,2,0,P|363:292|353:251,1,90,10|0,0:2|0:2,0:2:0:0:
254,97,21818,5,2,1:2:0:0:
362,27,21988,2,0,P|353:71|348:115,1,90,2|8,0:2|0:2,0:2:0:0:
511,193,22329,5,2,0:2:0:0:
437,116,22500,2,0,P|428:160|423:204,1,90,2|0,1:2|0:2,0:2:0:0:
431,221,22755,1,0,0:2:0:0:
431,221,22840,1,10,0:2:0:0:
265,257,23011,1,0,0:2:0:0:
379,384,23181,5,2,1:2:0:0:
357,294,23352,1,2,0:2:0:0:
180,363,23522,2,0,L|-16:377,1,180,10|0,0:2|1:2,0:2:0:0:
177,258,24034,1,0,0:2:0:0:
99,190,24204,2,0,P|91:234|85:278,1,90,8|2,0:2|0:2,0:2:0:0:
75,295,24460,1,2,0:2:0:0:
75,295,24545,6,0,P|20:292|7:258,1,90,2|2,1:2|0:2,0:2:0:0:
136,113,24886,1,10,0:2:0:0:
191,169,25056,2,0,P|183:213|177:257,1,90,2|0,0:2|1:2,0:2:0:0:
330,132,25397,2,0,P|336:87|344:43,1,90,2|8,0:2|0:2,0:2:0:0:
247,80,25738,5,2,0:2:0:0:
481,188,25909,2,0,B|433:203|391:177|421:149|369:115|307:147,1,180,2|8,1:2|0:2,0:2:0:0:
193,258,26420,1,2,0:2:0:0:
361,321,26590,2,0,P|372:279|345:245,1,90,0|2,1:2|0:2,0:2:0:0:
218,361,26931,2,0,P|173:352|129:347,1,90,10|0,0:2|0:2,0:2:0:0:
9,128,27272,5,10,0:2:0:0:
208,239,27443,1,10,0:2:0:0:
0,384,27613,1,10,0:2:0:0:
61,247,27784,1,10,0:2:0:0:
327,382,28125,5,8,0:2:0:0:
325,348,28210,1,8,0:2:0:0:
322,314,28295,1,8,0:2:0:0:
316,281,28380,1,8,0:2:0:0:
309,248,28465,1,8,0:2:0:0:
468,129,28636,5,6,1:2:0:0:
406,72,28806,2,0,P|375:108|389:149,1,90,2|8,0:2|0:2,0:2:0:0:
454,299,29147,2,0,P|466:209|481:121,1,180,2|2,0:2|0:2,0:2:0:0:
512,52,29659,1,8,0:2:0:0:
298,170,29829,6,0,P|342:163|387:159,1,90,2|0,0:2|1:2,0:2:0:0:
226,26,30170,2,0,P|270:19|315:15,1,90,2|8,0:2|0:2,0:2:0:0:
132,131,30511,2,0,P|96:105|94:62,1,90,2|0,0:2|1:2,0:2:0:0:
219,181,30852,5,10,0:2:0:0:
106,60,31022,1,10,0:2:0:0:
99,93,31107,1,8,0:2:0:0:
93,126,31192,1,8,0:2:0:0:
90,160,31277,1,8,0:2:0:0:
88,194,31362,1,6,1:2:0:0:
299,211,31534,2,0,P|255:200|211:190,1,90,2|8,0:2|0:2,0:2:0:0:
15,280,31875,2,0,P|62:232|172:274,1,180,2|2,0:2|0:2,0:2:0:0:
94,310,32386,5,8,0:2:0:0:
201,180,32556,2,0,P|183:318|179:363,1,180,2|2,0:2|0:2,0:2:0:0:
282,204,33068,1,10,0:2:0:0:
355,281,33238,1,2,1:2:0:0:
84,216,33409,1,8,0:2:0:0:
198,100,33579,5,10,0:2:0:0:
191,144,33664,1,8,0:2:0:0:
185,189,33749,1,8,0:2:0:0:
180,233,33834,1,8,0:2:0:0:
176,278,33919,1,8,0:2:0:0:
18,152,34090,6,0,P|61:124|106:134,1,90,6|0,1:2|0:2,0:2:0:0:
270,29,34431,2,0,P|219:19|178:4,1,90,10|0,0:2|0:2,0:2:0:0:
281,181,34772,2,0,P|331:188|381:81,1,180,2|8,1:2|0:2,0:2:0:0:
458,223,35284,5,2,0:2:0:0:
379,97,35454,2,0,P|372:141|367:186,1,90,2|0,1:2|0:2,0:2:0:0:
271,267,35795,1,10,0:2:0:0:
429,332,35965,1,2,0:0:0:0:
429,332,36051,1,2,0:0:0:0:
429,332,36136,2,0,P|375:298|334:313,1,90,2|0,1:2|0:2,0:2:0:0:
120,364,36477,1,10,0:2:0:0:
231,355,36647,5,2,0:2:0:0:
89,258,36818,2,0,P|96:302|101:347,1,90,2|0,1:2|0:2,0:2:0:0:
239,185,37159,1,10,0:2:0:0:
179,261,37329,1,2,0:2:0:0:
34,186,37500,2,0,P|71:162|113:174,1,90,2|0,1:2|0:2,0:2:0:0:
274,274,37840,5,10,0:2:0:0:
330,214,38011,1,2,0:2:0:0:
330,214,38096,1,2,0:2:0:0:
330,214,38181,2,0,P|339:158|348:122,1,90,2|0,1:2|0:2,0:2:0:0:
251,3,38522,2,0,P|240:46|234:91,1,90,10|0,0:2|0:2,0:2:0:0:
106,178,38863,2,0,P|82:140|94:98,1,90,2|2,1:2|0:2,0:2:0:0:
107,89,39119,1,2,0:2:0:0:
107,89,39204,1,10,0:2:0:0:
214,183,39375,1,0,0:2:0:0:
0,251,39545,5,2,1:2:0:0:
116,185,39715,2,0,P|105:228|99:273,1,90,2|8,0:2|0:2,0:2:0:0:
194,368,40056,2,0,P|207:279|226:190,1,180,2|2,0:2|0:2,0:2:0:0:
486,125,40568,5,10,0:2:0:0:
325,44,40738,1,2,0:2:0:0:
325,44,40823,1,2,0:2:0:0:
325,44,40909,1,2,1:2:0:0:
424,0,41079,2,0,P|413:43|407:88,1,90,2|8,0:2|0:2,0:2:0:0:
233,205,41420,2,0,P|289:141|368:170,1,180,2|2,0:2|0:2,0:2:0:0:
377,185,41846,1,2,0:2:0:0:
377,185,41931,1,10,0:2:0:0:
476,145,42102,1,2,0:2:0:0:
314,285,42272,5,2,1:2:0:0:
502,345,42443,1,2,0:2:0:0:
426,262,42613,1,10,0:2:0:0:
269,376,42784,1,2,0:2:0:0:
296,185,42954,2,0,P|309:240|315:281,1,90,2|0,1:2|0:2,0:2:0:0:
111,316,43295,2,0,P|103:271|92:227,1,90,10|0,0:2|0:2,0:2:0:0:
200,263,43636,5,2,1:2:0:0:
21,277,43806,1,0,1:2:0:0:
286,170,43977,5,10,0:2:0:0:
4,278,44147,1,0,1:2:0:0:
382,346,44318,1,10,0:2:0:0:
391,333,44659,6,0,P|394:306|398:279,1,54,2|0,0:2|0:2,0:2:0:0:
389,201,45000,5,6,1:2:0:0:
510,357,45170,1,2,1:2:0:0:
276,245,45340,1,10,0:2:0:0:
512,77,45511,1,2,1:2:0:0:
512,77,45596,1,0,1:2:0:0:
512,77,45681,1,2,1:2:0:0:
469,219,45852,1,0,1:2:0:0:
192,150,46022,2,0,B|233:167|266:142|253:119|297:89|350:120,1,161.999995056153,10|0,0:2|0:2,0:2:0:0:
408,145,46363,5,2,1:2:0:0:
201,69,46534,1,2,1:2:0:0:
291,323,46704,1,10,0:2:0:0:
373,288,46875,1,2,1:2:0:0:
349,255,46960,1,8,0:2:0:0:
314,235,47045,1,2,1:2:0:0:
274,233,47130,1,8,0:2:0:0:
237,249,47215,1,0,1:2:0:0:
65,375,47386,2,0,P|77:296|91:215,1,161.999995056153,10|0,0:2|0:2,0:2:0:0:
53,148,47727,5,6,1:2:0:0:
159,284,47897,1,2,1:2:0:0:
224,48,48068,1,10,0:2:0:0:
148,153,48238,1,2,1:2:0:0:
148,153,48323,1,0,1:2:0:0:
148,153,48408,1,2,1:2:0:0:
316,83,48579,1,0,1:2:0:0:
380,295,48750,2,0,P|388:233|400:183,1,107.999996704102,10|0,0:2|0:2,0:2:0:0:
286,232,49090,5,2,1:2:0:0:
482,152,49261,1,0,1:2:0:0:
211,60,49431,1,8,0:2:0:0:
317,13,49601,5,0,1:2:0:0:
317,13,49687,1,0,1:2:0:0:
317,13,49772,2,0,P|311:42|307:79,2,53.9999983520508,2|0|0,1:2|1:2|1:2,0:2:0:0:
65,95,50113,2,0,P|172:51|208:72,1,161.999995056153,10|0,0:2|0:2,0:2:0:0:
261,131,50454,5,6,1:2:0:0:
512,68,50625,2,0,P|470:35|409:53,1,107.999996704102,2|8,1:2|0:2,0:2:0:0:
511,186,50965,1,2,1:2:0:0:
511,186,51051,1,0,1:2:0:0:
511,186,51136,1,2,1:2:0:0:
353,106,51306,1,0,1:2:0:0:
239,312,51477,2,0,P|234:257|224:205,1,107.999996704102,8|2,0:2|1:2,0:2:0:0:
196,134,51732,1,0,1:2:0:0:
196,134,51818,5,2,1:2:0:0:
141,258,51988,1,2,1:2:0:0:
404,354,52159,2,0,P|417:303|387:260,1,107.999996704102,10|2,0:2|1:2,0:2:0:0:
373,265,52414,1,8,0:2:0:0:
373,265,52500,2,0,P|340:274|308:281,1,53.9999983520508,2|8,1:2|0:2,0:2:0:0:
245,321,52670,1,0,1:2:0:0:
188,123,52840,1,8,0:2:0:0:
79,178,53011,1,2,1:2:0:0:
305,121,53181,5,6,1:2:0:0:
159,270,53352,1,0,1:2:0:0:
76,4,53522,1,10,0:2:0:0:
0,107,53693,1,2,1:2:0:0:
0,107,53778,1,0,1:2:0:0:
0,107,53863,2,0,P|63:94|120:86,1,107.999996704102,0|0,1:2|1:2,0:2:0:0:
341,217,54204,1,10,0:2:0:0:
168,261,54375,1,2,1:2:0:0:
235,169,54545,5,0,1:2:0:0:
298,345,54715,1,0,1:2:0:0:
512,118,54886,2,0,P|471:93|413:107,1,107.999996704102,12|0,0:2|1:2,0:2:0:0:
403,116,55142,1,0,1:2:0:0:
403,116,55227,2,0,P|398:89|393:62,1,53.9999983520508,8|8,0:2|0:2,0:2:0:0:
215,7,55397,2,0,P|219:33|224:60,1,53.9999983520508,8|8,0:2|0:2,0:2:0:0:
73,188,55568,5,10,0:2:0:0:
56,158,55653,1,8,0:2:0:0:
58,125,55738,1,8,0:2:0:0:
78,98,55823,1,8,0:2:0:0:
109,86,55909,2,0,P|89:192|72:298,1,215.999993408203,6|10,1:2|0:2,0:2:0:0:
227,151,56420,1,2,0:2:0:0:
194,370,56590,2,0,P|202:299|209:252,1,107.999996704102,2|0,1:2|0:2,0:2:0:0:
353,113,56931,2,0,P|345:166|339:220,1,107.999996704102,10|0,0:2|0:2,0:2:0:0:
465,377,57272,6,0,P|501:337|493:286,1,107.999996704102,2|0,1:2|0:2,0:2:0:0:
287,329,57613,2,0,P|339:317|393:310,1,107.999996704102,10|0,0:2|0:2,0:2:0:0:
512,158,57954,2,0,P|459:169|405:176,1,107.999996704102,2|0,1:2|0:2,0:2:0:0:
224,23,58295,1,10,0:2:0:0:
372,64,58465,5,0,0:2:0:0:
171,321,58636,2,0,P|162:213|152:105,1,215.999993408203,6|8,1:2|0:2,0:2:0:0:
272,213,59147,1,2,0:2:0:0:
66,359,59318,2,0,P|61:304|55:250,1,107.999996704102,2|0,1:2|0:2,0:2:0:0:
270,98,59659,2,0,P|275:151|280:205,1,107.999996704102,10|0,0:2|0:2,0:2:0:0:
411,378,60000,2,0,P|404:297|397:216,1,161.999995056153,2|0,1:2|0:2,0:2:0:0:
405,198,60340,1,12,0:2:0:0:
287,334,60511,1,0,1:2:0:0:
494,168,60681,5,10,0:2:0:0:
466,122,60766,1,8,0:2:0:0:
418,99,60851,1,8,0:2:0:0:
365,106,60936,1,8,0:2:0:0:
324,140,61023,1,10,0:2:0:0:
306,190,61108,1,8,0:2:0:0:
264,223,61193,1,8,0:2:0:0:
210,226,61278,1,8,0:2:0:0:
163,201,61363,5,6,1:2:0:0:
9,85,61534,1,0,1:2:0:0:
208,35,61704,2,0,P|244:64|236:121,1,107.999996704102,8|2,0:2|1:2,0:2:0:0:
234,135,61960,1,0,1:2:0:0:
234,134,62045,1,2,1:2:0:0:
109,21,62215,1,0,1:2:0:0:
68,278,62386,1,8,0:2:0:0:
4,173,62556,5,2,1:2:0:0:
177,245,62727,2,0,P|229:234|283:230,1,107.999996704102,2|0,1:2|1:2,0:2:0:0:
417,135,63068,1,10,0:2:0:0:
368,357,63238,1,0,1:2:0:0:
368,357,63323,1,0,1:2:0:0:
368,357,63409,2,0,P|372:303|382:250,1,107.999996704102,2|0,1:2|1:2,0:2:0:0:
269,46,63750,2,0,P|231:85|255:152,1,107.999996704102,10|0,0:2|1:2,0:2:0:0:
484,151,64090,5,6,1:2:0:0:
373,31,64261,1,0,1:2:0:0:
284,239,64431,2,0,P|230:230|177:223,1,107.999996704102,8|2,0:2|1:2,0:2:0:0:
165,232,64687,1,0,1:2:0:0:
165,232,64772,1,2,1:2:0:0:
333,150,64943,1,0,1:2:0:0:
212,315,65113,1,8,0:2:0:0:
61,220,65284,1,0,1:2:0:0:
215,132,65454,5,14,0:2:0:0:
92,300,65625,1,0,1:2:0:0:
1,38,65795,1,2,1:2:0:0:
166,260,65965,6,0,P|245:245|326:237,1,161.999995056153,14|0,0:2|0:2,0:2:0:0:
402,263,66306,1,2,1:2:0:0:
164,105,66477,5,8,0:2:0:0:
184,70,66562,1,8,0:2:0:0:
219,50,66647,1,10,0:2:0:0:
259,49,66732,1,8,0:2:0:0:
294,69,66817,1,6,1:2:0:0:
488,214,66988,2,0,P|494:160|502:106,1,107.999996704102,2|8,0:2|0:2,0:2:0:0:
402,8,67329,2,0,P|394:61|387:115,1,107.999996704102,2|0,0:2|1:2,0:2:0:0:
264,267,67670,2,0,P|270:213|278:159,1,107.999996704102,2|8,0:2|0:2,0:2:0:0:
172,276,68011,5,2,0:2:0:0:
345,344,68181,1,0,1:2:0:0:
160,270,68352,2,0,P|106:276|53:285,1,107.999996704102,2|8,0:2|0:2,0:2:0:0:
15,88,68693,2,0,B|60:64|104:96|71:103|119:144|170:117,1,161.999995056153,2|0,0:2|0:2,0:2:0:0:
179,111,69034,1,10,0:2:0:0:
349,184,69204,2,0,P|356:130|366:77,1,107.999996704102,2|8,1:2|0:2,0:2:0:0:
379,67,69460,1,8,0:2:0:0:
379,67,69545,5,6,1:2:0:0:
276,243,69715,2,0,P|243:203|260:154,1,107.999996704102,2|8,0:2|0:2,0:2:0:0:
463,95,70056,2,0,P|482:47|450:6,1,107.999996704102,2|0,0:2|1:2,0:2:0:0:
382,175,70397,2,0,P|391:228|398:281,1,107.999996704102,2|8,0:2|0:2,0:2:0:0:
187,368,70738,5,10,0:2:0:0:
144,369,70823,1,10,0:2:0:0:
117,334,70908,1,10,0:2:0:0:
182,275,71079,5,4,0:3:0:0:
184,283,71164,1,4,0:3:0:0:
186,290,71249,1,4,0:3:0:0:
257,239,71419,5,10,0:2:0:0:
279,277,71504,1,10,0:2:0:0:
262,316,71589,1,10,0:2:0:0:
107,246,71761,5,10,0:2:0:0:
128,205,71846,1,10,0:2:0:0:
172,199,71931,2,0,P|158:270|144:358,1,161.999995056153,10|0,0:2|0:2,0:2:0:0:
135,371,72272,6,0,P|90:376|59:382,1,72,6|0,1:2|0:2,0:2:0:0:
0,257,72613,2,0,P|44:249|81:245,1,72,10|0,0:2|0:2,0:2:0:0:
94,256,72869,1,0,1:2:0:0:
94,256,72954,1,2,1:2:0:0:
162,169,73125,1,0,1:2:0:0:
262,183,73295,2,0,P|257:218|252:254,1,72,8|0,0:2|0:2,0:2:0:0:
484,157,73636,6,0,P|420:110|351:127,1,144,2|10,1:2|0:2,0:2:0:0:
402,267,74147,1,0,1:2:0:0:
402,267,74232,1,0,1:2:0:0:
402,267,74318,2,0,P|405:222|411:186,1,72,2|0,1:2|1:2,0:2:0:0:
272,37,74659,2,0,P|263:103|258:163,1,108,8|0,0:2|0:2,0:2:0:0:
247,161,75000,6,0,P|202:169|168:179,1,72,2|0,1:2|0:2,0:2:0:0:
33,104,75340,2,0,P|70:76|112:80,1,72,8|0,0:2|0:2,0:2:0:0:
111,87,75596,1,0,1:2:0:0:
111,87,75681,1,2,1:2:0:0:
189,42,75852,1,0,1:2:0:0:
257,171,76022,2,0,P|261:126|266:88,1,72,8|0,0:2|0:2,0:2:0:0:
481,102,76363,6,0,P|484:66|488:30,1,72,2|0,1:2|0:2,0:2:0:0:
374,141,76704,2,0,P|369:176|366:212,1,72,10|0,0:2|0:2,0:2:0:0:
385,233,76960,1,0,1:2:0:0:
385,232,77045,2,0,P|420:228|456:227,1,72,2|0,1:2|1:2,0:2:0:0:
335,331,77386,2,0,P|281:337|228:346,1,108,10|0,0:2|0:2,0:2:0:0:
217,333,77727,6,0,P|221:298|223:261,1,72,2|0,1:2|0:2,0:2:0:0:
59,184,78068,2,0,P|54:219|51:255,1,72,8|0,0:2|0:2,0:2:0:0:
70,276,78324,1,0,1:2:0:0:
70,275,78409,2,0,P|105:271|151:267,1,72,0|0,1:2|1:2,0:2:0:0:
280,200,78750,2,0,P|235:177|206:187,1,72,8|2,0:2|0:2,0:2:0:0:
200,191,79005,1,0,1:2:0:0:
200,191,79090,5,2,1:2:0:0:
160,111,79261,2,0,P|162:75|168:39,1,72,2|8,0:2|0:2,0:2:0:0:
57,153,79602,1,2,1:2:0:0:
57,153,79687,1,0,1:2:0:0:
57,153,79772,2,0,P|59:117|65:81,1,72,0|2,1:2|1:2,0:2:0:0:
15,23,80113,1,8,0:2:0:0:
156,129,80284,5,2,0:2:0:0:
273,16,80454,2,0,P|247:40|244:75,1,72,2|0,1:2|0:2,0:2:0:0:
332,187,80795,2,0,P|328:134|322:100,1,72,10|0,0:2|0:2,0:2:0:0:
338,96,81051,1,0,1:2:0:0:
338,96,81136,2,0,P|378:101|426:111,1,72,2|0,1:2|1:2,0:2:0:0:
512,232,81477,2,0,P|478:198|404:213,1,108,10|0,0:2|0:2,0:2:0:0:
412,211,81818,5,2,1:2:0:0:
336,281,81988,1,0,1:2:0:0:
226,174,82159,2,0,P|237:234|241:276,1,90,10|0,0:2|1:2,0:2:0:0:
236,284,82414,1,0,1:2:0:0:
236,284,82500,1,10,0:2:0:0:
131,211,82670,1,0,1:2:0:0:
18,351,82840,5,10,0:2:0:0:
46,316,82925,1,8,0:2:0:0:
88,301,83010,1,8,0:2:0:0:
132,307,83095,1,8,0:2:0:0:
167,335,83181,2,0,P|243:324|310:321,1,144,4|2,1:2|0:2,0:2:0:0:
488,214,83693,1,0,1:2:0:0:
416,358,83863,5,10,0:2:0:0:
390,284,84034,1,0,1:2:0:0:
390,284,84119,1,0,1:2:0:0:
390,284,84204,2,0,P|395:234|401:200,1,72,12|2,0:2|0:2,0:2:0:0:
258,106,84545,5,2,1:2:0:0:
258,106,84630,1,0,1:2:0:0:
258,106,84715,1,8,0:2:0:0:
343,65,84886,2,0,P|337:100|334:136,1,72,2|0,1:2|1:2,0:2:0:0:
160,254,85227,5,10,0:2:0:0:
198,178,85397,1,8,0:3:0:0:
250,247,85568,1,4,0:3:0:0:
199,222,85738,5,0,1:2:0:0:
89,315,85909,5,2,1:2:0:0:
89,315,86079,1,0,1:2:0:0:
44,168,86250,2,0,P|21:195|22:230,1,72,14|0,0:2|0:2,0:2:0:0:
250,247,86590,2,0,P|176:237|102:221,1,144,14|2,0:2|1:2,0:2:0:0:
98,227,87102,1,2,1:2:0:0:
205,338,87272,6,0,P|258:347|292:357,2,72,10|8|4,0:2|0:3|0:3,0:2:0:0:
403,262,87784,2,0,P|446:297|444:350,1,108,6|0,1:2|0:2,0:2:0:0:
437,354,88125,1,8,0:2:0:0:
311,268,88295,2,0,P|318:232|332:199,1,72,14|0,0:2|0:2,0:2:0:0:
232,103,88636,6,0,B|190:91|154:110|174:122|133:149|77:122,1,144,4|0,1:2|0:2,0:2:0:0:
41,42,89147,2,0,P|94:48|125:52,1,72,8|0,0:2|0:2,0:2:0:0:
213,177,89488,1,0,1:2:0:0:
159,240,89659,2,0,P|154:275|149:311,1,72,8|2,0:2|0:2,0:2:0:0:
156,328,89914,1,0,1:2:0:0:
156,328,90000,5,6,1:2:0:0:
252,288,90170,2,0,P|247:323|242:359,1,72,2|0,1:2|0:2,0:2:0:0:
51,367,90511,2,0,P|55:331|60:295,1,72,8|0,0:2|0:2,0:2:0:0:
92,129,90852,1,0,1:2:0:0:
3,234,91022,5,8,0:2:0:0:
42,213,91107,1,8,0:2:0:0:
86,215,91192,1,8,0:2:0:0:
124,240,91277,1,8,0:2:0:0:
144,279,91363,2,0,P|188:272|233:267,1,90,6|0,1:2|0:2,0:2:0:0:
249,279,91619,1,0,1:2:0:0:
249,279,91704,1,10,0:2:0:0:
318,217,91875,2,0,P|320:194|325:172,2,45,2|0|2,1:2|1:2|1:2,0:2:0:0:
418,360,92215,5,10,0:2:0:0:
420,330,92300,1,8,0:2:0:0:
423,300,92385,1,10,0:2:0:0:
426,270,92470,1,8,0:2:0:0:
431,240,92555,1,10,0:2:0:0:
436,211,92641,1,8,0:2:0:0:
441,181,92726,5,10,0:2:0:0:
211,222,92897,1,0,1:2:0:0:
447,171,93068,5,10,0:2:0:0:
295,369,93238,1,0,1:2:0:0:
153,59,93409,1,10,0:2:0:0:
145,70,93750,6,0,P|141:96|138:123,1,54,2|0,0:2|0:2,0:2:0:0:
117,200,94090,5,6,1:2:0:0:
226,19,94260,1,2,1:2:0:0:
28,124,94430,1,10,0:2:0:0:
257,297,94601,1,2,1:2:0:0:
257,297,94686,1,0,1:2:0:0:
257,297,94771,1,2,1:2:0:0:
208,177,94942,1,0,1:2:0:0:
0,349,95113,2,0,P|66:298|158:319,1,161.999995056153,10|0,0:2|0:2,0:2:0:0:
195,358,95453,5,2,1:2:0:0:
348,152,95624,1,2,1:2:0:0:
491,306,95794,1,10,0:2:0:0:
260,199,95965,1,2,1:2:0:0:
244,162,96050,1,8,0:2:0:0:
246,122,96135,1,2,1:2:0:0:
266,87,96220,1,8,0:2:0:0:
299,63,96305,1,0,1:2:0:0:
415,268,96476,2,0,P|334:280|255:293,1,161.999995056153,10|0,0:2|0:2,0:2:0:0:
171,268,96817,5,6,1:2:0:0:
368,154,96987,1,2,1:2:0:0:
159,284,97158,1,10,0:2:0:0:
206,31,97328,1,2,1:2:0:0:
206,31,97413,1,0,1:2:0:0:
206,31,97500,1,2,1:2:0:0:
44,126,97669,1,0,1:2:0:0:
262,196,97840,2,0,P|295:156|281:106,1,107.999996704102,10|0,0:2|0:2,0:2:0:0:
55,254,98180,5,2,1:2:0:0:
174,143,98351,1,0,1:2:0:0:
390,324,98521,1,8,0:2:0:0:
473,234,98693,5,0,1:2:0:0:
473,234,98777,1,0,1:2:0:0:
473,234,98863,2,0,P|476:207|482:180,2,53.9999983520508,2|0|0,1:2|1:2|1:2,0:2:0:0:
261,317,99204,1,10,0:2:0:0:
277,105,99375,5,8,0:2:0:0:
277,105,99460,1,8,0:2:0:0:
277,105,99544,1,6,1:2:0:0:
379,237,99715,2,0,P|383:183|391:129,1,107.999996704102,2|8,1:2|0:2,0:2:0:0:
470,45,100055,1,2,1:2:0:0:
470,45,100141,1,0,1:2:0:0:
470,45,100226,1,2,1:2:0:0:
298,193,100396,1,0,1:2:0:0:
112,22,100567,2,0,P|81:67|126:128,1,107.999996704102,8|0,0:2|1:2,0:2:0:0:
116,128,100822,1,0,1:2:0:0:
116,128,100909,1,2,1:2:0:0:
222,4,101078,5,2,1:2:0:0:
43,198,101249,2,0,P|97:206|149:221,1,107.999996704102,8|2,0:2|1:2,0:2:0:0:
181,242,101504,1,8,0:2:0:0:
181,242,101590,2,0,P|189:209|197:177,1,53.9999983520508,2|8,1:2|0:2,0:2:0:0:
220,114,101760,1,0,1:2:0:0:
247,305,101930,1,8,0:2:0:0:
52,209,102101,1,2,1:2:0:0:
382,173,102271,5,6,1:2:0:0:
109,317,102442,1,0,1:2:0:0:
376,368,102612,1,10,0:2:0:0:
287,218,102783,1,2,1:2:0:0:
287,218,102868,1,0,1:2:0:0:
287,218,102954,2,0,P|275:270|267:324,1,107.999996704102,0|0,1:2|1:2,0:2:0:0:
490,153,103294,1,10,0:2:0:0:
371,263,103465,5,2,1:2:0:0:
228,70,103635,1,4,1:2:0:0:
476,294,103806,5,8,0:2:0:0:
476,294,103892,1,8,0:2:0:0:
475,294,103977,2,0,P|478:267|482:240,1,53.9999983520508,0|0,1:2|0:2,0:2:0:0:
181,352,104147,1,8,0:2:0:0:
181,352,104232,1,8,0:2:0:0:
181,352,104318,2,0,P|183:325|188:298,1,53.9999983520508,0|0,1:2|0:2,0:2:0:0:
368,66,104488,5,8,0:2:0:0:
361,92,104573,1,8,0:2:0:0:
354,119,104658,1,10,0:2:0:0:
349,146,104743,1,8,0:2:0:0:
344,173,104828,1,8,0:2:0:0:
340,200,104914,1,8,0:2:0:0:
336,226,105000,6,0,B|278:253|230:211|266:179|188:142|111:198,1,215.999993408203,6|10,1:2|0:2,0:2:0:0:
26,262,105510,1,2,0:2:0:0:
181,362,105681,2,0,P|209:310|163:254,1,107.999996704102,2|0,1:2|0:2,0:2:0:0:
64,63,106022,2,0,P|56:116|50:170,1,107.999996704102,10|0,0:2|0:2,0:2:0:0:
266,85,106363,6,0,P|212:91|159:104,1,107.999996704102,2|0,1:2|0:2,0:2:0:0:
310,254,106704,2,0,P|256:260|203:273,1,107.999996704102,10|0,0:2|0:2,0:2:0:0:
470,128,107044,2,0,P|416:134|363:145,1,107.999996704102,2|0,1:2|0:2,0:2:0:0:
512,202,107385,1,10,0:2:0:0:
401,40,107555,5,0,0:2:0:0:
306,243,107727,2,0,P|249:172|320:58,1,215.999993408203,6|8,1:2|0:2,0:2:0:0:
425,243,108237,1,2,0:2:0:0:
470,128,108409,2,0,P|416:134|363:145,1,107.999996704102,2|0,1:2|0:2,0:2:0:0:
162,92,108749,2,0,P|147:42|181:3,1,107.999996704102,10|0,0:2|0:2,0:2:0:0:
265,172,109090,2,0,P|250:251|243:332,1,161.999995056153,2|0,1:2|0:2,0:2:0:0:
252,350,109430,1,12,0:2:0:0:
6,218,109602,5,0,1:2:0:0:
3,207,109687,1,0,1:2:0:0:
0,196,109771,1,10,0:2:0:0:
28,150,109856,1,8,0:2:0:0:
76,127,109943,1,8,0:2:0:0:
129,134,110028,1,8,0:2:0:0:
170,168,110113,1,10,0:2:0:0:
188,218,110198,1,8,0:2:0:0:
230,251,110283,1,8,0:2:0:0:
284,254,110368,1,8,0:2:0:0:
331,229,110453,5,6,1:2:0:0:
125,317,110624,1,0,1:2:0:0:
272,48,110794,2,0,P|264:96|254:163,1,107.999996704102,8|2,0:2|1:2,0:2:0:0:
262,176,111050,1,0,1:2:0:0:
262,175,111135,1,2,1:2:0:0:
169,51,111305,1,0,1:2:0:0:
417,175,111476,1,8,0:2:0:0:
359,78,111646,5,2,1:2:0:0:
210,275,111817,2,0,P|262:263|316:259,1,107.999996704102,6|0,1:2|0:2,0:2:0:0:
121,146,112158,1,10,0:2:0:0:
52,340,112328,1,0,1:2:0:0:
52,340,112413,1,0,1:2:0:0:
52,340,112499,2,0,P|20:283|66:233,1,107.999996704102,2|0,1:2|1:2,0:2:0:0:
194,85,112840,2,0,P|225:126|209:176,1,107.999996704102,10|0,0:2|0:2,0:2:0:0:
54,45,113180,5,6,1:2:0:0:
139,241,113351,1,0,1:2:0:0:
317,93,113522,2,0,P|263:84|210:77,1,107.999996704102,8|2,0:2|1:2,0:2:0:0:
199,90,113777,1,0,1:2:0:0:
199,90,113862,1,2,1:2:0:0:
348,248,114033,1,0,1:2:0:0:
469,18,114203,1,8,0:2:0:0:
329,100,114374,1,0,1:2:0:0:
512,286,114545,5,6,1:2:0:0:
147,195,114715,1,0,1:2:0:0:
427,112,114886,1,10,0:2:0:0:
354,255,115056,1,10,0:2:0:0:
354,255,115142,1,8,0:2:0:0:
354,255,115227,1,8,0:2:0:0:
253,164,115397,1,2,1:2:0:0:
0,361,115568,5,8,0:2:0:0:
108,111,115738,1,10,0:2:0:0:
108,111,115823,1,8,0:2:0:0:
108,110,115909,2,0,P|98:177|87:280,1,161.999995056153,4|0,1:2|0:2,0:2:0:0:
98,282,116250,2,0,P|101:255|106:228,1,53.9999983520508,10|0,0:2|0:2,0:2:0:0:
351,112,116420,6,0,B|310:116|277:88|307:77|254:40|198:69,1,161.999995056153,6|0,1:2|0:2,0:2:0:0:
198,80,116761,2,0,P|223:72|249:76,1,53.9999983520508,8|0,0:2|0:2,0:2:0:0:
437,150,116931,6,0,P|449:84|403:53,1,107.999996704102,6|0,1:2|0:2,0:2:0:0:
309,227,117272,1,0,1:2:0:0:
303,253,117357,1,0,1:2:0:0:
298,279,117442,1,0,1:2:0:0:
294,306,117527,1,0,1:2:0:0:
291,333,117612,1,8,0:2:0:0:
225,186,117784,1,0,1:2:0:0:
421,365,117954,5,10,0:2:0:0:
176,287,118125,1,0,1:2:0:0:
358,126,118295,1,2,1:2:0:0:
209,374,118465,5,10,0:2:0:0:
85,139,118636,1,0,1:2:0:0:
327,224,118806,1,2,1:2:0:0:
27,361,118977,6,0,P|-4:319|7:268,1,107.999996704102,6|0,1:2|0:2,0:2:0:0:
185,109,119318,5,0,1:2:0:0:
179,135,119403,1,0,1:2:0:0:
174,162,119488,1,0,1:2:0:0:
170,188,119573,1,0,1:2:0:0:
166,215,119659,2,0,P|171:253|174:304,2,71.9999978027344,8|8|4,0:2|0:3|0:3,0:2:0:0:
125,60,120000,6,0,B|176:45|212:69|193:89|242:125|291:100,1,161.999995056153,4|0,1:2|0:2,0:2:0:0:
346,151,120340,1,0,1:2:0:0:
346,151,120426,1,0,1:2:0:0:
346,150,120511,2,0,P|348:124|353:97,1,53.9999983520508,0|0,1:2|1:2,0:2:0:0:
465,38,120681,1,0,1:2:0:0:
465,38,120767,1,0,1:2:0:0:
465,38,120852,2,0,P|460:64|457:91,1,53.9999983520508,0|0,1:2|1:2,0:2:0:0:
507,279,121022,5,0,1:2:0:0:
508,265,121107,1,0,1:2:0:0:
510,252,121192,1,0,1:2:0:0:
512,239,121277,1,0,1:2:0:0:
512,211,121362,5,0,1:2:0:0:
495,190,121449,1,0,1:2:0:0:
470,179,121534,1,0,1:2:0:0:
444,182,121619,1,0,1:2:0:0:
422,197,121704,1,0,1:2:0:0:
411,222,121790,1,0,1:2:0:0:
389,238,121875,1,0,1:2:0:0:
363,242,121960,1,0,1:2:0:0:
328,228,122045,5,0,1:2:0:0:
302,196,122130,1,0,1:2:0:0:
267,177,122215,1,0,1:2:0:0:
227,173,122300,1,0,1:2:0:0:
188,183,122385,1,8,0:2:0:0:
156,208,122471,1,0,1:2:0:0:
136,243,122556,1,0,1:2:0:0:
130,283,122641,1,0,1:2:0:0:
140,322,122726,5,4,1:2:0:0:
56,97,122897,1,0,1:2:0:0:
238,274,123068,5,8,0:2:0:0:
22,211,123238,1,0,1:2:0:0:
279,90,123409,1,8,0:2:0:0:
10,206,123579,1,0,1:2:0:0:
354,303,123750,1,8,0:2:0:0:
116,197,123920,5,2,0:2:0:0:
118,205,124005,1,2,0:2:0:0:
118,212,124090,1,2,0:2:0:0:
242,124,124261,5,2,0:2:0:0:
234,121,124346,1,2,0:2:0:0:
228,118,124431,1,2,0:2:0:0:
240,278,124602,5,2,0:2:0:0:
247,272,124687,1,2,0:2:0:0:
252,268,124772,1,2,0:2:0:0:
209,203,124943,5,2,0:2:0:0:
209,203,125028,1,2,0:2:0:0:
209,203,125113,1,2,0:2:0:0:
32,339,125284,6,0,P|91:293|159:310,1,144,4|0,1:2|0:2,0:2:0:0:
269,364,125795,1,0,1:2:0:0:
283,284,125965,2,0,P|287:252|294:213,1,72,0|0,0:2|1:2,0:2:0:0:
395,355,126306,2,0,P|399:319|406:284,1,72,8|0,0:3|1:2,0:2:0:0:
495,169,126647,6,0,P|453:149|375:218,1,144,8|0,0:3|0:2,0:2:0:0:
287,113,127159,1,8,0:3:0:0:
283,284,127329,2,0,P|287:248|294:213,1,72,0|0,0:2|1:2,0:2:0:0:
368,76,127670,1,8,0:3:0:0:
368,76,127755,1,8,0:3:0:0:
368,76,127840,1,0,1:2:0:0:
272,123,128011,1,8,0:3:0:0:
172,27,128181,6,0,P|101:41|29:49,2,144,0|0|0,1:2|1:2|1:2,0:2:0:0:
261,104,129034,1,0,1:2:0:0:
174,184,129204,2,0,P|148:127|170:103,1,72,0|0,1:2|1:2,0:2:0:0:
158,114,129460,1,0,1:2:0:0:
158,114,129545,1,0,1:2:0:0:
263,206,129715,2,0,P|255:243|247:297,2,72,8|0|0,0:3|1:2|1:3,0:2:0:0:
386,149,130227,1,8,0:3:0:0:
318,101,130397,2,0,P|300:97|282:94,2,36,0|0|0,1:2|1:2|1:2,0:2:0:0:
486,211,130738,6,0,P|474:139|462:68,1,144,4|0,1:2|0:2,0:2:0:0:
386,167,131250,1,0,1:2:0:0:
321,111,131420,2,0,P|285:104|250:97,1,72,0|0,0:2|1:2,0:2:0:0:
184,177,131761,2,0,P|219:183|254:190,1,72,8|0,0:3|1:2,0:2:0:0:
412,249,132102,6,0,P|407:213|399:178,2,72,0|0|0,1:2|1:2|0:2,0:2:0:0:
324,335,132613,1,8,0:3:0:0:
489,345,132784,2,0,P|442:333|403:329,1,72,0|0,0:2|1:2,0:2:0:0:
316,241,133125,1,8,0:3:0:0:
316,241,133210,1,0,1:2:0:0:
316,241,133295,1,0,1:2:0:0:
173,345,133465,5,4,1:2:0:0:
107,290,133636,2,0,P|100:254|94:219,2,72,0|0|0,1:2|0:2|1:2,0:2:0:0:
274,147,134147,5,0,0:2:0:0:
179,118,134318,2,0,P|185:153|191:188,1,72,0|0,1:2|1:2,0:2:0:0:
193,207,134573,1,0,1:2:0:0:
193,207,134659,1,0,1:2:0:0:
308,330,134829,6,0,P|301:294|295:259,1,72,0|0,1:2|0:2,0:2:0:0:
428,130,135170,2,0,P|432:148|435:165,2,36,8|0|0,0:3|1:3|1:3,0:2:0:0:
336,103,135511,1,0,1:2:0:0:
336,103,135596,1,0,1:2:0:0:
336,103,135681,2,0,P|342:138|348:173,1,72,4|0,0:3|1:1,0:2:0:0:
355,194,135937,1,0,1:2:0:0:
355,194,136022,1,0,1:2:0:0:
164,299,136193,6,0,P|132:232|170:171,1,144,4|0,1:2|0:2,0:2:0:0:
287,249,136704,2,0,P|252:243|217:237,1,72,0|0,1:2|0:2,0:2:0:0:
99,231,137045,1,0,1:2:0:0:
171,163,137215,2,0,L|177:119,2,36,8|0|0,0:3|1:2|1:2,0:2:0:0:
22,256,137556,6,0,B|104:242|79:304|170:286,1,144,0|0,1:2|0:2,0:2:0:0:
265,342,138068,2,0,P|288:304|264:266,1,72,0|0,1:2|0:2,0:2:0:0:
389,225,138409,2,0,P|383:278|379:315,1,72,4|0,0:3|1:2,0:2:0:0:
388,309,138664,1,0,1:2:0:0:
388,309,138750,1,0,1:2:0:0:
512,132,138920,6,0,P|502:193|494:295,1,144,4|0,1:2|0:2,0:2:0:0:
406,208,139431,1,0,1:2:0:0:
426,128,139602,2,0,P|429:107|434:77,2,36,0|0|0,1:2|1:2|1:2,0:2:0:0:
328,167,139943,2,0,P|292:170|256:176,1,72,0|0,1:2|0:2,0:2:0:0:
117,65,140284,6,0,P|193:48|252:99,1,144,0|0,1:2|0:2,0:2:0:0:
161,206,140795,2,0,P|164:170|170:134,1,72,0|0,1:2|0:2,0:2:0:0:
36,29,141136,2,0,P|29:64|26:100,1,72,8|0,0:3|1:2,0:2:0:0:
32,114,141392,1,0,1:2:0:0:
32,114,141477,1,0,1:2:0:0:
157,216,141647,6,0,P|228:205|299:201,1,144,4|0,1:2|0:2,0:2:0:0:
428,283,142159,1,0,1:2:0:0:
496,230,142329,2,0,P|501:194|510:159,1,72,8|0,0:3|1:2,0:2:0:0:
396,204,142670,2,0,P|405:167|411:153,2,36,8|0|0,0:3|1:2|1:2,0:2:0:0:
475,360,143011,6,0,P|415:314|344:322,1,144,0|0,1:2|0:2,0:2:0:0:
212,293,143522,2,0,P|247:293|276:273,1,72,8|0,0:3|1:2,0:2:0:0:
231,133,143863,2,0,P|221:167|216:203,1,72,8|0,0:3|1:2,0:2:0:0:
221,216,144119,1,0,1:2:0:0:
221,216,144204,1,0,1:2:0:0:
33,335,144375,6,0,P|44:268|65:172,1,144,4|0,1:2|0:2,0:2:0:0:
156,79,144886,1,0,1:2:0:0:
78,45,145056,2,0,P|67:90|111:122,1,72,8|0,0:3|1:2,0:2:0:0:
144,199,145397,2,0,P|145:181|148:163,2,36,8|0|0,0:3|1:2|1:2,0:2:0:0:
247,41,145738,6,0,B|329:27|304:89|395:71,1,144,0|0,0:3|0:2,0:2:0:0:
499,177,146250,1,8,0:3:0:0:
425,210,146420,2,0,P|389:202|354:196,1,72,0|0,0:2|0:2,0:2:0:0:
259,205,146761,5,0,1:2:0:0:
259,219,146846,1,0,1:2:0:0:
262,233,146931,1,0,1:2:0:0:
487,89,147102,2,0,P|517:133|505:183,1,107.999996704102,4|0,1:2|0:2,0:2:0:0:
402,288,147443,5,0,1:2:0:0:
354,196,147613,1,8,0:2:0:0:
413,303,147784,2,0,P|470:298|528:296,1,107.999996704102,0|0,1:2|1:2,0:2:0:0:
238,329,148125,5,8,0:2:0:0:
500,190,148295,1,0,1:2:0:0:
342,103,148465,2,0,P|318:142|346:198,1,107.999996704102,8|0,0:2|1:2,0:2:0:0:
507,27,148806,5,0,1:2:0:0:
434,115,148977,1,8,0:2:0:0:
322,20,149147,2,0,P|268:12|215:4,1,107.999996704102,0|0,1:2|1:2,0:2:0:0:
0,181,149488,5,8,0:2:0:0:
0,181,149573,1,8,0:2:0:0:
0,181,149659,1,8,0:2:0:0:
218,131,149829,1,8,0:2:0:0:
90,18,150000,2,0,P|98:71|106:124,1,107.999996704102,0|0,1:2|1:2,0:2:0:0:
249,254,150340,2,0,P|241:200|232:147,1,107.999996704102,8|0,0:2|1:2,0:2:0:0:
218,131,150596,1,0,1:2:0:0:
218,131,150681,1,0,1:2:0:0:
354,309,150852,5,8,0:2:0:0:
136,233,151022,1,0,1:2:0:0:
424,108,151193,2,0,P|430:55|395:16,1,107.999996704102,8|0,0:2|1:2,0:2:0:0:
322,161,151534,5,0,1:2:0:0:
257,9,151704,1,8,0:2:0:0:
330,180,151875,2,0,P|335:237|337:295,1,107.999996704102,0|0,1:2|1:2,0:2:0:0:
431,220,152215,5,8,0:2:0:0:
444,216,152300,1,8,0:2:0:0:
455,212,152385,1,8,0:2:0:0:
111,73,152556,2,0,P|79:120|110:174,1,107.999996704102,4|0,1:2|1:2,0:2:0:0:
246,41,152897,5,0,1:2:0:0:
211,241,153068,2,0,P|208:187|204:133,1,107.999996704102,8|0,0:2|1:2,0:2:0:0:
199,125,153323,1,0,1:2:0:0:
199,124,153409,1,0,1:2:0:0:
307,258,153579,5,8,0:2:0:0:
118,62,153750,1,0,1:2:0:0:
17,316,153920,2,0,P|65:305|122:295,1,107.999996704102,8|0,0:2|1:2,0:2:0:0:
308,168,154261,5,0,1:2:0:0:
376,324,154431,2,0,P|409:276|384:219,1,107.999996704102,8|0,0:2|1:2,0:2:0:0:
391,222,154687,1,0,1:2:0:0:
392,222,154772,1,0,1:2:0:0:
228,366,154943,5,8,0:2:0:0:
222,327,155028,1,8,0:2:0:0:
217,288,155113,1,8,0:2:0:0:
210,249,155198,1,8,0:2:0:0:
203,210,155283,1,8,0:2:0:0:
195,172,155369,1,8,0:2:0:0:
395,166,157329,6,0,P|396:143|385:124,1,45,2|0,1:2|1:2,0:2:0:0:
147,160,157499,2,0,P|157:232|199:249,1,90,6|0,1:2|1:2,0:2:0:0:
183,245,157754,1,0,1:2:0:0:
183,245,157839,1,8,0:2:0:0:
249,105,158011,6,0,P|229:94|207:95,1,45,2|0,1:2|1:2,0:2:0:0:
215,329,158181,2,0,P|272:284|266:239,1,90,6|0,1:2|1:2,0:2:0:0:
279,251,158436,1,0,1:2:0:0:
279,251,158521,1,8,0:2:0:0:
126,161,158693,6,0,P|97:207|105:224,1,45,2|0,1:2|1:2,0:2:0:0:
127,376,158864,2,0,P|117:304|75:287,1,90,6|0,1:2|1:2,0:2:0:0:
91,282,159119,1,0,1:2:0:0:
91,282,159204,1,8,0:2:0:0:
17,352,159375,5,0,1:2:0:0:
359,310,159545,1,6,1:2:0:0:
256,192,159630,12,0,161846,0:2:0:0:
32,313,161931,6,0,P|36:293|40:280,1,27,2|0,0:2|0:2,0:2:0:0:
34,266,162272,5,2,3:2:0:0:
92,217,162443,1,2,3:2:0:0:
169,213,162613,1,2,3:2:0:0:
239,253,162784,1,2,3:2:0:0:
255,329,162954,2,0,P|250:341|247:354,3,26.9999991760254,2|0|0|0,3:2|3:2|3:2|3:2,3:2:0:0:
331,352,163295,2,0,P|326:364|323:377,3,26.9999991760254,2|0|0|0,3:2|3:2|3:2|3:2,3:2:0:0:
501,274,163636,5,2,3:2:0:0:
433,236,163807,1,2,3:2:0:0:
433,236,163892,1,0,3:2:0:0:
433,236,163977,1,2,3:2:0:0:
357,258,164147,1,2,3:2:0:0:
323,326,164318,2,0,P|327:338|330:351,3,26.9999991760254,2|0|0|0,3:2|3:2|3:2|3:2,3:2:0:0:
260,271,164659,2,0,P|263:257|267:245,3,26.9999991760254,2|0|0|0,3:2|3:2|3:2|3:2,3:2:0:0:
189,346,165000,5,2,3:2:0:0:
174,271,165170,1,2,3:2:0:0:
174,271,165255,1,0,3:2:0:0:
174,271,165340,1,2,3:2:0:0:
152,194,165511,1,2,3:2:0:0:
123,120,165681,2,0,P|120:106|116:94,3,26.9999991760254,2|0|0|0,3:2|3:2|3:2|3:2,3:2:0:0:
75,182,166022,2,0,P|70:194|67:208,3,26.9999991760254,2|0|0|0,3:2|3:2|3:2|3:2,3:2:0:0:
33,63,166363,5,2,3:2:0:0:
33,63,166448,1,0,3:2:0:0:
33,63,166534,1,0,3:2:0:0:
33,63,166619,1,0,3:2:0:0:
33,63,166704,2,0,P|30:49|26:37,3,26.9999991760254,0|0|0|0,3:2|3:2|3:2|3:2,3:2:0:0:
115,93,167045,2,0,P|127:88|141:85,3,26.9999991760254,2|0|0|0,3:2|3:2|3:2|3:2,3:2:0:0:
204,36,167386,2,0,P|217:38|230:43,3,26.9999991760254,2|0|0|0,3:2|3:2|3:2|3:2,3:2:0:0:
301,163,167727,5,2,3:2:0:0:
371,123,167897,2,0,L|375:96,3,26.9999991760254,2|0|0|0,3:2|3:2|3:2|3:2,3:2:0:0:
424,202,168238,1,2,3:2:0:0:
424,202,168323,1,0,3:2:0:0:
424,202,168409,2,0,L|420:228,3,26.9999991760254,2|0|0|0,3:2|3:2|3:2|3:2,3:2:0:0:
498,161,168750,1,0,3:2:0:0:
337,271,168920,5,2,3:2:0:0:
271,227,169090,1,2,3:2:0:0:
192,225,169261,1,2,3:2:0:0:
126,270,169431,1,2,3:2:0:0:
93,346,169602,1,2,3:2:0:0:
93,346,169687,1,0,3:2:0:0:
93,346,169772,2,0,L|96:372,3,26.9999991760254,0|0|0|0,3:2|3:2|3:2|3:2,3:2:0:0:
22,302,170113,1,0,3:2:0:0:
191,359,170284,5,2,3:2:0:0:
191,359,170369,1,0,3:2:0:0:
191,359,170454,2,0,L|217:354,3,26.9999991760254,2|0|0|0,3:2|3:2|3:2|3:2,3:2:0:0:
282,306,170795,1,2,3:2:0:0:
348,351,170965,2,0,L|352:377,3,26.9999991760254,2|0|0|0,3:2|3:2|3:2|3:2,3:2:0:0:
370,269,171306,1,2,3:2:0:0:
405,197,171477,1,2,3:2:0:0:
465,143,171647,5,2,3:2:0:0:
465,143,171732,1,0,3:2:0:0:
465,143,171818,2,0,P|468:117|473:98,3,45,0|0|0|0,3:2|3:2|3:2|3:2,3:2:0:0:
267,166,172159,6,0,P|269:143|275:121,1,45,0|0,3:2|3:2,3:2:0:0:
373,39,172329,2,0,P|367:60|364:83,1,45,0|0,3:2|3:2,3:2:0:0:
463,229,172500,5,0,3:2:0:0:
435,232,172585,1,0,3:2:0:0:
408,225,172670,1,0,3:2:0:0:
385,208,172755,1,0,3:2:0:0:
368,186,172840,1,2,3:2:0:0:
348,167,172926,1,0,3:2:0:0:
321,157,173011,1,0,3:2:0:0:
293,158,173096,1,0,3:2:0:0:
267,166,173181,6,0,P|251:259|239:352,1,188.999994232178,2|0,0:2|0:2,0:2:0:0:
164,106,174545,2,0,P|148:199|136:292,1,188.999994232178,2|0,0:2|0:2,0:2:0:0:
74,358,175909,6,0,P|47:329|51:290,1,80.9999975280763,2|0,0:2|0:2,0:2:0:0:
186,173,176590,2,0,P|190:133|163:105,1,80.9999975280763,2|0,0:2|0:2,0:2:0:0:
100,166,177272,6,0,P|110:204|120:244,1,80.9999975280763,2|0,0:2|0:2,0:2:0:0:
159,312,177954,1,2,0:2:0:0:
156,324,178295,1,2,0:2:0:0:
396,370,178636,6,0,P|377:342|302:346,1,108,4|0,1:2|0:2,0:2:0:0:
295,350,178977,1,0,1:2:0:0:
264,257,179147,1,2,1:2:0:0:
363,274,179318,5,2,1:2:0:0:
195,325,179488,1,0,1:2:0:0:
238,167,179659,1,0,1:2:0:0:
295,350,179829,5,2,1:2:0:0:
59,130,180000,5,10,0:2:0:0:
34,235,180170,1,0,1:2:0:0:
171,106,180340,5,10,0:2:0:0:
94,32,180511,1,0,1:2:0:0:
144,201,180681,5,10,0:2:0:0:
247,176,180852,1,0,1:2:0:0:
59,130,181022,5,10,0:2:0:0:
341,243,181193,1,0,1:2:0:0:
262,86,181363,5,10,0:2:0:0:
219,311,181534,1,0,1:2:0:0:
395,39,181704,5,8,0:2:0:0:
446,287,181875,1,2,1:2:0:0:
133,218,182045,5,10,0:2:0:0:
390,134,182215,1,8,0:2:0:0:
50,127,182386,5,8,0:2:0:0:
493,213,182556,1,8,0:2:0:0:
259,171,182727,5,2,1:2:0:0:
257,182,183750,6,0,P|252:208|249:235,1,54,2|0,1:2|0:2,0:2:0:0:
287,307,184090,5,6,1:2:0:0:
192,73,184261,1,2,1:2:0:0:
0,290,184431,1,10,0:2:0:0:
158,234,184602,1,2,1:2:0:0:
158,234,184687,1,0,1:2:0:0:
158,234,184772,1,2,1:2:0:0:
55,151,184943,1,0,1:2:0:0:
135,352,185113,2,0,P|212:330|293:321,1,161.999995056153,10|0,0:2|0:2,0:2:0:0:
366,359,185454,5,2,1:2:0:0:
266,112,185625,1,2,1:2:0:0:
208,305,185795,1,10,0:2:0:0:
478,221,185965,1,0,1:2:0:0:
453,187,186050,1,8,0:2:0:0:
418,167,186135,1,2,1:2:0:0:
378,165,186220,1,8,0:2:0:0:
341,181,186305,1,0,1:2:0:0:
390,258,186477,5,10,0:2:0:0:
512,79,186647,1,2,1:2:0:0:
158,198,186818,5,6,1:2:0:0:
345,92,186988,1,2,1:2:0:0:
233,337,187159,1,10,0:2:0:0:
71,160,187329,1,2,1:2:0:0:
95,127,187414,1,8,0:2:0:0:
130,107,187499,1,2,1:2:0:0:
170,105,187584,1,8,0:2:0:0:
207,121,187669,1,0,1:2:0:0:
388,265,187840,2,0,P|334:254|281:245,1,107.999996704102,8|0,0:2|1:2,0:2:0:0:
206,256,188096,5,0,1:2:0:0:
206,256,188181,1,2,1:2:0:0:
308,146,188352,1,0,1:2:0:0:
467,380,188522,2,0,P|474:299|485:219,1,161.999995056153,12|0,0:2|1:2,0:2:0:0:
444,152,188863,5,10,0:2:0:0:
444,152,188949,1,8,0:2:0:0:
444,151,189034,2,0,P|417:154|390:158,1,53.9999983520508,8|0,0:2|1:2,0:2:0:0:
186,78,189203,1,10,0:2:0:0:
186,78,189289,1,8,0:2:0:0:
186,79,189374,2,0,P|213:76|240:72,1,53.9999983520508,8|8,0:2|0:2,0:2:0:0:
330,31,189545,5,6,1:2:0:0:
239,269,189715,1,2,1:2:0:0:
89,24,189886,1,10,0:2:0:0:
34,169,190056,1,2,1:2:0:0:
34,169,190142,1,0,1:2:0:0:
34,169,190227,1,0,1:2:0:0:
186,79,190397,1,0,1:2:0:0:
138,287,190568,2,0,P|130:233|122:180,1,107.999996704102,8|2,0:2|1:2,0:2:0:0:
103,109,190823,1,0,1:2:0:0:
103,109,190909,5,2,1:2:0:0:
19,287,191079,1,2,1:2:0:0:
349,209,191250,1,10,0:2:0:0:
261,154,191420,1,2,1:2:0:0:
261,154,191505,1,0,1:2:0:0:
261,154,191590,2,0,P|257:183|253:223,2,53.9999983520508,2|0|0,1:2|1:2|1:2,0:2:0:0:
408,369,191931,2,0,P|411:315|418:261,1,107.999996704102,8|2,0:2|1:2,0:2:0:0:
406,185,192187,1,0,1:2:0:0:
406,185,192272,5,6,1:2:0:0:
259,357,192443,1,0,1:2:0:0:
512,304,192613,1,10,0:2:0:0:
368,103,192784,1,2,1:2:0:0:
335,127,192869,1,8,0:2:0:0:
315,162,192954,1,0,1:2:0:0:
313,202,193039,1,8,0:2:0:0:
329,239,193124,1,2,1:2:0:0:
510,99,193295,1,8,0:2:0:0:
226,161,193465,5,2,1:2:0:0:
226,161,193551,1,0,1:2:0:0:
226,161,193636,2,0,P|195:155|172:153,1,53.9999983520508,4|0,1:2|0:2,0:2:0:0:
32,82,193806,1,8,0:2:0:0:
32,82,193892,1,8,0:2:0:0:
32,82,193977,2,0,P|26:113|24:135,1,53.9999983520508,8|0,0:2|0:2,0:2:0:0:
75,380,194147,5,8,0:2:0:0:
75,380,194232,1,8,0:2:0:0:
75,380,194318,2,0,P|83:312|88:258,1,107.999996704102,12|0,0:2|1:2,0:2:0:0:
92,258,194573,1,0,1:2:0:0:
100,246,194659,1,10,0:2:0:0:
135,229,194744,1,8,0:2:0:0:
176,233,194829,1,8,0:2:0:0:
208,257,194914,1,8,0:2:0:0:
224,293,195000,6,0,P|277:284|331:280,1,107.999996704102,6|2,1:2|0:2,0:2:0:0:
463,162,195340,2,0,P|498:212|477:264,1,107.999996704102,10|2,0:2|0:2,0:2:0:0:
263,114,195681,2,0,P|253:62|286:22,1,107.999996704102,2|0,1:2|0:2,0:2:0:0:
352,189,196022,1,10,0:2:0:0:
171,8,196193,5,2,0:2:0:0:
504,70,196363,2,0,P|425:78|330:92,1,161.999995056153,2|0,1:2|0:2,0:2:0:0:
332,84,196704,1,10,0:2:0:0:
108,245,196875,1,2,0:2:0:0:
287,303,197045,1,2,1:2:0:0:
204,186,197215,1,0,0:2:0:0:
15,384,197386,2,0,P|7:327|-5:250,1,107.999996704102,8|2,0:2|1:2,0:2:0:0:
11,253,197642,1,0,1:2:0:0:
11,253,197727,6,0,B|77:226|128:264|98:287|141:329|200:314,1,215.999993408203,6|10,1:2|0:2,0:2:0:0:
330,192,198238,1,2,0:2:0:0:
408,361,198409,2,0,P|412:307|419:253,1,107.999996704102,2|0,1:2|0:2,0:2:0:0:
247,86,198750,2,0,P|240:139|235:193,1,107.999996704102,10|0,0:2|0:2,0:2:0:0:
360,53,199090,5,2,1:2:0:0:
28,143,199261,1,0,1:2:0:0:
28,143,199346,1,0,1:2:0:0:
28,143,199431,2,0,P|80:132|134:127,1,107.999996704102,12|0,0:2|1:2,0:2:0:0:
501,202,199772,5,10,0:2:0:0:
469,159,199857,1,8,0:2:0:0:
419,141,199942,1,8,0:2:0:0:
367,153,200027,1,8,0:2:0:0:
330,192,200114,1,10,0:2:0:0:
317,243,200199,1,8,0:2:0:0:
279,280,200284,1,8,0:2:0:0:
225,289,200369,1,8,0:2:0:0:
176,269,200454,5,6,1:2:0:0:
397,304,200625,1,0,1:2:0:0:
224,74,200795,2,0,P|230:127|235:181,1,107.999996704102,8|2,0:2|1:2,0:2:0:0:
240,202,201051,1,0,1:2:0:0:
240,202,201136,1,2,1:2:0:0:
340,43,201306,1,0,1:2:0:0:
142,136,201477,2,0,P|90:129|34:121,1,107.999996704102,8|0,0:2|1:2,0:2:0:0:
219,372,201818,6,0,P|261:319|232:270,1,107.999996704102,6|0,1:2|1:2,0:2:0:0:
38,130,202159,2,0,P|0:164|6:216,1,107.999996704102,10|0,0:2|1:2,0:2:0:0:
19,227,202414,1,0,1:2:0:0:
19,227,202500,1,2,1:2:0:0:
200,15,202670,1,0,1:2:0:0:
391,142,202840,2,0,P|311:127|230:118,1,161.999995056153,10|0,0:2|0:2,0:2:0:0:
212,124,203181,5,6,1:2:0:0:
336,232,203352,1,0,1:2:0:0:
502,23,203522,1,8,0:2:0:0:
394,64,203693,2,0,P|367:58|340:54,2,53.9999983520508,2|0|2,1:2|1:2|1:2,0:2:0:0:
511,152,204034,1,0,1:2:0:0:
259,3,204204,5,8,0:2:0:0:
222,214,204375,1,0,1:2:0:0:
88,13,204545,5,14,0:2:0:0:
369,131,204715,1,0,1:2:0:0:
25,264,204886,2,0,P|-1:210|37:157,1,107.999996704102,14|0,0:2|0:2,0:2:0:0:
161,65,205227,5,10,0:2:0:0:
145,102,205312,1,8,0:2:0:0:
133,141,205397,1,8,0:2:0:0:
124,180,205482,1,8,0:2:0:0:
119,220,205567,1,10,0:2:0:0:
256,371,205738,1,0,1:2:0:0:
261,331,205823,1,0,1:2:0:0:
270,292,205909,6,0,P|188:307|74:332,1,161.999995056153,6|0,1:2|0:2,0:2:0:0:
102,337,206250,1,0,1:2:0:0:
185,268,206420,1,2,1:2:0:0:
454,365,206590,5,2,1:2:0:0:
261,331,206760,1,0,1:2:0:0:
390,179,206931,1,0,1:2:0:0:
367,285,207102,5,2,1:2:0:0:
125,65,207272,5,10,0:2:0:0:
150,170,207442,1,0,1:2:0:0:
332,124,207612,5,10,0:2:0:0:
228,91,207783,1,0,1:2:0:0:
185,268,207953,5,10,0:2:0:0:
262,194,208124,1,0,1:2:0:0:
69,237,208295,5,10,0:2:0:0:
291,298,208465,1,0,1:2:0:0:
228,91,208636,5,10,0:2:0:0:
182,296,208806,1,0,1:2:0:0:
316,20,208977,5,8,0:2:0:0:
377,246,209147,1,0,1:2:0:0:
0,132,209318,5,8,0:2:0:0:
242,98,209488,1,8,0:2:0:0:
66,267,209659,1,8,0:2:0:0:
109,26,209829,1,8,0:2:0:0:
218,246,210000,2,0,B|268:252|232:218|298:195|298:195|284:184|200:189|139:275|218:255|219:353|103:399|35:343|35:343|86:367|122:323,1,540,6|0,1:2|0:2,0:2:0:0:
121,326,211363,5,6,1:2:0:0:
246,153,211534,2,0,P|236:206|230:259,1,107.999996704102,2|8,0:2|0:2,0:2:0:0:
120,97,211875,2,0,P|108:65|160:7,1,107.999996704102,2|0,0:2|1:2,0:2:0:0:
334,49,212215,2,0,P|265:58|218:68,1,107.999996704102,2|8,0:2|0:2,0:2:0:0:
110,278,212556,5,2,0:2:0:0:
26,131,212727,1,0,1:2:0:0:
122,286,212897,2,0,P|174:275|228:269,1,107.999996704102,2|8,0:2|0:2,0:2:0:0:
457,180,213238,2,0,P|441:262|430:346,1,161.999995056153,2|0,0:2|0:2,0:2:0:0:
433,352,213579,1,10,0:2:0:0:
358,133,213750,2,0,P|345:187|336:240,1,107.999996704102,2|8,1:2|0:2,0:2:0:0:
341,250,214005,1,8,0:2:0:0:
341,250,214090,5,6,1:2:0:0:
330,48,214261,2,0,P|380:33|421:65,1,107.999996704102,2|8,0:2|0:2,0:2:0:0:
254,155,214602,2,0,P|245:102|233:50,1,107.999996704102,2|0,0:2|1:2,0:2:0:0:
29,156,214943,2,0,P|81:143|134:134,1,107.999996704102,2|8,0:2|0:2,0:2:0:0:
183,197,215284,1,2,0:2:0:0:
26,360,215454,6,0,P|-8:322|11:270,1,107.999996704102,2|0,1:2|0:2,0:2:0:0:
91,199,215795,1,10,0:2:0:0:
169,365,215965,2,0,P|226:354|296:344,1,107.999996704102,2|0,0:2|1:2,0:2:0:0:
507,212,216306,5,10,0:2:0:0:
471,197,216392,1,8,0:2:0:0:
434,207,216477,1,8,0:2:0:0:
413,238,216562,1,8,0:2:0:0:
381,259,216647,1,10,0:2:0:0:
343,265,216732,1,8,0:2:0:0:
309,246,216818,5,6,1:2:0:0:
370,72,216988,2,0,P|359:124|355:178,1,107.999996704102,2|8,0:2|0:2,0:2:0:0:
236,294,217329,2,0,P|209:239|256:188,1,107.999996704102,2|0,0:2|1:2,0:2:0:0:
449,280,217670,2,0,P|396:268|342:264,1,107.999996704102,2|8,0:2|0:2,0:2:0:0:
503,116,218011,6,0,P|522:67|495:23,1,107.999996704102,2|0,0:2|1:2,0:2:0:0:
275,96,218352,2,0,P|327:84|381:80,1,107.999996704102,2|8,0:2|0:2,0:2:0:0:
244,207,218693,2,0,P|322:187|402:184,1,161.999995056153,2|0,0:2|0:2,0:2:0:0:
422,193,219034,1,10,0:2:0:0:
210,24,219204,2,0,P|176:50|185:115,1,107.999996704102,2|8,1:2|0:2,0:2:0:0:
193,123,219460,1,8,0:2:0:0:
193,123,219545,5,6,1:2:0:0:
46,250,219715,2,0,P|57:185|68:130,1,107.999996704102,2|8,0:2|0:2,0:2:0:0:
246,237,220056,2,0,P|184:226|133:220,1,107.999996704102,2|0,0:2|1:2,0:2:0:0:
13,341,220397,2,0,P|70:352|112:314,1,107.999996704102,2|8,0:2|0:2,0:2:0:0:
386,184,220738,5,10,0:2:0:0:
419,212,220823,1,10,0:2:0:0:
418,255,220908,1,10,0:2:0:0:
246,237,221079,5,10,0:2:0:0:
251,194,221164,1,10,0:2:0:0:
290,173,221249,1,10,0:2:0:0:
359,338,221419,5,10,0:2:0:0:
319,354,221504,1,10,0:2:0:0:
282,331,221589,1,10,0:2:0:0:
330,246,221761,5,10,0:2:0:0:
330,253,221846,1,10,0:2:0:0:
330,261,221931,1,10,0:2:0:0:
162,357,222102,5,10,0:2:0:0:
166,330,222187,1,10,0:2:0:0:
170,303,222272,1,10,0:2:0:0:
63,210,222443,5,10,0:3:0:0:
67,183,222528,1,10,0:3:0:0:
71,156,222613,1,10,0:3:0:0:
225,181,222784,5,6,0:3:0:0:
229,154,222869,1,6,0:3:0:0:
233,127,222954,1,6,0:3:0:0:
0,372,223125,5,2,1:2:0:0:
4,345,223210,1,2,1:2:0:0:
8,318,223295,1,2,1:2:0:0:
445,94,223508,6,0,B|491:138|551:109|586:2|461:-29|409:-44|322:52|363:56|358:133|234:142|234:142|280:193|280:193|213:196|213:196|174:253|174:253|153:192|153:192|84:171|84:171|135:136|135:136|136:65|136:65|192:101|192:101|249:74|249:74|232:127,1,1130.62504312992,6|0,1:2|1:0,0:0:0:0:
362,333,226789,6,0,P|423:319|486:312,1,126,6|0,1:2|0:2,0:2:0:0:
