osu file format v14

[General]
AudioFilename: audio.mp3
AudioLeadIn: 0
PreviewTime: 100039
Countdown: 0
SampleSet: Normal
StackLeniency: 0.7
Mode: 1
LetterboxInBreaks: 0
WidescreenStoryboard: 1

[Editor]
DistanceSpacing: 1.1
BeatDivisor: 2
GridSize: 32
TimelineZoom: 1.1

[Metadata]
Title:KING
TitleUnicode:KING
Artist:Hoshimachi Suisei
ArtistUnicode:星街‎すいせい
Creator:Maimaing
Version:tada's Futsuu
Source:
Tags:gumi phoenix phoeniixz Ph0eNiiXZ tadahitotsu lexa14 eriha バーチャルユーチューバー hololive production ホロライブプロダクション hosimati hoshimati hosimachi suichan idol vtuber virtual youtuber singer pop japanese jpop j-pop cover kanaria
BeatmapID:3303859
BeatmapSetID:1617483

[Difficulty]
HPDrainRate:7
CircleSize:5
OverallDifficulty:4
ApproachRate:5
SliderMultiplier:1.4
SliderTickRate:1

[Events]
//Background and Video events
0,0,"KING.jpg",0,80
//Break Periods
//Storyboard Layer 0 (Background)
//Storyboard Layer 1 (Fail)
//Storyboard Layer 2 (Pass)
//Storyboard Layer 3 (Foreground)
//Storyboard Layer 4 (Overlay)
//Storyboard Sound Samples

[TimingPoints]
461,361.44578313253,4,1,0,55,1,0
3262,-111.111111111111,4,1,0,55,0,0
14828,-125,4,1,0,70,0,0
26485,-111.111111111111,4,1,0,75,0,0
38367,-125,4,1,0,65,0,0
39451,-90.9090909090909,4,1,0,80,0,0
40897,-125,4,1,0,75,0,0
52509,-90.9090909090909,4,1,0,80,0,1
64075,-90.9090909090909,4,1,0,80,0,0
65476,-100,4,1,0,85,0,0
66921,-111.111111111111,4,1,0,75,0,0
78488,-125,4,1,0,70,0,0
90009,-111.111111111111,4,1,0,75,0,0
101665,-90.9090909090909,4,1,0,80,0,1
113232,-90.9090909090909,4,1,0,80,0,0
114632,-100,4,1,0,85,0,0
116078,-100,4,1,0,75,0,0
128006,-100,4,1,0,65,0,0

[HitObjects]
253,179,3352,5,4,0:0:0:0:
187,140,3714,1,8,0:0:0:0:
187,140,3894,1,8,0:0:0:0:
187,140,4075,1,0,0:0:0:0:
193,152,4436,1,8,0:0:0:0:
193,152,4798,1,0,0:0:0:0:
175,124,5159,1,8,0:0:0:0:
175,124,5340,1,0,0:0:0:0:
124,134,5521,1,0,0:0:0:0:
124,134,5882,1,8,0:0:0:0:
39,138,6244,1,0,0:0:0:0:
229,111,6605,1,8,0:0:0:0:
229,111,6786,1,8,0:0:0:0:
229,111,6967,1,0,0:0:0:0:
226,102,7328,1,8,0:0:0:0:
225,102,7689,1,8,0:0:0:0:
188,98,7870,1,0,0:0:0:0:
188,98,8051,1,8,0:0:0:0:
188,98,8232,1,0,0:0:0:0:
188,98,8412,1,8,0:0:0:0:
253,179,9135,1,4,0:0:0:0:
187,140,9497,1,8,0:0:0:0:
187,140,9677,1,8,0:0:0:0:
187,140,9858,1,0,0:0:0:0:
193,152,10219,1,8,0:0:0:0:
193,152,10581,1,0,0:0:0:0:
175,124,10942,1,8,0:0:0:0:
175,124,11123,1,0,0:0:0:0:
124,134,11304,1,0,0:0:0:0:
124,134,11665,1,8,0:0:0:0:
39,138,12027,1,0,0:0:0:0:
229,111,12388,1,8,0:0:0:0:
229,111,12569,1,8,0:0:0:0:
229,111,12750,1,0,0:0:0:0:
226,102,13111,1,8,0:0:0:0:
225,102,13472,1,8,0:0:0:0:
188,98,13653,1,0,0:0:0:0:
188,98,13834,1,8,0:0:0:0:
188,98,14015,1,8,0:0:0:0:
188,98,14195,1,8,0:0:0:0:
233,172,14918,1,8,0:0:0:0:
239,169,15280,1,0,0:0:0:0:
239,169,15641,1,8,0:0:0:0:
163,173,16003,1,0,0:0:0:0:
255,124,16183,1,8,0:0:0:0:
255,124,16364,1,8,0:0:0:0:
211,124,16726,1,0,0:0:0:0:
226,104,17087,1,8,0:0:0:0:
175,133,17810,1,0,0:0:0:0:
107,111,18171,1,8,0:0:0:0:
107,111,18352,1,8,0:0:0:0:
107,111,18533,1,0,0:0:0:0:
156,110,18894,1,0,0:0:0:0:
156,110,19075,1,8,0:0:0:0:
156,110,19256,1,0,0:0:0:0:
103,124,19617,1,0,0:0:0:0:
103,124,19979,1,8,0:0:0:0:
168,169,20701,1,8,0:0:0:0:
198,142,21063,1,0,0:0:0:0:
198,142,21424,1,8,0:0:0:0:
216,135,21786,1,0,0:0:0:0:
146,128,21967,1,8,0:0:0:0:
216,135,22147,1,8,0:0:0:0:
255,132,22509,1,8,0:0:0:0:
255,132,22870,1,0,0:0:0:0:
237,133,23593,1,0,0:0:0:0:
237,133,23954,1,8,0:0:0:0:
237,133,24135,1,0,0:0:0:0:
237,133,24316,1,0,0:0:0:0:
219,130,24677,1,8,0:0:0:0:
218,130,24858,1,8,0:0:0:0:
218,130,25039,1,0,0:0:0:0:
163,124,25400,1,0,0:0:0:0:
163,124,25762,1,8,0:0:0:0:
201,162,26485,1,8,0:0:0:0:
201,162,26665,1,8,0:0:0:0:
201,162,26846,1,0,0:0:0:0:
185,161,27207,1,8,0:0:0:0:
185,161,27388,1,8,0:0:0:0:
184,161,27569,1,0,0:0:0:0:
160,126,27930,1,8,0:0:0:0:
160,126,28111,1,0,0:0:0:0:
160,126,28292,1,8,0:0:0:0:
204,129,28653,1,0,0:0:0:0:
201,162,29376,1,8,0:0:0:0:
201,162,29556,1,8,0:0:0:0:
201,162,29737,1,0,0:0:0:0:
185,161,30099,1,8,0:0:0:0:
185,161,30279,1,0,0:0:0:0:
184,161,30460,1,8,0:0:0:0:
160,126,30821,1,0,0:0:0:0:
160,126,31002,1,0,0:0:0:0:
160,126,31183,1,0,0:0:0:0:
204,129,31544,1,8,0:0:0:0:
201,162,32268,1,8,0:0:0:0:
201,162,32448,1,8,0:0:0:0:
201,162,32629,1,0,0:0:0:0:
185,161,32990,1,8,0:0:0:0:
185,161,33171,1,8,0:0:0:0:
184,161,33352,1,0,0:0:0:0:
160,126,33713,1,0,0:0:0:0:
160,126,33894,1,8,0:0:0:0:
160,126,34075,1,8,0:0:0:0:
204,129,34436,1,0,0:0:0:0:
201,162,35159,1,8,0:0:0:0:
201,162,35339,1,8,0:0:0:0:
201,162,35520,1,0,0:0:0:0:
185,161,35881,1,8,0:0:0:0:
185,161,36062,1,0,0:0:0:0:
184,161,36244,1,8,0:0:0:0:
257,144,36605,1,0,0:0:0:0:
344,164,36967,1,0,0:0:0:0:
344,164,37328,1,8,0:0:0:0:
344,164,37689,1,8,0:0:0:0:
344,164,38051,1,0,0:0:0:0:
141,155,39497,1,4,0:0:0:0:
141,155,39858,1,4,0:0:0:0:
141,155,40220,1,4,0:0:0:0:
168,163,40942,1,0,0:0:0:0:
180,162,41304,1,8,0:0:0:0:
179,162,41665,1,0,0:0:0:0:
105,162,41846,1,8,0:0:0:0:
105,162,42027,1,8,0:0:0:0:
177,120,42388,1,0,0:0:0:0:
177,120,42750,1,0,0:0:0:0:
183,130,43111,1,8,0:0:0:0:
168,163,43834,1,0,0:0:0:0:
180,162,44196,1,8,0:0:0:0:
341,142,44376,1,8,0:0:0:0:
179,162,44557,1,0,0:0:0:0:
105,162,44919,1,0,0:0:0:0:
177,120,45280,1,8,0:0:0:0:
172,112,45460,1,0,0:0:0:0:
177,120,45642,1,0,0:0:0:0:
183,130,46003,1,8,0:0:0:0:
168,163,46726,1,8,0:0:0:0:
180,162,47088,1,0,0:0:0:0:
179,162,47448,1,8,0:0:0:0:
105,162,47630,1,0,0:0:0:0:
105,162,47811,1,8,0:0:0:0:
177,120,48172,1,0,0:0:0:0:
177,120,48534,1,0,0:0:0:0:
183,130,48895,1,8,0:0:0:0:
168,163,49617,1,0,0:0:0:0:
180,162,49979,1,8,0:0:0:0:
105,162,50159,1,8,0:0:0:0:
179,162,50340,1,0,0:0:0:0:
105,162,50702,1,8,0:0:0:0:
212,122,50882,1,0,0:0:0:0:
177,120,51063,1,8,0:0:0:0:
177,120,51425,1,8,0:0:0:0:
183,130,51786,1,0,0:0:0:0:
250,211,52509,1,12,0:0:0:0:
255,206,52870,1,0,0:0:0:0:
119,135,53232,1,8,0:0:0:0:
119,135,53412,1,8,0:0:0:0:
119,135,53593,1,0,0:0:0:0:
201,117,53954,1,0,0:0:0:0:
205,111,54135,1,8,0:0:0:0:
74,129,54497,1,8,0:0:0:0:
74,129,54677,1,8,0:0:0:0:
66,124,54858,1,0,0:0:0:0:
74,129,55039,1,0,0:0:0:0:
247,159,55400,1,8,0:0:0:0:
152,134,55762,1,0,0:0:0:0:
152,134,55942,1,8,0:0:0:0:
169,134,56304,1,8,0:0:0:0:
169,133,56665,1,8,0:0:0:0:
47,127,57027,1,0,0:0:0:0:
47,127,57207,1,8,0:0:0:0:
47,127,57388,1,8,0:0:0:0:
47,127,57569,1,0,0:0:0:0:
226,148,58292,1,12,0:0:0:0:
187,107,58653,1,0,0:0:0:0:
137,112,59015,1,8,0:0:0:0:
137,112,59376,1,0,0:0:0:0:
246,169,59738,1,0,0:0:0:0:
246,169,59918,1,8,0:0:0:0:
191,159,60280,1,8,0:0:0:0:
191,159,60460,1,8,0:0:0:0:
191,159,60822,1,0,0:0:0:0:
213,167,61003,1,0,0:0:0:0:
194,149,61183,1,8,0:0:0:0:
183,151,61545,1,0,0:0:0:0:
183,151,61726,1,8,0:0:0:0:
231,138,62087,1,8,0:0:0:0:
231,138,62448,1,8,0:0:0:0:
197,124,62629,1,0,0:0:0:0:
86,129,62991,1,0,0:0:0:0:
86,129,63171,1,0,0:0:0:0:
86,129,63352,1,8,0:0:0:0:
219,124,63714,1,8,0:0:0:0:
219,124,64075,1,0,0:0:0:0:
190,192,65521,1,8,0:0:0:0:
190,192,65701,1,8,0:0:0:0:
190,192,65882,1,8,0:0:0:0:
190,192,66063,1,8,0:0:0:0:
253,179,66967,1,4,0:0:0:0:
187,140,67329,1,8,0:0:0:0:
187,140,67509,1,8,0:0:0:0:
187,140,67690,1,0,0:0:0:0:
193,152,68051,1,8,0:0:0:0:
193,152,68413,1,0,0:0:0:0:
175,124,68774,1,8,0:0:0:0:
175,124,68954,1,0,0:0:0:0:
124,134,69136,1,0,0:0:0:0:
124,134,69497,1,8,0:0:0:0:
39,138,69858,1,0,0:0:0:0:
229,111,70220,1,8,0:0:0:0:
229,111,70401,1,8,0:0:0:0:
229,111,70582,1,0,0:0:0:0:
226,102,70943,1,8,0:0:0:0:
225,102,71304,1,8,0:0:0:0:
188,98,71485,1,0,0:0:0:0:
188,98,71666,1,8,0:0:0:0:
188,98,71847,1,0,0:0:0:0:
188,98,72027,1,8,0:0:0:0:
253,179,72750,1,4,0:0:0:0:
187,140,73112,1,8,0:0:0:0:
187,140,73292,1,8,0:0:0:0:
187,140,73473,1,0,0:0:0:0:
193,152,73834,1,8,0:0:0:0:
193,152,74196,1,0,0:0:0:0:
175,124,74557,1,8,0:0:0:0:
175,124,74738,1,0,0:0:0:0:
124,134,74919,1,0,0:0:0:0:
124,134,75280,1,8,0:0:0:0:
39,138,75642,1,0,0:0:0:0:
229,111,76003,1,8,0:0:0:0:
229,111,76184,1,8,0:0:0:0:
229,111,76365,1,0,0:0:0:0:
226,102,76726,1,8,0:0:0:0:
225,102,77087,1,8,0:0:0:0:
188,98,77268,1,8,0:0:0:0:
188,98,77449,1,8,0:0:0:0:
188,98,77630,1,0,0:0:0:0:
188,98,77810,1,8,0:0:0:0:
250,206,78533,1,0,0:0:0:0:
250,206,78714,1,0,0:0:0:0:
250,206,78894,1,8,0:0:0:0:
218,161,79256,1,8,0:0:0:0:
218,161,79436,1,8,0:0:0:0:
218,161,79617,1,0,0:0:0:0:
244,147,79979,1,8,0:0:0:0:
244,147,80340,1,0,0:0:0:0:
207,107,80701,1,8,0:0:0:0:
207,107,81063,1,8,0:0:0:0:
141,131,81424,1,0,0:0:0:0:
141,131,81605,1,0,0:0:0:0:
141,131,81786,1,8,0:0:0:0:
152,124,82147,1,8,0:0:0:0:
150,124,82328,1,8,0:0:0:0:
150,124,82509,1,0,0:0:0:0:
184,104,82870,1,0,0:0:0:0:
190,105,83232,1,0,0:0:0:0:
189,105,83593,1,8,0:0:0:0:
208,189,84316,1,8,0:0:0:0:
208,189,84497,1,0,0:0:0:0:
208,189,84677,1,0,0:0:0:0:
219,172,85039,1,8,0:0:0:0:
219,172,85220,1,8,0:0:0:0:
219,172,85400,1,8,0:0:0:0:
236,158,85762,1,0,0:0:0:0:
237,158,86123,1,0,0:0:0:0:
203,118,86485,1,8,0:0:0:0:
203,118,86846,1,8,0:0:0:0:
209,114,87207,1,0,0:0:0:0:
209,116,87388,1,0,0:0:0:0:
209,116,87569,1,0,0:0:0:0:
212,117,87930,1,8,0:0:0:0:
212,117,88111,1,8,0:0:0:0:
209,116,88292,1,8,0:0:0:0:
247,160,88653,1,0,0:0:0:0:
247,160,89015,1,0,0:0:0:0:
150,154,89376,1,8,0:0:0:0:
220,156,90099,1,4,0:0:0:0:
215,152,90460,1,8,0:0:0:0:
212,149,90822,1,8,0:0:0:0:
212,149,91003,1,8,0:0:0:0:
215,152,91183,1,0,0:0:0:0:
259,126,91545,1,8,0:0:0:0:
259,126,91906,1,8,0:0:0:0:
259,126,92268,1,0,0:0:0:0:
262,106,92991,1,8,0:0:0:0:
262,91,93352,1,0,0:0:0:0:
262,91,93533,1,0,0:0:0:0:
262,91,93714,1,8,0:0:0:0:
201,99,94075,1,8,0:0:0:0:
223,82,94436,1,0,0:0:0:0:
206,104,94617,1,8,0:0:0:0:
206,104,94798,1,0,0:0:0:0:
206,104,95159,1,8,0:0:0:0:
197,110,95882,1,0,0:0:0:0:
198,104,96244,1,8,0:0:0:0:
198,104,96605,1,8,0:0:0:0:
198,104,96786,1,8,0:0:0:0:
197,104,96967,1,0,0:0:0:0:
254,95,97328,1,8,0:0:0:0:
254,95,97689,1,8,0:0:0:0:
254,95,98051,1,0,0:0:0:0:
254,95,98774,1,0,0:0:0:0:
254,95,99135,1,8,0:0:0:0:
254,95,99316,1,0,0:0:0:0:
254,95,99497,1,8,0:0:0:0:
254,95,99858,1,8,0:0:0:0:
254,95,100039,1,8,0:0:0:0:
254,95,100220,1,0,0:0:0:0:
152,144,100581,1,0,0:0:0:0:
152,144,100942,1,8,0:0:0:0:
250,211,101665,1,12,0:0:0:0:
255,206,102026,1,0,0:0:0:0:
119,135,102388,1,8,0:0:0:0:
119,135,102568,1,8,0:0:0:0:
119,135,102749,1,0,0:0:0:0:
201,117,103110,1,0,0:0:0:0:
205,111,103291,1,8,0:0:0:0:
74,129,103653,1,8,0:0:0:0:
74,129,103833,1,8,0:0:0:0:
66,124,104014,1,0,0:0:0:0:
74,129,104195,1,0,0:0:0:0:
247,159,104556,1,8,0:0:0:0:
152,134,104918,1,0,0:0:0:0:
152,134,105098,1,8,0:0:0:0:
169,134,105460,1,8,0:0:0:0:
169,133,105821,1,8,0:0:0:0:
47,127,106183,1,0,0:0:0:0:
47,127,106363,1,8,0:0:0:0:
47,127,106544,1,8,0:0:0:0:
47,127,106726,1,0,0:0:0:0:
226,148,107448,1,12,0:0:0:0:
187,107,107809,1,0,0:0:0:0:
137,112,108171,1,8,0:0:0:0:
137,112,108532,1,0,0:0:0:0:
246,169,108894,1,0,0:0:0:0:
246,169,109074,1,8,0:0:0:0:
191,159,109436,1,8,0:0:0:0:
191,159,109616,1,8,0:0:0:0:
191,159,109797,1,8,0:0:0:0:
191,159,109978,1,0,0:0:0:0:
213,167,110159,1,0,0:0:0:0:
194,149,110339,1,8,0:0:0:0:
183,151,110701,1,0,0:0:0:0:
183,151,110882,1,8,0:0:0:0:
231,138,111243,1,8,0:0:0:0:
231,138,111604,1,8,0:0:0:0:
197,124,111785,1,0,0:0:0:0:
86,129,112147,1,0,0:0:0:0:
86,129,112327,1,0,0:0:0:0:
86,129,112508,1,8,0:0:0:0:
219,124,112870,1,8,0:0:0:0:
219,124,113231,1,0,0:0:0:0:
234,160,114677,1,0,0:0:0:0:
234,160,114858,1,0,0:0:0:0:
234,160,115039,1,8,0:0:0:0:
234,160,115220,1,8,0:0:0:0:
253,179,116123,1,4,0:0:0:0:
187,140,116485,1,8,0:0:0:0:
187,140,116665,1,8,0:0:0:0:
187,140,116846,1,0,0:0:0:0:
193,152,117207,1,8,0:0:0:0:
193,152,117569,1,0,0:0:0:0:
175,124,117750,1,0,0:0:0:0:
175,124,117930,1,8,0:0:0:0:
124,134,118292,1,0,0:0:0:0:
124,134,118653,1,8,0:0:0:0:
39,138,119015,1,0,0:0:0:0:
229,111,119376,1,8,0:0:0:0:
229,111,119557,1,8,0:0:0:0:
229,111,119738,1,0,0:0:0:0:
226,102,120099,1,8,0:0:0:0:
225,102,120460,1,8,0:0:0:0:
188,98,120641,1,0,0:0:0:0:
188,98,120822,1,8,0:0:0:0:
188,98,121003,1,0,0:0:0:0:
188,98,121183,1,8,0:0:0:0:
253,179,121906,1,4,0:0:0:0:
187,140,122268,1,8,0:0:0:0:
187,140,122448,1,8,0:0:0:0:
187,140,122629,1,0,0:0:0:0:
193,152,122990,1,8,0:0:0:0:
193,152,123352,1,0,0:0:0:0:
175,124,123533,1,8,0:0:0:0:
175,124,123713,1,8,0:0:0:0:
222,134,123894,1,0,0:0:0:0:
124,134,124075,1,8,0:0:0:0:
124,134,124436,1,8,0:0:0:0:
39,138,124798,1,0,0:0:0:0:
229,111,125159,1,8,0:0:0:0:
229,111,125340,1,8,0:0:0:0:
229,111,125521,1,0,0:0:0:0:
226,102,125882,1,8,0:0:0:0:
225,102,126243,1,8,0:0:0:0:
188,98,126605,1,0,0:0:0:0:
188,98,126786,1,0,0:0:0:0:
188,98,126966,1,8,0:0:0:0:
164,102,127147,1,8,0:0:0:0:
163,102,127328,1,0,0:0:0:0:
97,126,127689,1,12,0:0:0:0:
279,249,128232,1,0,0:0:0:0:
279,249,128593,1,0,0:0:0:0:
279,249,128954,1,0,0:0:0:0:
190,157,129135,1,8,0:0:0:0:
279,249,129677,1,0,0:0:0:0:
279,249,130038,1,8,0:0:0:0:
279,249,130399,1,0,0:0:0:0:
190,157,130580,1,8,0:0:0:0:
279,249,131123,1,8,0:0:0:0:
279,249,131484,1,8,0:0:0:0:
279,249,131845,1,8,0:0:0:0:
190,157,132026,1,0,0:0:0:0:
279,249,132569,1,8,0:0:0:0:
279,249,132930,1,8,0:0:0:0:
279,249,133291,1,8,0:0:0:0:
