osu file format v14

[General]
AudioFilename: audio.mp3
AudioLeadIn: 0
PreviewTime: 100039
Countdown: 0
SampleSet: Normal
StackLeniency: 0.7
Mode: 1
LetterboxInBreaks: 0
WidescreenStoryboard: 1

[Editor]
DistanceSpacing: 1.1
BeatDivisor: 4
GridSize: 32
TimelineZoom: 2

[Metadata]
Title:KING
TitleUnicode:KING
Artist:Hoshimachi Suisei
ArtistUnicode:星街‎すいせい
Creator:Maimaing
Version:Ph0eNiiXZ's Muzukashii
Source:
Tags:gumi phoenix phoeniixz Ph0eNiiXZ tadahitotsu lexa14 eriha バーチャルユーチューバー hololive production ホロライブプロダクション hosimati hoshimati hosimachi suichan idol vtuber virtual youtuber singer pop japanese jpop j-pop cover kanaria
BeatmapID:3307200
BeatmapSetID:1617483

[Difficulty]
HPDrainRate:6
CircleSize:2
OverallDifficulty:5
ApproachRate:10
SliderMultiplier:1.4
SliderTickRate:1

[Events]
//Background and Video events
0,0,"KING.jpg",0,80
//Break Periods
//Storyboard Layer 0 (Background)
//Storyboard Layer 1 (Fail)
//Storyboard Layer 2 (Pass)
//Storyboard Layer 3 (Foreground)
//Storyboard Layer 4 (Overlay)
//Storyboard Sound Samples

[TimingPoints]
461,361.44578313253,4,1,0,55,1,0
461,-125,4,1,0,55,0,0
3262,-90.9090909090909,4,1,0,75,0,0
3714,-100,4,1,0,75,0,0
9135,-90.9090909090909,4,1,0,75,0,0
9497,-100,4,1,0,75,0,0
12027,-100,4,1,0,75,0,0
12388,-102.645851656406,4,1,0,75,0,0
12569,-104.02584862215,4,1,0,75,0,0
12750,-105.443457310646,4,1,0,75,0,0
12930,-106.892077545413,4,1,0,75,0,0
13111,-108.389443541522,4,1,0,75,0,0
13473,-111.513655545824,4,1,0,75,0,0
13653,-113.135148234914,4,1,0,75,0,0
13744,-113.972981770833,4,1,0,75,0,0
13834,-114.813903918675,4,1,0,75,0,0
14015,-116.543230423567,4,1,0,75,0,0
14195,-118.315451550224,4,1,0,75,0,0
14557,-122.047930283224,4,1,0,75,0,0
14828,-125,4,1,0,70,0,0
24948,-125,4,1,0,75,0,0
26485,-100,4,1,0,75,0,0
26846,-111.111111111111,4,1,0,75,0,0
38367,-100,4,1,0,65,0,0
39451,-90.9090909090909,4,1,0,80,0,0
39497,-100,4,1,0,80,0,0
39858,-102.56228263184,4,1,0,80,0,0
40220,-105.266992059445,4,1,0,80,0,0
40897,-100,4,1,0,75,0,0
40942,-111.111111111111,4,1,0,75,0,0
52464,-100,4,1,0,80,0,0
52509,-95.2380952380952,4,1,0,80,0,1
52870,-100,4,1,0,80,0,1
58292,-90.9090909090909,4,1,0,80,0,1
58653,-100,4,1,0,80,0,1
64075,-100,4,1,0,80,0,0
65476,-100,4,1,0,85,0,0
65521,-111.111111111111,4,1,0,85,0,0
65701,-113.199665831245,4,1,0,85,0,0
65882,-115.380521554018,4,1,0,85,0,0
66063,-117.647058823529,4,1,0,85,0,0
66921,-90.9090909090909,4,1,0,75,0,0
67328,-100,4,1,0,75,0,0
72750,-90.9090909090909,4,1,0,75,0,0
73111,-100,4,1,0,75,0,0
78488,-95.2380952380952,4,1,0,70,0,0
78894,-105.263157894737,4,1,0,70,0,0
84316,-95.2380952380952,4,1,0,70,0,0
84677,-105.263157894737,4,1,0,70,0,0
90009,-100,4,1,0,75,0,0
90460,-117.64705882353,4,1,0,75,0,0
101620,-100,4,1,0,80,0,0
101665,-95.2380952380952,4,1,0,80,0,1
102027,-100,4,1,0,80,0,1
107448,-90.9090909090909,4,1,0,80,0,1
107810,-100,4,1,0,80,0,1
113232,-100,4,1,0,80,0,0
114632,-100,4,1,0,85,0,0
114677,-111.111111111111,4,1,0,85,0,0
114858,-113.207547169811,4,1,0,85,0,0
115039,-115.384615384615,4,1,0,85,0,0
115220,-117.647058823529,4,1,0,85,0,0
116078,-86.9565217391304,4,1,0,75,0,0
116485,-95.2380952380952,4,1,0,75,0,0
121906,-86.9565217391304,4,1,0,75,0,0
122268,-95.2380952380952,4,1,0,75,0,0
126244,-95.2380952380952,4,1,0,75,0,0
126424,-96.381524095381,4,1,0,75,0,0
126515,-96.9701036808375,4,1,0,75,0,0
126605,-97.5593288998413,4,1,0,75,0,0
126786,-98.7662759304193,4,1,0,75,0,0
126967,-100.003460327347,4,1,0,75,0,0
127147,-101.264935702022,4,1,0,75,0,0
127328,-102.565922560954,4,1,0,75,0,0
127509,-103.900772964228,4,1,0,75,0,0
127689,-105.263157894737,4,1,0,75,0,0
128006,-117.647058823529,4,1,0,65,0,0

[HitObjects]
256,192,461,5,0,0:0:0:0:
256,192,822,1,8,0:0:0:0:
256,192,1003,1,8,0:0:0:0:
256,192,1183,1,0,0:0:0:0:
256,192,1545,1,8,0:0:0:0:
256,192,1906,1,0,0:0:0:0:
256,192,2087,1,8,0:0:0:0:
256,192,2268,1,0,0:0:0:0:
256,192,2448,1,8,0:0:0:0:
256,192,2629,1,0,0:0:0:0:
256,192,3352,1,4,0:0:0:0:
256,192,3714,1,8,0:0:0:0:
256,192,3894,1,8,0:0:0:0:
256,192,4075,1,0,0:0:0:0:
256,192,4256,1,0,0:0:0:0:
256,192,4436,1,8,0:0:0:0:
256,192,4798,1,0,0:0:0:0:
256,192,4979,1,8,0:0:0:0:
256,192,5069,1,8,0:0:0:0:
256,192,5159,1,8,0:0:0:0:
256,192,5340,1,0,0:0:0:0:
256,192,5521,1,8,0:0:0:0:
256,192,5882,1,8,0:0:0:0:
256,192,6244,1,0,0:0:0:0:
256,192,6605,1,8,0:0:0:0:
256,192,6786,1,0,0:0:0:0:
256,192,6967,1,0,0:0:0:0:
256,192,7147,1,0,0:0:0:0:
256,192,7328,1,8,0:0:0:0:
256,192,7689,1,0,0:0:0:0:
256,192,7870,1,8,0:0:0:0:
256,192,7960,1,8,0:0:0:0:
256,192,8051,1,8,0:0:0:0:
256,192,8232,1,8,0:0:0:0:
256,192,8412,1,0,0:0:0:0:
256,192,9135,1,4,0:0:0:0:
256,192,9497,1,8,0:0:0:0:
256,192,9677,1,8,0:0:0:0:
256,192,9858,1,0,0:0:0:0:
256,192,10039,1,8,0:0:0:0:
256,192,10220,1,0,0:0:0:0:
256,192,10581,1,0,0:0:0:0:
256,192,10762,1,8,0:0:0:0:
256,192,10852,1,8,0:0:0:0:
256,192,10942,1,8,0:0:0:0:
256,192,11123,1,0,0:0:0:0:
256,192,11304,1,8,0:0:0:0:
256,192,11665,1,8,0:0:0:0:
256,192,12027,1,0,0:0:0:0:
256,192,12388,1,8,0:0:0:0:
256,192,12569,1,0,0:0:0:0:
256,192,12750,1,8,0:0:0:0:
256,192,12930,1,8,0:0:0:0:
256,192,13111,1,0,0:0:0:0:
256,192,13473,1,0,0:0:0:0:
256,192,13653,1,8,0:0:0:0:
256,192,13744,1,8,0:0:0:0:
256,192,13834,1,8,0:0:0:0:
256,192,14015,1,8,0:0:0:0:
256,192,14195,1,0,0:0:0:0:
256,192,14557,1,0,0:0:0:0:
256,192,14918,1,8,0:0:0:0:
256,192,15460,1,0,0:0:0:0:
256,192,15641,1,0,0:0:0:0:
256,192,16183,1,8,0:0:0:0:
256,192,16545,1,0,0:0:0:0:
256,192,16726,1,8,0:0:0:0:
256,192,17087,1,8,0:0:0:0:
256,192,17448,1,0,0:0:0:0:
256,192,17810,1,8,0:0:0:0:
256,192,18171,1,8,0:0:0:0:
256,192,18352,1,0,0:0:0:0:
256,192,18533,1,0,0:0:0:0:
256,192,18894,1,0,0:0:0:0:
256,192,19075,1,0,0:0:0:0:
256,192,19436,1,0,0:0:0:0:
256,192,19617,1,8,0:0:0:0:
256,192,19979,1,8,0:0:0:0:
256,192,20340,1,0,0:0:0:0:
256,192,20701,1,8,0:0:0:0:
256,192,21424,1,8,0:0:0:0:
256,192,21967,1,0,0:0:0:0:
256,192,22328,1,0,0:0:0:0:
256,192,22509,1,8,0:0:0:0:
256,192,22870,1,8,0:0:0:0:
256,192,23232,1,0,0:0:0:0:
256,192,23593,1,8,0:0:0:0:
256,192,23954,1,8,0:0:0:0:
256,192,24135,1,0,0:0:0:0:
256,192,24316,1,0,0:0:0:0:
256,192,24677,1,0,0:0:0:0:
256,192,24858,1,0,0:0:0:0:
256,192,25220,1,0,0:0:0:0:
256,192,25400,1,8,0:0:0:0:
256,192,25762,1,8,0:0:0:0:
256,192,26485,1,12,0:0:0:0:
256,192,26846,1,8,0:0:0:0:
256,192,27027,1,0,0:0:0:0:
256,192,27207,1,8,0:0:0:0:
256,192,27388,1,0,0:0:0:0:
256,192,27569,1,8,0:0:0:0:
256,192,27930,1,0,0:0:0:0:
256,192,28111,1,8,0:0:0:0:
256,192,28201,1,8,0:0:0:0:
256,192,28292,1,8,0:0:0:0:
256,192,28473,1,0,0:0:0:0:
256,192,28653,1,8,0:0:0:0:
256,192,28924,1,8,0:0:0:0:
256,192,29195,1,0,0:0:0:0:
256,192,29738,1,8,0:0:0:0:
256,192,29918,1,0,0:0:0:0:
256,192,30099,1,0,0:0:0:0:
256,192,30280,1,0,0:0:0:0:
256,192,30460,1,8,0:0:0:0:
256,192,30822,1,0,0:0:0:0:
256,192,31003,1,8,0:0:0:0:
256,192,31093,1,8,0:0:0:0:
256,192,31183,1,8,0:0:0:0:
256,192,31364,1,0,0:0:0:0:
256,192,31545,1,8,0:0:0:0:
256,192,31816,1,8,0:0:0:0:
256,192,32087,1,0,0:0:0:0:
256,192,32629,1,8,0:0:0:0:
256,192,32810,1,8,0:0:0:0:
256,192,32991,1,0,0:0:0:0:
256,192,33171,1,0,0:0:0:0:
256,192,33352,1,8,0:0:0:0:
256,192,33714,1,8,0:0:0:0:
256,192,33894,1,0,0:0:0:0:
256,192,33985,1,0,0:0:0:0:
256,192,34075,1,0,0:0:0:0:
256,192,34256,1,0,0:0:0:0:
256,192,34436,1,8,0:0:0:0:
256,192,34707,1,8,0:0:0:0:
256,192,34979,1,0,0:0:0:0:
256,192,35340,1,0,0:0:0:0:
256,192,35521,1,8,0:0:0:0:
256,192,35701,1,0,0:0:0:0:
256,192,35882,1,8,0:0:0:0:
256,192,36063,1,8,0:0:0:0:
256,192,36244,1,0,0:0:0:0:
256,192,36424,1,0,0:0:0:0:
256,192,36605,1,8,0:0:0:0:
256,192,36967,1,0,0:0:0:0:
256,192,37328,1,8,0:0:0:0:
256,192,37689,1,8,0:0:0:0:
256,192,38051,1,0,0:0:0:0:
256,192,39497,1,12,0:0:0:0:
256,192,39858,1,12,0:0:0:0:
256,192,40220,1,12,0:0:0:0:
256,192,40942,1,0,0:0:0:0:
256,192,41304,1,8,0:0:0:0:
256,192,41485,1,0,0:0:0:0:
256,192,41665,1,8,0:0:0:0:
256,192,41846,1,8,0:0:0:0:
256,192,41936,1,8,0:0:0:0:
256,192,42027,1,8,0:0:0:0:
256,192,42388,1,8,0:0:0:0:
256,192,42569,1,0,0:0:0:0:
256,192,42750,1,8,0:0:0:0:
256,192,42930,1,8,0:0:0:0:
256,192,43111,1,0,0:0:0:0:
256,192,43382,1,8,0:0:0:0:
256,192,43653,1,0,0:0:0:0:
256,192,44195,1,8,0:0:0:0:
256,192,44376,1,0,0:0:0:0:
256,192,44557,1,0,0:0:0:0:
256,192,44738,1,0,0:0:0:0:
256,192,44918,1,8,0:0:0:0:
256,192,45280,1,8,0:0:0:0:
256,192,45460,1,8,0:0:0:0:
256,192,45641,1,0,0:0:0:0:
256,192,45822,1,8,0:0:0:0:
256,192,45912,1,8,0:0:0:0:
256,192,46003,1,8,0:0:0:0:
256,192,46183,1,0,0:0:0:0:
256,192,46364,1,8,0:0:0:0:
256,192,46545,1,8,0:0:0:0:
256,192,47087,1,8,0:0:0:0:
256,192,47268,1,0,0:0:0:0:
256,192,47448,1,8,0:0:0:0:
256,192,47629,1,8,0:0:0:0:
256,192,47720,1,8,0:0:0:0:
256,192,47810,1,8,0:0:0:0:
256,192,48171,1,0,0:0:0:0:
256,192,48352,1,0,0:0:0:0:
256,192,48533,1,8,0:0:0:0:
256,192,48714,1,8,0:0:0:0:
256,192,48894,1,0,0:0:0:0:
256,192,49165,1,8,0:0:0:0:
256,192,49436,1,0,0:0:0:0:
256,192,49979,1,8,0:0:0:0:
256,192,50159,1,8,0:0:0:0:
256,192,50340,1,0,0:0:0:0:
256,192,50521,1,0,0:0:0:0:
256,192,50701,1,8,0:0:0:0:
256,192,50882,1,0,0:0:0:0:
256,192,51063,1,8,0:0:0:0:
256,192,51424,1,8,0:0:0:0:
256,192,51786,1,0,0:0:0:0:
256,192,52147,1,0,0:0:0:0:
256,192,52238,1,0,0:0:0:0:
256,192,52328,1,0,0:0:0:0:
256,192,52509,1,12,0:0:0:0:
256,192,52870,1,0,0:0:0:0:
256,192,53051,1,0,0:0:0:0:
256,192,53232,1,8,0:0:0:0:
256,192,53593,1,0,0:0:0:0:
256,192,54135,1,8,0:0:0:0:
256,192,54497,1,0,0:0:0:0:
256,192,54677,1,8,0:0:0:0:
256,192,54768,1,8,0:0:0:0:
256,192,54858,1,8,0:0:0:0:
256,192,55039,1,0,0:0:0:0:
256,192,55220,1,8,0:0:0:0:
256,192,55400,1,0,0:0:0:0:
256,192,55762,1,0,0:0:0:0:
256,192,55942,1,8,0:0:0:0:
256,192,56304,1,8,0:0:0:0:
256,192,56485,1,0,0:0:0:0:
256,192,56665,1,8,0:0:0:0:
256,192,57027,1,0,0:0:0:0:
256,192,57117,1,0,0:0:0:0:
256,192,57207,1,0,0:0:0:0:
256,192,57388,1,0,0:0:0:0:
256,192,57569,1,8,0:0:0:0:
256,192,57750,1,8,0:0:0:0:
256,192,57930,1,0,0:0:0:0:
256,192,58292,1,12,0:0:0:0:
256,192,58653,1,0,0:0:0:0:
256,192,58834,1,0,0:0:0:0:
256,192,59015,1,8,0:0:0:0:
256,192,59376,1,0,0:0:0:0:
256,192,59918,1,8,0:0:0:0:
256,192,60280,1,0,0:0:0:0:
256,192,60460,1,8,0:0:0:0:
256,192,60551,1,8,0:0:0:0:
256,192,60641,1,8,0:0:0:0:
256,192,60822,1,0,0:0:0:0:
256,192,61003,1,8,0:0:0:0:
256,192,61183,1,0,0:0:0:0:
256,192,61545,1,0,0:0:0:0:
256,192,61726,1,8,0:0:0:0:
256,192,62087,1,8,0:0:0:0:
256,192,62268,1,0,0:0:0:0:
256,192,62448,1,8,0:0:0:0:
256,192,62629,1,0,0:0:0:0:
256,192,62810,1,0,0:0:0:0:
256,192,62900,1,0,0:0:0:0:
256,192,62991,1,0,0:0:0:0:
256,192,63171,1,0,0:0:0:0:
256,192,63352,1,8,0:0:0:0:
256,192,63714,1,8,0:0:0:0:
256,192,64075,1,4,0:0:0:0:
256,192,65521,1,0,0:0:0:0:
256,192,65701,1,0,0:0:0:0:
256,192,65882,1,0,0:0:0:0:
256,192,66063,1,0,0:0:0:0:
256,192,66967,1,4,0:0:0:0:
256,192,67328,1,8,0:0:0:0:
256,192,67509,1,8,0:0:0:0:
256,192,67689,1,0,0:0:0:0:
256,192,67870,1,0,0:0:0:0:
256,192,68051,1,8,0:0:0:0:
256,192,68412,1,0,0:0:0:0:
256,192,68593,1,8,0:0:0:0:
256,192,68683,1,8,0:0:0:0:
256,192,68774,1,8,0:0:0:0:
256,192,68954,1,0,0:0:0:0:
256,192,69135,1,8,0:0:0:0:
256,192,69497,1,8,0:0:0:0:
256,192,69858,1,0,0:0:0:0:
256,192,70220,1,8,0:0:0:0:
256,192,70400,1,0,0:0:0:0:
256,192,70581,1,0,0:0:0:0:
256,192,70762,1,0,0:0:0:0:
256,192,70942,1,8,0:0:0:0:
256,192,71304,1,0,0:0:0:0:
256,192,71485,1,8,0:0:0:0:
256,192,71575,1,8,0:0:0:0:
256,192,71665,1,8,0:0:0:0:
256,192,71846,1,8,0:0:0:0:
256,192,72027,1,0,0:0:0:0:
256,192,72750,1,4,0:0:0:0:
256,192,73111,1,8,0:0:0:0:
256,192,73292,1,8,0:0:0:0:
256,192,73473,1,0,0:0:0:0:
256,192,73653,1,8,0:0:0:0:
256,192,73834,1,0,0:0:0:0:
256,192,74195,1,0,0:0:0:0:
256,192,74376,1,8,0:0:0:0:
256,192,74467,1,8,0:0:0:0:
256,192,74557,1,8,0:0:0:0:
256,192,74738,1,0,0:0:0:0:
256,192,74918,1,8,0:0:0:0:
256,192,75280,1,8,0:0:0:0:
256,192,75641,1,0,0:0:0:0:
256,192,76003,1,8,0:0:0:0:
256,192,76183,1,0,0:0:0:0:
256,192,76364,1,8,0:0:0:0:
256,192,76545,1,8,0:0:0:0:
256,192,76726,1,0,0:0:0:0:
256,192,77087,1,0,0:0:0:0:
256,192,77268,1,8,0:0:0:0:
256,192,77358,1,8,0:0:0:0:
256,192,77448,1,8,0:0:0:0:
256,192,77629,1,8,0:0:0:0:
256,192,77810,1,0,0:0:0:0:
256,192,78533,1,12,0:0:0:0:
256,192,78894,1,8,0:0:0:0:
256,192,79075,1,0,0:0:0:0:
256,192,79256,1,8,0:0:0:0:
256,192,79436,1,8,0:0:0:0:
256,192,79617,1,0,0:0:0:0:
256,192,79979,1,0,0:0:0:0:
256,192,80069,1,0,0:0:0:0:
256,192,80250,1,0,0:0:0:0:
256,192,80340,1,0,0:0:0:0:
256,192,80521,1,0,0:0:0:0:
256,192,80701,1,8,0:0:0:0:
256,192,81063,1,0,0:0:0:0:
256,192,81424,1,0,0:0:0:0:
256,192,81605,1,0,0:0:0:0:
256,192,81786,1,8,0:0:0:0:
256,192,81967,1,0,0:0:0:0:
256,192,82147,1,8,0:0:0:0:
256,192,82328,1,8,0:0:0:0:
256,192,82509,1,0,0:0:0:0:
256,192,82870,1,0,0:0:0:0:
256,192,82960,1,0,0:0:0:0:
256,192,83141,1,0,0:0:0:0:
256,192,83232,1,0,0:0:0:0:
256,192,83412,1,8,0:0:0:0:
256,192,83593,1,0,0:0:0:0:
256,192,84316,1,12,0:0:0:0:
256,192,84677,1,0,0:0:0:0:
256,192,84858,1,0,0:0:0:0:
256,192,85039,1,8,0:0:0:0:
256,192,85220,1,8,0:0:0:0:
256,192,85400,1,0,0:0:0:0:
256,192,85762,1,0,0:0:0:0:
256,192,85852,1,0,0:0:0:0:
256,192,86033,1,0,0:0:0:0:
256,192,86123,1,0,0:0:0:0:
256,192,86304,1,0,0:0:0:0:
256,192,86485,1,8,0:0:0:0:
256,192,86846,1,0,0:0:0:0:
256,192,87207,1,8,0:0:0:0:
256,192,87388,1,8,0:0:0:0:
256,192,87569,1,8,0:0:0:0:
256,192,87750,1,0,0:0:0:0:
256,192,87930,1,8,0:0:0:0:
256,192,88111,1,8,0:0:0:0:
256,192,88292,1,8,0:0:0:0:
256,192,88653,1,0,0:0:0:0:
256,192,88744,1,0,0:0:0:0:
256,192,88924,1,0,0:0:0:0:
256,192,89015,1,0,0:0:0:0:
256,192,89195,1,0,0:0:0:0:
256,192,89376,1,8,0:0:0:0:
256,192,89557,1,0,0:0:0:0:
256,192,89738,1,8,0:0:0:0:
256,192,89918,1,8,0:0:0:0:
256,192,90099,1,4,0:0:0:0:
256,192,90460,1,8,0:0:0:0:
256,192,90641,1,0,0:0:0:0:
256,192,90822,1,8,0:0:0:0:
256,192,91003,1,8,0:0:0:0:
256,192,91093,1,8,0:0:0:0:
256,192,91183,1,8,0:0:0:0:
256,192,91545,1,8,0:0:0:0:
256,192,91726,1,0,0:0:0:0:
256,192,91906,1,8,0:0:0:0:
256,192,92087,1,8,0:0:0:0:
256,192,92268,1,0,0:0:0:0:
256,192,92539,1,8,0:0:0:0:
256,192,92810,1,0,0:0:0:0:
256,192,93352,1,8,0:0:0:0:
256,192,93533,1,0,0:0:0:0:
256,192,93714,1,0,0:0:0:0:
256,192,93894,1,0,0:0:0:0:
256,192,94075,1,8,0:0:0:0:
256,192,94436,1,8,0:0:0:0:
256,192,94617,1,8,0:0:0:0:
256,192,94798,1,0,0:0:0:0:
256,192,94979,1,8,0:0:0:0:
256,192,95069,1,8,0:0:0:0:
256,192,95159,1,8,0:0:0:0:
256,192,95340,1,0,0:0:0:0:
256,192,95521,1,8,0:0:0:0:
256,192,95701,1,8,0:0:0:0:
256,192,96244,1,8,0:0:0:0:
256,192,96424,1,0,0:0:0:0:
256,192,96605,1,8,0:0:0:0:
256,192,96786,1,8,0:0:0:0:
256,192,96876,1,8,0:0:0:0:
256,192,96967,1,8,0:0:0:0:
256,192,97328,1,0,0:0:0:0:
256,192,97509,1,0,0:0:0:0:
256,192,97689,1,8,0:0:0:0:
256,192,97870,1,8,0:0:0:0:
256,192,98051,1,0,0:0:0:0:
256,192,98322,1,8,0:0:0:0:
256,192,98593,1,0,0:0:0:0:
256,192,99135,1,8,0:0:0:0:
256,192,99316,1,8,0:0:0:0:
256,192,99497,1,0,0:0:0:0:
256,192,99677,1,0,0:0:0:0:
256,192,99858,1,8,0:0:0:0:
256,192,100039,1,0,0:0:0:0:
256,192,100220,1,8,0:0:0:0:
256,192,100581,1,8,0:0:0:0:
256,192,100942,1,0,0:0:0:0:
256,192,101304,1,0,0:0:0:0:
256,192,101394,1,0,0:0:0:0:
256,192,101485,1,0,0:0:0:0:
256,192,101665,1,12,0:0:0:0:
256,192,102027,1,0,0:0:0:0:
256,192,102207,1,0,0:0:0:0:
256,192,102388,1,8,0:0:0:0:
256,192,102750,1,0,0:0:0:0:
256,192,103292,1,8,0:0:0:0:
256,192,103473,1,8,0:0:0:0:
256,192,103653,1,0,0:0:0:0:
256,192,103834,1,8,0:0:0:0:
256,192,103924,1,8,0:0:0:0:
256,192,104015,1,8,0:0:0:0:
256,192,104195,1,0,0:0:0:0:
256,192,104376,1,8,0:0:0:0:
256,192,104557,1,0,0:0:0:0:
256,192,104918,1,0,0:0:0:0:
256,192,105099,1,8,0:0:0:0:
256,192,105460,1,8,0:0:0:0:
256,192,105641,1,0,0:0:0:0:
256,192,105822,1,8,0:0:0:0:
256,192,106183,1,0,0:0:0:0:
256,192,106274,1,0,0:0:0:0:
256,192,106364,1,0,0:0:0:0:
256,192,106545,1,0,0:0:0:0:
256,192,106726,1,8,0:0:0:0:
256,192,106906,1,8,0:0:0:0:
256,192,107087,1,0,0:0:0:0:
256,192,107448,1,12,0:0:0:0:
256,192,107810,1,0,0:0:0:0:
256,192,107991,1,0,0:0:0:0:
256,192,108171,1,8,0:0:0:0:
256,192,108533,1,0,0:0:0:0:
256,192,109075,1,8,0:0:0:0:
256,192,109256,1,8,0:0:0:0:
256,192,109436,1,0,0:0:0:0:
256,192,109617,1,8,0:0:0:0:
256,192,109707,1,8,0:0:0:0:
256,192,109798,1,8,0:0:0:0:
256,192,109979,1,0,0:0:0:0:
256,192,110159,1,8,0:0:0:0:
256,192,110340,1,0,0:0:0:0:
256,192,110701,1,0,0:0:0:0:
256,192,110882,1,8,0:0:0:0:
256,192,111244,1,8,0:0:0:0:
256,192,111424,1,0,0:0:0:0:
256,192,111605,1,8,0:0:0:0:
256,192,111786,1,0,0:0:0:0:
256,192,111967,1,0,0:0:0:0:
256,192,112057,1,0,0:0:0:0:
256,192,112147,1,0,0:0:0:0:
256,192,112328,1,0,0:0:0:0:
256,192,112509,1,8,0:0:0:0:
256,192,112870,1,8,0:0:0:0:
256,192,113232,1,4,0:0:0:0:
256,192,114677,1,0,0:0:0:0:
256,192,114858,1,0,0:0:0:0:
256,192,115039,1,8,0:0:0:0:
256,192,115220,1,8,0:0:0:0:
256,192,116123,1,12,0:0:0:0:
256,192,116485,1,8,0:0:0:0:
256,192,116665,1,8,0:0:0:0:
256,192,116846,1,0,0:0:0:0:
256,192,117027,1,0,0:0:0:0:
256,192,117207,1,8,0:0:0:0:
256,192,117388,1,8,0:0:0:0:
256,192,117569,1,0,0:0:0:0:
256,192,117750,1,8,0:0:0:0:
256,192,117840,1,8,0:0:0:0:
256,192,117930,1,8,0:0:0:0:
256,192,118111,1,0,0:0:0:0:
256,192,118292,1,8,0:0:0:0:
256,192,118653,1,8,0:0:0:0:
256,192,119015,1,0,0:0:0:0:
256,192,119376,1,8,0:0:0:0:
256,192,119557,1,0,0:0:0:0:
256,192,119738,1,0,0:0:0:0:
256,192,119918,1,0,0:0:0:0:
256,192,120099,1,8,0:0:0:0:
256,192,120280,1,0,0:0:0:0:
256,192,120460,1,8,0:0:0:0:
256,192,120641,1,8,0:0:0:0:
256,192,120732,1,8,0:0:0:0:
256,192,120822,1,8,0:0:0:0:
256,192,121003,1,8,0:0:0:0:
256,192,121183,1,0,0:0:0:0:
256,192,121906,1,4,0:0:0:0:
256,192,122268,1,8,0:0:0:0:
256,192,122448,1,8,0:0:0:0:
256,192,122629,1,0,0:0:0:0:
256,192,122810,1,8,0:0:0:0:
256,192,122991,1,0,0:0:0:0:
256,192,123171,1,0,0:0:0:0:
256,192,123352,1,8,0:0:0:0:
256,192,123533,1,8,0:0:0:0:
256,192,123623,1,8,0:0:0:0:
256,192,123714,1,8,0:0:0:0:
256,192,123894,1,0,0:0:0:0:
256,192,124075,1,8,0:0:0:0:
256,192,124436,1,8,0:0:0:0:
256,192,124798,1,0,0:0:0:0:
256,192,125159,1,8,0:0:0:0:
256,192,125340,1,0,0:0:0:0:
256,192,125521,1,8,0:0:0:0:
256,192,125701,1,8,0:0:0:0:
256,192,125882,1,0,0:0:0:0:
256,192,126244,1,8,0:0:0:0:
256,192,126424,1,8,0:0:0:0:
256,192,126515,1,8,0:0:0:0:
256,192,126605,1,8,0:0:0:0:
256,192,126786,1,0,0:0:0:0:
256,192,126967,1,8,0:0:0:0:
256,192,127147,1,8,0:0:0:0:
256,192,127328,1,0,0:0:0:0:
256,192,127509,1,0,0:0:0:0:
256,192,127689,1,12,0:0:0:0:
256,192,128232,1,8,0:0:0:0:
256,192,128593,1,8,0:0:0:0:
256,192,128954,1,0,0:0:0:0:
256,192,129135,1,8,0:0:0:0:
256,192,129677,1,0,0:0:0:0:
256,192,130039,1,0,0:0:0:0:
256,192,130400,1,0,0:0:0:0:
256,192,130581,1,8,0:0:0:0:
256,192,131123,1,8,0:0:0:0:
256,192,131485,1,8,0:0:0:0:
256,192,131846,1,8,0:0:0:0:
256,192,132027,1,0,0:0:0:0:
256,192,132569,1,0,0:0:0:0:
256,192,132930,1,0,0:0:0:0:
256,192,133111,1,8,0:0:0:0:
256,192,133292,1,0,0:0:0:0:
