osu file format v14

[General]
AudioFilename: audio.mp3
AudioLeadIn: 0
PreviewTime: 100039
Countdown: 0
SampleSet: Normal
StackLeniency: 0.7
Mode: 1
LetterboxInBreaks: 0
WidescreenStoryboard: 0

[Editor]
DistanceSpacing: 1.1
BeatDivisor: 8
GridSize: 32
TimelineZoom: 2.3

[Metadata]
Title:KING
TitleUnicode:KING
Artist:Hoshimachi Suisei
ArtistUnicode:星街‎すいせい
Creator:Maimaing
Version:Inner Oni
Source:
Tags:gumi phoenix phoeniixz Ph0eNiiXZ tadahitotsu lexa14 eriha バーチャルユーチューバー hololive production ホロライブプロダクション hosimati hoshimati hosimachi suichan idol vtuber virtual youtuber singer pop japanese jpop j-pop cover kanaria
BeatmapID:3302489
BeatmapSetID:1617483

[Difficulty]
HPDrainRate:6
CircleSize:5
OverallDifficulty:6
ApproachRate:5
SliderMultiplier:1.4
SliderTickRate:1

[Events]
//Background and Video events
0,0,"KING.jpg",0,80
//Break Periods
//Storyboard Layer 0 (Background)
//Storyboard Layer 1 (Fail)
//Storyboard Layer 2 (Pass)
//Storyboard Layer 3 (Foreground)
//Storyboard Layer 4 (Overlay)
//Storyboard Sound Samples

[TimingPoints]
461,361.44578313253,4,1,0,55,1,0
461,-133.333333333333,4,1,0,55,0,0
3262,-95.2380952380952,4,1,0,75,0,0
14828,-111.111111111111,4,1,0,70,0,0
24948,-108.695652173913,4,1,0,75,0,0
25310,-106.382978723404,4,1,0,75,0,0
25671,-104.166666666667,4,1,0,75,0,0
26033,-102.040816326531,4,1,0,75,0,0
26394,-100,4,1,0,75,0,0
38367,-100,4,1,0,65,0,0
39451,-76.9230769230769,4,1,0,80,0,0
40897,-100,4,1,0,75,0,0
51018,-98.7654320987654,4,1,0,75,0,0
51379,-97.5609756097561,4,1,0,75,0,0
51741,-96.3855421686747,4,1,0,75,0,0
52102,-95.2380952380952,4,1,0,75,0,0
52192,-94.1176470588235,4,1,0,75,0,0
52283,-93.0232558139535,4,1,0,75,0,0
52373,-91.9540229885057,4,1,0,75,0,0
52464,-90.9090909090909,4,1,0,80,0,0
52509,-90.9090909090909,4,1,0,80,0,1
64075,-90.9090909090909,4,1,0,80,0,0
65476,-71.4285714285714,4,1,0,85,0,0
66921,-95.2380952380952,4,1,0,75,0,0
78488,-105.263157894737,4,1,0,70,0,0
90009,-100,4,1,0,75,0,0
100174,-98.7654320987654,4,1,0,75,0,0
100536,-97.5609756097561,4,1,0,75,0,0
100897,-96.3855421686747,4,1,0,75,0,0
101259,-95.2380952380952,4,1,0,75,0,0
101349,-94.1176470588235,4,1,0,75,0,0
101439,-93.0232558139535,4,1,0,75,0,0
101530,-91.9540229885057,4,1,0,75,0,0
101620,-90.9090909090909,4,1,0,80,0,0
101665,-90.9090909090909,4,1,0,80,0,1
113232,-90.9090909090909,4,1,0,80,0,0
114632,-90.9090909090909,4,1,0,85,0,0
116078,-90.9090909090909,4,1,0,75,0,0
128006,-111.111111111111,4,1,0,65,0,0

[HitObjects]
114,173,461,5,0,0:0:0:0:
114,173,822,1,8,0:0:0:0:
114,173,1003,1,8,0:0:0:0:
114,173,1183,1,0,0:0:0:0:
114,173,1364,1,8,0:0:0:0:
114,173,1545,1,0,0:0:0:0:
114,173,1726,1,0,0:0:0:0:
114,173,1906,1,0,0:0:0:0:
114,173,2087,1,8,0:0:0:0:
114,173,2268,1,0,0:0:0:0:
114,173,2448,1,8,0:0:0:0:
114,173,2629,1,0,0:0:0:0:
189,125,3352,1,4,0:0:0:0:
402,185,3623,1,0,0:0:0:0:
396,178,3714,1,8,0:0:0:0:
394,177,3894,1,8,0:0:0:0:
392,177,4075,1,0,0:0:0:0:
394,177,4256,1,8,0:0:0:0:
394,177,4346,1,8,0:0:0:0:
394,178,4436,1,0,0:0:0:0:
217,153,4617,1,8,0:0:0:0:
217,153,4798,1,0,0:0:0:0:
217,153,4979,1,8,0:0:0:0:
217,153,5069,1,0,0:0:0:0:
217,153,5159,1,8,0:0:0:0:
217,153,5250,1,8,0:0:0:0:
222,152,5340,1,0,0:0:0:0:
222,152,5521,1,8,0:0:0:0:
206,148,5701,1,0,0:0:0:0:
217,153,5792,1,0,0:0:0:0:
206,148,5882,1,8,0:0:0:0:
313,172,6063,1,8,0:0:0:0:
140,198,6244,1,0,0:0:0:0:
140,198,6515,1,0,0:0:0:0:
156,208,6605,1,8,0:0:0:0:
156,208,6786,1,8,0:0:0:0:
173,115,6967,1,0,0:0:0:0:
173,115,7147,1,8,0:0:0:0:
173,115,7238,1,8,0:0:0:0:
173,115,7328,1,0,0:0:0:0:
147,201,7509,1,8,0:0:0:0:
147,200,7689,1,0,0:0:0:0:
147,199,7780,1,0,0:0:0:0:
147,199,7870,1,8,0:0:0:0:
147,199,7960,1,8,0:0:0:0:
147,201,8051,1,0,0:0:0:0:
147,201,8232,1,8,0:0:0:0:
252,118,8412,1,0,0:0:0:0:
252,118,8503,1,0,0:0:0:0:
276,120,8593,1,0,0:0:0:0:
276,120,8774,1,8,0:0:0:0:
189,125,9135,1,4,0:0:0:0:
402,185,9406,1,0,0:0:0:0:
396,178,9497,1,8,0:0:0:0:
394,177,9677,1,8,0:0:0:0:
392,177,9858,1,0,0:0:0:0:
394,177,10039,1,8,0:0:0:0:
394,177,10129,1,8,0:0:0:0:
394,178,10219,1,0,0:0:0:0:
217,153,10400,1,8,0:0:0:0:
217,153,10581,1,0,0:0:0:0:
217,153,10762,1,8,0:0:0:0:
217,153,10852,1,0,0:0:0:0:
217,153,10942,1,8,0:0:0:0:
217,153,11033,1,8,0:0:0:0:
222,152,11123,1,0,0:0:0:0:
222,152,11304,1,8,0:0:0:0:
206,148,11484,1,0,0:0:0:0:
217,153,11575,1,0,0:0:0:0:
206,148,11665,1,8,0:0:0:0:
140,198,11846,1,8,0:0:0:0:
140,198,12027,1,0,0:0:0:0:
140,198,12298,1,0,0:0:0:0:
156,208,12388,1,8,0:0:0:0:
156,208,12569,1,8,0:0:0:0:
244,49,12750,1,0,0:0:0:0:
236,41,12840,1,0,0:0:0:0:
173,115,12930,1,8,0:0:0:0:
173,115,13021,1,0,0:0:0:0:
173,115,13111,1,8,0:0:0:0:
147,201,13292,1,8,0:0:0:0:
147,200,13472,1,0,0:0:0:0:
147,199,13563,1,0,0:0:0:0:
147,199,13653,1,8,0:0:0:0:
147,199,13743,1,8,0:0:0:0:
147,201,13834,1,0,0:0:0:0:
147,201,14015,1,8,0:0:0:0:
252,118,14195,1,0,0:0:0:0:
252,118,14286,1,0,0:0:0:0:
276,120,14376,1,0,0:0:0:0:
276,120,14557,1,8,0:0:0:0:
211,130,14918,1,4,0:0:0:0:
216,163,15280,1,8,0:0:0:0:
216,163,15460,1,8,0:0:0:0:
216,163,15641,1,0,0:0:0:0:
216,163,16003,1,0,0:0:0:0:
216,163,16183,1,8,0:0:0:0:
216,163,16364,1,0,0:0:0:0:
216,163,16545,1,8,0:0:0:0:
216,163,16726,1,8,0:0:0:0:
135,98,17087,1,0,0:0:0:0:
135,98,17268,1,8,0:0:0:0:
299,110,17358,1,8,0:0:0:0:
135,98,17448,1,0,0:0:0:0:
135,98,17810,1,8,0:0:0:0:
266,199,18171,1,8,0:0:0:0:
266,199,18352,1,0,0:0:0:0:
266,199,18533,1,0,0:0:0:0:
266,199,18894,1,0,0:0:0:0:
233,151,19075,1,8,0:0:0:0:
233,151,19256,1,0,0:0:0:0:
233,151,19436,1,0,0:0:0:0:
233,151,19617,1,8,0:0:0:0:
121,112,19798,1,0,0:0:0:0:
121,112,19888,1,0,0:0:0:0:
121,112,19979,1,8,0:0:0:0:
121,112,20069,1,8,0:0:0:0:
121,112,20159,1,0,0:0:0:0:
121,112,20250,1,0,0:0:0:0:
106,102,20340,1,8,0:0:0:0:
121,98,20521,1,8,0:0:0:0:
114,98,20701,1,0,0:0:0:0:
314,118,21063,1,0,0:0:0:0:
314,118,21244,1,0,0:0:0:0:
314,118,21424,1,8,0:0:0:0:
314,118,21786,1,0,0:0:0:0:
314,118,21967,1,8,0:0:0:0:
314,118,22147,1,0,0:0:0:0:
314,118,22328,1,8,0:0:0:0:
314,118,22509,1,8,0:0:0:0:
118,143,22870,1,8,0:0:0:0:
306,122,23051,1,0,0:0:0:0:
306,122,23141,1,0,0:0:0:0:
118,143,23232,1,8,0:0:0:0:
118,143,23412,1,8,0:0:0:0:
118,143,23593,1,0,0:0:0:0:
118,143,23954,1,8,0:0:0:0:
118,143,24135,1,0,0:0:0:0:
118,143,24316,1,8,0:0:0:0:
123,143,24677,1,0,0:0:0:0:
123,143,24858,1,8,0:0:0:0:
130,143,25039,1,0,0:0:0:0:
130,143,25400,1,0,0:0:0:0:
130,143,25762,1,8,0:0:0:0:
130,143,26123,1,8,0:0:0:0:
207,103,26485,1,4,0:0:0:0:
207,186,26665,1,0,0:0:0:0:
207,186,26756,1,0,0:0:0:0:
207,186,26846,1,8,0:0:0:0:
207,186,27027,1,0,0:0:0:0:
207,186,27207,1,8,0:0:0:0:
207,186,27388,1,0,0:0:0:0:
207,186,27479,1,8,0:0:0:0:
207,186,27569,1,8,0:0:0:0:
207,186,27750,1,0,0:0:0:0:
207,186,27930,1,8,0:0:0:0:
151,84,28021,1,0,0:0:0:0:
151,84,28111,1,8,0:0:0:0:
151,77,28201,1,8,0:0:0:0:
151,84,28292,1,0,0:0:0:0:
198,179,28473,1,0,0:0:0:0:
319,141,28653,1,8,0:0:0:0:
319,141,28834,1,0,0:0:0:0:
319,141,28924,1,8,0:0:0:0:
319,141,29105,1,8,0:0:0:0:
319,141,29195,1,0,0:0:0:0:
163,168,29376,1,0,0:0:0:0:
163,168,29557,1,8,0:0:0:0:
163,168,29647,1,8,0:0:0:0:
163,168,29738,1,0,0:0:0:0:
163,168,29918,1,0,0:0:0:0:
163,168,30099,1,8,0:0:0:0:
211,111,30280,1,0,0:0:0:0:
211,111,30370,1,0,0:0:0:0:
211,111,30460,1,8,0:0:0:0:
211,111,30551,1,8,0:0:0:0:
211,111,30641,1,0,0:0:0:0:
171,191,30822,1,0,0:0:0:0:
171,191,31003,1,8,0:0:0:0:
171,191,31093,1,8,0:0:0:0:
171,191,31183,1,8,0:0:0:0:
171,191,31364,1,8,0:0:0:0:
338,141,31545,1,0,0:0:0:0:
338,141,31726,1,8,0:0:0:0:
338,141,31816,1,0,0:0:0:0:
338,141,31997,1,0,0:0:0:0:
338,141,32087,1,8,0:0:0:0:
149,151,32268,1,4,0:0:0:0:
248,124,32448,1,0,0:0:0:0:
248,124,32539,1,0,0:0:0:0:
262,126,32629,1,8,0:0:0:0:
262,126,32810,1,0,0:0:0:0:
262,126,32991,1,8,0:0:0:0:
262,126,33171,1,0,0:0:0:0:
262,126,33262,1,8,0:0:0:0:
262,126,33352,1,8,0:0:0:0:
262,126,33533,1,0,0:0:0:0:
138,90,33714,1,8,0:0:0:0:
138,90,33894,1,8,0:0:0:0:
138,90,33985,1,8,0:0:0:0:
138,90,34075,1,0,0:0:0:0:
138,90,34256,1,0,0:0:0:0:
138,90,34436,1,8,0:0:0:0:
138,90,34617,1,8,0:0:0:0:
131,89,34707,1,0,0:0:0:0:
136,94,34888,1,0,0:0:0:0:
136,94,34979,1,8,0:0:0:0:
256,138,35159,1,0,0:0:0:0:
256,138,35340,1,0,0:0:0:0:
256,138,35430,1,0,0:0:0:0:
256,138,35521,1,8,0:0:0:0:
256,138,35701,1,0,0:0:0:0:
256,138,35882,1,8,0:0:0:0:
256,138,35973,1,8,0:0:0:0:
256,138,36063,1,0,0:0:0:0:
358,114,36153,1,0,0:0:0:0:
256,138,36244,1,8,0:0:0:0:
256,138,36424,1,0,0:0:0:0:
256,138,36605,1,8,0:0:0:0:
186,107,36786,1,0,0:0:0:0:
186,107,36876,1,0,0:0:0:0:
191,107,36967,1,8,0:0:0:0:
186,112,37057,1,8,0:0:0:0:
186,107,37147,1,0,0:0:0:0:
186,107,37328,1,8,0:0:0:0:
195,118,37418,1,0,0:0:0:0:
195,118,37509,1,0,0:0:0:0:
195,118,37599,1,0,0:0:0:0:
195,118,37689,1,8,0:0:0:0:
195,118,38051,1,0,0:0:0:0:
251,109,38412,1,8,0:0:0:0:
251,109,38593,1,8,0:0:0:0:
251,109,38774,1,0,0:0:0:0:
251,109,38954,1,8,0:0:0:0:
251,109,39135,1,0,0:0:0:0:
251,109,39316,1,0,0:0:0:0:
251,109,39497,1,12,0:0:0:0:
138,138,39858,1,12,0:0:0:0:
138,138,40220,1,12,0:0:0:0:
219,88,40942,1,0,0:0:0:0:
270,122,41304,1,8,0:0:0:0:
270,122,41394,1,8,0:0:0:0:
261,123,41485,1,0,0:0:0:0:
107,133,41665,1,8,0:0:0:0:
301,49,41846,1,0,0:0:0:0:
107,133,41936,1,8,0:0:0:0:
301,49,42027,1,0,0:0:0:0:
107,133,42207,1,0,0:0:0:0:
371,149,42388,1,8,0:0:0:0:
238,162,42569,1,0,0:0:0:0:
238,162,42659,1,0,0:0:0:0:
371,149,42750,1,8,0:0:0:0:
236,163,42930,1,0,0:0:0:0:
371,149,43111,1,8,0:0:0:0:
236,163,43201,1,0,0:0:0:0:
238,162,43292,1,0,0:0:0:0:
371,149,43382,1,8,0:0:0:0:
199,57,43563,1,0,0:0:0:0:
371,149,43653,1,8,0:0:0:0:
227,81,43834,1,0,0:0:0:0:
227,81,44195,1,0,0:0:0:0:
227,81,44286,1,0,0:0:0:0:
227,81,44376,1,8,0:0:0:0:
227,81,44557,1,0,0:0:0:0:
172,47,44738,1,8,0:0:0:0:
227,81,44828,1,0,0:0:0:0:
194,42,44918,1,8,0:0:0:0:
227,81,45099,1,0,0:0:0:0:
371,149,45280,1,8,0:0:0:0:
171,55,45370,1,8,0:0:0:0:
176,140,45460,1,0,0:0:0:0:
371,149,45641,1,8,0:0:0:0:
176,140,45822,1,0,0:0:0:0:
53,159,45882,1,0,0:0:0:0:
85,161,45942,1,0,0:0:0:0:
371,149,46003,1,8,0:0:0:0:
191,202,46183,1,0,0:0:0:0:
371,149,46364,1,8,0:0:0:0:
371,149,46545,1,8,0:0:0:0:
195,197,46726,1,0,0:0:0:0:
270,122,47087,1,8,0:0:0:0:
270,122,47177,1,8,0:0:0:0:
261,123,47268,1,0,0:0:0:0:
107,133,47448,1,8,0:0:0:0:
301,49,47629,1,0,0:0:0:0:
107,133,47719,1,8,0:0:0:0:
301,49,47810,1,0,0:0:0:0:
107,133,47990,1,0,0:0:0:0:
371,149,48171,1,8,0:0:0:0:
238,162,48352,1,0,0:0:0:0:
238,162,48442,1,0,0:0:0:0:
371,149,48533,1,8,0:0:0:0:
236,163,48713,1,0,0:0:0:0:
371,149,48894,1,8,0:0:0:0:
236,163,48984,1,0,0:0:0:0:
238,162,49075,1,0,0:0:0:0:
371,149,49165,1,8,0:0:0:0:
199,57,49346,1,0,0:0:0:0:
371,149,49436,1,8,0:0:0:0:
227,81,49617,1,0,0:0:0:0:
337,94,49979,1,8,0:0:0:0:
339,71,50069,1,8,0:0:0:0:
339,71,50159,1,0,0:0:0:0:
337,94,50340,1,8,0:0:0:0:
294,77,50521,1,0,0:0:0:0:
337,94,50611,1,0,0:0:0:0:
294,77,50701,1,8,0:0:0:0:
294,77,50882,1,8,0:0:0:0:
301,81,51063,1,4,0:0:0:0:
148,141,51424,1,4,0:0:0:0:
148,141,51786,1,12,0:0:0:0:
226,220,52147,1,8,0:0:0:0:
226,220,52238,1,0,0:0:0:0:
226,220,52328,1,0,0:0:0:0:
226,220,52418,1,0,0:0:0:0:
226,220,52509,1,12,0:0:0:0:
276,117,52689,1,0,0:0:0:0:
276,117,52780,1,0,0:0:0:0:
276,117,52870,1,8,0:0:0:0:
276,117,52960,1,0,0:0:0:0:
161,168,53141,1,0,0:0:0:0:
276,117,53232,1,8,0:0:0:0:
281,119,53322,1,8,0:0:0:0:
285,119,53412,1,0,0:0:0:0:
286,120,53503,1,0,0:0:0:0:
281,119,53593,1,8,0:0:0:0:
276,117,53774,1,8,0:0:0:0:
276,117,53954,1,0,0:0:0:0:
276,117,54135,1,8,0:0:0:0:
292,117,54226,1,8,0:0:0:0:
311,129,54316,1,8,0:0:0:0:
306,128,54497,1,0,0:0:0:0:
88,152,54677,1,0,0:0:0:0:
324,136,54768,1,0,0:0:0:0:
88,152,54858,1,8,0:0:0:0:
88,152,54948,1,0,0:0:0:0:
88,152,55039,1,8,0:0:0:0:
88,152,55220,1,8,0:0:0:0:
336,188,55400,1,0,0:0:0:0:
336,188,55581,1,0,0:0:0:0:
128,125,55671,1,0,0:0:0:0:
128,125,55762,1,0,0:0:0:0:
209,149,55942,1,8,0:0:0:0:
209,149,56123,1,0,0:0:0:0:
209,149,56214,1,0,0:0:0:0:
211,153,56304,1,8,0:0:0:0:
212,153,56485,1,0,0:0:0:0:
212,153,56665,1,8,0:0:0:0:
144,151,56846,1,0,0:0:0:0:
144,151,57027,1,8,0:0:0:0:
144,151,57117,1,0,0:0:0:0:
144,151,57207,1,8,0:0:0:0:
144,151,57298,1,8,0:0:0:0:
144,151,57388,1,0,0:0:0:0:
294,123,57569,1,8,0:0:0:0:
294,123,57659,1,8,0:0:0:0:
294,123,57750,1,8,0:0:0:0:
294,123,57930,1,0,0:0:0:0:
369,76,58292,1,12,0:0:0:0:
363,193,58473,1,0,0:0:0:0:
363,193,58563,1,0,0:0:0:0:
363,193,58653,1,8,0:0:0:0:
363,193,58744,1,0,0:0:0:0:
363,188,58924,1,0,0:0:0:0:
362,187,59015,1,8,0:0:0:0:
346,190,59105,1,8,0:0:0:0:
388,195,59195,1,0,0:0:0:0:
387,195,59286,1,0,0:0:0:0:
386,195,59376,1,8,0:0:0:0:
248,133,59557,1,8,0:0:0:0:
248,133,59738,1,0,0:0:0:0:
248,133,59918,1,8,0:0:0:0:
248,133,60009,1,8,0:0:0:0:
259,136,60099,1,8,0:0:0:0:
259,135,60280,1,0,0:0:0:0:
259,135,60460,1,0,0:0:0:0:
259,135,60551,1,8,0:0:0:0:
271,148,60641,1,0,0:0:0:0:
271,148,60732,1,0,0:0:0:0:
271,148,60822,1,8,0:0:0:0:
271,147,61003,1,8,0:0:0:0:
248,71,61183,1,0,0:0:0:0:
258,79,61364,1,0,0:0:0:0:
258,79,61454,1,0,0:0:0:0:
249,102,61545,1,0,0:0:0:0:
258,78,61726,1,8,0:0:0:0:
258,77,61906,1,0,0:0:0:0:
258,77,61997,1,0,0:0:0:0:
258,78,62087,1,8,0:0:0:0:
258,79,62268,1,0,0:0:0:0:
258,79,62448,1,8,0:0:0:0:
254,163,62629,1,0,0:0:0:0:
254,163,62810,1,8,0:0:0:0:
261,163,62900,1,0,0:0:0:0:
298,178,62991,1,8,0:0:0:0:
298,178,63171,1,8,0:0:0:0:
298,178,63352,1,0,0:0:0:0:
298,178,63714,1,8,0:0:0:0:
298,178,64075,1,4,0:0:0:0:
238,134,65521,1,4,0:0:0:0:
238,134,65701,1,4,0:0:0:0:
238,134,65882,1,4,0:0:0:0:
238,134,66063,1,4,0:0:0:0:
189,125,66967,1,4,0:0:0:0:
402,185,67238,1,0,0:0:0:0:
396,178,67329,1,8,0:0:0:0:
394,177,67509,1,8,0:0:0:0:
392,177,67690,1,0,0:0:0:0:
394,177,67871,1,8,0:0:0:0:
394,177,67961,1,8,0:0:0:0:
394,178,68051,1,0,0:0:0:0:
217,153,68232,1,8,0:0:0:0:
217,153,68413,1,0,0:0:0:0:
217,153,68594,1,8,0:0:0:0:
217,153,68684,1,0,0:0:0:0:
217,153,68774,1,8,0:0:0:0:
217,153,68865,1,8,0:0:0:0:
222,152,68955,1,0,0:0:0:0:
222,152,69136,1,8,0:0:0:0:
206,148,69316,1,0,0:0:0:0:
217,153,69407,1,0,0:0:0:0:
206,148,69497,1,8,0:0:0:0:
140,198,69678,1,8,0:0:0:0:
140,198,69859,1,0,0:0:0:0:
140,198,70130,1,0,0:0:0:0:
156,208,70220,1,8,0:0:0:0:
156,208,70401,1,8,0:0:0:0:
173,115,70582,1,0,0:0:0:0:
173,115,70762,1,8,0:0:0:0:
173,115,70853,1,8,0:0:0:0:
173,115,70943,1,0,0:0:0:0:
147,201,71124,1,8,0:0:0:0:
147,200,71304,1,0,0:0:0:0:
147,199,71395,1,0,0:0:0:0:
147,199,71485,1,8,0:0:0:0:
147,199,71575,1,8,0:0:0:0:
147,201,71666,1,0,0:0:0:0:
147,201,71847,1,8,0:0:0:0:
252,118,72027,1,0,0:0:0:0:
252,118,72118,1,0,0:0:0:0:
276,120,72208,1,0,0:0:0:0:
276,120,72389,1,8,0:0:0:0:
189,125,72750,1,4,0:0:0:0:
402,185,73021,1,0,0:0:0:0:
396,178,73112,1,8,0:0:0:0:
394,177,73292,1,8,0:0:0:0:
392,177,73473,1,0,0:0:0:0:
394,177,73654,1,8,0:0:0:0:
394,177,73744,1,8,0:0:0:0:
394,178,73834,1,0,0:0:0:0:
217,153,74015,1,8,0:0:0:0:
217,153,74196,1,0,0:0:0:0:
217,153,74377,1,8,0:0:0:0:
217,153,74467,1,0,0:0:0:0:
217,153,74557,1,8,0:0:0:0:
217,153,74648,1,8,0:0:0:0:
222,152,74738,1,0,0:0:0:0:
222,152,74919,1,8,0:0:0:0:
206,148,75099,1,0,0:0:0:0:
217,153,75190,1,0,0:0:0:0:
206,148,75280,1,8,0:0:0:0:
140,198,75461,1,8,0:0:0:0:
140,198,75642,1,0,0:0:0:0:
140,198,75913,1,0,0:0:0:0:
156,208,76003,1,8,0:0:0:0:
156,208,76184,1,8,0:0:0:0:
244,49,76365,1,0,0:0:0:0:
236,41,76455,1,0,0:0:0:0:
173,115,76545,1,8,0:0:0:0:
173,115,76636,1,0,0:0:0:0:
173,115,76726,1,8,0:0:0:0:
147,201,76907,1,8,0:0:0:0:
147,200,77087,1,0,0:0:0:0:
147,199,77178,1,0,0:0:0:0:
147,199,77268,1,8,0:0:0:0:
147,199,77358,1,8,0:0:0:0:
147,201,77449,1,0,0:0:0:0:
147,201,77630,1,8,0:0:0:0:
252,118,77810,1,0,0:0:0:0:
252,118,77901,1,0,0:0:0:0:
276,120,77991,1,0,0:0:0:0:
276,120,78172,1,8,0:0:0:0:
214,127,78533,1,12,0:0:0:0:
214,127,78714,1,0,0:0:0:0:
215,121,78804,1,8,0:0:0:0:
283,133,78894,1,8,0:0:0:0:
279,130,79075,1,0,0:0:0:0:
279,129,79256,1,8,0:0:0:0:
296,117,79346,1,0,0:0:0:0:
297,133,79436,1,0,0:0:0:0:
294,129,79617,1,8,0:0:0:0:
135,134,79979,1,0,0:0:0:0:
117,115,80069,1,8,0:0:0:0:
135,134,80159,1,8,0:0:0:0:
135,134,80250,1,0,0:0:0:0:
123,124,80340,1,8,0:0:0:0:
117,115,80521,1,0,0:0:0:0:
117,115,80701,1,8,0:0:0:0:
117,115,80792,1,8,0:0:0:0:
141,124,80882,1,0,0:0:0:0:
141,124,81063,1,8,0:0:0:0:
141,124,81153,1,0,0:0:0:0:
138,126,81244,1,8,0:0:0:0:
239,138,81424,1,8,0:0:0:0:
239,138,81605,1,0,0:0:0:0:
239,138,81695,1,0,0:0:0:0:
259,148,81786,1,8,0:0:0:0:
261,150,81967,1,0,0:0:0:0:
261,150,82147,1,8,0:0:0:0:
261,150,82238,1,8,0:0:0:0:
261,150,82328,1,0,0:0:0:0:
261,149,82509,1,8,0:0:0:0:
110,192,82870,1,0,0:0:0:0:
103,187,82960,1,8,0:0:0:0:
192,216,83051,1,0,0:0:0:0:
211,222,83141,1,0,0:0:0:0:
211,222,83232,1,8,0:0:0:0:
215,223,83412,1,0,0:0:0:0:
213,223,83593,1,8,0:0:0:0:
213,222,83683,1,8,0:0:0:0:
232,242,83774,1,8,0:0:0:0:
232,242,83954,1,0,0:0:0:0:
346,143,84316,1,4,0:0:0:0:
190,132,84497,1,8,0:0:0:0:
172,114,84587,1,0,0:0:0:0:
212,139,84677,1,8,0:0:0:0:
71,85,84858,1,8,0:0:0:0:
71,85,85039,1,0,0:0:0:0:
76,86,85129,1,0,0:0:0:0:
84,91,85220,1,0,0:0:0:0:
85,91,85400,1,8,0:0:0:0:
279,148,85762,1,0,0:0:0:0:
279,148,85852,1,8,0:0:0:0:
292,143,85942,1,8,0:0:0:0:
292,143,86033,1,0,0:0:0:0:
291,139,86123,1,8,0:0:0:0:
291,139,86214,1,8,0:0:0:0:
291,139,86304,1,0,0:0:0:0:
291,139,86485,1,8,0:0:0:0:
90,117,86665,1,0,0:0:0:0:
291,140,86756,1,0,0:0:0:0:
90,117,86846,1,8,0:0:0:0:
90,117,86936,1,0,0:0:0:0:
90,117,87027,1,8,0:0:0:0:
117,126,87207,1,8,0:0:0:0:
112,123,87388,1,0,0:0:0:0:
111,123,87479,1,0,0:0:0:0:
153,97,87569,1,8,0:0:0:0:
111,124,87750,1,0,0:0:0:0:
105,124,87930,1,8,0:0:0:0:
105,122,88021,1,0,0:0:0:0:
106,124,88111,1,8,0:0:0:0:
103,124,88201,1,0,0:0:0:0:
109,103,88292,1,8,0:0:0:0:
254,129,88653,1,0,0:0:0:0:
254,129,88744,1,8,0:0:0:0:
254,129,88924,1,0,0:0:0:0:
254,129,89015,1,8,0:0:0:0:
347,178,89195,1,0,0:0:0:0:
259,129,89376,1,8,0:0:0:0:
308,144,89467,1,0,0:0:0:0:
341,179,89557,1,0,0:0:0:0:
341,179,89738,1,8,0:0:0:0:
341,179,89918,1,8,0:0:0:0:
219,88,90099,1,4,0:0:0:0:
270,122,90461,1,8,0:0:0:0:
270,122,90551,1,8,0:0:0:0:
261,123,90642,1,0,0:0:0:0:
107,133,90822,1,8,0:0:0:0:
301,49,91003,1,0,0:0:0:0:
107,133,91093,1,8,0:0:0:0:
301,49,91184,1,0,0:0:0:0:
107,133,91364,1,0,0:0:0:0:
371,149,91545,1,8,0:0:0:0:
238,162,91726,1,0,0:0:0:0:
238,162,91816,1,0,0:0:0:0:
371,149,91907,1,8,0:0:0:0:
236,163,92087,1,0,0:0:0:0:
371,149,92268,1,8,0:0:0:0:
236,163,92358,1,0,0:0:0:0:
238,162,92449,1,0,0:0:0:0:
371,149,92539,1,8,0:0:0:0:
199,57,92720,1,0,0:0:0:0:
371,149,92810,1,8,0:0:0:0:
227,81,92991,1,0,0:0:0:0:
227,81,93352,1,0,0:0:0:0:
227,81,93443,1,0,0:0:0:0:
227,81,93533,1,8,0:0:0:0:
227,81,93714,1,0,0:0:0:0:
172,47,93895,1,8,0:0:0:0:
227,81,93985,1,0,0:0:0:0:
194,42,94075,1,8,0:0:0:0:
227,81,94256,1,0,0:0:0:0:
371,149,94437,1,8,0:0:0:0:
171,55,94527,1,8,0:0:0:0:
176,140,94617,1,0,0:0:0:0:
371,149,94798,1,8,0:0:0:0:
176,140,94979,1,0,0:0:0:0:
53,159,95039,1,0,0:0:0:0:
85,161,95099,1,0,0:0:0:0:
371,149,95160,1,8,0:0:0:0:
191,202,95340,1,0,0:0:0:0:
371,149,95521,1,8,0:0:0:0:
371,149,95702,1,8,0:0:0:0:
195,197,95882,1,0,0:0:0:0:
270,122,96244,1,8,0:0:0:0:
270,122,96334,1,8,0:0:0:0:
261,123,96425,1,0,0:0:0:0:
107,133,96605,1,8,0:0:0:0:
301,49,96786,1,0,0:0:0:0:
107,133,96876,1,8,0:0:0:0:
301,49,96967,1,0,0:0:0:0:
107,133,97147,1,0,0:0:0:0:
371,149,97328,1,8,0:0:0:0:
238,162,97509,1,0,0:0:0:0:
238,162,97599,1,0,0:0:0:0:
371,149,97690,1,8,0:0:0:0:
236,163,97870,1,0,0:0:0:0:
371,149,98051,1,8,0:0:0:0:
236,163,98141,1,0,0:0:0:0:
238,162,98232,1,0,0:0:0:0:
371,149,98322,1,8,0:0:0:0:
199,57,98503,1,0,0:0:0:0:
371,149,98593,1,8,0:0:0:0:
227,81,98774,1,0,0:0:0:0:
337,94,99136,1,8,0:0:0:0:
339,71,99226,1,8,0:0:0:0:
339,71,99316,1,0,0:0:0:0:
337,94,99497,1,8,0:0:0:0:
294,77,99678,1,0,0:0:0:0:
337,94,99768,1,0,0:0:0:0:
294,77,99858,1,8,0:0:0:0:
294,77,100039,1,8,0:0:0:0:
301,81,100220,1,4,0:0:0:0:
148,141,100581,1,4,0:0:0:0:
148,141,100943,1,12,0:0:0:0:
226,220,101304,1,8,0:0:0:0:
226,220,101395,1,0,0:0:0:0:
226,220,101485,1,0,0:0:0:0:
226,220,101575,1,0,0:0:0:0:
226,220,101666,1,12,0:0:0:0:
276,117,101846,1,0,0:0:0:0:
276,117,101937,1,0,0:0:0:0:
276,117,102027,1,8,0:0:0:0:
276,117,102117,1,0,0:0:0:0:
161,168,102298,1,0,0:0:0:0:
276,117,102389,1,8,0:0:0:0:
281,119,102479,1,8,0:0:0:0:
285,119,102569,1,0,0:0:0:0:
286,120,102660,1,0,0:0:0:0:
281,119,102750,1,8,0:0:0:0:
276,117,102931,1,8,0:0:0:0:
276,117,103111,1,0,0:0:0:0:
276,117,103292,1,8,0:0:0:0:
292,117,103383,1,8,0:0:0:0:
311,129,103473,1,8,0:0:0:0:
306,128,103654,1,0,0:0:0:0:
88,152,103834,1,0,0:0:0:0:
324,136,103925,1,0,0:0:0:0:
88,152,104015,1,8,0:0:0:0:
88,152,104105,1,0,0:0:0:0:
88,152,104196,1,8,0:0:0:0:
88,152,104377,1,8,0:0:0:0:
336,188,104557,1,0,0:0:0:0:
336,188,104738,1,0,0:0:0:0:
128,125,104828,1,0,0:0:0:0:
128,125,104919,1,0,0:0:0:0:
209,149,105099,1,8,0:0:0:0:
209,149,105280,1,0,0:0:0:0:
209,149,105371,1,0,0:0:0:0:
211,153,105461,1,8,0:0:0:0:
212,153,105642,1,0,0:0:0:0:
212,153,105822,1,8,0:0:0:0:
144,151,106003,1,0,0:0:0:0:
144,151,106184,1,8,0:0:0:0:
144,151,106274,1,0,0:0:0:0:
144,151,106364,1,8,0:0:0:0:
144,151,106455,1,8,0:0:0:0:
144,151,106545,1,0,0:0:0:0:
294,123,106726,1,8,0:0:0:0:
294,123,106816,1,8,0:0:0:0:
294,123,106907,1,8,0:0:0:0:
294,123,107087,1,0,0:0:0:0:
369,76,107449,1,12,0:0:0:0:
363,193,107630,1,0,0:0:0:0:
363,193,107720,1,0,0:0:0:0:
363,193,107810,1,8,0:0:0:0:
363,193,107901,1,0,0:0:0:0:
363,188,108081,1,0,0:0:0:0:
362,187,108172,1,8,0:0:0:0:
346,190,108262,1,8,0:0:0:0:
388,195,108352,1,0,0:0:0:0:
387,195,108443,1,0,0:0:0:0:
386,195,108533,1,8,0:0:0:0:
248,133,108714,1,8,0:0:0:0:
248,133,108895,1,0,0:0:0:0:
248,133,109075,1,8,0:0:0:0:
248,133,109166,1,8,0:0:0:0:
259,136,109256,1,8,0:0:0:0:
259,135,109437,1,0,0:0:0:0:
259,135,109617,1,0,0:0:0:0:
259,135,109708,1,8,0:0:0:0:
271,148,109798,1,0,0:0:0:0:
271,148,109889,1,0,0:0:0:0:
271,148,109979,1,8,0:0:0:0:
271,147,110160,1,8,0:0:0:0:
248,71,110340,1,0,0:0:0:0:
258,79,110521,1,0,0:0:0:0:
258,79,110611,1,0,0:0:0:0:
249,102,110702,1,0,0:0:0:0:
258,78,110883,1,8,0:0:0:0:
258,77,111063,1,0,0:0:0:0:
258,77,111154,1,0,0:0:0:0:
258,78,111244,1,8,0:0:0:0:
258,79,111425,1,0,0:0:0:0:
258,79,111605,1,8,0:0:0:0:
254,163,111786,1,0,0:0:0:0:
254,163,111967,1,8,0:0:0:0:
261,163,112057,1,0,0:0:0:0:
298,178,112148,1,8,0:0:0:0:
298,178,112328,1,8,0:0:0:0:
298,178,112509,1,0,0:0:0:0:
298,178,112871,1,8,0:0:0:0:
298,178,113232,1,4,0:0:0:0:
238,134,114678,1,4,0:0:0:0:
238,134,114858,1,4,0:0:0:0:
238,134,115039,1,12,0:0:0:0:
238,134,115220,1,12,0:0:0:0:
189,125,116124,1,4,0:0:0:0:
402,185,116395,1,0,0:0:0:0:
396,178,116486,1,8,0:0:0:0:
394,177,116666,1,8,0:0:0:0:
392,177,116847,1,0,0:0:0:0:
394,177,117028,1,8,0:0:0:0:
394,177,117118,1,8,0:0:0:0:
394,178,117208,1,0,0:0:0:0:
217,153,117389,1,8,0:0:0:0:
217,153,117570,1,0,0:0:0:0:
214,38,117659,1,0,0:0:0:0:
217,153,117750,1,8,0:0:0:0:
217,153,117841,1,8,0:0:0:0:
217,153,117931,1,8,0:0:0:0:
222,152,118112,1,0,0:0:0:0:
222,152,118293,1,8,0:0:0:0:
217,153,118382,1,8,0:0:0:0:
206,148,118473,1,0,0:0:0:0:
357,124,118563,1,0,0:0:0:0:
206,148,118654,1,8,0:0:0:0:
140,198,118835,1,8,0:0:0:0:
140,198,119016,1,0,0:0:0:0:
140,198,119287,1,0,0:0:0:0:
156,208,119377,1,8,0:0:0:0:
156,208,119558,1,8,0:0:0:0:
173,115,119739,1,0,0:0:0:0:
341,135,119828,1,0,0:0:0:0:
173,115,119919,1,8,0:0:0:0:
173,115,120010,1,8,0:0:0:0:
173,115,120100,1,0,0:0:0:0:
147,201,120281,1,8,0:0:0:0:
147,200,120461,1,0,0:0:0:0:
147,199,120552,1,0,0:0:0:0:
147,199,120642,1,8,0:0:0:0:
147,201,120823,1,0,0:0:0:0:
147,201,121004,1,0,0:0:0:0:
252,118,121184,1,8,0:0:0:0:
252,118,121275,1,8,0:0:0:0:
276,120,121365,1,0,0:0:0:0:
118,98,121454,1,0,0:0:0:0:
276,120,121546,1,8,0:0:0:0:
189,125,121906,1,4,0:0:0:0:
402,185,122177,1,0,0:0:0:0:
396,178,122268,1,8,0:0:0:0:
394,177,122448,1,8,0:0:0:0:
392,177,122629,1,0,0:0:0:0:
394,177,122810,1,8,0:0:0:0:
394,177,122900,1,8,0:0:0:0:
394,178,122990,1,0,0:0:0:0:
217,153,123171,1,8,0:0:0:0:
217,153,123352,1,0,0:0:0:0:
214,38,123441,1,0,0:0:0:0:
217,153,123532,1,8,0:0:0:0:
217,153,123623,1,0,0:0:0:0:
217,153,123713,1,8,0:0:0:0:
222,152,123894,1,0,0:0:0:0:
222,152,124075,1,8,0:0:0:0:
217,153,124164,1,0,0:0:0:0:
206,148,124255,1,0,0:0:0:0:
357,124,124345,1,0,0:0:0:0:
206,148,124436,1,8,0:0:0:0:
140,198,124617,1,8,0:0:0:0:
140,198,124798,1,0,0:0:0:0:
140,198,125069,1,0,0:0:0:0:
156,208,125159,1,8,0:0:0:0:
156,208,125340,1,8,0:0:0:0:
173,115,125521,1,0,0:0:0:0:
341,135,125610,1,0,0:0:0:0:
173,115,125701,1,8,0:0:0:0:
173,115,125792,1,8,0:0:0:0:
173,115,125882,1,0,0:0:0:0:
147,201,126063,1,8,0:0:0:0:
147,200,126243,1,0,0:0:0:0:
147,199,126334,1,0,0:0:0:0:
147,199,126424,1,8,0:0:0:0:
147,201,126605,1,0,0:0:0:0:
246,88,126694,1,0,0:0:0:0:
147,201,126786,1,0,0:0:0:0:
181,77,126967,1,8,0:0:0:0:
46,126,127057,1,8,0:0:0:0:
186,77,127147,1,0,0:0:0:0:
36,87,127238,1,8,0:0:0:0:
276,120,127328,1,0,0:0:0:0:
174,118,127509,1,0,0:0:0:0:
189,185,127689,1,12,0:0:0:0:
189,185,128051,1,0,0:0:0:0:
189,185,128232,1,8,0:0:0:0:
189,185,128412,1,0,0:0:0:0:
189,185,128593,1,8,0:0:0:0:
183,186,128954,1,0,0:0:0:0:
183,186,129135,1,0,0:0:0:0:
183,186,129497,1,0,0:0:0:0:
183,186,129677,1,8,0:0:0:0:
183,186,129858,1,0,0:0:0:0:
183,186,130039,1,8,0:0:0:0:
183,186,130400,1,0,0:0:0:0:
183,186,130581,1,8,0:0:0:0:
183,186,130942,1,0,0:0:0:0:
183,186,131123,1,8,0:0:0:0:
183,186,131304,1,0,0:0:0:0:
183,186,131485,1,8,0:0:0:0:
183,186,131846,1,8,0:0:0:0:
183,186,132027,1,8,0:0:0:0:
183,186,132388,1,0,0:0:0:0:
183,186,132569,1,8,0:0:0:0:
183,186,132750,1,0,0:0:0:0:
183,186,132930,1,8,0:0:0:0:
183,186,133292,1,8,0:0:0:0:
