osu file format v14

[General]
AudioFilename: audio.mp3
AudioLeadIn: 0
PreviewTime: 100039
Countdown: 0
SampleSet: Normal
StackLeniency: 0.7
Mode: 1
LetterboxInBreaks: 0
WidescreenStoryboard: 1

[Editor]
DistanceSpacing: 1.1
BeatDivisor: 4
GridSize: 32
TimelineZoom: 2.3

[Metadata]
Title:KING
TitleUnicode:KING
Artist:Hoshimachi Suisei
ArtistUnicode:星街‎すいせい
Creator:Maimaing
Version:Eriha's Oni
Source:
Tags:gumi phoenix phoeniixz Ph0eNiiXZ tadahitotsu lexa14 eriha バーチャルユーチューバー hololive production ホロライブプロダクション hosimati hoshimati hosimachi suichan idol vtuber virtual youtuber singer pop japanese jpop j-pop cover kanaria
BeatmapID:3302593
BeatmapSetID:1617483

[Difficulty]
HPDrainRate:5.5
CircleSize:5
OverallDifficulty:5.5
ApproachRate:5
SliderMultiplier:1.4
SliderTickRate:1

[Events]
//Background and Video events
0,0,"KING.jpg",0,80
//Break Periods
//Storyboard Layer 0 (Background)
//Storyboard Layer 1 (Fail)
//Storyboard Layer 2 (Pass)
//Storyboard Layer 3 (Foreground)
//Storyboard Layer 4 (Overlay)
//Storyboard Sound Samples

[TimingPoints]
461,361.44578313253,4,1,0,65,1,0
461,-133.333333333333,4,1,0,65,0,0
3262,-95.2380952380952,4,1,0,75,0,0
14534,-102.564102564103,4,1,0,75,0,0
14828,-111.111111111111,4,1,0,70,0,0
24948,-111.111111111111,4,1,0,75,0,0
25310,-110.239651416122,4,1,0,70,0,0
25581,-107.696237016857,4,1,0,70,0,0
25762,-106.061876414857,4,1,0,70,0,0
26123,-102.945963541667,4,1,0,70,0,0
26485,-100,4,1,0,70,0,0
38367,-100,4,1,0,65,0,0
39451,-76.9230769230769,4,1,0,80,0,0
40897,-100,4,1,0,75,0,0
51379,-98.0392156862745,4,1,0,75,0,0
51741,-96.3855421686747,4,1,0,75,0,0
52102,-95.2380952380952,4,1,0,75,0,0
52192,-94.1176470588235,4,1,0,75,0,0
52283,-93.0232558139535,4,1,0,75,0,0
52373,-91.9540229885057,4,1,0,75,0,0
52464,-90.9090909090909,4,1,0,80,0,0
52509,-90.9090909090909,4,1,0,80,0,1
64075,-90.9090909090909,4,1,0,80,0,0
65476,-71.4285714285714,4,1,0,85,0,0
66921,-108.108108108108,4,1,0,75,0,0
78488,-105.263157894737,4,1,0,70,0,0
89331,-104.166666666667,4,1,0,70,0,0
89512,-103.092783505155,4,1,0,70,0,0
89692,-102.040816326531,4,1,0,70,0,0
89873,-101.010101010101,4,1,0,70,0,0
90009,-100,4,1,0,75,0,0
100174,-98.0392156862745,4,1,0,75,0,0
100536,-96.1538461538461,4,1,0,75,0,0
100897,-94.3396226415094,4,1,0,75,0,0
101259,-92.5925925925926,4,1,0,75,0,0
101665,-90.9090909090909,4,1,0,80,0,1
113232,-90.9090909090909,4,1,0,80,0,0
114632,-90.9090909090909,4,1,0,85,0,0
116078,-90.9090909090909,4,1,0,75,0,0
128006,-90.9090909090909,4,1,0,65,0,0

[HitObjects]
256,192,461,5,0,0:0:0:0:
256,192,822,1,2,0:0:0:0:
256,192,1003,1,2,0:0:0:0:
256,192,1183,1,2,0:0:0:0:
256,192,1364,1,0,0:0:0:0:
256,192,1545,1,0,0:0:0:0:
256,192,1726,1,0,0:0:0:0:
256,192,1906,1,0,0:0:0:0:
256,192,2087,1,2,0:0:0:0:
256,192,2268,1,0,0:0:0:0:
256,192,2448,1,2,0:0:0:0:
256,192,2629,1,0,0:0:0:0:
256,192,3352,1,4,0:0:0:0:
256,192,3714,1,2,0:0:0:0:
256,192,3894,1,2,0:0:0:0:
256,192,3985,1,2,0:0:0:0:
256,192,4075,1,0,0:0:0:0:
256,192,4256,1,0,0:0:0:0:
256,192,4436,1,2,0:0:0:0:
256,192,4617,1,0,0:0:0:0:
256,192,4798,1,0,0:0:0:0:
256,192,4979,1,0,0:0:0:0:
256,192,5069,1,0,0:0:0:0:
256,192,5159,1,2,0:0:0:0:
256,192,5340,1,0,0:0:0:0:
256,192,5521,1,2,0:0:0:0:
256,192,5882,1,2,0:0:0:0:
256,192,6244,1,0,0:0:0:0:
256,192,6605,1,2,0:0:0:0:
256,192,6786,1,2,0:0:0:0:
256,192,6876,1,2,0:0:0:0:
256,192,6967,1,0,0:0:0:0:
256,192,7147,1,0,0:0:0:0:
256,192,7328,1,2,0:0:0:0:
256,192,7509,1,0,0:0:0:0:
256,192,7689,1,0,0:0:0:0:
256,192,7780,1,0,0:0:0:0:
256,192,7870,1,2,0:0:0:0:
256,192,8051,1,0,0:0:0:0:
256,192,8232,1,2,0:0:0:0:
256,192,8412,1,0,0:0:0:0:
256,192,8774,1,2,0:0:0:0:
256,192,9135,1,4,0:0:0:0:
256,192,9497,1,2,0:0:0:0:
256,192,9677,1,2,0:0:0:0:
256,192,9768,1,2,0:0:0:0:
256,192,9858,1,0,0:0:0:0:
256,192,10039,1,0,0:0:0:0:
256,192,10219,1,2,0:0:0:0:
256,192,10400,1,0,0:0:0:0:
256,192,10581,1,0,0:0:0:0:
256,192,10762,1,0,0:0:0:0:
256,192,10852,1,0,0:0:0:0:
256,192,10942,1,2,0:0:0:0:
256,192,11123,1,0,0:0:0:0:
256,192,11304,1,2,0:0:0:0:
256,192,11665,1,2,0:0:0:0:
256,192,12027,1,0,0:0:0:0:
256,192,12388,1,2,0:0:0:0:
256,192,12569,1,2,0:0:0:0:
256,192,12659,1,2,0:0:0:0:
256,192,12750,1,0,0:0:0:0:
256,192,12930,1,0,0:0:0:0:
256,192,13111,1,2,0:0:0:0:
256,192,13292,1,0,0:0:0:0:
256,192,13472,1,0,0:0:0:0:
256,192,13563,1,0,0:0:0:0:
256,192,13653,1,2,0:0:0:0:
256,192,13834,1,0,0:0:0:0:
256,192,14015,1,2,0:0:0:0:
256,192,14195,1,0,0:0:0:0:
256,192,14557,1,0,0:0:0:0:
256,192,14918,1,6,0:0:0:0:
256,192,15280,1,0,0:0:0:0:
256,192,15460,1,2,0:0:0:0:
256,192,15551,1,2,0:0:0:0:
256,192,15641,1,0,0:0:0:0:
256,192,16003,1,0,0:0:0:0:
256,192,16183,1,0,0:0:0:0:
256,192,16545,1,0,0:0:0:0:
256,192,16635,1,0,0:0:0:0:
256,192,16726,1,2,0:0:0:0:
256,192,16906,1,2,0:0:0:0:
256,192,17087,1,0,0:0:0:0:
256,192,17448,1,0,0:0:0:0:
256,192,17810,1,2,0:0:0:0:
256,192,18171,1,2,0:0:0:0:
256,192,18352,1,2,0:0:0:0:
256,192,18442,1,2,0:0:0:0:
256,192,18533,1,0,0:0:0:0:
256,192,18894,1,0,0:0:0:0:
256,192,19075,1,0,0:0:0:0:
256,192,19436,1,0,0:0:0:0:
256,192,19527,1,0,0:0:0:0:
256,192,19617,1,2,0:0:0:0:
256,192,19798,1,0,0:0:0:0:
256,192,19979,1,2,0:0:0:0:
256,192,20340,1,0,0:0:0:0:
256,192,20701,1,2,0:0:0:0:
256,192,21063,1,0,0:0:0:0:
256,192,21244,1,0,0:0:0:0:
256,192,21334,1,0,0:0:0:0:
256,192,21424,1,2,0:0:0:0:
256,192,21786,1,0,0:0:0:0:
256,192,21966,1,0,0:0:0:0:
256,192,22328,1,0,0:0:0:0:
256,192,22418,1,0,0:0:0:0:
256,192,22509,1,2,0:0:0:0:
256,192,22689,1,2,0:0:0:0:
256,192,22870,1,0,0:0:0:0:
256,192,23231,1,0,0:0:0:0:
256,192,23412,1,0,0:0:0:0:
256,192,23593,1,2,0:0:0:0:
256,192,23954,1,2,0:0:0:0:
256,192,24135,1,2,0:0:0:0:
256,192,24225,1,2,0:0:0:0:
256,192,24316,1,0,0:0:0:0:
256,192,24677,1,2,0:0:0:0:
256,192,24858,1,0,0:0:0:0:
256,192,25219,1,0,0:0:0:0:
256,192,25310,1,0,0:0:0:0:
256,192,25400,1,2,0:0:0:0:
256,192,25581,1,0,0:0:0:0:
256,192,25762,1,2,0:0:0:0:
256,192,26123,1,0,0:0:0:0:
256,192,26485,1,4,0:0:0:0:
256,192,26665,1,0,0:0:0:0:
256,192,26756,1,0,0:0:0:0:
256,192,26846,1,2,0:0:0:0:
256,192,27027,1,0,0:0:0:0:
256,192,27207,1,0,0:0:0:0:
256,192,27388,1,0,0:0:0:0:
256,192,27569,1,2,0:0:0:0:
256,192,27750,1,0,0:0:0:0:
256,192,27930,1,2,0:0:0:0:
256,192,28111,1,2,0:0:0:0:
256,192,28201,1,2,0:0:0:0:
256,192,28292,1,0,0:0:0:0:
256,192,28473,1,2,0:0:0:0:
256,192,28653,1,6,0:0:0:0:
256,192,28924,1,6,0:0:0:0:
256,192,29195,1,4,0:0:0:0:
256,192,29557,1,0,0:0:0:0:
256,192,29647,1,0,0:0:0:0:
256,192,29738,1,2,0:0:0:0:
256,192,29918,1,0,0:0:0:0:
256,192,30099,1,2,0:0:0:0:
256,192,30280,1,0,0:0:0:0:
256,192,30460,1,2,0:0:0:0:
256,192,30551,1,2,0:0:0:0:
256,192,30641,1,0,0:0:0:0:
256,192,30822,1,0,0:0:0:0:
256,192,31003,1,0,0:0:0:0:
256,192,31183,1,2,0:0:0:0:
256,192,31364,1,0,0:0:0:0:
256,192,31545,1,6,0:0:0:0:
256,192,31816,1,4,0:0:0:0:
256,192,32087,1,6,0:0:0:0:
256,192,32268,1,4,0:0:0:0:
256,192,32448,1,0,0:0:0:0:
256,192,32539,1,2,0:0:0:0:
256,192,32629,1,2,0:0:0:0:
256,192,32810,1,0,0:0:0:0:
256,192,32991,1,2,0:0:0:0:
256,192,33171,1,0,0:0:0:0:
256,192,33262,1,0,0:0:0:0:
256,192,33352,1,2,0:0:0:0:
256,192,33533,1,0,0:0:0:0:
256,192,33714,1,2,0:0:0:0:
256,192,33804,1,2,0:0:0:0:
256,192,33894,1,2,0:0:0:0:
256,192,34075,1,2,0:0:0:0:
256,192,34256,1,0,0:0:0:0:
256,192,34436,1,6,0:0:0:0:
256,192,34707,1,6,0:0:0:0:
256,192,34979,1,4,0:0:0:0:
256,192,35340,1,2,0:0:0:0:
256,192,35430,1,2,0:0:0:0:
256,192,35521,1,2,0:0:0:0:
256,192,35701,1,0,0:0:0:0:
256,192,35882,1,2,0:0:0:0:
256,192,36063,1,0,0:0:0:0:
256,192,36244,1,2,0:0:0:0:
256,192,36334,1,2,0:0:0:0:
256,192,36424,1,0,0:0:0:0:
256,192,36605,1,6,0:0:0:0:
256,192,36967,1,4,0:0:0:0:
256,192,37328,1,6,0:0:0:0:
256,192,37689,1,6,0:0:0:0:
256,192,38051,1,4,0:0:0:0:
256,192,39497,1,4,0:0:0:0:
256,192,39858,1,4,0:0:0:0:
256,192,40220,1,4,0:0:0:0:
256,192,40942,1,4,0:0:0:0:
256,192,41304,1,2,0:0:0:0:
256,192,41485,1,0,0:0:0:0:
256,192,41665,1,2,0:0:0:0:
256,192,41936,1,2,0:0:0:0:
256,192,42027,1,0,0:0:0:0:
256,192,42207,1,0,0:0:0:0:
256,192,42388,1,0,0:0:0:0:
256,192,42569,1,0,0:0:0:0:
256,192,42659,1,0,0:0:0:0:
256,192,42750,1,2,0:0:0:0:
256,192,42930,1,0,0:0:0:0:
256,192,43111,1,6,0:0:0:0:
256,192,43382,1,6,0:0:0:0:
256,192,43653,1,4,0:0:0:0:
256,192,43834,1,4,0:0:0:0:
256,192,44195,1,2,0:0:0:0:
256,192,44286,1,2,0:0:0:0:
256,192,44376,1,0,0:0:0:0:
256,192,44557,1,2,0:0:0:0:
256,192,44828,1,0,0:0:0:0:
256,192,44918,1,2,0:0:0:0:
256,192,45099,1,0,0:0:0:0:
256,192,45280,1,0,0:0:0:0:
256,192,45370,1,0,0:0:0:0:
256,192,45460,1,0,0:0:0:0:
256,192,45641,1,2,0:0:0:0:
256,192,45822,1,0,0:0:0:0:
256,192,46003,1,6,0:0:0:0:
256,192,46183,1,4,0:0:0:0:
256,192,46364,1,6,0:0:0:0:
256,192,46545,1,4,0:0:0:0:
256,192,46726,1,4,0:0:0:0:
256,192,47087,1,2,0:0:0:0:
256,192,47268,1,0,0:0:0:0:
256,192,47448,1,2,0:0:0:0:
256,192,47720,1,2,0:0:0:0:
256,192,47810,1,2,0:0:0:0:
256,192,47991,1,0,0:0:0:0:
256,192,48171,1,0,0:0:0:0:
256,192,48352,1,0,0:0:0:0:
256,192,48442,1,0,0:0:0:0:
256,192,48533,1,2,0:0:0:0:
256,192,48714,1,0,0:0:0:0:
256,192,48894,1,6,0:0:0:0:
256,192,49165,1,6,0:0:0:0:
256,192,49436,1,4,0:0:0:0:
256,192,49617,1,4,0:0:0:0:
256,192,49979,1,2,0:0:0:0:
256,192,50069,1,2,0:0:0:0:
256,192,50159,1,0,0:0:0:0:
256,192,50340,1,2,0:0:0:0:
256,192,50611,1,2,0:0:0:0:
256,192,50701,1,0,0:0:0:0:
256,192,50882,1,0,0:0:0:0:
256,192,51063,1,6,0:0:0:0:
256,192,51424,1,4,0:0:0:0:
256,192,51786,1,4,0:0:0:0:
256,192,52147,1,6,0:0:0:0:
256,192,52509,1,6,0:0:0:0:
256,192,52689,1,0,0:0:0:0:
256,192,52780,1,0,0:0:0:0:
256,192,52870,1,2,0:0:0:0:
256,192,53051,1,0,0:0:0:0:
256,192,53232,1,2,0:0:0:0:
256,192,53412,1,0,0:0:0:0:
256,192,53503,1,0,0:0:0:0:
256,192,53593,1,2,0:0:0:0:
256,192,53774,1,0,0:0:0:0:
256,192,53954,1,0,0:0:0:0:
256,192,54135,1,2,0:0:0:0:
256,192,54226,1,2,0:0:0:0:
256,192,54316,1,2,0:0:0:0:
256,192,54497,1,0,0:0:0:0:
256,192,54677,1,2,0:0:0:0:
256,192,54768,1,2,0:0:0:0:
256,192,54858,1,0,0:0:0:0:
256,192,54948,1,0,0:0:0:0:
256,192,55039,1,2,0:0:0:0:
256,192,55220,1,2,0:0:0:0:
256,192,55400,1,0,0:0:0:0:
256,192,55762,1,0,0:0:0:0:
256,192,55942,1,6,0:0:0:0:
256,192,56304,1,6,0:0:0:0:
256,192,56665,1,6,0:0:0:0:
256,192,57027,1,0,0:0:0:0:
256,192,57117,1,0,0:0:0:0:
256,192,57207,1,2,0:0:0:0:
256,192,57388,1,0,0:0:0:0:
256,192,57569,1,0,0:0:0:0:
256,192,57659,1,2,0:0:0:0:
256,192,57750,1,0,0:0:0:0:
256,192,57930,1,2,0:0:0:0:
256,192,58292,1,4,0:0:0:0:
256,192,58473,1,0,0:0:0:0:
256,192,58563,1,0,0:0:0:0:
256,192,58653,1,2,0:0:0:0:
256,192,58834,1,0,0:0:0:0:
256,192,59015,1,2,0:0:0:0:
256,192,59195,1,0,0:0:0:0:
256,192,59286,1,0,0:0:0:0:
256,192,59376,1,2,0:0:0:0:
256,192,59557,1,0,0:0:0:0:
256,192,59738,1,0,0:0:0:0:
256,192,59918,1,2,0:0:0:0:
256,192,60009,1,2,0:0:0:0:
256,192,60099,1,2,0:0:0:0:
256,192,60280,1,2,0:0:0:0:
256,192,60460,1,0,0:0:0:0:
256,192,60641,1,2,0:0:0:0:
256,192,60732,1,0,0:0:0:0:
256,192,60822,1,0,0:0:0:0:
256,192,60912,1,0,0:0:0:0:
256,192,61003,1,2,0:0:0:0:
256,192,61183,1,0,0:0:0:0:
256,192,61545,1,0,0:0:0:0:
256,192,61726,1,6,0:0:0:0:
256,192,62087,1,6,0:0:0:0:
256,192,62448,1,6,0:0:0:0:
256,192,62629,1,0,0:0:0:0:
256,192,62810,1,0,0:0:0:0:
256,192,62900,1,2,0:0:0:0:
256,192,62991,1,2,0:0:0:0:
256,192,63171,1,2,0:0:0:0:
256,192,63352,1,4,0:0:0:0:
256,192,63714,1,6,0:0:0:0:
256,192,64075,1,4,0:0:0:0:
256,192,64436,1,2,0:0:0:0:
256,192,64617,1,2,0:0:0:0:
256,192,64797,1,2,0:0:0:0:
256,192,64978,1,0,0:0:0:0:
256,192,65159,1,0,0:0:0:0:
256,192,65340,1,0,0:0:0:0:
256,192,65521,1,6,0:0:0:0:
256,192,65701,1,6,0:0:0:0:
256,192,65882,1,6,0:0:0:0:
256,192,66063,1,6,0:0:0:0:
256,192,66967,1,4,0:0:0:0:
256,192,67329,1,2,0:0:0:0:
256,192,67509,1,2,0:0:0:0:
256,192,67600,1,2,0:0:0:0:
256,192,67690,1,0,0:0:0:0:
256,192,67871,1,0,0:0:0:0:
256,192,68051,1,2,0:0:0:0:
256,192,68232,1,0,0:0:0:0:
256,192,68413,1,0,0:0:0:0:
256,192,68594,1,0,0:0:0:0:
256,192,68684,1,0,0:0:0:0:
256,192,68774,1,2,0:0:0:0:
256,192,68955,1,0,0:0:0:0:
256,192,69136,1,2,0:0:0:0:
256,192,69497,1,2,0:0:0:0:
256,192,69859,1,0,0:0:0:0:
256,192,70220,1,2,0:0:0:0:
256,192,70401,1,2,0:0:0:0:
256,192,70491,1,2,0:0:0:0:
256,192,70582,1,0,0:0:0:0:
256,192,70762,1,0,0:0:0:0:
256,192,70943,1,2,0:0:0:0:
256,192,71124,1,0,0:0:0:0:
256,192,71304,1,0,0:0:0:0:
256,192,71395,1,0,0:0:0:0:
256,192,71485,1,2,0:0:0:0:
256,192,71666,1,0,0:0:0:0:
256,192,71847,1,2,0:0:0:0:
256,192,72027,1,0,0:0:0:0:
256,192,72389,1,2,0:0:0:0:
256,192,72750,1,4,0:0:0:0:
256,192,73112,1,2,0:0:0:0:
256,192,73292,1,2,0:0:0:0:
256,192,73383,1,2,0:0:0:0:
256,192,73473,1,0,0:0:0:0:
256,192,73654,1,0,0:0:0:0:
256,192,73834,1,2,0:0:0:0:
256,192,74015,1,0,0:0:0:0:
256,192,74196,1,0,0:0:0:0:
256,192,74377,1,0,0:0:0:0:
256,192,74467,1,0,0:0:0:0:
256,192,74557,1,2,0:0:0:0:
256,192,74738,1,0,0:0:0:0:
256,192,74919,1,2,0:0:0:0:
256,192,75280,1,2,0:0:0:0:
256,192,75642,1,0,0:0:0:0:
256,192,76003,1,2,0:0:0:0:
256,192,76184,1,2,0:0:0:0:
256,192,76274,1,2,0:0:0:0:
256,192,76365,1,0,0:0:0:0:
256,192,76545,1,0,0:0:0:0:
256,192,76726,1,2,0:0:0:0:
256,192,76907,1,0,0:0:0:0:
256,192,77087,1,0,0:0:0:0:
256,192,77178,1,0,0:0:0:0:
256,192,77268,1,2,0:0:0:0:
256,192,77449,1,0,0:0:0:0:
256,192,77630,1,2,0:0:0:0:
256,192,77810,1,0,0:0:0:0:
256,192,78171,1,2,0:0:0:0:
256,192,78533,1,4,0:0:0:0:
256,192,78714,1,2,0:0:0:0:
256,192,78804,1,2,0:0:0:0:
256,192,78894,1,2,0:0:0:0:
256,192,79075,1,0,0:0:0:0:
256,192,79256,1,2,0:0:0:0:
256,192,79436,1,0,0:0:0:0:
256,192,79617,1,0,0:0:0:0:
256,192,79979,1,2,0:0:0:0:
256,192,80069,1,2,0:0:0:0:
256,192,80250,1,0,0:0:0:0:
256,192,80340,1,2,0:0:0:0:
256,192,80521,1,0,0:0:0:0:
256,192,80701,1,2,0:0:0:0:
256,192,80792,1,2,0:0:0:0:
256,192,80882,1,0,0:0:0:0:
256,192,81063,1,2,0:0:0:0:
256,192,81244,1,0,0:0:0:0:
256,192,81424,1,2,0:0:0:0:
256,192,81605,1,0,0:0:0:0:
256,192,81695,1,0,0:0:0:0:
256,192,81786,1,2,0:0:0:0:
256,192,81967,1,0,0:0:0:0:
256,192,82147,1,2,0:0:0:0:
256,192,82328,1,2,0:0:0:0:
256,192,82509,1,2,0:0:0:0:
256,192,82870,1,0,0:0:0:0:
256,192,82960,1,0,0:0:0:0:
256,192,83141,1,2,0:0:0:0:
256,192,83232,1,0,0:0:0:0:
256,192,83412,1,0,0:0:0:0:
256,192,83593,1,2,0:0:0:0:
256,192,83774,1,2,0:0:0:0:
256,192,83954,1,0,0:0:0:0:
256,192,84316,1,4,0:0:0:0:
256,192,84497,1,2,0:0:0:0:
256,192,84587,1,2,0:0:0:0:
256,192,84677,1,2,0:0:0:0:
256,192,84858,1,0,0:0:0:0:
256,192,85039,1,6,0:0:0:0:
256,192,85220,1,0,0:0:0:0:
256,192,85400,1,2,0:0:0:0:
256,192,85762,1,0,0:0:0:0:
256,192,85852,1,2,0:0:0:0:
256,192,86033,1,0,0:0:0:0:
256,192,86123,1,0,0:0:0:0:
256,192,86304,1,0,0:0:0:0:
256,192,86485,1,2,0:0:0:0:
256,192,86665,1,0,0:0:0:0:
256,192,86846,1,2,0:0:0:0:
256,192,86936,1,2,0:0:0:0:
256,192,87027,1,0,0:0:0:0:
256,192,87207,1,6,0:0:0:0:
256,192,87388,1,6,0:0:0:0:
256,192,87569,1,6,0:0:0:0:
256,192,87750,1,0,0:0:0:0:
256,192,87930,1,6,0:0:0:0:
256,192,88111,1,6,0:0:0:0:
256,192,88292,1,6,0:0:0:0:
256,192,88653,1,2,0:0:0:0:
256,192,88744,1,0,0:0:0:0:
256,192,88924,1,0,0:0:0:0:
256,192,89015,1,0,0:0:0:0:
256,192,89195,1,0,0:0:0:0:
256,192,89376,1,6,0:0:0:0:
256,192,89557,1,4,0:0:0:0:
256,192,89738,1,6,0:0:0:0:
256,192,89918,1,4,0:0:0:0:
256,192,90099,1,4,0:0:0:0:
256,192,90461,1,2,0:0:0:0:
256,192,90642,1,0,0:0:0:0:
256,192,90822,1,2,0:0:0:0:
256,192,91093,1,2,0:0:0:0:
256,192,91183,1,0,0:0:0:0:
256,192,91364,1,0,0:0:0:0:
256,192,91545,1,0,0:0:0:0:
256,192,91726,1,0,0:0:0:0:
256,192,91816,1,0,0:0:0:0:
256,192,91907,1,2,0:0:0:0:
256,192,92087,1,0,0:0:0:0:
256,192,92268,1,6,0:0:0:0:
256,192,92539,1,6,0:0:0:0:
256,192,92810,1,4,0:0:0:0:
256,192,92991,1,4,0:0:0:0:
256,192,93352,1,2,0:0:0:0:
256,192,93442,1,0,0:0:0:0:
256,192,93533,1,0,0:0:0:0:
256,192,93714,1,2,0:0:0:0:
256,192,93985,1,0,0:0:0:0:
256,192,94075,1,2,0:0:0:0:
256,192,94256,1,0,0:0:0:0:
256,192,94436,1,2,0:0:0:0:
256,192,94527,1,0,0:0:0:0:
256,192,94617,1,2,0:0:0:0:
256,192,94798,1,2,0:0:0:0:
256,192,94979,1,0,0:0:0:0:
256,192,95160,1,6,0:0:0:0:
256,192,95340,1,4,0:0:0:0:
256,192,95521,1,6,0:0:0:0:
256,192,95702,1,4,0:0:0:0:
256,192,95883,1,4,0:0:0:0:
256,192,96244,1,2,0:0:0:0:
256,192,96425,1,0,0:0:0:0:
256,192,96605,1,2,0:0:0:0:
256,192,96876,1,2,0:0:0:0:
256,192,96967,1,2,0:0:0:0:
256,192,97148,1,0,0:0:0:0:
256,192,97328,1,0,0:0:0:0:
256,192,97509,1,0,0:0:0:0:
256,192,97599,1,0,0:0:0:0:
256,192,97690,1,2,0:0:0:0:
256,192,97871,1,0,0:0:0:0:
256,192,98051,1,6,0:0:0:0:
256,192,98322,1,4,0:0:0:0:
256,192,98593,1,6,0:0:0:0:
256,192,98774,1,4,0:0:0:0:
256,192,99136,1,2,0:0:0:0:
256,192,99226,1,2,0:0:0:0:
256,192,99316,1,0,0:0:0:0:
256,192,99497,1,2,0:0:0:0:
256,192,99768,1,2,0:0:0:0:
256,192,99858,1,0,0:0:0:0:
256,192,100039,1,0,0:0:0:0:
256,192,100220,1,6,0:0:0:0:
256,192,100581,1,4,0:0:0:0:
256,192,100943,1,4,0:0:0:0:
256,192,101304,1,6,0:0:0:0:
256,192,101665,1,6,0:0:0:0:
256,192,101846,1,0,0:0:0:0:
256,192,101937,1,0,0:0:0:0:
256,192,102027,1,2,0:0:0:0:
256,192,102207,1,0,0:0:0:0:
256,192,102389,1,2,0:0:0:0:
256,192,102569,1,0,0:0:0:0:
256,192,102660,1,0,0:0:0:0:
256,192,102750,1,2,0:0:0:0:
256,192,102930,1,0,0:0:0:0:
256,192,103111,1,0,0:0:0:0:
256,192,103292,1,2,0:0:0:0:
256,192,103383,1,2,0:0:0:0:
256,192,103473,1,2,0:0:0:0:
256,192,103654,1,0,0:0:0:0:
256,192,103834,1,2,0:0:0:0:
256,192,103925,1,2,0:0:0:0:
256,192,104015,1,0,0:0:0:0:
256,192,104105,1,0,0:0:0:0:
256,192,104196,1,2,0:0:0:0:
256,192,104377,1,2,0:0:0:0:
256,192,104557,1,0,0:0:0:0:
256,192,104918,1,0,0:0:0:0:
256,192,105099,1,6,0:0:0:0:
256,192,105461,1,6,0:0:0:0:
256,192,105822,1,6,0:0:0:0:
256,192,106183,1,2,0:0:0:0:
256,192,106274,1,2,0:0:0:0:
256,192,106364,1,2,0:0:0:0:
256,192,106545,1,0,0:0:0:0:
256,192,106726,1,2,0:0:0:0:
256,192,106816,1,2,0:0:0:0:
256,192,106906,1,0,0:0:0:0:
256,192,107087,1,2,0:0:0:0:
256,192,107448,1,4,0:0:0:0:
256,192,107630,1,0,0:0:0:0:
256,192,107720,1,0,0:0:0:0:
256,192,107810,1,2,0:0:0:0:
256,192,107991,1,0,0:0:0:0:
256,192,108172,1,2,0:0:0:0:
256,192,108352,1,0,0:0:0:0:
256,192,108443,1,0,0:0:0:0:
256,192,108533,1,2,0:0:0:0:
256,192,108714,1,0,0:0:0:0:
256,192,108895,1,0,0:0:0:0:
256,192,109075,1,2,0:0:0:0:
256,192,109166,1,2,0:0:0:0:
256,192,109256,1,2,0:0:0:0:
256,192,109437,1,2,0:0:0:0:
256,192,109617,1,0,0:0:0:0:
256,192,109798,1,2,0:0:0:0:
256,192,109889,1,0,0:0:0:0:
256,192,109979,1,0,0:0:0:0:
256,192,110069,1,0,0:0:0:0:
256,192,110160,1,2,0:0:0:0:
256,192,110340,1,0,0:0:0:0:
256,192,110701,1,0,0:0:0:0:
256,192,110883,1,6,0:0:0:0:
256,192,111244,1,6,0:0:0:0:
256,192,111605,1,6,0:0:0:0:
256,192,111786,1,0,0:0:0:0:
256,192,111967,1,0,0:0:0:0:
256,192,112057,1,2,0:0:0:0:
256,192,112147,1,2,0:0:0:0:
256,192,112328,1,2,0:0:0:0:
256,192,112509,1,4,0:0:0:0:
256,192,112871,1,6,0:0:0:0:
256,192,113232,1,4,0:0:0:0:
256,192,113593,1,2,0:0:0:0:
256,192,113774,1,2,0:0:0:0:
256,192,113954,1,2,0:0:0:0:
256,192,114135,1,0,0:0:0:0:
256,192,114316,1,0,0:0:0:0:
256,192,114497,1,0,0:0:0:0:
256,192,114677,1,6,0:0:0:0:
256,192,114858,1,4,0:0:0:0:
256,192,115039,1,6,0:0:0:0:
256,192,115220,1,6,0:0:0:0:
256,192,116123,1,4,0:0:0:0:
256,192,116485,1,2,0:0:0:0:
256,192,116665,1,2,0:0:0:0:
256,192,116756,1,2,0:0:0:0:
256,192,116846,1,0,0:0:0:0:
256,192,117027,1,0,0:0:0:0:
256,192,117207,1,2,0:0:0:0:
256,192,117388,1,0,0:0:0:0:
256,192,117569,1,0,0:0:0:0:
256,192,117750,1,0,0:0:0:0:
256,192,117840,1,0,0:0:0:0:
256,192,117930,1,2,0:0:0:0:
256,192,118111,1,0,0:0:0:0:
256,192,118292,1,2,0:0:0:0:
256,192,118653,1,2,0:0:0:0:
256,192,119015,1,0,0:0:0:0:
256,192,119376,1,2,0:0:0:0:
256,192,119557,1,2,0:0:0:0:
256,192,119647,1,2,0:0:0:0:
256,192,119738,1,0,0:0:0:0:
256,192,119918,1,0,0:0:0:0:
256,192,120099,1,2,0:0:0:0:
256,192,120280,1,0,0:0:0:0:
256,192,120460,1,0,0:0:0:0:
256,192,120551,1,0,0:0:0:0:
256,192,120641,1,2,0:0:0:0:
256,192,120822,1,0,0:0:0:0:
256,192,121003,1,2,0:0:0:0:
256,192,121183,1,4,0:0:0:0:
256,192,121545,1,6,0:0:0:0:
256,192,121906,1,4,0:0:0:0:
256,192,122268,1,2,0:0:0:0:
256,192,122448,1,2,0:0:0:0:
256,192,122539,1,2,0:0:0:0:
256,192,122629,1,0,0:0:0:0:
256,192,122810,1,0,0:0:0:0:
256,192,122990,1,2,0:0:0:0:
256,192,123171,1,0,0:0:0:0:
256,192,123352,1,0,0:0:0:0:
256,192,123533,1,0,0:0:0:0:
256,192,123623,1,0,0:0:0:0:
256,192,123713,1,2,0:0:0:0:
256,192,123894,1,0,0:0:0:0:
256,192,124075,1,2,0:0:0:0:
256,192,124436,1,2,0:0:0:0:
256,192,124798,1,0,0:0:0:0:
256,192,125159,1,2,0:0:0:0:
256,192,125340,1,2,0:0:0:0:
256,192,125430,1,2,0:0:0:0:
256,192,125521,1,0,0:0:0:0:
256,192,125701,1,0,0:0:0:0:
256,192,125882,1,2,0:0:0:0:
256,192,126063,1,0,0:0:0:0:
256,192,126243,1,0,0:0:0:0:
256,192,126334,1,0,0:0:0:0:
256,192,126424,1,2,0:0:0:0:
256,192,126605,1,0,0:0:0:0:
256,192,126786,1,2,0:0:0:0:
256,192,126967,1,2,0:0:0:0:
256,192,127147,1,0,0:0:0:0:
256,192,127328,1,2,0:0:0:0:
256,192,127509,1,0,0:0:0:0:
256,192,127689,1,6,0:0:0:0:
256,192,128051,1,0,0:0:0:0:
256,192,128232,1,2,0:0:0:0:
256,192,128593,1,2,0:0:0:0:
256,192,128774,1,0,0:0:0:0:
256,192,128954,1,0,0:0:0:0:
256,192,129135,1,2,0:0:0:0:
256,192,129497,1,0,0:0:0:0:
256,192,129677,1,2,0:0:0:0:
256,192,130039,1,2,0:0:0:0:
256,192,130220,1,0,0:0:0:0:
256,192,130400,1,2,0:0:0:0:
256,192,130581,1,2,0:0:0:0:
256,192,130942,1,2,0:0:0:0:
256,192,131123,1,2,0:0:0:0:
256,192,131485,1,2,0:0:0:0:
256,192,131665,1,0,0:0:0:0:
256,192,131846,1,2,0:0:0:0:
256,192,132027,1,0,0:0:0:0:
256,192,132388,1,2,0:0:0:0:
256,192,132569,1,0,0:0:0:0:
256,192,132930,1,0,0:0:0:0:
256,192,133292,1,0,0:0:0:0:
