osu file format v14

[General]
AudioFilename: audio.mp3
AudioLeadIn: 0
PreviewTime: 52446
Countdown: 0
SampleSet: Soft
StackLeniency: 0.7
Mode: 0
LetterboxInBreaks: 0
WidescreenStoryboard: 1

[Editor]
DistanceSpacing: 1
BeatDivisor: 4
GridSize: 32
TimelineZoom: 2.5

[Metadata]
Title:KING
TitleUnicode:KING
Artist:Hoshimachi Suisei
ArtistUnicode:星街すいせい
Creator:-Aqua
Version:Mocaotic's Insane
Source:
Tags:Suisei Channel すいちゃん Sui-chan すいすい Suisui ホロライブ hololive VTuber Virtual YouTuber Cover Song Japanese Pop J-pop Jpop Rock J-rock Jrock Idols Sui Suichan Suityan Sui-tyan Sui-sui Hoshimati Hosimachi Hosimati ほしまちぎゃらりー ほしまちすたじお Kanaria GUMI Vocaloid Alt Alternator Mocaotic coco cococolaco loli catgirl Moete NEURONIO Maot
BeatmapID:2994882
BeatmapSetID:1457209

[Difficulty]
HPDrainRate:5
CircleSize:4
OverallDifficulty:8
ApproachRate:8.8
SliderMultiplier:1.58
SliderTickRate:1

[Events]
//Background and Video events
0,0,"sui.jpg",0,0
Video,0,"video.mp4"
//Break Periods
//Storyboard Layer 0 (Background)
//Storyboard Layer 1 (Fail)
//Storyboard Layer 2 (Pass)
//Storyboard Layer 3 (Foreground)
//Storyboard Layer 4 (Overlay)
//Storyboard Sound Samples

[TimingPoints]
-2403,361.44578313253,4,2,1,60,1,0
488,-200,4,2,1,40,0,0
1934,-200,4,2,1,50,0,0
3380,-80,4,2,1,75,0,1
3470,-100,4,2,1,75,0,0
9163,-80,4,2,1,75,0,1
9253,-100,4,2,1,75,0,0
14946,-125,4,2,1,60,0,0
17747,-125,4,2,1,5,0,0
17837,-125,4,2,1,60,0,0
23350,-125,4,2,1,5,0,0
23621,-125,4,2,1,60,0,0
25428,-111.111111111111,4,2,1,60,0,0
25789,-100,4,2,1,60,0,0
26151,-90.9090909090909,4,2,1,60,0,0
26512,-83.3333333333333,4,2,1,65,0,0
26874,-100,4,2,1,65,0,0
28681,-83.3333333333333,4,2,1,65,0,0
29584,-100,4,2,1,65,0,0
31572,-71.4285714285714,4,2,1,65,0,0
32295,-83.3333333333333,4,2,1,65,0,0
32657,-100,4,2,1,65,0,0
34464,-83.3333333333333,4,2,1,65,0,0
35187,-100,4,2,1,65,0,0
36633,-71.4285714285714,4,2,1,65,0,0
36904,-71.4285714285714,4,2,1,5,0,0
36994,-71.4285714285714,4,2,1,65,0,0
37265,-71.4285714285714,4,2,1,5,0,0
37356,-71.4285714285714,4,2,1,65,0,0
37627,-71.4285714285714,4,2,1,5,0,0
37717,-71.4285714285714,4,2,1,65,0,0
39524,-71.4285714285714,4,2,1,65,0,0
39615,-71.4285714285714,4,2,1,5,0,0
39886,-71.4285714285714,4,2,1,65,0,0
39976,-71.4285714285714,4,2,1,5,0,0
40247,-71.4285714285714,4,2,1,65,0,0
40337,-71.4285714285714,4,2,1,5,0,0
40970,-100,4,2,1,70,0,0
41874,-100,4,2,1,5,0,0
41964,-100,4,2,1,70,0,0
42145,-100,4,2,1,5,0,0
42235,-100,4,2,1,70,0,0
43319,-100,4,2,1,5,0,0
43410,-100,4,2,1,70,0,0
43590,-100,4,2,1,5,0,0
43681,-100,4,2,1,70,0,0
44765,-100,4,2,1,5,0,0
44856,-100,4,2,1,70,0,0
45036,-100,4,2,1,5,0,0
45127,-100,4,2,1,70,0,0
47657,-100,4,2,1,5,0,0
47747,-100,4,2,1,70,0,0
47928,-100,4,2,1,5,0,0
48018,-100,4,2,1,70,0,0
49103,-100,4,2,1,5,0,0
49193,-100,4,2,1,70,0,0
49374,-100,4,2,1,5,0,0
49464,-100,4,2,1,70,0,0
50548,-100,4,2,1,5,0,0
50639,-100,4,2,1,70,0,0
50819,-100,4,2,1,5,0,0
50910,-100,4,2,1,70,0,0
51090,-71.4285714285714,4,2,1,70,0,0
51181,-71.4285714285714,4,2,1,5,0,0
51452,-71.4285714285714,4,2,1,70,0,0
51542,-71.4285714285714,4,2,1,5,0,0
51813,-71.4285714285714,4,2,1,70,0,0
51904,-71.4285714285714,4,2,1,5,0,0
52175,-71.4285714285714,4,2,1,70,0,0
52536,-76.9230769230769,4,2,1,85,0,1
62928,-76.9230769230769,4,2,1,5,0,1
63018,-66.6666666666667,4,2,1,85,0,1
63380,-76.9230769230769,4,2,1,85,0,1
64103,-83.3333333333333,4,2,1,70,0,0
65548,-83.3333333333333,4,2,1,90,0,0
65639,-83.3333333333333,4,2,1,5,0,0
65729,-83.3333333333333,4,2,1,90,0,0
65819,-83.3333333333333,4,2,1,5,0,0
65910,-83.3333333333333,4,2,1,90,0,0
66000,-83.3333333333333,4,2,1,5,0,0
66090,-83.3333333333333,4,2,1,90,0,0
66181,-83.3333333333333,4,2,1,5,0,0
66994,-83.3333333333333,4,2,1,75,0,1
67084,-100,4,2,1,75,0,0
72777,-83.3333333333333,4,2,1,75,0,1
72868,-100,4,2,1,75,0,0
78560,-100,4,2,1,60,0,0
85066,-100,4,2,1,75,0,0
85247,-100,4,2,1,60,0,0
87325,-100,4,2,1,5,0,0
87416,-100,4,2,1,60,0,0
87506,-100,4,2,1,5,0,0
87596,-100,4,2,1,60,0,0
87687,-100,4,2,1,5,0,0
87777,-100,4,2,1,60,0,0
88048,-100,4,2,1,5,0,0
88139,-100,4,2,1,60,0,0
88229,-100,4,2,1,5,0,0
88319,-100,4,2,1,60,0,0
88410,-100,4,2,1,5,0,0
88681,-100,4,2,1,60,0,0
90127,-100,4,2,1,70,0,0
91030,-100,4,2,1,5,0,0
91121,-100,4,2,1,70,0,0
91301,-100,4,2,1,5,0,0
91392,-100,4,2,1,70,0,0
92476,-100,4,2,1,5,0,0
92566,-100,4,2,1,70,0,0
92747,-100,4,2,1,5,0,0
92837,-100,4,2,1,70,0,0
93922,-100,4,2,1,5,0,0
94012,-100,4,2,1,70,0,0
94193,-100,4,2,1,5,0,0
94283,-100,4,2,1,70,0,0
96813,-100,4,2,1,5,0,0
96904,-100,4,2,1,70,0,0
97084,-100,4,2,1,5,0,0
97175,-100,4,2,1,70,0,0
98259,-100,4,2,1,5,0,0
98350,-100,4,2,1,70,0,0
98530,-100,4,2,1,5,0,0
98621,-100,4,2,1,70,0,0
99705,-100,4,2,1,5,0,0
99795,-100,4,2,1,70,0,0
99976,-100,4,2,1,5,0,0
100066,-100,4,2,1,70,0,0
100247,-71.4285714285714,4,2,1,70,0,0
100337,-71.4285714285714,4,2,1,5,0,0
100609,-71.4285714285714,4,2,1,70,0,0
100699,-71.4285714285714,4,2,1,5,0,0
100970,-71.4285714285714,4,2,1,70,0,0
101060,-71.4285714285714,4,2,1,5,0,0
101331,-71.4285714285714,4,2,1,70,0,0
101693,-76.9230769230769,4,2,1,85,0,1
112084,-76.9230769230769,4,2,1,5,0,1
112175,-66.6666666666667,4,2,1,85,0,1
112536,-76.9230769230769,4,2,1,85,0,1
113259,-83.3333333333333,4,2,1,70,0,0
114705,-83.3333333333333,4,2,1,90,0,0
114795,-83.3333333333333,4,2,1,5,0,0
114886,-83.3333333333333,4,2,1,90,0,0
114976,-83.3333333333333,4,2,1,5,0,0
115066,-71.4285714285714,4,2,1,90,0,0
115157,-71.4285714285714,4,2,1,5,0,0
115247,-71.4285714285714,4,2,1,90,0,0
115337,-71.4285714285714,4,2,1,5,0,0
115428,-71.4285714285714,4,2,1,70,0,0
116151,-71.4285714285714,4,2,1,75,0,1
116241,-83.3333333333333,4,2,1,75,0,1
121934,-71.4285714285714,4,2,1,75,0,1
122024,-83.3333333333333,4,2,1,75,0,1
127717,-83.3333333333333,4,2,1,60,0,0

[Colours]
Combo1 : 62,62,255
Combo2 : 168,168,255

[HitObjects]
38,49,488,5,2,0:0:0:0:
38,49,850,2,0,L|-14:40,2,39.5,2|2|2,0:0|0:0|0:0,0:0:0:0:
102,107,1392,2,0,L|154:98,2,39.5,2|2|2,0:0|0:0|0:0,0:0:0:0:
29,155,1934,5,2,0:0:0:0:
29,155,2115,1,2,0:0:0:0:
109,193,2295,5,2,0:0:0:0:
109,193,2476,1,2,0:0:0:0:
37,314,2657,6,0,L|30:224,1,79,2|0,0:0|0:0,0:0:0:0:
254,93,3380,6,0,B|223:62|223:62|211:181,1,148.125,6|0,3:2|0:0,0:0:0:0:
157,224,3741,2,0,L|172:310,1,79,8|2,1:0|0:0,0:0:0:0:
317,349,4103,1,2,3:2:0:0:
260,283,4283,1,2,0:0:0:0:
232,366,4464,1,8,1:0:0:0:
347,267,4645,6,0,P|409:253|464:251,1,118.5,2|0,0:0|0:0,0:0:0:0:
478,262,5006,1,2,0:0:0:0:
512,178,5187,1,8,1:0:0:0:
512,178,5368,1,2,0:0:0:0:
419,42,5548,6,0,L|431:144,1,79,2|2,3:2|0:0,0:0:0:0:
346,256,5910,2,0,L|355:177,1,79,8|2,1:0|0:0,0:0:0:0:
345,166,6181,1,2,0:2:0:0:
333,157,6271,6,0,B|255:162|267:211|181:214,1,158,2|8,3:2|1:0,0:0:0:0:
121,274,6813,1,2,0:0:0:0:
42,109,6994,1,2,3:2:0:0:
126,142,7175,2,0,P|170:122|209:117,2,79,2|8|2,0:0|1:0|0:0,0:0:0:0:
0,284,7717,5,2,3:2:0:0:
60,216,7898,1,2,0:2:0:0:
0,284,8078,5,8,1:0:0:0:
60,216,8259,1,2,0:2:0:0:
228,241,8440,6,0,B|153:247|167:298|85:304,1,158,2|8,3:2|1:0,0:0:0:0:
87,304,9163,6,0,B|142:326|142:326|163:353|163:353|222:376,1,148.125,6|0,3:2|0:0,0:0:0:0:
296,376,9524,2,0,L|299:297,1,79,8|2,1:0|0:0,0:0:0:0:
372,170,9886,2,0,L|376:249,1,79,2|2,3:2|0:0,0:0:0:0:
501,381,10247,5,8,1:0:0:0:
511,291,10428,2,0,P|444:314|409:374,1,118.5,2|0,0:0|0:0,0:0:0:0:
413,366,10789,1,2,0:0:0:0:
319,214,10970,2,0,P|352:237|390:242,1,79,8|2,1:0|0:0,0:0:0:0:
219,319,11331,6,0,L|212:240,1,79,2|2,3:2|0:0,0:0:0:0:
280,62,11693,2,0,L|273:150,1,79,8|2,1:0|0:0,0:0:0:0:
277,156,11964,1,2,0:2:0:0:
284,170,12054,6,0,P|341:175|371:122,1,118.5,2|0,3:2|0:0,0:0:0:0:
446,108,12416,2,0,L|457:204,1,79,8|2,1:0|0:0,0:0:0:0:
512,38,12777,5,2,3:2:0:0:
434,0,12958,1,2,0:0:0:0:
370,58,13139,2,0,L|274:47,1,79,8|2,1:0|0:0,0:0:0:0:
148,105,13500,5,2,3:2:0:0:
209,13,13681,1,2,0:2:0:0:
252,130,13862,5,8,1:0:0:0:
121,18,14042,1,2,0:2:0:0:
118,188,14223,1,2,3:2:0:0:
0,15,14584,5,8,1:0:0:0:
244,68,14946,6,0,B|184:42|184:42|116:60,1,126.4,2|0,3:2|3:0,0:0:0:0:
130,79,15488,1,2,0:0:0:0:
249,90,15669,2,0,B|189:64|189:64|121:82,1,126.4,2|2,3:2|1:0,0:0:0:0:
318,167,16392,6,0,P|376:133|452:142,1,126.4,2|2,3:2|3:2,0:0:0:0:
445,130,16934,1,0,0:0:0:0:
377,92,17115,1,2,3:2:0:0:
505,270,17476,6,0,B|494:210|494:210|513:251,1,94.8,2|0,1:0|0:0,0:0:0:0:
505,270,17837,6,0,B|436:276|449:323|367:324,1,126.4,2|2,3:2|3:2,0:0:0:0:
399,342,18380,1,2,0:0:0:0:
512,291,18560,2,0,B|443:297|456:344|374:345,1,126.4,2|2,3:2|1:0,0:0:0:0:
222,384,19283,5,2,3:2:0:0:
222,384,19645,2,0,L|214:298,1,63.2,2|0,3:2|0:0,0:0:0:0:
128,342,20006,2,0,L|136:256,1,63.2,2|0,3:2|0:0,0:0:0:0:
43,371,20368,5,2,3:2:0:0:
0,145,20729,6,0,P|59:156|114:207,1,126.4,2|2,3:2|3:2,0:0:0:0:
122,174,21271,1,0,0:0:0:0:
14,121,21452,2,0,P|73:132|128:183,1,126.4,2|2,3:2|1:0,0:0:0:0:
280,249,22175,6,0,P|233:252|231:182,1,126.4,2|2,3:2|3:2,0:0:0:0:
236,182,22717,1,0,0:0:0:0:
183,253,22898,1,2,3:2:0:0:
347,38,23259,6,0,L|355:-8,1,31.6,2|0,1:0|0:0,0:0:0:0:
353,7,23621,6,0,P|374:80|351:134,1,126.4,2|0,3:2|3:0,0:0:0:0:
341,139,24163,1,2,0:0:0:0:
422,53,24343,2,0,P|385:119|330:141,1,126.4,2|2,3:2|1:0,0:0:0:0:
446,289,25066,6,0,L|520:281,1,63.2,2|0,3:2|3:0,0:0:0:0:
353,372,25428,2,0,L|427:380,1,71.0999978302003,2|0,3:2|3:0,0:0:0:0:
229,271,25789,2,0,L|313:263,1,79,2|0,3:2|3:0,0:0:0:0:
114,375,26151,2,0,L|207:385,1,86.9000026519776,2|0,3:2|3:0,0:0:0:0:
318,235,26512,6,0,L|215:244,1,94.7999971069337,6|2,3:2|0:0,0:0:0:0:
212,267,26783,1,2,0:0:0:0:
212,267,26874,2,0,P|258:281|292:313,1,79,2|2,3:0|0:0,0:0:0:0:
386,107,27235,2,0,P|350:139|306:153,1,79,2|2,3:2|0:0,0:0:0:0:
475,245,27596,1,2,3:0:0:0:
495,153,27777,1,2,0:0:0:0:
361,253,27958,6,0,P|369:306|372:350,1,79,2|2,3:2|0:0,0:0:0:0:
453,384,28319,1,2,3:0:0:0:
453,384,28500,1,2,0:0:0:0:
273,332,28681,6,0,B|226:330|226:330|180:363,1,94.7999971069337,2|0,3:2|0:0,0:0:0:0:
126,275,28952,2,0,B|173:273|173:273|219:306,1,94.7999971069337,2|0,0:2|0:0,0:0:0:0:
273,218,29223,2,0,B|226:216|226:216|180:249,1,94.7999971069337,2|2,0:0|3:2,0:0:0:0:
128,179,29584,5,2,0:0:0:0:
228,52,29765,2,0,P|209:87|205:126,1,79,2|2,3:0|0:0,0:0:0:0:
58,0,30127,5,0,3:2:0:0:
128,57,30307,1,2,0:0:0:0:
19,173,30488,2,0,L|28:84,1,79,2|2,3:0|0:0,0:0:0:0:
154,211,30850,6,0,P|95:227|72:257,2,79,2|2|2,3:2|0:0|3:0,0:0:0:0:
229,156,31392,1,2,0:0:0:0:
149,300,31572,6,0,B|187:302|187:302|189:303|189:303|219:305|219:305|283:360,1,110.599996624756,2|0,3:2|0:0,0:0:0:0:
313,383,31843,6,0,B|351:381|351:381|353:380|353:380|383:378|383:378|447:323,1,110.599996624756,2|0,3:2|0:0,0:0:0:0:
466,288,32115,5,2,3:2:0:0:
333,165,32295,6,0,L|342:304,1,94.7999971069337,6|2,3:2|0:0,0:0:0:0:
344,286,32566,1,2,0:0:0:0:
344,286,32657,1,2,3:0:0:0:
416,220,32837,1,2,0:0:0:0:
260,133,33018,5,2,3:2:0:0:
260,133,33199,1,2,0:0:0:0:
334,0,33380,2,0,L|331:78,1,79,2|2,3:0|0:0,0:0:0:0:
489,132,33741,6,0,P|452:118|413:118,1,79,2|2,3:2|0:0,0:0:0:0:
340,174,34103,1,2,3:0:0:0:
340,174,34283,1,2,0:0:0:0:
216,62,34464,6,0,B|239:90|239:90|245:149,1,94.7999971069337,2|0,3:2|0:0,0:0:0:0:
204,69,34735,2,0,B|216:35|216:35|264:0,1,94.7999971069337,2|0,0:2|0:0,0:0:0:0:
220,79,35006,2,0,B|183:84|183:84|129:61,1,94.7999971069337,2|2,0:0|3:2,0:0:0:0:
50,105,35368,5,2,0:0:0:0:
130,239,35548,2,0,L|125:161,1,79,2|0,3:0|0:0,0:0:0:0:
49,310,35910,1,2,3:2:0:0:
153,342,36090,1,2,0:0:0:0:
33,302,36271,2,0,L|28:224,1,79,2|0,3:0|0:0,0:0:0:0:
215,145,36633,6,0,P|149:132|168:213,1,165.899994937134,2|0,3:2|0:0,0:0:0:0:
234,228,36994,6,0,B|292:200|292:200|350:239|315:317,1,165.899994937134,2|0,3:2|0:0,0:0:0:0:
244,310,37356,6,0,B|160:303|175:387|53:357,1,165.899994937134,2|0,3:2|0:0,0:0:0:0:
20,311,37717,6,0,B|45:265|30:202|30:202|58:259|111:274,1,221.199993249512,2|2,3:2|0:0,0:0:0:0:
21,310,39524,6,0,L|90:298,1,55.299998312378,2|0,3:2|0:0,0:0:0:0:
238,341,39886,6,0,L|307:329,1,55.299998312378,2|0,3:2|0:0,0:0:0:0:
455,372,40247,6,0,L|524:360,1,55.299998312378,2|0,3:2|0:0,0:0:0:0:
509,362,40970,6,0,B|440:357|440:291|357:288,1,158,8|8,1:0|1:0,0:0:0:0:
308,341,41512,1,2,0:0:0:0:
444,219,41693,6,0,L|433:138,1,79,8|0,1:0|0:0,0:0:0:0:
411,127,41964,2,0,L|420:205,1,79,8|0,1:0|0:0,0:0:0:0:
398,192,42235,5,8,1:0:0:0:
392,152,42325,1,8,1:0:0:0:
388,113,42416,2,0,B|310:123|318:165|238:174,1,158,8|8,1:0|1:0,0:0:0:0:
244,174,42958,1,2,0:0:0:0:
117,85,43139,6,0,P|154:97|180:127,1,79,8|0,1:0|0:0,0:0:0:0:
169,149,43410,2,0,P|143:119|106:107,1,79,8|0,1:0|0:0,0:0:0:0:
97,130,43681,5,8,1:0:0:0:
134,142,43771,1,8,1:0:0:0:
159,171,43862,2,0,P|127:218|115:330,1,158,8|8,1:0|1:0,0:0:0:0:
61,383,44404,1,2,0:0:0:0:
255,365,44584,6,0,L|176:373,1,79,8|0,1:0|0:0,0:0:0:0:
183,350,44856,2,0,L|261:341,1,79,8|0,1:0|0:0,0:0:0:0:
269,319,45127,5,8,1:0:0:0:
229,323,45217,1,8,1:0:0:0:
190,327,45307,2,0,P|128:298|163:211,1,158,8|8,1:0|1:0,0:0:0:0:
208,164,45850,2,0,L|206:133,2,19.75,0|0|0,3:0|3:0|3:0,3:0:0:0:
214,174,46030,6,0,L|304:169,1,79,8|0,1:0|0:0,0:0:0:0:
121,148,46392,1,8,1:0:0:0:
240,267,46572,1,8,1:0:0:0:
121,148,46753,6,0,B|121:227|57:220|65:311,1,158,8|8,1:0|1:0,0:0:0:0:
36,163,47295,1,2,0:0:0:0:
196,148,47476,6,0,P|157:138|104:160,1,79,8|0,1:0|0:0,0:0:0:0:
240,79,47747,2,0,P|213:107|204:164,1,79,8|0,1:0|0:0,0:0:0:0:
202,6,48018,5,8,1:0:0:0:
213,43,48109,1,8,1:0:0:0:
240,71,48199,2,0,B|316:70|313:11|412:12,1,158,8|8,1:0|1:0,0:0:0:0:
384,13,48741,1,2,0:0:0:0:
512,106,48922,6,0,L|426:96,1,79,8|0,1:0|0:0,0:0:0:0:
420,115,49193,2,0,L|498:124,1,79,8|0,1:0|0:0,0:0:0:0:
485,143,49464,5,8,1:0:0:0:
445,138,49554,1,8,1:0:0:0:
406,133,49645,2,0,P|338:182|379:268,1,158,8|8,1:0|1:0,0:0:0:0:
440,269,50187,1,2,0:0:0:0:
292,317,50368,6,0,P|255:298|206:311,1,79,8|0,1:0|0:0,0:0:0:0:
196,295,50639,2,0,P|230:272|243:223,1,79,8|0,1:0|0:0,0:0:0:0:
317,205,50910,2,0,L|321:235,2,19.75,0|0|0,1:0|3:0|3:0,3:0:0:0:
314,191,51090,6,0,B|345:185|345:185|349:182|349:182|404:171,1,55.299998312378,8|0,1:0|0:0,0:0:0:0:
198,1,51452,6,0,B|229:6|229:6|233:9|233:9|288:20,1,55.299998312378,8|0,1:0|0:0,0:0:0:0:
182,200,51813,6,0,B|213:194|213:194|217:191|217:191|272:180,1,55.299998312378,8|0,1:0|0:0,0:0:0:0:
66,10,52175,6,0,B|97:15|97:15|101:18|101:18|156:29,1,55.299998312378,2|0,3:2|3:0,0:0:0:0:
184,73,52356,2,2,L|219:65,2,27.649999156189,2|2|2,3:2|3:2|3:2,3:2:0:0:
174,83,52536,6,0,L|186:216,1,102.699995298767,6|0,3:2|0:0,0:0:0:0:
118,314,52807,1,2,0:0:0:0:
118,314,52898,2,0,B|142:284|142:284|232:263,1,102.699995298767,8|2,1:0|0:0,0:0:0:0:
338,83,53259,6,0,L|326:216,1,102.699995298767,2|0,3:2|0:0,0:0:0:0:
394,314,53530,1,2,0:0:0:0:
394,314,53621,2,0,B|370:284|370:284|280:263,1,102.699995298767,8|2,1:0|0:0,0:0:0:0:
307,269,53982,1,2,3:2:0:0:
487,316,54163,5,2,0:0:0:0:
487,316,54253,1,2,0:0:0:0:
487,316,54343,2,0,P|431:328|389:388,1,102.699995298767,8|2,1:0|0:0,0:0:0:0:
485,163,54705,5,2,3:2:0:0:
386,260,54886,1,2,0:2:0:0:
314,74,55066,5,8,1:0:0:0:
406,184,55247,1,2,0:2:0:0:
487,16,55428,6,0,B|434:-3|434:-3|373:5,1,102.699995298767,2|0,3:2|0:0,0:0:0:0:
367,15,55699,1,2,0:0:0:0:
367,15,55789,1,8,1:0:0:0:
408,203,55970,6,2,L|420:96,1,102.699995298767,2|2,0:0|3:2,0:0:0:0:
303,263,56331,2,2,L|315:156,1,102.699995298767,2|8,0:2|1:0,0:0:0:0:
198,323,56693,2,2,L|210:216,1,102.699995298767,2|2,0:0|3:2,0:0:0:0:
135,180,57054,5,2,0:0:0:0:
279,350,57235,1,8,1:0:0:0:
126,376,57416,1,2,0:0:0:0:
209,220,57596,6,0,L|198:323,1,102.699995298767,2|2,3:2|0:2,0:0:0:0:
26,373,57958,1,8,1:0:0:0:
91,285,58139,1,2,0:0:0:0:
91,285,58229,1,2,0:0:0:0:
91,285,58319,6,0,P|145:298|179:349,1,102.699995298767,6|0,3:2|0:0,0:0:0:0:
245,384,58591,1,2,0:0:0:0:
245,384,58681,2,0,L|360:373,1,102.699995298767,8|2,1:0|0:0,0:0:0:0:
453,140,59042,6,0,P|399:153|365:204,1,102.699995298767,2|0,3:2|0:0,0:0:0:0:
299,239,59314,1,2,0:0:0:0:
299,239,59404,2,0,L|184:228,1,102.699995298767,8|2,1:0|0:0,0:0:0:0:
197,230,59765,1,2,3:2:0:0:
289,48,59946,5,2,0:0:0:0:
289,48,60036,1,2,0:0:0:0:
289,48,60127,2,0,P|310:114|287:162,1,102.699995298767,8|2,1:0|0:0,0:0:0:0:
372,12,60488,5,2,3:2:0:0:
228,103,60669,1,2,0:2:0:0:
388,164,60850,1,8,1:0:0:0:
316,82,61030,1,2,0:2:0:0:
316,82,61121,1,2,0:0:0:0:
316,82,61211,6,0,P|308:140|304:195,1,102.699995298767,2|0,3:2|0:0,0:0:0:0:
235,16,61572,1,8,1:0:0:0:
92,118,61753,6,2,L|222:107,1,102.699995298767,2|2,0:0|3:2,0:0:0:0:
46,223,62115,2,2,L|176:212,1,102.699995298767,2|8,0:0|1:0,0:0:0:0:
0,329,62476,2,2,L|130:318,1,102.699995298767,2|2,0:0|3:2,0:0:0:0:
271,384,62837,6,0,B|279:357|279:357|268:323,1,51.3499976493837,2|0,0:0|0:0,0:0:0:0:
196,291,63018,2,0,B|280:303|269:362|370:371,1,177.750006780625,8|0,1:0|0:0,0:0:0:0:
415,296,63380,6,0,P|362:310|328:351,1,102.699995298767,2|0,3:2|0:0,0:0:0:0:
493,158,63741,2,0,L|506:286,1,102.699995298767,8|0,1:0|0:0,0:0:0:0:
419,80,64103,1,6,3:2:0:0:
419,80,65548,6,0,P|389:76|333:89,1,47.3999985534668,2|0,3:2|0:0,0:0:0:0:
274,2,65729,2,0,P|293:24|315:77,1,47.3999985534668,2|0,3:2|0:0,0:0:0:0:
414,91,65910,6,0,P|384:87|328:100,1,47.3999985534668,2|0,3:2|0:0,0:0:0:0:
269,13,66091,2,0,P|288:35|310:88,1,47.3999985534668,2|0,3:2|0:0,0:0:0:0:
298,51,66994,6,0,B|333:17|379:33|379:33|396:62|452:71,1,142.199995660401,6|0,3:2|0:0,0:0:0:0:
512,125,67356,2,0,P|474:135|447:163,1,79,8|2,1:0|0:0,0:0:0:0:
511,238,67717,1,2,3:2:0:0:
511,238,67898,1,2,0:0:0:0:
353,340,68078,5,8,1:0:0:0:
436,368,68259,2,0,L|425:236,1,118.5,2|0,0:0|0:0,0:0:0:0:
423,233,68621,1,2,0:0:0:0:
282,301,68801,2,0,B|272:342|272:342|283:377,1,79,8|2,1:0|0:0,0:0:0:0:
328,217,69163,6,0,L|249:212,1,79,2|2,3:2|0:0,0:0:0:0:
111,332,69524,2,0,L|189:327,1,79,8|2,1:0|0:0,0:0:0:0:
199,340,69795,1,2,0:0:0:0:
209,352,69886,6,0,L|88:358,1,118.5,2|0,3:2|0:0,0:0:0:0:
75,373,70247,1,8,1:0:0:0:
0,324,70428,1,2,0:0:0:0:
85,198,70609,6,0,L|79:276,1,79,2|2,3:2|0:0,0:0:0:0:
176,171,70970,2,0,L|170:92,1,79,8|2,1:0|0:0,0:0:0:0:
0,0,71331,5,2,3:2:0:0:
100,41,71512,1,2,0:2:0:0:
7,117,71693,5,8,1:0:0:0:
110,36,71874,1,2,0:2:0:0:
183,210,72054,6,0,P|114:210|119:122,1,158,2|8,3:2|1:0,0:0:0:0:
434,6,72777,6,0,B|372:12|372:12|359:23|359:23|275:33,1,142.199995660401,6|0,3:2|0:0,0:0:0:0:
235,83,73139,2,0,P|227:128|251:186,1,79,8|2,1:0|0:0,0:0:0:0:
382,159,73500,2,0,P|353:133|316:120,1,79,2|2,3:2|0:0,0:0:0:0:
309,212,73862,1,8,1:0:0:0:
473,105,74042,6,0,L|465:273,1,158,2|2,0:0|0:0,0:0:0:0:
356,384,74584,1,8,1:0:0:0:
356,384,74765,1,2,0:0:0:0:
512,374,74946,6,0,B|488:355|488:355|440:350,1,79,2|2,3:2|0:0,0:0:0:0:
308,255,75307,2,0,B|332:274|332:274|381:280,1,79,8|2,1:0|0:0,0:0:0:0:
389,272,75578,1,2,0:0:0:0:
399,265,75669,6,0,P|330:291|314:331,1,118.5,2|0,3:2|0:0,0:0:0:0:
239,377,76030,2,0,L|229:281,1,79,8|2,1:0|0:0,0:0:0:0:
160,171,76392,1,2,3:2:0:0:
277,221,76572,1,2,0:0:0:0:
160,171,76753,2,0,L|151:249,1,79,8|2,1:0|0:0,0:0:0:0:
190,379,77115,5,2,3:2:0:0:
75,289,77295,1,2,0:2:0:0:
238,250,77476,5,8,1:0:0:0:
111,360,77657,1,2,0:2:0:0:
238,250,77837,1,2,3:2:0:0:
0,165,78199,5,8,1:0:0:0:
185,28,78560,5,6,3:2:0:0:
217,114,78741,1,2,0:0:0:0:
118,176,78922,2,0,L|125:97,1,79,2|2,3:0|0:0,0:0:0:0:
276,47,79283,5,2,3:2:0:0:
276,47,79464,1,2,0:0:0:0:
202,198,79645,1,2,3:0:0:0:
257,267,80006,5,2,3:2:0:0:
263,273,80096,2,0,P|310:259|366:278,1,79,2|2,0:0|0:0,0:0:0:0:
389,204,80368,2,0,P|424:237|436:295,1,79,2|2,3:0|0:0,0:0:0:0:
440,138,80729,5,2,3:2:0:0:
356,280,80910,1,2,0:0:0:0:
440,138,81090,5,2,3:0:0:0:
356,280,81271,1,2,0:0:0:0:
512,346,81452,6,0,P|454:364|429:396,1,79,2|2,3:2|0:0,0:0:0:0:
355,370,81813,1,2,3:0:0:0:
355,370,81994,1,2,0:0:0:0:
406,211,82175,6,0,L|400:306,1,79,2|2,3:2|0:0,0:0:0:0:
268,384,82536,1,2,3:0:0:0:
201,313,82898,5,2,3:2:0:0:
196,322,82988,2,0,P|150:323|114:301,1,79,2|2,0:0|0:0,0:0:0:0:
54,347,83259,2,0,P|30:307|31:265,1,79,2|2,3:0|0:0,0:0:0:0:
174,239,83621,5,2,3:2:0:0:
89,208,83801,1,2,0:0:0:0:
154,70,83982,2,0,L|157:148,1,79,2|2,3:0|0:0,0:0:0:0:
19,0,84343,5,6,3:2:0:0:
63,80,84524,1,2,0:0:0:0:
154,70,84705,2,0,L|253:58,1,79,2|0,3:0|0:0,0:0:0:0:
364,78,85066,5,2,3:1:0:0:
310,7,85247,1,0,0:0:0:0:
246,139,85428,1,2,3:0:0:0:
323,194,85789,5,2,3:2:0:0:
331,186,85880,2,0,L|336:100,1,79,2|2,0:0|0:0,0:0:0:0:
409,85,86151,2,0,L|404:6,1,79,2|2,3:0|0:0,0:0:0:0:
461,162,86512,5,2,3:2:0:0:
326,110,86693,1,2,0:0:0:0:
284,248,86874,5,2,3:0:0:0:
378,179,87055,1,2,0:0:0:0:
459,303,87235,6,0,L|456:249,1,39.5,2|0,3:2|0:0,0:0:0:0:
377,307,87416,2,0,L|374:268,1,39.5,2|0,0:0|0:0,0:0:0:0:
295,311,87596,2,0,L|292:272,1,39.5,2|0,3:0|0:0,0:0:0:0:
234,372,87777,1,2,0:0:0:0:
299,265,87958,6,0,L|301:304,1,39.5,2|0,3:2|0:0,0:0:0:0:
381,261,88138,2,0,L|383:299,1,39.5,2|0,0:0|0:0,0:0:0:0:
463,256,88319,2,0,L|465:295,1,39.5,2|0,3:0|0:0,0:0:0:0:
485,142,88681,5,2,3:2:0:0:
476,137,88771,2,0,P|433:158|411:196,1,79,2|2,0:0|0:0,0:0:0:0:
338,188,89042,2,0,P|333:227|347:264,1,79,2|2,3:0|0:0,0:0:0:0:
276,115,89404,5,2,3:2:0:0:
203,279,89584,1,2,3:2:0:0:
163,88,89765,1,2,3:2:0:0:
305,232,89946,1,2,3:2:0:0:
72,166,90127,6,0,B|137:173|137:173|159:190|159:190|247:199,1,158,8|8,1:0|1:0,0:0:0:0:
95,250,90669,1,2,0:0:0:0:
203,113,90850,6,0,L|195:23,1,79,8|0,1:0|0:0,0:0:0:0:
217,22,91121,2,0,L|225:112,1,79,8|0,1:0|0:0,0:0:0:0:
243,87,91392,5,8,1:0:0:0:
240,48,91482,1,8,1:0:0:0:
237,9,91572,2,0,P|303:3|337:90,1,158,8|8,1:0|1:0,0:0:0:0:
341,76,92115,1,2,0:0:0:0:
496,107,92295,6,0,B|454:101|454:101|418:117,1,79,8|0,1:0|0:0,0:0:0:0:
424,140,92566,2,0,B|457:125|457:125|499:131,1,79,8|0,1:0|0:0,0:0:0:0:
502,155,92837,5,8,1:0:0:0:
463,149,92928,1,8,1:0:0:0:
427,164,93018,2,0,B|406:240|406:240|432:315,1,158,8|8,1:0|1:0,0:0:0:0:
492,238,93560,1,2,0:0:0:0:
375,380,93741,6,0,L|296:373,1,79,8|0,1:0|0:0,0:0:0:0:
288,349,94012,2,0,L|367:356,1,79,8|0,1:0|0:0,0:0:0:0:
359,332,94283,5,8,1:0:0:0:
319,328,94373,1,8,1:0:0:0:
280,325,94464,2,0,B|202:322|210:381|97:372,1,158,8|8,1:0|1:0,0:0:0:0:
62,321,95006,2,0,L|28:324,2,19.75,0|0|0,3:0|3:0|3:0,3:0:0:0:
74,320,95187,6,0,L|67:220,1,79,8|0,1:0|0:0,0:0:0:0:
188,74,95548,1,8,1:0:0:0:
31,163,95729,1,8,1:0:0:0:
171,162,95910,6,0,B|105:146|115:90|45:72,1,158,8|8,1:0|1:0,0:0:0:0:
97,0,96452,1,2,0:0:0:0:
0,176,96633,6,0,P|38:156|91:163,1,79,8|0,1:0|0:0,0:0:0:0:
99,161,96904,2,0,P|62:138|42:88,1,79,8|0,1:0|0:0,0:0:0:0:
37,83,97175,5,8,1:0:0:0:
36,122,97265,1,8,1:0:0:0:
17,156,97356,2,0,P|106:142|200:135,1,158,8|8,1:0|1:0,0:0:0:0:
173,136,97898,1,2,0:0:0:0:
277,24,98078,6,0,B|253:44|253:44|247:91,1,79,8|0,1:0|0:0,0:0:0:0:
352,48,98350,2,0,B|322:37|322:37|278:55,1,79,8|0,1:0|0:0,0:0:0:0:
368,124,98621,5,8,1:0:0:0:
356,88,98711,1,8,1:0:0:0:
326,65,98801,2,0,P|319:156|315:241,1,158,8|8,1:0|1:0,0:0:0:0:
255,287,99343,1,2,0:0:0:0:
404,220,99524,6,0,L|397:324,1,79,8|0,1:0|0:0,0:0:0:0:
420,310,99795,2,0,L|425:231,1,79,8|0,1:0|0:0,0:0:0:0:
477,154,100066,2,0,L|514:150,2,19.75,0|0|0,1:0|3:0|3:0,3:0:0:0:
463,147,100247,6,0,B|434:149|434:149|427:146|427:146|385:152,1,55.299998312378,8|0,1:0|0:0,0:0:0:0:
316,335,100609,6,0,B|313:306|313:306|316:299|316:299|313:280,1,55.299998312378,8|0,1:0|0:0,0:0:0:0:
127,188,100970,6,0,B|155:185|155:185|162:188|162:188|204:182,1,55.299998312378,8|0,1:0|0:0,0:0:0:0:
275,0,101331,6,0,B|277:28|277:28|274:35|274:35|277:54,1,55.299998312378,2|0,3:2|3:0,0:0:0:0:
203,83,101512,2,2,L|206:115,2,27.649999156189,2|2|2,3:2|3:2|3:2,0:2:0:0:
194,72,101693,6,0,B|161:86|161:86|80:78,1,102.699995298767,6|0,3:2|0:0,0:0:0:0:
59,199,101964,1,2,0:0:0:0:
59,199,102054,2,0,L|171:186,1,102.699995298767,8|2,1:0|0:0,0:0:0:0:
318,72,102416,6,0,B|351:86|351:86|432:78,1,102.699995298767,2|0,3:2|0:0,0:0:0:0:
453,199,102687,1,2,0:0:0:0:
453,199,102777,2,0,L|341:186,1,102.699995298767,8|2,1:0|0:0,0:0:0:0:
350,187,103139,1,2,3:2:0:0:
220,332,103319,5,2,0:0:0:0:
220,332,103410,1,2,0:0:0:0:
220,332,103500,2,0,P|268:335|282:242,1,154.049992948151,8|0,1:0|0:0,0:0:0:0:
265,231,103862,5,2,3:2:0:0:
136,346,104042,1,2,0:2:0:0:
286,384,104223,5,8,1:0:0:0:
154,240,104404,1,2,0:2:0:0:
385,234,104584,6,0,B|331:227|331:227|271:255,1,102.699995298767,2|2,3:2|0:0,0:0:0:0:
267,265,104856,1,2,0:0:0:0:
267,265,104946,1,8,1:0:0:0:
306,47,105127,6,2,L|320:156,1,102.699995298767,2|2,0:0|3:2,0:0:0:0:
207,24,105489,2,2,L|221:133,1,102.699995298767,2|8,0:0|1:0,0:0:0:0:
108,0,105850,2,2,L|122:109,1,102.699995298767,2|2,0:0|3:2,0:0:0:0:
59,177,106211,5,2,0:0:0:0:
207,24,106392,1,8,1:0:0:0:
220,125,106572,1,2,0:0:0:0:
33,58,106753,6,0,P|89:70|129:120,1,102.699995298767,2|2,3:2|0:2,0:0:0:0:
48,263,107115,1,8,1:0:0:0:
159,198,107295,1,2,0:0:0:0:
159,198,107386,1,2,0:0:0:0:
159,198,107476,6,0,L|51:174,1,102.699995298767,6|0,3:2|0:0,0:0:0:0:
205,120,107747,1,2,0:0:0:0:
205,120,107837,2,0,P|248:176|241:230,1,102.699995298767,8|2,1:0|0:0,0:0:0:0:
383,328,108199,6,0,L|491:304,1,102.699995298767,2|0,3:2|0:0,0:0:0:0:
337,250,108470,1,2,0:0:0:0:
337,250,108560,2,0,P|294:306|301:360,1,102.699995298767,8|2,1:0|0:0,0:0:0:0:
293,335,108922,1,2,3:2:0:0:
415,180,109103,5,2,0:0:0:0:
415,180,109193,1,2,0:0:0:0:
415,180,109283,2,0,L|287:160,1,102.699995298767,8|2,1:0|0:0,0:0:0:0:
233,220,109645,5,2,3:2:0:0:
309,70,109825,1,2,0:2:0:0:
118,176,110006,1,8,1:0:0:0:
204,31,110187,1,2,0:2:0:0:
204,31,110277,1,2,0:0:0:0:
204,31,110368,6,0,B|220:83|220:83|206:156,1,102.699995298767,2|0,3:2|0:0,0:0:0:0:
136,277,110729,1,8,1:0:0:0:
324,237,110910,6,2,L|220:232,1,102.699995298767,2|2,0:0|3:2,0:0:0:0:
398,147,111271,2,2,L|294:142,1,102.699995298767,2|8,0:0|1:0,0:0:0:0:
472,57,111633,2,2,L|368:52,1,102.699995298767,2|2,0:0|3:2,0:0:0:0:
414,231,111994,6,0,B|442:224|442:224|488:240,1,51.3499976493837,2|0,0:0|0:0,0:0:0:0:
484,139,112175,2,0,P|499:228|515:334,1,177.750006780625,8|0,1:0|0:0,0:0:0:0:
456,379,112536,6,0,P|406:354|387:293,1,102.699995298767,2|0,3:2|0:0,0:0:0:0:
313,139,112898,2,0,P|316:194|273:241,1,102.699995298767,8|0,1:0|0:0,0:0:0:0:
155,331,113259,1,6,3:2:0:0:
155,331,114705,6,0,P|188:318|239:313,1,47.3999985534668,2|0,3:2|0:0,0:0:0:0:
253,261,114886,2,0,P|288:266|334:287,1,47.3999985534668,2|0,3:2|0:0,0:0:0:0:
404,205,115066,6,0,P|367:190|311:185,1,55.299998312378,2|0,3:2|0:0,0:0:0:0:
291,122,115247,2,0,P|252:127|201:150,1,55.299998312378,2|0,3:2|0:0,0:0:0:0:
158,190,115428,5,2,0:0:0:0:
159,202,115789,1,2,0:0:0:0:
160,214,116151,6,0,B|221:225|221:225|255:262|255:262|322:273,1,165.899994937134,6|0,3:2|0:0,0:0:0:0:
410,347,116512,2,0,P|364:355|312:386,1,94.7999971069337,8|2,1:0|0:0,0:0:0:0:
387,202,116874,1,2,3:2:0:0:
466,268,117054,1,2,0:0:0:0:
506,65,117235,5,8,1:0:0:0:
477,165,117416,1,2,0:0:0:0:
477,165,117596,2,0,L|371:155,1,94.7999971069337,0|2,3:0|0:0,0:0:0:0:
244,19,117958,1,8,1:0:0:0:
345,49,118139,1,2,0:0:0:0:
262,221,118319,6,0,L|270:126,1,94.7999971069337,2|2,3:2|0:0,0:0:0:0:
143,0,118681,2,0,L|151:95,1,94.7999971069337,8|2,1:0|0:0,0:0:0:0:
181,194,118952,1,2,0:0:0:0:
181,194,119042,6,0,P|150:140|68:151,1,142.199995660401,2|0,3:2|0:0,0:0:0:0:
100,234,119404,2,0,P|109:294|115:356,1,94.7999971069337,8|2,1:0|0:0,0:0:0:0:
292,288,119765,1,2,3:2:0:0:
193,384,119946,1,2,0:0:0:0:
214,180,120127,6,0,P|205:240|199:302,1,94.7999971069337,8|2,1:0|0:0,0:0:0:0:
144,117,120488,5,2,3:2:0:0:
32,227,120669,1,2,0:0:0:0:
68,68,120850,5,8,1:0:0:0:
186,183,121031,1,2,0:0:0:0:
284,18,121211,6,0,P|222:33|184:89,1,94.7999971069337,2|2,3:2|0:0,0:0:0:0:
269,107,121482,1,2,0:0:0:0:
269,107,121572,2,0,L|372:91,1,94.7999971069337,8|0,1:0|0:0,0:0:0:0:
512,189,121934,6,0,B|492:171|479:149|479:149|356:134,1,165.899994937134,6|0,3:2|0:0,0:0:0:0:
310,198,122295,2,0,B|328:248|328:248|316:310,1,94.7999971069337,8|2,1:0|0:0,0:0:0:0:
162,309,122657,2,0,B|196:268|196:268|255:247,1,94.7999971069337,2|2,3:2|0:0,0:0:0:0:
333,382,123018,5,8,1:0:0:0:
249,345,123199,1,2,0:0:0:0:
249,345,123380,2,0,B|280:372|280:372|333:382,1,94.7999971069337,0|2,3:0|0:0,0:0:0:0:
479,259,123741,1,8,1:0:0:0:
440,355,123922,1,2,0:0:0:0:
320,193,124103,6,0,P|328:246|334:308,1,94.7999971069337,2|2,3:2|0:0,0:0:0:0:
419,151,124464,2,0,P|424:97|435:36,1,94.7999971069337,8|2,1:0|0:0,0:0:0:0:
512,0,124735,1,2,0:0:0:0:
512,0,124825,6,0,B|445:8|453:46|357:55,1,142.199995660401,2|0,3:2|0:0,0:0:0:0:
318,106,125187,2,0,L|201:96,1,94.7999971069337,8|2,1:0|0:0,0:0:0:0:
51,41,125548,1,2,3:2:0:0:
113,126,125729,1,2,0:0:0:0:
246,3,125910,2,0,L|129:13,1,94.7999971069337,8|2,1:0|0:0,0:0:0:0:
38,203,126271,5,2,3:2:0:0:
117,105,126452,1,2,0:2:0:0:
175,219,126633,5,8,1:0:0:0:
21,108,126813,1,2,0:2:0:0:
34,291,126994,1,2,3:2:0:0:
34,291,127175,1,2,0:0:0:0:
189,162,127356,5,8,1:0:0:0:
86,194,127536,1,2,0:0:0:0:
258,257,127717,1,6,3:2:0:0:
