osu file format v14

[General]
AudioFilename: audio.mp3
AudioLeadIn: 0
PreviewTime:48010
Countdown: 0
SampleSet: Soft
StackLeniency: 0.7
Mode: 0
LetterboxInBreaks: 0
WidescreenStoryboard: 1

[Editor]
Bookmarks: 530,24530,48530,78068,103914,127914,150068,171299,196222
DistanceSpacing: 0.2
BeatDivisor: 4
GridSize: 32
TimelineZoom: 2.159999

[Metadata]
Title:Jibun Katte Dazzling
TitleUnicode:自分勝手Dazzling
Artist:Hoshimachi Suisei
ArtistUnicode:星街すいせい
Creator:Amateurre
Version:Under the Starry Night Sky with my Dazzling Love Suisei~ Collab Insane
Source:CHUNITHM PARADISE LOST
Tags:チュウニズム パラダイスロスト 音ゲー 音楽ゲーム Rhythm Game vtuber virtual youtuber jibunkatte hololive ホロライブ Rute 齋藤真也 saito masanari 河合泰志 taishi japanese pop jpop j-pop electronic still stellar suichan hosimati hoshimati hosimachi sui-chan shizuku- shikibe mayu kazato asa thzz mocaotic deppyforce koldnoodl matha petal bongo stratos kowari kisata apaffy
BeatmapID:3622346
BeatmapSetID:1595850

[Difficulty]
HPDrainRate:5
CircleSize:4
OverallDifficulty:8
ApproachRate:9
SliderMultiplier:1.8
SliderTickRate:1

[Events]
//Background and Video events
0,0,"suisei8.jpg",0,0
Video,0,"Jibun Katte Dazzling.mp4"
//Break Periods
2,100422,102391
2,190883,195160
//Storyboard Layer 0 (Background)
//Storyboard Layer 1 (Fail)
//Storyboard Layer 2 (Pass)
//Storyboard Layer 3 (Foreground)
//Storyboard Layer 4 (Overlay)
//Storyboard Sound Samples

[TimingPoints]
530,461.538461538462,4,2,2,60,1,0
530,-142.857142857143,4,2,2,60,0,0
7914,-100,4,2,2,80,0,0
11145,-76.9230769230769,4,2,2,80,0,0
15760,-76.9230769230769,4,2,3,80,0,0
16106,-76.9230769230769,4,2,2,80,0,0
16683,-76.9230769230769,4,2,3,80,0,0
17030,-76.9230769230769,4,2,2,80,0,0
17606,-76.9230769230769,4,2,3,80,0,0
17722,-76.9230769230769,4,2,2,80,0,0
20606,-62.5,4,2,2,80,0,0
21068,-62.5,4,2,2,90,0,0
21183,-62.5,4,2,3,90,0,0
21645,-62.5,4,2,2,90,0,0
21876,-62.5,4,2,3,90,0,0
22337,-62.5,4,2,2,90,0,0
22568,-62.5,4,2,3,90,0,0
23030,-62.5,4,2,2,90,0,0
23145,-125,4,2,2,90,0,0
24530,-83.3333333333333,4,2,2,80,0,0
25453,-83.3333333333333,4,2,4,80,0,0
26145,-83.3333333333333,4,2,2,80,0,0
26606,-111.111111111111,4,2,2,80,0,0
27299,-83.3333333333333,4,2,4,80,0,0
27991,-83.3333333333333,4,2,2,80,0,0
28222,-111.111111111111,4,2,2,80,0,0
29145,-111.111111111111,4,2,4,80,0,0
29606,-111.111111111111,4,2,2,80,0,0
30991,-111.111111111111,4,2,4,80,0,0
31683,-111.111111111111,4,2,2,80,0,0
31914,-111.111111111111,4,2,2,85,0,0
32376,-111.111111111111,4,2,4,85,0,0
32491,-111.111111111111,4,2,2,85,0,0
33299,-111.111111111111,4,2,4,85,0,0
33760,-111.111111111111,4,2,2,85,0,0
34222,-111.111111111111,4,2,4,85,0,0
34337,-111.111111111111,4,2,2,85,0,0
35145,-111.111111111111,4,2,4,85,0,0
35606,-142.857142857143,4,2,2,85,0,0
36068,-142.857142857143,4,2,4,85,0,0
36760,-142.857142857143,4,2,2,85,0,0
36991,-142.857142857143,4,2,4,85,0,0
37453,-142.857142857143,4,2,2,90,0,0
37914,-142.857142857143,4,2,4,90,0,0
38030,-142.857142857143,4,2,2,90,0,0
38491,-142.857142857143,4,2,3,90,0,0
38606,-142.857142857143,4,2,2,90,0,0
38837,-142.857142857143,4,2,3,90,0,0
39299,-142.857142857143,4,2,2,75,0,0
40222,-142.857142857143,4,2,4,75,0,0
40453,-142.857142857143,4,2,2,75,0,0
41837,-142.857142857143,4,2,4,75,0,0
42068,-142.857142857143,4,2,2,75,0,0
42299,-100,4,2,2,90,0,0
42991,-142.857142857143,4,2,2,85,0,0
43683,-142.857142857143,4,2,3,85,0,0
44260,-142.857142857143,4,2,2,85,0,0
44606,-142.857142857143,4,2,3,85,0,0
44953,-142.857142857143,4,2,2,85,0,0
45068,-142.857142857143,4,2,3,85,0,0
45299,-142.857142857143,4,2,2,85,0,0
45760,-58.8235294117647,4,2,2,85,0,0
45876,-58.8235294117647,4,2,5,85,0,0
45933,-58.8235294117647,4,2,3,85,0,0
46222,-58.8235294117647,4,2,3,90,0,0
46683,-58.8235294117647,4,2,4,90,0,0
46914,-66.6666666666667,4,2,2,90,0,0
47145,-66.6666666666667,4,2,4,90,0,0
47260,-66.6666666666667,4,2,2,90,0,0
48068,-133.333333333333,4,2,3,90,0,0
48414,-133.333333333333,4,2,3,5,0,0
48530,-66.6666666666667,4,2,5,95,0,0
48760,-66.6666666666667,4,2,2,95,0,0
48991,-66.6666666666667,4,2,6,95,0,0
49222,-66.6666666666667,4,2,2,95,0,0
49914,-66.6666666666667,4,2,6,95,0,0
50145,-66.6666666666667,4,2,2,95,0,0
50837,-66.6666666666667,4,2,6,95,0,0
51068,-66.6666666666667,4,2,2,95,0,0
51760,-66.6666666666667,4,2,6,95,0,0
51991,-66.6666666666667,4,2,2,95,0,0
52683,-66.6666666666667,4,2,6,95,0,0
52914,-66.6666666666667,4,2,2,95,0,0
53606,-66.6666666666667,4,2,6,95,0,0
53837,-66.6666666666667,4,2,2,95,0,0
54530,-66.6666666666667,4,2,5,95,0,0
54760,-66.6666666666667,4,2,2,95,0,0
55453,-66.6666666666667,4,2,6,95,0,0
55683,-66.6666666666667,4,2,2,95,0,0
55914,-66.6666666666667,4,2,7,95,0,0
56145,-66.6666666666667,4,2,2,95,0,0
56376,-66.6666666666667,4,2,6,95,0,0
56606,-66.6666666666667,4,2,2,95,0,0
57299,-66.6666666666667,4,2,6,95,0,0
57530,-66.6666666666667,4,2,2,95,0,0
58222,-66.6666666666667,4,2,6,95,0,0
58453,-66.6666666666667,4,2,2,95,0,0
59145,-66.6666666666667,4,2,6,95,0,0
59376,-66.6666666666667,4,2,2,95,0,0
59606,-66.6666666666667,4,2,7,95,0,0
59837,-66.6666666666667,4,2,2,95,0,0
60068,-66.6666666666667,4,2,5,95,0,0
60299,-66.6666666666667,4,2,2,95,0,0
60530,-66.6666666666667,4,2,7,95,0,0
60760,-66.6666666666667,4,2,2,95,0,0
60991,-66.6666666666667,4,2,5,95,0,0
61222,-66.6666666666667,4,2,2,95,0,0
61453,-66.6666666666667,4,2,8,95,0,0
61568,-66.6666666666667,4,2,3,95,0,0
61683,-66.6666666666667,4,2,2,95,0,0
61799,-66.6666666666667,4,2,9,95,0,0
61914,-66.6666666666667,4,2,2,95,0,0
62722,-66.6666666666667,4,2,3,95,0,0
62837,-66.6666666666667,4,2,8,95,0,0
63068,-66.6666666666667,4,2,10,95,0,0
63299,-66.6666666666667,4,2,11,95,0,0
63530,-66.6666666666667,4,2,2,95,0,0
63760,-66.6666666666667,4,2,6,95,0,0
63991,-66.6666666666667,4,2,2,95,0,0
64683,-66.6666666666667,4,2,6,95,0,0
64914,-66.6666666666667,4,2,2,95,0,0
65606,-66.6666666666667,4,2,6,95,0,0
65837,-66.6666666666667,4,2,2,95,0,0
66530,-66.6666666666667,4,2,6,95,0,0
66760,-66.6666666666667,4,2,2,95,0,0
67453,-66.6666666666667,4,2,6,95,0,0
67683,-66.6666666666667,4,2,2,95,0,0
68376,-66.6666666666667,4,2,6,95,0,0
68606,-66.6666666666667,4,2,2,95,0,0
68837,-66.6666666666667,4,2,7,95,0,0
69183,-66.6666666666667,4,2,2,95,0,0
70683,-66.6666666666667,4,2,11,95,0,0
70914,-66.6666666666667,4,2,2,95,0,0
71145,-66.6666666666667,4,2,6,95,0,0
71376,-66.6666666666667,4,2,2,95,0,0
72068,-66.6666666666667,4,2,6,95,0,0
72299,-66.6666666666667,4,2,2,95,0,0
72991,-66.6666666666667,4,2,6,95,0,0
73222,-66.6666666666667,4,2,2,95,0,0
73914,-66.6666666666667,4,2,6,95,0,0
74145,-66.6666666666667,4,2,2,95,0,0
74376,-66.6666666666667,4,2,7,95,0,0
74606,-66.6666666666667,4,2,2,95,0,0
74837,-66.6666666666667,4,2,5,95,0,0
74953,-66.6666666666667,4,2,2,95,0,0
75068,-66.6666666666667,4,2,3,95,0,0
75183,-66.6666666666667,4,2,2,95,0,0
75299,-66.6666666666667,4,2,7,95,0,0
75530,-66.6666666666667,4,2,2,95,0,0
75760,-66.6666666666667,4,2,12,95,0,0
75876,-66.6666666666667,4,2,3,95,0,0
75991,-66.6666666666667,4,2,9,95,0,0
76106,-66.6666666666667,4,2,4,95,0,0
76222,-66.6666666666667,4,2,7,95,0,0
76453,-66.6666666666667,4,2,2,95,0,0
76568,-66.6666666666667,4,2,3,95,0,0
76683,-66.6666666666667,4,2,12,95,0,0
76799,-66.6666666666667,4,2,3,95,0,0
76914,-66.6666666666667,4,2,4,95,0,0
77030,-66.6666666666667,4,2,2,95,0,0
77376,-66.6666666666667,4,2,9,95,0,0
77606,-66.6666666666667,4,2,2,95,0,0
77837,-66.6666666666667,4,2,13,95,0,0
77953,-66.6666666666667,4,2,4,95,0,0
78068,-100,4,2,2,80,0,0
78991,-100,4,2,4,80,0,0
79222,-100,4,2,2,80,0,0
80722,-100,4,2,5,80,0,0
80780,-100,4,2,2,80,0,0
80837,-100,4,2,4,80,0,0
81068,-100,4,2,2,80,0,0
81760,-83.3333333333333,4,2,2,80,0,0
82568,-83.3333333333333,4,2,5,80,0,0
82626,-83.3333333333333,4,2,2,80,0,0
82683,-83.3333333333333,4,2,6,80,0,0
82799,-83.3333333333333,4,2,2,80,0,0
83145,-83.3333333333333,4,2,6,80,0,0
83260,-83.3333333333333,4,2,4,80,0,0
83376,-83.3333333333333,4,2,2,80,0,0
83491,-83.3333333333333,4,2,4,80,0,0
83837,-66.6666666666667,4,2,2,90,0,0
84068,-66.6666666666667,4,2,4,90,0,0
84183,-55.5555555555556,4,2,2,90,0,0
84414,-55.5555555555556,4,2,4,90,0,0
84530,-55.5555555555556,4,2,2,90,0,0
84760,-55.5555555555556,4,2,4,90,0,0
84876,-55.5555555555556,4,2,3,90,0,0
85453,-66.6666666666667,4,2,2,80,0,0
85914,-66.6666666666667,4,2,4,80,0,0
86260,-66.6666666666667,4,2,2,80,0,0
86837,-66.6666666666667,4,2,4,80,0,0
87530,-66.6666666666667,4,2,2,80,0,0
87760,-66.6666666666667,4,2,4,80,0,0
87876,-66.6666666666667,4,2,2,80,0,0
88683,-66.6666666666667,4,2,4,80,0,0
89145,-66.6666666666667,4,2,2,80,0,0
89606,-66.6666666666667,4,2,4,80,0,0
89953,-66.6666666666667,4,2,2,80,0,0
90530,-66.6666666666667,4,2,4,80,0,0
90991,-66.6666666666667,4,2,2,80,0,0
91453,-66.6666666666667,4,2,4,80,0,0
91799,-66.6666666666667,4,2,2,80,0,0
92376,-66.6666666666667,4,2,4,80,0,0
92606,-66.6666666666667,4,2,2,80,0,0
92837,-66.6666666666667,4,2,2,85,0,0
93299,-66.6666666666667,4,2,4,85,0,0
93414,-66.6666666666667,4,2,2,85,0,0
93645,-142.857142857143,4,2,2,85,0,0
94222,-142.857142857143,4,2,4,85,0,0
94453,-66.6666666666667,4,2,4,85,0,0
94683,-66.6666666666667,4,2,2,85,0,0
95145,-66.6666666666667,4,2,4,85,0,0
95260,-66.6666666666667,4,2,2,85,0,0
95491,-142.857142857143,4,2,2,85,0,0
96068,-142.857142857143,4,2,4,85,0,0
96299,-66.6666666666667,4,2,4,85,0,0
96530,-66.6666666666667,4,2,2,85,0,0
96991,-66.6666666666667,4,2,4,85,0,0
97683,-66.6666666666667,4,2,2,85,0,0
97914,-66.6666666666667,4,2,4,85,0,0
98376,-66.6666666666667,4,2,2,85,0,0
98837,-66.6666666666667,4,2,4,85,0,0
99183,-66.6666666666667,4,2,2,85,0,0
99414,-66.6666666666667,4,2,4,85,0,0
99530,-66.6666666666667,4,2,2,85,0,0
99760,-66.6666666666667,4,2,4,85,0,0
100222,-66.6666666666667,4,2,2,75,0,0
101030,-66.6666666666667,4,2,5,75,0,0
101087,-66.6666666666667,4,2,2,75,0,0
101837,-66.6666666666667,4,2,3,75,0,0
102068,-66.6666666666667,4,2,2,75,0,0
102645,-66.6666666666667,4,2,5,75,0,0
102760,-66.6666666666667,4,2,2,75,0,0
102991,-66.6666666666667,4,2,4,75,0,0
103222,-66.6666666666667,4,2,2,75,0,0
103914,-66.6666666666667,4,2,7,83,0,0
104145,-66.6666666666667,4,2,3,83,0,0
104260,-66.6666666666667,4,2,2,83,0,0
104837,-66.6666666666667,4,2,7,86,0,0
105068,-66.6666666666667,4,2,3,86,0,0
105183,-66.6666666666667,4,2,2,86,0,0
105530,-66.6666666666667,4,2,3,86,0,0
105587,-66.6666666666667,4,2,2,86,0,0
105760,-66.6666666666667,4,2,14,90,0,0
105876,-66.6666666666667,4,2,2,90,0,0
105991,-66.6666666666667,4,2,3,90,0,0
106222,-66.6666666666667,4,2,2,90,0,0
107145,-66.6666666666667,4,2,3,90,0,0
107606,-100,4,2,2,80,0,0
108530,-66.6666666666667,4,2,12,90,0,0
108991,-66.6666666666667,4,2,2,60,0,0
109453,-66.6666666666667,4,2,5,95,0,0
109683,-66.6666666666667,4,2,2,95,0,0
109914,-66.6666666666667,4,2,6,95,0,0
110145,-66.6666666666667,4,2,2,95,0,0
110837,-66.6666666666667,4,2,6,95,0,0
111068,-66.6666666666667,4,2,2,95,0,0
111760,-66.6666666666667,4,2,6,95,0,0
111991,-66.6666666666667,4,2,2,95,0,0
112683,-66.6666666666667,4,2,6,95,0,0
112914,-66.6666666666667,4,2,2,95,0,0
113606,-66.6666666666667,4,2,6,95,0,0
113837,-66.6666666666667,4,2,2,95,0,0
114530,-66.6666666666667,4,2,6,95,0,0
114760,-66.6666666666667,4,2,2,95,0,0
115453,-66.6666666666667,4,2,5,95,0,0
115683,-66.6666666666667,4,2,2,95,0,0
116376,-66.6666666666667,4,2,6,95,0,0
116606,-66.6666666666667,4,2,2,95,0,0
116837,-66.6666666666667,4,2,7,95,0,0
117068,-66.6666666666667,4,2,2,95,0,0
117299,-66.6666666666667,4,2,6,95,0,0
117530,-66.6666666666667,4,2,2,95,0,0
118222,-66.6666666666667,4,2,6,95,0,0
118453,-66.6666666666667,4,2,2,95,0,0
119145,-66.6666666666667,4,2,6,95,0,0
119376,-66.6666666666667,4,2,2,95,0,0
120068,-66.6666666666667,4,2,6,95,0,0
120299,-66.6666666666667,4,2,2,95,0,0
120530,-66.6666666666667,4,2,7,95,0,0
120760,-66.6666666666667,4,2,2,95,0,0
120991,-66.6666666666667,4,2,5,95,0,0
121222,-66.6666666666667,4,2,2,95,0,0
121453,-66.6666666666667,4,2,7,95,0,0
121683,-66.6666666666667,4,2,2,95,0,0
121914,-66.6666666666667,4,2,5,95,0,0
122145,-66.6666666666667,4,2,2,95,0,0
122376,-66.6666666666667,4,2,8,95,0,0
122491,-66.6666666666667,4,2,3,95,0,0
122606,-66.6666666666667,4,2,2,95,0,0
122722,-66.6666666666667,4,2,9,95,0,0
122837,-66.6666666666667,4,2,2,95,0,0
123645,-66.6666666666667,4,2,3,95,0,0
123760,-66.6666666666667,4,2,8,95,0,0
123991,-66.6666666666667,4,2,10,95,0,0
124222,-66.6666666666667,4,2,11,95,0,0
124453,-66.6666666666667,4,2,2,95,0,0
124683,-66.6666666666667,4,2,6,95,0,0
124914,-66.6666666666667,4,2,2,95,0,0
125606,-66.6666666666667,4,2,6,95,0,0
125837,-66.6666666666667,4,2,2,95,0,0
126530,-66.6666666666667,4,2,6,95,0,0
126760,-66.6666666666667,4,2,2,95,0,0
127453,-66.6666666666667,4,2,6,95,0,0
127683,-66.6666666666667,4,2,2,95,0,0
128376,-66.6666666666667,4,2,6,95,0,0
128606,-66.6666666666667,4,2,2,95,0,0
129299,-66.6666666666667,4,2,6,95,0,0
129530,-66.6666666666667,4,2,2,95,0,0
129760,-66.6666666666667,4,2,7,95,0,0
130106,-66.6666666666667,4,2,2,95,0,0
131606,-66.6666666666667,4,2,11,95,0,0
131837,-66.6666666666667,4,2,2,95,0,0
132068,-66.6666666666667,4,2,6,95,0,0
132299,-66.6666666666667,4,2,2,95,0,0
132991,-66.6666666666667,4,2,6,95,0,0
133222,-66.6666666666667,4,2,2,95,0,0
133914,-66.6666666666667,4,2,6,95,0,0
134145,-66.6666666666667,4,2,2,95,0,0
134837,-66.6666666666667,4,2,6,95,0,0
135068,-66.6666666666667,4,2,2,95,0,0
135299,-66.6666666666667,4,2,7,95,0,0
135530,-66.6666666666667,4,2,2,95,0,0
135760,-66.6666666666667,4,2,5,95,0,0
135876,-66.6666666666667,4,2,2,95,0,0
135991,-66.6666666666667,4,2,3,95,0,0
136106,-66.6666666666667,4,2,2,95,0,0
136222,-66.6666666666667,4,2,7,95,0,0
136453,-66.6666666666667,4,2,2,95,0,0
136683,-66.6666666666667,4,2,12,95,0,0
136799,-66.6666666666667,4,2,3,95,0,0
136914,-66.6666666666667,4,2,9,95,0,0
137030,-66.6666666666667,4,2,4,95,0,0
137145,-66.6666666666667,4,2,7,95,0,0
137376,-66.6666666666667,4,2,2,95,0,0
137491,-66.6666666666667,4,2,3,95,0,0
137606,-66.6666666666667,4,2,12,95,0,0
137722,-66.6666666666667,4,2,3,95,0,0
137837,-66.6666666666667,4,2,4,95,0,0
137953,-66.6666666666667,4,2,2,95,0,0
138299,-66.6666666666667,4,2,9,95,0,0
138530,-66.6666666666667,4,2,2,95,0,0
138760,-66.6666666666667,4,2,13,95,0,0
138876,-66.6666666666667,4,2,4,95,0,0
138991,-133.333333333333,4,2,2,80,0,0
139914,-133.333333333333,4,2,4,80,0,0
140606,-133.333333333333,4,2,15,80,0,0
141068,-66.6666666666667,4,2,2,90,0,0
141183,-66.6666666666667,4,2,3,90,0,0
141645,-66.6666666666667,4,2,2,90,0,0
141876,-66.6666666666667,4,2,3,90,0,0
142453,-66.6666666666667,4,2,2,90,0,0
142568,-100,4,2,2,85,0,0
143606,-100,4,2,4,85,0,0
144991,-100,4,2,2,85,0,0
145453,-100,4,2,4,85,0,0
145683,-100,4,2,2,85,0,0
146260,-100,4,2,7,85,0,0
147299,-83.3333333333333,4,2,6,85,0,0
148106,-83.3333333333333,4,2,2,85,0,0
149145,-83.3333333333333,4,2,16,85,0,0
149376,-83.3333333333333,4,2,2,85,0,0
149606,-83.3333333333333,4,2,16,85,0,0
149722,-83.3333333333333,4,2,2,85,0,0
150991,-83.3333333333333,4,2,15,85,0,0
152376,-83.3333333333333,4,2,2,85,0,0
152837,-83.3333333333333,4,2,4,85,0,0
153068,-83.3333333333333,4,2,2,85,0,0
154683,-83.3333333333333,4,2,15,85,0,0
155837,-83.3333333333333,4,2,4,90,0,0
156068,-83.3333333333333,4,2,17,90,0,0
156183,-83.3333333333333,4,2,2,90,0,0
156299,-83.3333333333333,4,2,17,90,0,0
156414,-83.3333333333333,4,2,7,90,0,0
156530,-83.3333333333333,4,2,4,90,0,0
156760,-83.3333333333333,4,2,2,90,0,0
157106,-83.3333333333333,4,2,2,90,0,0
157164,-83.3333333333333,4,2,2,90,0,0
157222,-83.3333333333333,4,2,2,90,0,0
157280,-83.3333333333333,4,2,2,90,0,0
157337,-83.3333333333333,4,2,2,90,0,0
157395,-83.3333333333333,4,2,2,90,0,0
157453,-83.3333333333333,4,2,2,85,0,0
158030,-111.111111111111,4,2,2,85,0,0
158260,-111.111111111111,4,2,2,85,0,0
158376,-83.3333333333333,4,2,15,85,0,0
158722,-111.111111111111,4,2,15,85,0,0
158837,-111.111111111111,4,2,2,85,0,0
158953,-111.111111111111,4,2,2,85,0,0
159068,-83.3333333333333,4,2,2,85,0,0
159414,-111.111111111111,4,2,2,85,0,0
159645,-111.111111111111,4,2,2,85,0,0
159760,-83.3333333333333,4,2,2,85,0,0
160106,-111.111111111111,4,2,2,85,0,0
160222,-111.111111111111,4,2,4,85,0,0
160337,-111.111111111111,4,2,4,85,0,0
160453,-83.3333333333333,4,2,4,85,0,0
160568,-83.3333333333333,4,2,2,85,0,0
160683,-83.3333333333333,4,2,2,85,0,0
160799,-83.3333333333333,4,2,2,85,0,0
160914,-83.3333333333333,4,2,2,85,0,0
161030,-83.3333333333333,4,2,2,85,0,0
161145,-83.3333333333333,4,2,7,85,0,0
162068,-83.3333333333333,4,2,4,85,0,0
162530,-83.3333333333333,4,2,2,85,0,0
162645,-111.111111111111,4,2,2,85,0,0
162876,-111.111111111111,4,2,2,85,0,0
162991,-83.3333333333333,4,2,2,85,0,0
163337,-111.111111111111,4,2,2,85,0,0
163568,-111.111111111111,4,2,2,85,0,0
163683,-111.111111111111,4,2,2,85,0,0
163799,-111.111111111111,4,2,5,85,0,0
163856,-111.111111111111,4,2,2,85,0,0
163914,-83.3333333333333,4,2,4,85,0,0
164145,-83.3333333333333,4,2,18,85,0,0
164491,-83.3333333333333,4,2,2,85,0,0
165414,-111.111111111111,4,2,2,85,0,0
165645,-111.111111111111,4,2,2,85,0,0
165760,-83.3333333333333,4,2,15,85,0,0
166106,-111.111111111111,4,2,15,85,0,0
166222,-111.111111111111,4,2,2,85,0,0
166337,-111.111111111111,4,2,2,85,0,0
166453,-83.3333333333333,4,2,2,85,0,0
166799,-111.111111111111,4,2,2,85,0,0
167030,-111.111111111111,4,2,2,85,0,0
167145,-83.3333333333333,4,2,2,85,0,0
167491,-111.111111111111,4,2,2,85,0,0
167606,-111.111111111111,4,2,4,85,0,0
167722,-111.111111111111,4,2,4,85,0,0
167837,-83.3333333333333,4,2,7,85,0,0
167953,-83.3333333333333,4,2,7,85,0,0
168068,-83.3333333333333,4,2,7,85,0,0
168183,-83.3333333333333,4,2,7,85,0,0
168299,-83.3333333333333,4,2,7,85,0,0
168414,-83.3333333333333,4,2,7,85,0,0
168530,-83.3333333333333,4,2,7,85,0,0
169453,-83.3333333333333,4,2,4,85,0,0
169914,-83.3333333333333,4,2,2,85,0,0
170030,-111.111111111111,4,2,2,85,0,0
170260,-111.111111111111,4,2,2,85,0,0
170376,-83.3333333333333,4,2,2,85,0,0
170722,-111.111111111111,4,2,2,85,0,0
170953,-100,4,2,2,85,0,0
171068,-83.3333333333333,4,2,2,85,0,0
171299,-83.3333333333333,4,2,15,85,0,0
172222,-66.6666666666667,4,2,11,90,0,0
173606,-66.6666666666667,4,2,2,90,0,0
175683,-66.6666666666667,4,2,3,90,0,0
175914,-66.6666666666667,4,2,2,90,0,0
177299,-66.6666666666667,4,2,3,90,0,0
177414,-66.6666666666667,4,2,5,90,0,0
177645,-66.6666666666667,4,2,2,90,0,0
177991,-66.6666666666667,4,2,7,90,0,0
179145,-66.6666666666667,4,2,3,90,0,0
179606,-66.6666666666667,4,2,7,90,0,0
180991,-66.6666666666667,4,2,3,90,0,0
181453,-66.6666666666667,4,2,2,90,0,0
181914,-66.6666666666667,4,2,3,90,0,0
182030,-66.6666666666667,4,2,2,90,0,0
182837,-66.6666666666667,4,2,3,90,0,0
182953,-66.6666666666667,4,2,7,90,0,0
183645,-66.6666666666667,4,2,2,90,0,0
183760,-66.6666666666667,4,2,3,90,0,0
183991,-66.6666666666667,4,2,2,90,0,0
184683,-66.6666666666667,4,2,18,90,0,0
184799,-66.6666666666667,4,2,9,90,0,0
185030,-66.6666666666667,4,2,18,90,0,0
185376,-66.6666666666667,4,2,2,90,0,0
185606,-66.6666666666667,4,2,3,90,0,0
185722,-66.6666666666667,4,2,2,90,0,0
186530,-66.6666666666667,4,2,3,90,0,0
186645,-66.6666666666667,4,2,2,90,0,0
187914,-66.6666666666667,4,2,3,90,0,0
188068,-66.6666666666667,4,2,2,90,0,0
190683,-66.6666666666667,4,2,2,75,0,0
195760,-66.6666666666667,4,2,8,95,0,0
196222,-66.6666666666667,4,2,2,90,0,0
196453,-66.6666666666667,4,2,4,90,0,0
196568,-66.6666666666667,4,2,2,90,0,0
196799,-66.6666666666667,4,2,3,90,0,0
196914,-66.6666666666667,4,2,2,90,0,0
197260,-66.6666666666667,4,2,3,90,0,0
197606,-66.6666666666667,4,2,2,90,0,0
198068,-133.333333333333,4,2,2,80,0,0
198530,-66.6666666666667,4,2,9,95,0,0
198991,-66.6666666666667,4,2,2,95,0,0
199453,-66.6666666666667,4,2,6,95,0,0
199683,-66.6666666666667,4,2,2,95,0,0
200376,-66.6666666666667,4,2,6,95,0,0
200606,-66.6666666666667,4,2,2,95,0,0
201299,-66.6666666666667,4,2,6,95,0,0
201530,-66.6666666666667,4,2,2,95,0,0
201760,-66.6666666666667,4,2,19,95,0,0
201991,-66.6666666666667,4,2,2,95,0,0
202222,-66.6666666666667,4,2,5,95,0,0
202453,-66.6666666666667,4,2,2,95,0,0
202683,-66.6666666666667,4,2,19,95,0,0
202914,-66.6666666666667,4,2,2,95,0,0
203145,-66.6666666666667,4,2,5,95,0,0
203376,-66.6666666666667,4,2,2,95,0,0
203606,-66.6666666666667,4,2,7,95,0,0
203837,-66.6666666666667,4,2,2,95,0,0
204068,-66.6666666666667,4,2,5,95,0,0
204299,-66.6666666666667,4,2,2,95,0,0
204530,-66.6666666666667,4,2,20,95,0,0
204587,-66.6666666666667,4,2,2,95,0,0
204760,-66.6666666666667,4,2,3,95,0,0
204818,-66.6666666666667,4,2,2,95,0,0
204991,-66.6666666666667,4,2,21,95,0,0
205049,-66.6666666666667,4,2,2,95,0,0
205222,-66.6666666666667,4,2,3,95,0,0
205280,-66.6666666666667,4,2,2,95,0,0
205453,-66.6666666666667,4,2,7,100,0,0
205683,-66.6666666666667,4,2,2,100,0,0
205914,-66.6666666666667,4,2,5,100,0,0
206030,-66.6666666666667,4,2,2,100,0,0
206145,-66.6666666666667,4,2,16,100,0,0
206260,-66.6666666666667,4,2,3,100,0,0
206376,-66.6666666666667,4,2,7,100,0,0
206606,-66.6666666666667,4,2,2,100,0,0
206837,-66.6666666666667,4,2,12,100,0,0
206953,-66.6666666666667,4,2,3,100,0,0
207068,-66.6666666666667,4,2,9,100,0,0
207183,-66.6666666666667,4,2,4,100,0,0
207299,-66.6666666666667,4,2,7,100,0,0
207530,-66.6666666666667,4,2,2,100,0,0
207645,-66.6666666666667,4,2,3,100,0,0
207703,-66.6666666666667,4,2,2,100,0,0
207760,-66.6666666666667,4,2,12,100,0,0
207876,-66.6666666666667,4,2,3,100,0,0
207991,-66.6666666666667,4,2,16,100,0,0
208106,-66.6666666666667,4,2,3,100,0,0
208222,-66.6666666666667,4,2,2,80,0,0
209145,-90.9090909090909,4,2,2,80,0,0
210068,-90.9090909090909,4,2,4,85,0,0
210760,-90.9090909090909,4,2,15,85,0,0
211222,-66.6666666666667,4,2,2,90,0,0
211337,-66.6666666666667,4,2,3,90,0,0
211799,-66.6666666666667,4,2,2,90,0,0
212030,-66.6666666666667,4,2,3,90,0,0
212606,-66.6666666666667,4,2,2,90,0,0
212722,-66.6666666666667,4,2,5,90,0,0
213299,-66.6666666666667,4,2,19,80,0,0
216068,-66.6666666666667,4,2,19,95,0,0
216414,-66.6666666666667,4,2,2,95,0,0

[Colours]
Combo1 : 111,238,184
Combo2 : 104,162,249
Combo3 : 143,232,250

[HitObjects]
65,216,530,5,2,2:2:0:0:
129,271,760,1,0,0:0:0:0:
129,271,876,1,2,2:2:0:0:
52,293,1106,1,2,2:2:0:0:
256,350,1337,5,2,2:2:0:0:
256,350,2145,5,2,2:2:0:0:
460,293,2376,5,2,2:2:0:0:
386,268,2606,1,0,0:0:0:0:
386,268,2722,1,2,2:2:0:0:
447,216,2952,1,2,2:2:0:0:
256,182,3183,5,2,2:2:0:0:
256,182,3760,2,0,L|256:87,1,94.499997116089,2|0,2:2|0:0,0:0:0:0:
256,50,4222,5,2,2:2:0:0:
343,84,4453,1,0,0:0:0:0:
343,84,4568,1,2,2:2:0:0:
415,32,4799,1,2,2:2:0:0:
256,244,5030,5,2,2:2:0:0:
256,244,5837,5,2,2:2:0:0:
97,32,6068,5,2,2:2:0:0:
169,84,6299,1,0,0:0:0:0:
169,84,6414,1,2,2:2:0:0:
256,50,6645,1,2,2:2:0:0:
256,244,6876,5,2,2:2:0:0:
119,338,7106,5,2,2:2:0:0:
145,288,7222,1,2,0:0:0:0:
134,249,7337,1,2,0:0:0:0:
111,231,7453,1,2,0:0:0:0:
88,225,7568,1,0,0:0:0:0:
75,229,7683,1,0,0:0:0:0:
0,304,7914,6,0,P|22:302|44:299,1,45,12|0,2:1|0:0,0:0:0:0:
223,326,8145,1,0,0:0:0:0:
222,326,8260,2,0,P|225:303|228:281,1,45,0|2,0:0|2:1,0:0:0:0:
178,224,8491,1,0,0:0:0:0:
303,325,8722,6,0,P|343:343|388:346,1,90,0|2,0:0|2:1,0:0:0:0:
464,281,9068,1,0,0:0:0:0:
464,281,9183,2,0,L|471:325,1,45,0|2,0:0|2:1,0:0:0:0:
364,257,9415,1,0,0:0:0:0:
364,257,9530,2,0,L|373:212,1,45
459,95,9760,6,0,L|477:183,1,90
381,132,10106,2,0,L|336:140,1,45,0|2,0:0|2:1,0:0:0:0:
377,48,10337,2,0,L|332:55,1,45
150,133,10568,5,8,2:1:0:0:
97,30,10914,2,0,L|89:74,1,45,8|0,2:1|0:0,0:0:0:0:
2,177,11145,6,0,B|68:142|122:166|122:166|111:215,1,175.499991966248,2|0,2:1|0:0,0:0:0:0:
39,249,11606,6,0,L|48:306,1,58.4999973220827,8|0,2:1|0:0,0:0:0:0:
184,350,11837,1,0,0:0:0:0:
184,317,11953,2,0,P|157:303|130:295,1,58.4999973220827,0|2,0:0|2:1,0:0:0:0:
286,287,12183,1,0,0:0:0:0:
300,309,12299,1,0,0:0:0:0:
329,310,12414,2,0,P|343:285|350:257,1,58.4999973220827
174,168,12645,5,2,2:1:0:0:
223,182,12760,1,0,0:0:0:0:
267,154,12876,2,0,P|267:124|261:96,1,58.4999973220827,0|2,0:0|2:1,0:0:0:0:
43,89,13106,5,0,0:0:0:0:
93,63,13222,2,0,P|85:35|71:10,1,58.4999973220827
25,192,13453,6,0,L|81:205,1,58.4999973220826
143,290,13683,1,0,0:0:0:0:
143,290,13799,2,0,L|86:303,1,58.4999973220826,0|2,0:0|2:1,0:0:0:0:
163,147,14030,2,0,L|175:204,1,58.4999973220826
321,361,14260,5,8,2:1:0:0:
229,275,14606,2,0,P|257:280|285:289,1,58.4999973220826,8|0,2:1|0:0,0:0:0:0:
413,379,14837,2,0,L|428:290,2,87.749995983124,2|0|0,2:1|0:0|0:0,0:0:0:0:
358,248,15299,5,12,2:1:0:0:
358,248,15760,2,0,P|386:258|414:267,1,58.4999973220826,2|0,2:2|0:0,0:0:0:0:
484,175,15991,1,0,0:0:0:0:
497,191,16106,2,0,P|445:218|414:267,1,116.999994644165,2|2,2:2|2:1,0:0:0:0:
442,317,16453,2,0,P|431:289|413:266,1,58.4999973220826
332,128,16683,6,0,P|340:99|354:74,1,58.4999973220826,2|0,2:2|0:0,0:0:0:0:
428,102,16914,1,0,0:0:0:0:
428,101,17030,2,0,P|341:118|261:153,1,175.499991966248,2|0,2:2|0:0,0:0:0:0:
136,32,17606,5,2,2:2:0:0:
136,32,17722,2,0,L|147:89,1,58.4999973220826,2|0,2:2|0:0,0:0:0:0:
25,144,17953,2,0,P|52:152|79:164,1,58.4999973220826,10|0,2:2|0:0,0:0:0:0:
163,259,18183,5,2,2:2:0:0:
184,251,18299,2,0,L|171:193,1,58.4999973220826,8|2,2:1|2:2,0:0:0:0:
34,259,18530,2,0,P|142:271|166:378,1,233.999989288331,2|8,2:1|2:1,0:0:0:0:
94,345,19222,5,0,0:0:0:0:
94,345,19337,1,0,0:0:0:0:
223,314,19568,1,0,0:0:0:0:
223,314,19684,1,0,0:0:0:0:
223,314,19799,1,0,0:0:0:0:
311,368,20030,1,2,2:1:0:0:
311,368,20145,1,0,0:0:0:0:
311,368,20260,1,0,0:0:0:0:
311,367,20376,2,0,P|338:356|366:349,1,58.4999973220826,10|0,2:1|0:0,0:0:0:0:
498,230,20606,2,0,P|462:223|428:212,2,72,8|0|0,2:1|0:0|0:0,0:0:0:0:
457,370,21068,6,0,P|449:334|443:299,1,72,12|8,2:2|2:1,0:0:0:0:
309,187,21299,1,8,2:1:0:0:
295,279,21414,2,0,L|363:257,1,72,12|0,2:2|0:0,0:0:0:0:
469,93,21645,5,8,2:3:0:0:
400,168,21760,2,0,P|392:132|386:97,1,72,12|8,2:2|2:1,0:0:0:0:
179,36,21991,5,8,2:1:0:0:
235,96,22106,2,0,P|270:100|306:106,1,72,12|0,2:2|0:0,0:0:0:0:
133,278,22338,5,8,2:3:0:0:
77,218,22453,2,0,P|41:213|5:207,1,72,12|8,2:2|2:1,0:0:0:0:
247,307,22683,5,8,2:1:0:0:
215,232,22799,1,12,2:2:0:0:
282,190,22914,2,0,L|351:208,1,72,0|8,0:0|2:3,0:0:0:0:
227,27,23145,6,0,P|253:205|268:384,1,360,12|0,2:1|0:0,0:0:0:0:
471,208,24530,6,0,B|451:155|376:150|346:185|346:185|383:189|401:231,2,215.999993408203,12|8|8,2:1|2:1|2:2,0:0:0:0:
200,331,25914,2,0,L|160:319,4,26.9999991760254,0|0|0|0|8,2:2|2:2|2:2|2:2|2:1,0:0:0:0:
127,231,26606,6,0,P|93:252|52:253,1,80.9999975280763,8|0,2:1|0:0,0:0:0:0:
30,175,26953,2,0,P|64:154|104:152,1,80.9999975280763,8|0,2:1|0:0,0:0:0:0:
114,9,27299,2,0,B|83:35|66:95|106:167|187:182|226:112|204:53|150:53,1,269.999991760254,8|0,2:2|2:2,0:0:0:0:
175,60,27991,1,8,2:1:0:0:
473,225,28222,6,0,P|394:208|314:190,1,161.999995056153,8|0,2:1|0:0,0:0:0:0:
392,166,28914,1,8,2:1:0:0:
245,237,29145,2,0,B|228:214|228:214|230:173,2,53.9999983520508,8|0|0,2:2|2:2|2:2,0:0:0:0:
343,291,29606,1,8,2:1:0:0:
343,291,30068,5,0,0:0:0:0:
280,358,30299,1,8,2:1:0:0:
195,326,30530,2,0,L|189:305,4,20.2499993820191,0|0|0|0|0,2:2|2:2|2:2|2:2|2:2,0:0:0:0:
43,199,30991,2,0,P|88:236|147:228,1,121.499996292114,10|0,2:2|0:0,0:0:0:0:
208,159,31453,2,0,L|202:139,4,20.2499993820191,2|0|0|0|8,2:2|0:0|0:0|0:0|2:1,0:0:0:0:
399,248,31914,5,12,2:1:0:0:
345,189,32145,1,0,0:0:0:0:
345,189,32260,1,0,0:0:0:0:
405,132,32491,1,10,2:2:0:0:
343,77,32722,1,10,2:2:0:0:
142,333,33530,5,2,2:2:0:0:
142,333,33760,1,10,2:2:0:0:
88,274,33991,1,0,0:0:0:0:
88,274,34106,1,8,2:1:0:0:
148,217,34337,1,10,2:2:0:0:
86,162,34568,1,10,2:2:0:0:
266,8,35145,5,8,2:2:0:0:
262,14,35260,1,0,0:0:0:0:
258,20,35376,1,0,0:0:0:0:
412,168,35606,2,0,B|449:130|417:59|367:69,1,125.999996154785,10|8,2:2|2:2,0:0:0:0:
382,68,36299,1,0,0:0:0:0:
175,222,36530,2,0,P|113:206|53:191,1,125.999996154785,2|8,2:2|2:2,0:0:0:0:
52,190,37222,1,0,0:0:0:0:
294,134,37453,5,10,2:1:0:0:
294,134,37568,1,2,2:1:0:0:
294,134,37683,1,8,2:1:0:0:
294,134,37799,1,2,2:1:0:0:
294,134,37914,2,0,L|302:164,1,31.4999990386963,8|2,2:1|2:1,0:0:0:0:
244,231,38145,2,0,L|252:261,1,31.4999990386963,0|2,0:0|2:1,0:0:0:0:
400,339,38376,5,2,2:2:0:0:
442,319,38491,1,8,2:1:0:0:
465,279,38606,1,8,2:1:0:0:
459,232,38722,1,0,0:0:0:0:
428,198,38837,1,8,2:1:0:0:
403,203,38953,1,0,0:0:0:0:
381,216,39068,1,0,0:0:0:0:
368,237,39183,1,0,0:0:0:0:
368,262,39299,5,10,2:2:0:0:
317,324,39530,1,0,0:0:0:0:
317,324,39645,1,2,2:2:0:0:
246,275,39876,1,2,2:2:0:0:
192,336,40106,1,2,2:2:0:0:
0,198,40914,5,2,2:2:0:0:
0,198,41145,1,10,2:2:0:0:
51,136,41376,1,0,0:0:0:0:
51,136,41491,1,2,2:2:0:0:
122,185,41722,1,10,2:2:0:0:
176,124,41952,1,10,2:2:0:0:
176,124,42068,2,0,L|168:94,1,31.4999990386963,2|2,2:1|2:1,0:0:0:0:
237,0,42299,6,0,P|329:50|310:153,1,225,12|0,2:1|0:0,0:0:0:0:
343,235,42991,2,0,P|301:189|240:189,1,125.999996154785,10|0,2:2|0:0,0:0:0:0:
81,257,43683,6,0,L|85:272,2,15.7499995193482,10|2|2,2:3|2:3|2:3,0:0:0:0:
58,342,43914,2,0,P|100:296|161:296,1,125.999996154785,2|0,2:2|0:0,0:0:0:0:
312,330,44606,6,0,L|316:345,2,15.7499995193482,2|2|2,2:2|2:3|2:3,0:0:0:0:
391,371,44837,1,10,2:2:0:0:
414,368,44952,1,2,2:1:0:0:
435,358,45067,1,2,2:2:0:0:
452,342,45183,1,2,2:2:0:0:
464,322,45298,1,10,2:1:0:0:
467,298,45413,1,2,2:1:0:0:
464,275,45529,1,2,2:1:0:0:
452,255,45644,1,2,2:1:0:0:
435,239,45760,6,0,L|398:230,6,38.2500007295609,10|2|2|2|2|2|2,2:1|2:3|2:2|2:3|2:3|2:3|2:3,0:0:0:0:
332,148,46222,2,0,L|257:129,1,76.5000014591217,10|0,2:2|0:0,0:0:0:0:
187,263,46453,2,0,L|112:244,1,76.5000014591217,10|0,2:2|0:0,0:0:0:0:
34,207,46683,5,8,2:1:0:0:
34,207,46799,1,0,0:0:0:0:
34,207,46914,2,0,P|99:213|149:171,1,135.000005149842,12|8,2:2|2:1,0:0:0:0:
222,137,47260,2,0,P|156:143|106:101,1,135.000005149842,12|8,2:2|2:3,0:0:0:0:
139,30,47606,5,10,2:2:0:0:
187,263,47837,1,10,2:2:0:0:
187,263,48068,6,0,P|174:302|205:270,1,101.250003862381,4|0,2:1|0:0,0:0:0:0:
187,263,48530,6,0,B|139:237|96:284|101:284|62:333|-4:297,1,202.500007724762,12|2,2:1|2:2,0:0:0:0:
36,228,48991,2,0,P|34:187|25:153,1,67.5000025749208,8|2,2:2|2:2,0:0:0:0:
126,100,49222,2,0,P|118:132|117:166,1,67.5000025749208,0|2,1:1|2:2,0:0:0:0:
36,228,49453,1,8,2:1:0:0:
126,100,49683,1,0,1:1:0:0:
36,228,49914,6,0,P|64:232|93:263,1,67.5000025749208,10|0,2:2|2:2,0:0:0:0:
163,227,50145,2,0,P|173:253|161:293,1,67.5000025749208,2|0,1:2|2:2,0:0:0:0:
100,354,50376,2,0,P|183:312|235:338,1,135.000005149842,10|2,2:2|1:2,0:0:0:0:
303,351,50722,2,0,L|381:339,1,67.5000025749208,2|8,2:2|2:2,0:0:0:0:
444,289,50953,2,0,L|522:277,1,67.5000025749208,2|0,2:2|1:1,0:0:0:0:
303,351,51183,6,0,P|280:280|335:194,1,135.000005149842,2|0,2:2|2:2,0:0:0:0:
367,137,51530,1,0,1:1:0:0:
374,143,51645,1,0,2:2:0:0:
383,148,51760,2,0,P|398:105|378:53,1,67.5000025749208,10|0,2:2|2:2,0:0:0:0:
290,127,51991,2,0,P|288:93|302:62,1,67.5000025749208,2|0,1:2|2:2,0:0:0:0:
465,55,52222,6,0,P|471:137|428:215,1,135.000005149842,10|2,2:2|1:2,0:0:0:0:
376,230,52568,2,0,L|336:223,2,33.7500012874604,2|0|8,2:2|0:0|2:2,0:0:0:0:
462,248,52799,1,2,2:2:0:0:
469,298,52914,1,0,1:1:0:0:
476,348,53030,1,2,2:2:0:0:
476,348,53145,6,0,P|424:332|386:337,1,67.5000025749208,8|0,2:1|2:2,0:0:0:0:
324,192,53376,2,0,P|284:229|269:264,1,67.5000025749208,2|0,1:2|2:2,0:0:0:0:
421,250,53606,2,0,P|367:262|337:285,1,67.5000025749208,10|0,2:2|2:2,0:0:0:0:
209,190,53837,2,0,P|197:221|194:254,1,67.5000025749208,2|0,1:2|2:2,0:0:0:0:
255,350,54068,6,0,P|326:336|404:340,1,135.000005149842,10|2,2:2|1:2,0:0:0:0:
457,282,54414,1,2,2:2:0:0:
457,282,54530,2,0,P|442:199|461:127,1,135.000005149842,8|2,2:2|1:2,0:0:0:0:
486,69,54876,2,0,L|396:49,1,67.5000025749208,2|8,2:2|2:1,0:0:0:0:
258,119,55106,2,0,L|348:139,1,67.5000025749208,0|2,2:2|1:2,0:0:0:0:
164,97,55337,1,0,2:2:0:0:
164,97,55453,2,0,P|159:48|184:11,1,67.5000025749208,10|0,2:2|2:2,0:0:0:0:
165,32,55683,2,0,P|170:81|145:118,1,67.5000025749208,10|0,1:2|2:2,0:0:0:0:
90,195,55914,6,0,B|143:161|200:210|193:212|252:257|311:207,1,202.500007724762,14|2,2:2|2:2,0:0:0:0:
334,157,56376,2,0,P|357:181|367:226,1,67.5000025749208,8|2,2:2|2:2,0:0:0:0:
444,223,56606,2,0,P|434:254|400:286,1,67.5000025749208,0|2,1:1|2:2,0:0:0:0:
324,299,56837,1,8,2:1:0:0:
434,140,57068,1,0,1:1:0:0:
324,299,57299,6,0,P|278:288|234:298,1,67.5000025749208,10|0,2:2|2:2,0:0:0:0:
121,313,57530,2,0,P|153:323|179:343,1,67.5000025749208,2|0,1:2|2:2,0:0:0:0:
259,378,57760,2,0,L|233:231,1,135.000005149842,10|2,2:2|1:2,0:0:0:0:
217,158,58106,2,0,L|211:124,2,33.7500012874604,2|0|8,2:2|0:0|2:2,0:0:0:0:
144,208,58337,1,2,2:2:0:0:
96,205,58453,1,0,1:1:0:0:
48,202,58568,1,2,2:2:0:0:
48,202,58683,2,0,P|24:167|53:70,1,135.000005149842,8|0,2:1|1:1,0:0:0:0:
331,242,59145,6,0,P|344:269|352:310,1,67.5000025749208,10|0,2:2|2:2,0:0:0:0:
461,283,59376,2,0,P|448:310|440:351,1,67.5000025749208,2|0,1:2|2:2,0:0:0:0:
263,343,59606,6,0,P|198:338|121:339,1,135.000005149842,14|0,2:2|1:1,0:0:0:0:
19,269,59953,1,2,2:2:0:0:
28,228,60068,2,0,B|72:190|125:239|120:238|174:280|235:240,1,202.500007724762,8|0,2:2|2:2,0:0:0:0:
313,226,60530,2,0,P|361:214|441:262,1,135.000005149842,14|0,2:2|1:1,0:0:0:0:
463,114,60876,2,0,L|466:80,1,33.7500012874604,2|0,2:2|0:0,0:0:0:0:
468,56,60991,2,0,B|424:18|371:67|376:66|322:108|261:68,1,202.500007724762,8|0,2:2|2:2,0:0:0:0:
153,23,61453,5,10,2:2:0:0:
148,60,61568,1,8,2:1:0:0:
143,97,61683,2,0,L|134:168,1,67.5000025749208,8|10,2:3|2:2,0:0:0:0:
55,72,61914,5,4,2:3:0:0:
46,134,62030,1,4,2:3:0:0:
36,196,62145,1,10,2:2:0:0:
26,258,62260,6,0,P|99:241|165:302,1,135.000005149842,10|8,2:2|2:1,0:0:0:0:
175,356,62606,1,8,2:1:0:0:
175,356,62722,1,8,2:1:0:0:
175,356,62837,2,0,P|132:346|92:353,1,67.5000025749208,10|0,2:2|0:0,0:0:0:0:
230,228,63068,2,0,P|235:274|247:313,1,67.5000025749208,10|0,2:2|0:0,0:0:0:0:
303,357,63299,6,0,B|333:310|386:318|386:318|431:354|489:332,1,202.500007724762,14|2,2:2|2:2,0:0:0:0:
449,253,63760,2,0,P|451:214|492:183,1,67.5000025749208,8|2,2:2|2:2,0:0:0:0:
415,127,63991,2,0,P|449:109|497:129,1,67.5000025749208,0|2,1:1|2:2,0:0:0:0:
476,113,64222,1,8,2:1:0:0:
348,216,64453,1,0,1:1:0:0:
476,113,64683,6,0,P|477:63|457:30,1,67.5000025749208,10|0,2:2|2:2,0:0:0:0:
330,21,64914,2,0,P|354:53|398:61,1,67.5000025749208,2|0,1:2|2:2,0:0:0:0:
323,130,65145,2,0,P|268:181|281:270,1,135.000005149842,10|2,2:2|1:2,0:0:0:0:
294,320,65491,2,0,L|316:370,2,33.7500012874604,2|0|8,2:2|0:0|2:2,0:0:0:0:
205,315,65722,1,2,2:2:0:0:
160,321,65837,1,0,1:1:0:0:
115,327,65953,1,2,2:2:0:0:
70,333,66068,2,0,P|19:288|80:176,1,202.500007724762,8|0,2:1|2:2,0:0:0:0:
152,164,66530,2,0,L|233:153,1,67.5000025749208,10|0,2:2|2:2,0:0:0:0:
255,41,66760,2,0,L|174:52,1,67.5000025749208,2|0,1:2|2:2,0:0:0:0:
335,88,66991,6,0,B|361:122|361:122|339:247,1,135.000005149842,10|2,2:2|1:2,0:0:0:0:
325,298,67337,2,0,L|319:332,2,33.7500012874604,2|0|8,2:2|0:0|2:2,0:0:0:0:
408,257,67568,1,2,2:2:0:0:
408,257,67683,2,0,L|495:248,1,67.5000025749208,0|2,1:1|2:2,0:0:0:0:
325,298,67914,1,8,2:1:0:0:
325,298,68145,6,0,L|312:375,1,67.5000025749208,2|0,1:2|2:2,0:0:0:0:
263,245,68376,2,0,L|202:195,1,67.5000025749208,10|0,2:2|2:2,0:0:0:0:
339,217,68606,2,0,L|412:189,1,67.5000025749208,2|0,1:2|2:2,0:0:0:0:
181,123,68837,6,0,P|131:191|150:257,1,135.000005149842,14|2,2:2|2:2,0:0:0:0:
361,381,69183,2,0,P|411:313|392:247,1,135.000005149842,10|2,1:2|2:2,0:0:0:0:
339,217,69530,1,0,2:2:0:0:
252,232,69645,2,0,L|159:245,1,67.5000025749208,12|0,2:2|2:2,0:0:0:0:
47,123,69876,1,2,2:2:0:0:
133,111,69991,2,0,L|226:98,1,67.5000025749208,8|0,2:1|2:2,0:0:0:0:
34,238,70222,2,0,P|31:273|58:327,1,67.5000025749208,14|0,2:2|2:2,0:0:0:0:
40,303,70453,2,0,P|43:268|16:214,1,67.5000025749208,10|0,2:2|2:2,0:0:0:0:
40,303,70683,6,0,B|98:281|138:319|132:320|175:359|272:306,1,202.500007724762,14|2,2:2|2:2,0:0:0:0:
247,235,71145,2,0,P|276:239|309:272,1,67.5000025749208,8|2,2:2|2:2,0:0:0:0:
375,224,71376,2,0,P|386:251|373:296,1,67.5000025749208,0|2,1:1|2:2,0:0:0:0:
309,339,71606,1,8,2:1:0:0:
323,158,71837,1,0,1:1:0:0:
309,339,72068,6,0,P|341:342|381:349,1,67.5000025749208,10|0,2:2|2:2,0:0:0:0:
509,253,72299,2,0,P|477:250|437:243,1,67.5000025749208,2|0,1:2|2:2,0:0:0:0:
360,135,72530,2,0,P|387:200|396:297,1,135.000005149842,10|2,2:2|1:2,0:0:0:0:
404,344,72876,2,0,L|406:380,2,33.7500012874604,2|0|8,2:2|0:0|2:2,0:0:0:0:
321,292,73106,1,2,2:2:0:0:
274,297,73222,1,0,1:1:0:0:
227,302,73337,1,2,2:2:0:0:
180,307,73453,2,0,B|79:317|79:317|98:361,1,135.000005149842,8|0,2:1|1:1,0:0:0:0:
49,35,73914,6,0,P|42:77|40:112,1,67.5000025749208,10|0,2:2|2:2,0:0:0:0:
104,260,74145,2,0,P|111:218|113:183,1,67.5000025749208,2|0,1:2|2:2,0:0:0:0:
0,167,74376,6,0,B|56:125|110:166|103:166|162:202|228:154,1,202.500007724762,14|2,2:2|2:2,0:0:0:0:
279,151,74837,2,0,L|371:132,1,67.5000025749208,8|2,2:2|2:1,0:0:0:0:
485,202,75068,5,2,1:2:0:0:
479,244,75183,1,2,2:1:0:0:
472,286,75299,2,0,B|416:244|362:285|369:285|310:321|244:273,1,202.500007724762,14|2,2:2|2:1,0:0:0:0:
123,220,75760,5,8,2:2:0:0:
123,220,75876,1,8,2:1:0:0:
199,261,75991,1,10,1:2:0:0:
125,306,76106,1,6,2:2:0:0:
51,261,76222,6,0,P|43:190|116:135,1,135.000005149842,14|2,2:2|1:1,0:0:0:0:
214,162,76568,1,2,2:2:0:0:
214,162,76683,2,0,P|222:91|149:36,1,135.000005149842,8|6,2:2|1:2,0:0:0:0:
23,48,77030,1,8,2:3:0:0:
23,48,77145,6,0,P|59:42|107:32,1,67.5000025749208,14|0,2:2|2:2,0:0:0:0:
352,29,77376,2,0,P|316:35|268:45,1,67.5000025749208,10|0,1:2|2:2,0:0:0:0:
213,161,77606,2,0,P|206:128|201:95,1,67.5000025749208,14|0,2:2|2:2,0:0:0:0:
180,8,77837,1,14,1:2:0:0:
180,8,77953,1,6,2:2:0:0:
180,8,78068,6,0,P|171:94|166:126,1,90,8|2,2:1|2:2,0:0:0:0:
213,161,78414,2,0,P|168:138|34:238,1,225,2|8,2:2|2:1,0:0:0:0:
36,221,79222,2,0,B|134:214|114:272|237:253,1,180,12|2,2:1|2:2,0:0:0:0:
445,348,79914,6,0,P|450:277|462:216,1,90,10|2,2:2|2:2,0:0:0:0:
365,249,80260,2,0,P|360:320|348:381,2,90,10|2|2,2:2|2:2|2:2,0:0:0:0:
413,180,80838,1,8,2:1:0:0:
413,180,81068,2,0,B|416:149|443:130|443:130|411:132|383:123|383:123|405:148|409:194,1,180,12|2,2:1|2:2,0:0:0:0:
302,242,81760,6,0,P|230:247|179:262,1,107.999996704102,10|2,2:2|2:2,0:0:0:0:
275,149,82106,1,2,2:2:0:0:
275,149,82222,2,0,P|203:154|152:169,1,107.999996704102,8|0,2:1|0:0,0:0:0:0:
224,60,82568,1,2,2:2:0:0:
224,60,82683,2,0,L|175:65,4,26.9999991760254,8|0|8|0|4,2:1|0:0|2:3|0:0|2:3,0:0:0:0:
261,340,83145,5,8,2:1:0:0:
261,340,83261,1,8,2:1:0:0:
261,340,83376,1,8,2:3:0:0:
261,340,83491,1,8,2:1:0:0:
261,340,83837,6,0,P|329:351|418:374,1,135.000005149842,12|8,2:2|2:1,0:0:0:0:
213,218,84183,2,0,B|132:221|143:263|36:252,1,161.999995056153,12|8,2:2|2:1,0:0:0:0:
301,64,84530,6,0,P|309:104|315:154,1,80.9999975280763,12|0,2:2|0:0,0:0:0:0:
281,293,84761,1,8,2:1:0:0:
261,340,84876,2,0,L|252:387,5,40.4999987640381,12|0|0|0|0|0,2:2|0:0|0:0|0:0|0:0|0:0,0:0:0:0:
261,340,85453,6,0,P|192:337|126:251,1,135.000005149842,12|0,2:1|0:0,0:0:0:0:
47,346,85799,2,0,P|55:259|57:196,1,135.000005149842,2|2,2:2|2:2,0:0:0:0:
56,211,86261,5,10,2:2:0:0:
175,206,86606,1,8,2:1:0:0:
283,190,86837,1,8,2:2:0:0:
283,190,87299,5,2,2:2:0:0:
304,144,87414,1,0,0:0:0:0:
296,94,87530,1,8,2:1:0:0:
260,55,87645,2,0,P|215:52|180:43,1,67.5000025749208,2|8,2:2|2:2,0:0:0:0:
142,129,87876,2,0,P|187:132|222:141,1,67.5000025749208,10|0,2:2|0:0,0:0:0:0:
347,19,88106,6,0,B|368:135|316:117|341:237,1,202.500007724762,10|8,2:2|2:1,0:0:0:0:
359,375,88683,1,8,2:2:0:0:
359,375,88799,1,0,2:2:0:0:
359,375,88914,1,2,2:2:0:0:
272,268,89145,6,0,P|338:253|411:249,1,135.000005149842,10|0,2:2|0:0,0:0:0:0:
387,158,89491,2,0,P|321:173|248:177,1,135.000005149842,2|2,2:2|2:2,0:0:0:0:
186,237,89837,1,0,0:0:0:0:
186,237,89953,2,0,P|126:239|74:353,1,135.000005149842,10|0,2:2|0:0,0:0:0:0:
56,325,90299,2,0,P|103:336|124:348,1,67.5000025749208,10|0,2:2|0:0,0:0:0:0:
42,206,90530,5,10,2:2:0:0:
29,114,90760,1,2,2:2:0:0:
11,26,90991,2,0,P|64:21|92:12,1,67.5000025749208,10|0,2:2|0:0,0:0:0:0:
115,105,91222,2,0,P|147:97|181:96,1,67.5000025749208,10|2,2:2|2:2,0:0:0:0:
227,0,91453,6,0,P|228:68|285:119,1,135.000005149842,8|0,2:2|0:0,0:0:0:0:
229,181,91799,2,0,P|327:157|427:161,1,202.500007724762,10|10,2:2|2:2,0:0:0:0:
501,211,92375,1,8,2:2:0:0:
266,381,92606,6,0,L|251:298,1,67.5000025749208,10|0,2:2|0:0,0:0:0:0:
230,225,92837,1,12,2:1:0:0:
345,333,93068,1,2,2:2:0:0:
345,333,93183,1,2,2:2:0:0:
204,321,93414,2,0,P|168:326|122:341,1,67.5000025749208,10|0,2:2|0:0,0:0:0:0:
318,235,93645,2,0,P|411:226|481:202,1,157.499995193482,10|8,2:2|2:2,0:0:0:0:
226,337,94453,6,0,L|211:254,1,67.5000025749208,2|0,2:2|0:0,0:0:0:0:
178,147,94683,1,10,2:2:0:0:
322,263,94914,1,10,2:2:0:0:
322,263,95030,1,2,2:2:0:0:
160,269,95260,2,0,P|117:281|78:294,1,67.5000025749208,10|0,2:2|0:0,0:0:0:0:
276,151,95491,2,0,P|352:141|412:77,1,157.499995193482,10|10,2:2|2:2,0:0:0:0:
481,37,96183,1,2,2:2:0:0:
481,37,96299,2,0,P|436:33|398:23,1,67.5000025749208
244,0,96530,5,10,2:2:0:0:
328,190,96760,1,10,2:2:0:0:
328,190,96876,2,0,L|335:31,2,135.000005149842,2|0|8,2:2|0:0|2:2,0:0:0:0:
320,284,97453,5,2,2:2:0:0:
164,167,97683,1,10,2:2:0:0:
164,167,97799,2,0,P|84:186|54:238,1,135.000005149842,2|0,2:2|0:0,0:0:0:0:
55,259,98145,1,2,2:2:0:0:
207,381,98376,2,0,P|203:347|198:314,1,67.5000025749208,10|0,2:2|0:0,0:0:0:0:
281,283,98607,2,0,P|284:316|289:349,1,67.5000025749208,10|2,2:2|2:2,0:0:0:0:
115,344,98837,6,0,P|125:254|140:194,1,135.000005149842,8|0,2:2|0:0,0:0:0:0:
375,251,99183,2,0,P|365:341|350:401,1,135.000005149842,10|8,2:2|2:1,0:0:0:0:
251,240,99530,1,2,2:1:0:0:
268,156,99645,1,2,2:1:0:0:
283,78,99760,2,0,B|378:51|409:115|496:78,1,202.500007724762,8|0,2:1|0:0,0:0:0:0:
501,67,100222,5,10,2:2:0:0:
372,158,102991,5,8,2:1:0:0:
382,209,103106,1,8,2:1:0:0:
393,258,103222,1,8,2:1:0:0:
474,311,103453,5,8,2:3:0:0:
451,335,103568,1,8,2:3:0:0:
421,350,103683,1,4,2:3:0:0:
388,354,103799,1,4,2:3:0:0:
355,345,103914,5,14,2:2:0:0:
309,273,104145,1,2,2:2:0:0:
225,274,104376,1,2,2:1:0:0:
264,347,104606,1,2,2:1:0:0:
450,210,104837,5,14,2:2:0:0:
279,132,105068,1,2,2:2:0:0:
341,0,105299,1,2,2:1:0:0:
512,77,105530,2,0,P|479:86|445:90,1,67.5000025749208,2|2,2:2|2:1,0:0:0:0:
279,132,105760,5,14,2:2:0:0:
240,116,105876,1,2,2:1:0:0:
200,100,105991,2,0,P|175:123|160:153,1,67.5000025749208,2|2,2:2|2:2,0:0:0:0:
132,278,106222,5,10,2:1:0:0:
93,294,106338,1,2,2:1:0:0:
52,309,106453,2,0,P|27:285|12:255,1,67.5000025749208,2|2,2:1|2:1,0:0:0:0:
223,245,106683,5,10,2:1:0:0:
274,269,106799,1,2,2:3:0:0:
325,294,106914,1,2,2:3:0:0:
380,320,107030,1,2,2:3:0:0:
455,297,107145,6,0,L|478:233,1,67.5000025749208,10|2,2:2|2:3,0:0:0:0:
108,214,107376,2,0,L|131:277,1,67.5000025749208,10|2,2:2|2:3,0:0:0:0:
278,362,107606,6,0,L|287:316,2,45
265,236,107953,1,0,0:0:0:0:
280,191,108068,1,0,0:0:0:0:
327,189,108183,1,0,0:0:0:0:
327,189,108299,2,0,L|371:181,1,45,0|0,2:2|2:2,0:0:0:0:
174,227,108530,6,0,L|107:213,1,67.5000025749208,6|0,2:2|0:0,0:0:0:0:
278,362,108760,2,0,P|344:352|412:347,1,135.000005149842,6|2,2:2|2:2,0:0:0:0:
412,346,109453,6,0,P|402:314|396:281,1,67.5000025749208,12|0,2:1|2:2,0:0:0:0:
459,234,109683,1,2,1:2:0:0:
389,290,109799,2,0,P|324:277|303:203,1,135.000005149842,2|2,2:2|2:2,0:0:0:0:
342,156,110145,1,0,1:1:0:0:
342,156,110260,2,0,P|375:162|408:169,1,67.5000025749208,2|8,2:2|2:1,0:0:0:0:
339,38,110491,1,0,2:2:0:0:
294,38,110606,1,0,1:1:0:0:
259,65,110721,1,0,2:2:0:0:
245,107,110837,6,0,P|211:100|178:93,1,67.5000025749208,10|0,2:2|2:2,0:0:0:0:
39,55,111068,2,0,P|72:48|105:41,1,67.5000025749208,2|0,1:2|2:2,0:0:0:0:
168,107,111299,2,0,P|178:173|187:240,1,135.000005149842,10|2,2:2|1:2,0:0:0:0:
98,179,111645,2,0,L|31:168,1,67.5000025749208,2|8,2:2|2:2,0:0:0:0:
36,265,111876,2,0,L|102:275,1,67.5000025749208,2|0,2:2|1:1,0:0:0:0:
274,259,112106,1,2,2:2:0:0:
247,253,112221,1,8,2:1:0:0:
222,260,112336,1,0,2:2:0:0:
202,278,112452,1,0,1:1:0:0:
192,303,112567,1,0,2:2:0:0:
195,330,112683,6,0,P|228:335|261:340,1,67.5000025749208,10|0,2:2|2:2,0:0:0:0:
336,365,112914,2,0,P|357:338|378:312,1,67.5000025749208,2|0,1:2|2:2,0:0:0:0:
465,288,113145,6,0,P|399:281|355:232,1,135.000005149842,10|2,2:2|1:2,0:0:0:0:
345,154,113491,2,0,L|366:89,1,67.5000025749208,2|8,2:2|2:2,0:0:0:0:
453,218,113722,2,0,L|474:153,1,67.5000025749208,2|0,2:2|1:1,0:0:0:0:
432,47,113953,5,2,2:2:0:0:
362,75,114068,2,0,L|295:83,1,67.5000025749208,8|0,2:1|2:2,0:0:0:0:
200,56,114299,2,0,L|208:122,1,67.5000025749208,2|0,1:2|2:2,0:0:0:0:
350,234,114530,2,0,L|341:167,1,67.5000025749208,10|0,2:2|2:2,0:0:0:0:
256,212,114760,2,0,L|189:220,1,67.5000025749208,2|0,1:2|2:2,0:0:0:0:
36,89,114991,6,0,P|69:95|102:102,1,67.5000025749208,10|0,2:2|2:2,0:0:0:0:
183,236,115222,1,2,1:2:0:0:
147,281,115337,1,2,2:2:0:0:
91,276,115453,2,0,P|83:243|80:209,1,67.5000025749208,8|0,2:2|2:2,0:0:0:0:
241,311,115683,5,2,1:2:0:0:
241,311,115799,2,0,P|307:298|374:291,1,135.000005149842,2|0,2:2|2:2,0:0:0:0:
442,331,116145,2,0,L|435:364,2,33.7500012874604,2|0|0,1:2|0:0|2:2,0:0:0:0:
504,269,116376,2,0,L|494:202,1,67.5000025749208,10|0,2:2|2:2,0:0:0:0:
276,154,116606,2,0,L|266:220,1,67.5000025749208,10|0,1:2|2:2,0:0:0:0:
389,280,116837,6,0,L|371:146,1,135.000005149842,14|2,2:2|1:2,0:0:0:0:
450,19,117183,2,0,P|481:32|509:49,1,67.5000025749208,2|8,2:2|2:2,0:0:0:0:
477,116,117414,2,0,P|445:102|417:85,1,67.5000025749208,2|0,2:2|1:1,0:0:0:0:
311,22,117645,1,2,2:2:0:0:
284,23,117760,1,8,2:1:0:0:
260,36,117875,1,0,2:2:0:0:
244,57,117991,1,0,1:1:0:0:
239,83,118106,1,0,2:2:0:0:
245,109,118222,6,0,P|277:100|310:93,1,67.5000025749208,10|0,2:2|2:2,0:0:0:0:
140,21,118453,2,0,P|147:53|155:86,1,67.5000025749208,2|0,1:2|2:2,0:0:0:0:
18,124,118683,6,0,P|50:133|83:140,1,67.5000025749208,10|0,2:2|2:2,0:0:0:0:
144,193,118914,1,2,1:2:0:0:
76,241,119030,2,0,P|70:274|65:307,1,67.5000025749208,2|8,2:2|2:2,0:0:0:0:
142,344,119260,2,0,P|147:310|152:277,1,67.5000025749208,2|0,2:2|1:1,0:0:0:0:
220,231,119491,2,0,P|284:251|349:269,1,135.000005149842,2|0,2:2|2:2,0:0:0:0:
432,298,119837,2,0,P|367:316|302:336,2,135.000005149842,0|10|2,1:1|2:2|1:2,0:0:0:0:
432,298,120530,6,0,P|436:265|438:231,1,67.5000025749208,14|0,2:2|2:2,0:0:0:0:
382,86,120760,1,0,1:1:0:0:
445,123,120876,1,2,2:2:0:0:
367,93,120991,2,0,P|272:98|251:190,1,202.500007724762,8|0,2:2|2:2,0:0:0:0:
321,228,121453,6,0,P|354:224|388:220,1,67.5000025749208,14|0,2:2|2:2,0:0:0:0:
291,327,121683,1,0,1:1:0:0:
233,371,121799,1,2,2:2:0:0:
174,324,121914,2,0,P|156:251|254:190,1,202.500007724762,8|0,2:2|2:2,0:0:0:0:
321,228,122376,6,0,L|310:294,1,67.5000025749208,10|8,2:2|2:1,0:0:0:0:
488,209,122606,1,8,2:3:0:0:
435,150,122722,2,0,L|445:83,1,67.5000025749208,10|4,2:2|2:3,0:0:0:0:
270,61,122953,5,4,2:3:0:0:
299,136,123068,1,10,2:2:0:0:
364,89,123183,2,0,B|251:86|290:123|165:115,1,202.500007724762,10|8,2:2|2:1,0:0:0:0:
111,59,123645,1,8,2:1:0:0:
51,105,123760,2,0,P|60:137|67:170,1,67.5000025749208,10|0,2:2|0:0,0:0:0:0:
180,259,123991,2,0,P|187:226|196:193,1,67.5000025749208,10|0,2:2|0:0,0:0:0:0:
9,264,124222,6,0,P|74:257|108:334,1,135.000005149842,14|2,2:2|1:2,0:0:0:0:
39,364,124568,1,2,2:2:0:0:
14,353,124683,2,0,P|11:319|24:288,1,67.5000025749208,8|2,2:2|2:2,0:0:0:0:
193,297,124914,2,0,P|195:330|182:361,1,67.5000025749208,0|2,1:1|2:2,0:0:0:0:
326,339,125145,6,0,P|415:303|426:208,1,202.500007724762,8|0,2:1|2:2,0:0:0:0:
341,177,125606,2,0,L|348:244,1,67.5000025749208,10|0,2:2|2:2,0:0:0:0:
430,130,125837,2,0,L|437:197,1,67.5000025749208,2|0,1:2|2:2,0:0:0:0:
261,256,126068,6,0,P|228:248|195:241,1,67.5000025749208,10|0,2:2|2:2,0:0:0:0:
50,326,126299,1,2,1:2:0:0:
50,326,126414,2,0,P|82:318|115:311,1,67.5000025749208,2|8,2:2|2:2,0:0:0:0:
199,229,126645,2,0,P|232:235|264:243,1,67.5000025749208,2|0,2:2|1:1,0:0:0:0:
58,232,126876,1,2,2:2:0:0:
11,172,126991,2,0,P|36:112|100:99,1,135.000005149842,8|0,2:1|1:1,0:0:0:0:
100,99,127453,2,0,P|108:131|111:165,1,67.5000025749208,10|0,2:2|2:2,0:0:0:0:
12,82,127683,2,0,P|3:49|0:16,1,67.5000025749208,2|0,1:2|2:2,0:0:0:0:
168,36,127914,6,0,P|234:74|224:133,1,135.000005149842,10|2,2:2|1:2,0:0:0:0:
255,218,128260,2,0,P|222:207|189:201,1,67.5000025749208,2|8,2:2|2:2,0:0:0:0:
331,122,128491,2,0,P|363:132|396:138,1,67.5000025749208,2|0,2:2|1:1,0:0:0:0:
497,165,128722,6,0,P|433:167|408:226,1,135.000005149842,2|0,2:2|2:2,0:0:0:0:
349,338,129068,2,0,P|345:304|338:271,1,67.5000025749208,2|0,1:2|2:2,0:0:0:0:
498,321,129299,2,0,P|491:287|487:254,1,67.5000025749208,10|0,2:2|2:2,0:0:0:0:
433,366,129530,1,2,1:2:0:0:
293,206,129760,6,0,P|227:198|190:251,1,135.000005149842,14|2,2:2|2:2,0:0:0:0:
66,371,130106,2,0,P|14:332|20:268,1,135.000005149842,10|2,1:2|2:2,0:0:0:0:
46,191,130453,1,0,2:2:0:0:
126,201,130568,2,0,P|137:254|148:334,1,135.000005149842,12|2,2:2|2:2,0:0:0:0:
226,384,130914,2,0,P|230:352|236:317,1,67.5000025749208,8|0,2:1|2:2,0:0:0:0:
277,219,131145,2,0,P|311:219|341:235,1,67.5000025749208,14|0,2:2|2:2,0:0:0:0:
341,234,131376,2,0,P|307:234|278:219,1,67.5000025749208,10|0,2:2|2:2,0:0:0:0:
199,142,131606,6,0,P|277:181|257:252,1,135.000005149842,14|0,2:2|1:1,0:0:0:0:
372,305,131953,2,0,P|397:326|430:328,1,67.5000025749208,2|8,2:2|2:2,0:0:0:0:
417,182,132183,2,0,P|385:191|364:217,1,67.5000025749208,2|0,2:2|1:1,0:0:0:0:
284,372,132414,6,0,P|267:309|204:294,1,135.000005149842,2|0,2:2|2:2,0:0:0:0:
49,360,132760,1,0,1:1:0:0:
49,360,132876,1,0,2:2:0:0:
49,360,132991,2,0,P|81:355|115:349,1,67.5000025749208,10|0,2:2|2:2,0:0:0:0:
31,274,133222,2,0,P|64:268|97:263,1,67.5000025749208,2|0,1:2|2:2,0:0:0:0:
197,142,133453,6,0,P|260:155|309:112,1,135.000005149842,10|2,2:2|1:2,0:0:0:0:
417,182,133799,2,0,P|418:148|398:122,1,67.5000025749208,2|8,2:2|2:2,0:0:0:0:
300,44,134030,2,0,L|309:110,1,67.5000025749208,2|0,2:2|1:1,0:0:0:0:
350,236,134260,6,0,P|413:222|462:265,1,135.000005149842,2|0,2:2|2:2,0:0:0:0:
438,343,134606,1,0,1:1:0:0:
438,343,134721,1,0,2:2:0:0:
361,343,134837,2,0,P|329:354|299:371,1,67.5000025749208,10|0,2:2|2:2,0:0:0:0:
273,214,135068,2,0,P|241:203|211:185,1,67.5000025749208,2|0,1:2|2:2,0:0:0:0:
172,312,135299,6,0,P|105:324|44:352,1,135.000005149842,14|0,2:2|1:1,0:0:0:0:
50,262,135645,1,2,2:2:0:0:
50,262,135760,2,0,P|87:246|113:240,1,67.5000025749208,8|2,2:2|2:1,0:0:0:0:
216,190,135991,1,2,1:2:0:0:
216,190,136106,1,2,2:1:0:0:
133,147,136222,6,0,P|98:91|112:23,1,135.000005149842,14|0,2:2|1:1,0:0:0:0:
248,55,136568,1,2,2:1:0:0:
248,55,136683,2,0,P|212:62|182:72,1,67.5000025749208,8|8,2:2|2:1,0:0:0:0:
53,188,136914,1,10,1:2:0:0:
53,188,137030,1,6,2:2:0:0:
113,239,137145,6,0,P|177:257|239:284,1,135.000005149842,14|2,2:2|1:1,0:0:0:0:
419,263,137490,1,2,2:2:0:0:
419,263,137606,2,0,P|411:290|404:328,1,67.5000025749208,8|8,2:2|2:1,0:0:0:0:
308,384,137837,2,0,P|317:351|322:318,1,67.5000025749208,6|8,1:2|2:3,0:0:0:0:
302,145,138068,6,0,P|269:153|237:164,1,67.5000025749208,14|0,2:2|2:2,0:0:0:0:
419,263,138299,2,0,P|451:254|483:244,1,67.5000025749208,10|0,1:2|2:2,0:0:0:0:
233,175,138530,2,0,P|222:207|214:239,1,67.5000025749208,14|0,2:2|2:2,0:0:0:0:
398,164,138760,2,0,P|408:131|416:99,1,67.5000025749208,14|6,1:2|2:2,0:0:0:0:
297,47,138991,6,0,P|318:163|334:280,1,236.250009012223,8|0,2:1|0:0,0:0:0:0:
409,331,139914,6,0,P|449:352|414:322,1,135.000005149842,8|0,2:1|0:0,0:0:0:0:
435,343,140606,1,10,2:2:0:0:
435,343,140722,1,10,2:2:0:0:
334,280,141068,6,0,P|256:303|203:327,1,135.000005149842,12|8,2:2|2:1,0:0:0:0:
6,198,141414,2,0,P|84:175|137:151,1,135.000005149842,12|8,2:2|2:3,0:0:0:0:
242,15,141760,2,0,P|233:48|225:80,1,67.5000025749208,12|8,2:2|2:1,0:0:0:0:
335,146,141991,5,8,2:1:0:0:
408,116,142106,2,0,P|440:107|473:101,1,67.5000025749208,12|0,2:2|0:0,0:0:0:0:
329,235,142338,5,8,2:1:0:0:
256,211,142453,1,8,2:3:0:0:
197,263,142568,2,0,P|149:321|80:301,1,135,12|0,2:1|0:0,0:0:0:0:
114,131,143145,2,0,P|156:139|178:176,1,90,10|0,2:2|0:0,0:0:0:0:
31,363,143606,2,0,P|5:327|15:285,1,90,8|0,2:1|0:0,0:0:0:0:
113,240,144068,5,2,2:2:0:0:
113,240,144183,1,0,0:0:0:0:
113,240,144299,1,0,0:0:0:0:
113,240,144414,2,0,P|156:249|212:263,1,90,2|0,2:2|0:0,0:0:0:0:
277,280,144760,1,0,0:0:0:0:
381,106,144991,6,0,P|372:63|335:41,1,90,10|0,2:2|0:0,0:0:0:0:
421,191,145453,2,0,P|462:205|500:183,1,90,8|8,2:1|2:1,0:0:0:0:
305,169,145914,1,2,2:2:0:0:
304,169,146030,2,0,P|283:175|262:182,1,45,8|0,2:1|0:0,0:0:0:0:
185,209,146260,1,14,2:2:0:0:
185,209,146606,5,2,2:2:0:0:
62,121,146837,1,10,2:2:0:0:
61,109,146952,1,2,2:2:0:0:
60,98,147067,1,2,2:2:0:0:
59,87,147183,1,0,0:0:0:0:
58,76,147299,2,0,P|100:32|151:56,1,107.999996704102,6|2,2:2|2:2,0:0:0:0:
293,7,147760,1,2,2:2:0:0:
293,7,147876,2,0,P|268:64|245:67,1,53.9999983520508,2|0,2:2|0:0,0:0:0:0:
213,8,148106,5,4,2:1:0:0:
249,163,148337,1,2,2:2:0:0:
249,163,148453,1,2,2:2:0:0:
355,141,148683,5,10,2:2:0:0:
367,138,148798,1,2,2:2:0:0:
378,136,148913,1,2,2:2:0:0:
389,134,149030,1,0,0:0:0:0:
400,132,149145,1,10,2:2:0:0:
316,283,149376,1,10,2:2:0:0:
481,243,149606,1,10,2:2:0:0:
481,243,149722,2,0,P|452:234|428:228,1,53.9999983520508,10|0,2:2|0:0,0:0:0:0:
330,204,149953,6,0,P|270:212|237:306,1,161.999995056153,12|0,2:1|0:0,0:0:0:0:
455,363,150530,2,0,P|444:323|476:263,1,107.999996704102,10|0,2:2|0:0,0:0:0:0:
489,117,150991,2,0,P|439:150|385:136,1,107.999996704102,10|2,2:2|2:2,0:0:0:0:
322,4,151453,1,2,2:2:0:0:
321,14,151568,1,0,0:0:0:0:
320,24,151683,1,0,0:0:0:0:
319,34,151799,6,0,P|263:47|209:57,1,107.999996704102,2|0,2:2|0:0,0:0:0:0:
138,72,152145,1,0,0:0:0:0:
90,349,152376,2,0,P|54:307|66:246,1,107.999996704102,10|0,2:2|0:0,0:0:0:0:
231,160,152837,2,0,P|267:202|255:263,1,107.999996704102,8|8,2:1|2:1,0:0:0:0:
103,165,153299,1,2,2:2:0:0:
103,165,153414,2,0,P|93:125|84:92,1,53.9999983520508,8|0,2:1|0:0,0:0:0:0:
66,40,153645,1,12,2:1:0:0:
17,244,153876,5,2,2:2:0:0:
27,248,153991,1,2,2:2:0:0:
157,240,154222,2,0,P|183:237|217:232,1,53.9999983520508,10|0,2:2|0:0,0:0:0:0:
287,221,154453,1,2,2:2:0:0:
297,220,154568,1,2,2:2:0:0:
307,219,154683,1,14,2:2:0:0:
494,192,154914,2,0,P|425:202|376:208,1,107.999996704102,2|2,2:2|2:2,0:0:0:0:
287,221,155260,1,2,2:2:0:0:
287,221,155837,5,8,2:3:0:0:
285,234,155953,1,8,2:3:0:0:
283,247,156068,1,8,2:2:0:0:
281,260,156183,1,2,2:3:0:0:
279,273,156299,2,0,P|274:308|271:332,1,53.9999983520508,8|8,2:2|2:1,0:0:0:0:
393,375,156530,2,0,P|383:308|374:251,1,107.999996704102,8|8,2:1|2:1,0:0:0:0:
344,70,156991,5,0,0:0:0:0:
344,70,157106,6,0,L|378:99,1,26.9999991760254
344,70,157222,6,0,L|301:84,1,26.9999991760254,2|2,2:1|2:1,0:0:0:0:
344,70,157337,6,0,L|352:26,1,26.9999991760254,2|2,2:1|2:1,0:0:0:0:
344,70,157453,5,12,2:1:0:0:
140,0,157683,6,0,L|132:60,1,53.9999983520508,2|2,2:2|2:2,0:0:0:0:
120,128,157914,1,2,2:2:0:0:
120,128,158030,2,0,P|73:122|22:119,1,80.9999975280763,2|0,2:2|0:0,0:0:0:0:
211,82,158376,6,0,L|203:142,1,53.9999983520508,10|2,2:2|2:2,0:0:0:0:
191,210,158607,1,2,2:2:0:0:
191,210,158723,2,0,P|144:204|93:201,1,80.9999975280763,2|0,2:2|0:0,0:0:0:0:
282,164,159068,6,0,L|274:224,1,53.9999983520508,2|2,2:2|2:2,0:0:0:0:
262,292,159298,1,2,2:2:0:0:
262,292,159414,2,0,P|215:286|164:283,1,80.9999975280763,2|0,2:2|0:0,0:0:0:0:
353,246,159760,6,0,L|345:306,1,53.9999983520508,2|2,2:2|2:2,0:0:0:0:
333,374,159991,1,2,2:2:0:0:
333,374,160107,2,0,P|286:368|235:365,1,80.9999975280763,2|0,2:2|0:0,0:0:0:0:
28,247,160453,6,0,P|69:252|92:270,1,53.9999983520508,2|8,2:2|2:1,0:0:0:0:
191,204,160683,2,0,P|165:237|138:247,1,53.9999983520508,2|0,2:2|0:0,0:0:0:0:
148,366,160914,2,0,P|131:327|136:298,1,53.9999983520508,10|0,2:2|0:0,0:0:0:0:
116,176,161145,6,0,B|130:127|172:102|224:105|269:136|256:142|261:222|328:251|409:203|425:147|398:73|330:63|317:102,1,431.999986816407,14|8,2:2|2:1,0:0:0:0:
318,276,162299,6,0,L|392:265,1,53.9999983520508,2|2,2:2|2:2,0:0:0:0:
455,253,162530,1,10,2:2:0:0:
455,253,162645,2,0,P|450:309|447:359,1,80.9999975280763,2|0,2:2|0:0,0:0:0:0:
350,178,162991,6,0,L|276:167,1,53.9999983520508,2|2,2:2|2:2,0:0:0:0:
213,155,163222,1,2,2:2:0:0:
213,155,163337,2,0,P|218:211|221:261,1,80.9999975280763,2|0,2:2|0:0,0:0:0:0:
228,315,163683,2,0,L|231:343,4,20.2499993820191,2|0|2|2|8,2:2|0:0|2:2|2:3|2:1,0:0:0:0:
153,269,164145,6,0,P|126:257|90:256,1,53.9999983520508,10|0,2:2|0:0,0:0:0:0:
294,262,164376,2,0,P|321:250|357:249,1,53.9999983520508,2|8,2:2|2:1,0:0:0:0:
213,155,164606,2,0,L|219:219,1,53.9999983520508,2|0,2:2|0:0,0:0:0:0:
230,335,164837,1,12,2:1:0:0:
34,229,165068,6,0,P|23:261|32:295,1,53.9999983520508,2|2,2:2|2:2,0:0:0:0:
96,345,165299,1,2,2:2:0:0:
96,345,165414,2,0,P|108:306|87:253,1,80.9999975280763,2|0,2:2|0:0,0:0:0:0:
168,172,165760,6,0,P|157:204|166:238,1,53.9999983520508,10|2,2:2|2:2,0:0:0:0:
230,288,165991,1,2,2:2:0:0:
230,288,166106,2,0,P|242:249|221:196,1,80.9999975280763,2|0,2:2|0:0,0:0:0:0:
302,115,166453,6,0,P|291:147|300:181,1,53.9999983520508,2|2,2:2|2:2,0:0:0:0:
364,231,166684,1,2,2:2:0:0:
364,231,166799,2,0,P|376:192|355:139,1,80.9999975280763,2|0,2:2|0:0,0:0:0:0:
436,58,167145,6,0,P|425:90|434:124,1,53.9999983520508,2|2,2:2|2:2,0:0:0:0:
498,174,167376,1,2,2:2:0:0:
498,174,167491,2,0,P|510:135|489:82,1,80.9999975280763,2|0,2:2|0:0,0:0:0:0:
323,77,167837,6,0,P|288:74|260:70,1,53.9999983520508,10|0,2:2|0:0,0:0:0:0:
290,185,168068,2,0,P|263:188|236:190,1,53.9999983520508,2|0,2:2|0:0,0:0:0:0:
179,39,168299,2,0,P|144:36|116:32,1,53.9999983520508,2|0,2:2|0:0,0:0:0:0:
107,170,168530,6,0,B|156:157|199:181|222:228|218:282|206:274|139:318|148:391|230:437|286:423|337:362|311:298|271:307,1,431.999986816407,14|8,2:2|2:1,0:0:0:0:
101,263,169683,6,0,P|94:301|91:329,1,53.9999983520508,2|2,2:2|2:2,0:0:0:0:
14,362,169914,1,10,2:2:0:0:
14,362,170030,2,0,P|21:310|28:245,1,80.9999975280763,2|0,2:2|0:0,0:0:0:0:
120,107,170376,6,0,P|113:145|110:173,1,53.9999983520508,2|2,2:2|2:2,0:0:0:0:
33,206,170607,1,2,2:2:0:0:
33,206,170723,2,0,P|40:154|47:89,1,80.9999975280763,2|0,2:2|0:0,0:0:0:0:
48,43,171068,6,0,P|82:37|114:30,1,53.9999983520508,10|2,2:2|2:2,0:0:0:0:
253,0,171299,5,10,2:2:0:0:
253,0,171414,1,2,2:2:0:0:
237,165,171645,1,0,0:0:0:0:
237,165,171760,1,0,0:0:0:0:
220,329,171991,1,0,0:0:0:0:
335,364,172222,6,0,P|404:352|485:346,1,135.000005149842,14|0,2:2|0:0,0:0:0:0:
322,259,172568,2,0,P|253:271|172:277,1,135.000005149842,10|0,2:2|0:0,0:0:0:0:
299,160,172914,2,0,P|362:150|385:149,1,67.5000025749208,10|0,2:2|0:0,0:0:0:0:
445,206,173145,1,0,0:0:0:0:
445,206,173260,1,2,2:2:0:0:
445,206,173376,1,10,2:2:0:0:
272,5,173606,5,2,2:1:0:0:
272,5,173722,1,2,2:1:0:0:
265,88,173837,5,2,2:1:0:0:
265,88,173953,1,2,2:1:0:0:
254,169,174068,6,0,P|247:217|247:257,1,67.5000025749208
179,332,174299,1,10,2:2:0:0:
150,349,174414,1,0,0:0:0:0:
127,377,174529,1,2,2:1:0:0:
94,369,174645,1,10,2:2:0:0:
53,376,174760,1,2,2:2:0:0:
35,347,174875,1,2,2:2:0:0:
17,308,174991,6,0,P|65:298|110:293,1,67.5000025749208,10|0,2:2|0:0,0:0:0:0:
251,196,175221,2,0,P|203:206|158:211,1,67.5000025749208,8|2,2:1|2:2,0:0:0:0:
95,171,175453,5,2,2:1:0:0:
109,226,175568,1,2,2:1:0:0:
122,282,175683,1,2,2:2:0:0:
310,126,175914,6,0,P|353:138|396:139,1,67.5000025749208,10|0,2:2|0:0,0:0:0:0:
217,281,176145,1,2,2:2:0:0:
217,281,176260,2,0,P|174:269|131:268,1,67.5000025749208,10|0,2:2|0:0,0:0:0:0:
356,234,176491,5,2,2:2:0:0:
356,234,176606,2,0,P|394:230|442:216,1,67.5000025749208,10|0,2:2|0:0,0:0:0:0:
164,170,176837,2,0,P|125:171|79:188,1,67.5000025749208,2|2,2:2|2:2,0:0:0:0:
239,361,177068,5,8,2:1:0:0:
257,334,177183,2,0,L|249:244,1,67.5000025749208,2|2,2:2|2:2,0:0:0:0:
273,16,177414,1,2,2:2:0:0:
239,46,177530,2,0,L|260:199,1,135.000005149842,2|0,2:2|0:0,0:0:0:0:
331,277,177876,5,0,0:0:0:0:
341,249,177991,2,0,P|429:236|464:196,1,135.000005149842,14|0,2:2|0:0,0:0:0:0:
463,125,178337,1,10,2:2:0:0:
371,156,178453,2,0,P|377:102|376:74,1,67.5000025749208,2|0,2:2|0:0,0:0:0:0:
204,164,178683,6,0,P|204:197|209:231,1,67.5000025749208,10|2,2:2|2:2,0:0:0:0:
303,221,178914,2,0,P|302:187|297:153,1,67.5000025749208,10|0,2:2|0:0,0:0:0:0:
125,259,179145,6,0,L|207:272,1,67.5000025749208,2|0,2:2|0:0,0:0:0:0:
387,125,179376,2,0,L|305:112,1,67.5000025749208,2|0,2:2|0:0,0:0:0:0:
197,27,179606,5,14,2:2:0:0:
197,27,179722,2,0,P|190:74|189:120,1,67.5000025749208,2|2,2:2|2:2,0:0:0:0:
101,133,179953,1,10,2:2:0:0:
101,133,180069,2,0,P|108:86|109:40,1,67.5000025749208,2|2,2:2|2:2,0:0:0:0:
247,161,180299,5,10,2:2:0:0:
247,161,180414,1,2,2:2:0:0:
272,236,180530,1,2,2:2:0:0:
272,236,180645,1,2,2:2:0:0:
230,305,180760,1,10,2:2:0:0:
230,305,180876,2,0,P|174:297|146:298,1,67.5000025749208,2|2,2:2|2:2,0:0:0:0:
0,190,181106,5,2,2:2:0:0:
0,190,181222,1,2,2:2:0:0:
78,184,181337,1,2,2:2:0:0:
78,184,181453,2,0,P|143:176|184:164,1,67.5000025749208,2|2,2:2|2:2,0:0:0:0:
240,36,181683,6,0,P|257:144|259:193,1,135.000005149842,10|2,2:2|2:2,0:0:0:0:
272,348,182030,2,0,P|255:240|253:191,1,135.000005149842,10|2,2:2|2:2,0:0:0:0:
346,140,182376,6,0,L|405:134,5,45.0000017166138,10|2|2|0|2|2,2:2|2:2|2:2|0:0|2:2|2:2,0:0:0:0:
399,99,182837,5,2,2:2:0:0:
421,140,182952,1,2,2:2:0:0:
414,188,183067,1,2,2:2:0:0:
379,211,183183,1,0,0:0:0:0:
305,232,183299,6,0,P|183:220|148:213,1,135.000005149842,14|0,2:2|0:0,0:0:0:0:
177,108,183645,2,0,P|245:114|316:122,1,135.000005149842,8|0,2:1|0:0,0:0:0:0:
280,271,183991,6,0,P|194:251|128:223,1,135.000005149842,10|0,2:2|0:0,0:0:0:0:
204,69,184337,2,0,P|290:89|356:117,1,135.000005149842,10|0,2:2|0:0,0:0:0:0:
201,306,184683,6,0,P|151:246|125:188,1,135.000005149842,10|10,2:2|2:2,0:0:0:0:
277,33,185030,2,0,P|327:93|353:151,1,135.000005149842,10|0,2:2|0:0,0:0:0:0:
117,265,185376,6,0,P|71:254|38:256,1,67.5000025749208,10|2,2:2|2:2,0:0:0:0:
337,174,185606,1,2,2:2:0:0:
337,174,185722,2,0,P|419:172|491:157,1,135.000005149842,10|0,2:2|0:0,0:0:0:0:
256,35,186068,6,0,B|252:91|248:138|248:137,1,67.5000025749208,10|2,2:2|2:2,0:0:0:0:
256,349,186299,2,0,B|260:293|264:246|264:247,1,67.5000025749208,10|2,2:2|2:2,0:0:0:0:
258,184,186530,1,2,2:2:0:0:
258,188,186645,1,2,2:2:0:0:
258,192,186760,1,2,2:2:0:0:
259,196,186876,1,2,2:2:0:0:
259,200,186991,5,12,2:1:0:0:
259,203,187106,2,0,P|180:220|107:250,1,135.000005149842
32,205,187453,6,0,P|42:277|43:315,1,67.5000025749208,2|0,2:2|0:0,0:0:0:0:
180,373,187683,1,10,2:2:0:0:
180,373,187799,1,0,0:0:0:0:
232,301,187915,2,0,P|227:249|219:219,1,67.5000025749208,2|0,2:2|0:0,0:0:0:0:
0,122,188145,2,0,P|5:174|13:204,1,67.5000025749208,2|0,2:2|0:0,0:0:0:0:
140,12,188376,5,10,2:2:0:0:
95,364,188606,1,10,2:2:0:0:
95,364,188722,2,0,B|115:167,1,135.000005149842
184,101,189068,6,0,P|257:71|343:81,1,135.000005149842,10|0,2:2|0:0,0:0:0:0:
338,281,189415,2,0,P|265:311|179:301,1,135.000005149842,10|0,2:2|0:0,0:0:0:0:
68,179,189760,5,10,2:2:0:0:
142,187,189914,5,0,0:0:0:0:
213,194,190068,5,0,0:0:0:0:
284,202,190221,5,0,0:0:0:0:
511,237,190683,5,12,2:1:0:0:
511,237,195760,5,12,2:1:0:0:
222,359,196222,6,0,P|213:326|205:293,1,67.5000025749208,12|0,2:2|0:0,0:0:0:0:
268,140,196453,1,8,2:1:0:0:
324,191,196568,2,0,P|300:215|275:237,1,67.5000025749208,12|0,2:1|0:0,0:0:0:0:
88,254,196799,1,8,2:1:0:0:
128,187,196914,2,0,P|160:195|192:205,1,67.5000025749208,12|0,2:2|0:0,0:0:0:0:
412,316,197145,5,8,2:3:0:0:
327,361,197260,2,0,P|330:327|336:294,1,67.5000025749208,12|0,2:2|0:0,0:0:0:0:
415,180,197491,5,8,2:1:0:0:
415,180,197606,2,0,L|447:192,2,33.7500012874604,12|0|0,2:2|0:0|0:0,0:0:0:0:
358,96,197837,2,0,L|326:108,2,33.7500012874604,12|0|0,2:2|0:0|0:0,0:0:0:0:
453,101,198068,6,0,B|457:52|457:52|414:21,1,101.250003862381,2|8,2:2|2:1,0:0:0:0:
298,114,198530,6,0,P|265:108|233:97,1,67.5000025749208,12|2,2:1|2:2,0:0:0:0:
262,4,198760,2,0,P|295:9|327:20,1,67.5000025749208,0|2,1:1|2:2,0:0:0:0:
142,171,198991,1,8,2:1:0:0:
155,140,199106,1,0,2:2:0:0:
152,106,199221,1,0,1:1:0:0:
132,79,199337,1,0,2:2:0:0:
102,64,199453,5,10,2:2:0:0:
43,114,199568,1,0,2:2:0:0:
76,182,199683,2,0,P|109:178|142:170,1,67.5000025749208,2|0,1:2|2:2,0:0:0:0:
219,226,199914,6,0,P|228:258|235:291,1,67.5000025749208,10|0,2:2|2:2,0:0:0:0:
173,346,200145,1,2,1:2:0:0:
110,303,200260,2,0,L|77:295,2,33.7500012874604,2|0|8,2:2|0:0|2:2,0:0:0:0:
177,363,200491,2,0,P|210:373|243:379,1,67.5000025749208,2|0,2:2|1:1,0:0:0:0:
446,286,200722,6,0,B|410:272|410:272|360:285|314:258,1,135.000005149842,2|0,2:2|2:2,0:0:0:0:
298,186,201068,2,0,L|318:121,1,67.5000025749208,0|0,1:1|2:2,0:0:0:0:
490,158,201299,2,0,P|459:171|427:181,1,67.5000025749208,10|0,2:2|2:2,0:0:0:0:
321,24,201530,2,0,P|352:37|384:47,1,67.5000025749208,2|0,1:2|2:2,0:0:0:0:
210,208,201760,5,14,2:2:0:0:
19,136,201991,6,0,L|88:119,1,67.5000025749208,0|2,1:1|2:2,0:0:0:0:
216,217,202222,2,0,B|140:193|140:193|133:182|133:182|23:147,1,202.500007724762,8|0,2:2|2:2,0:0:0:0:
7,290,202683,5,14,2:2:0:0:
73,330,202799,1,0,2:2:0:0:
141,290,202915,1,0,1:1:0:0:
76,245,203030,1,0,2:2:0:0:
1,295,203145,6,0,P|101:305|198:335,1,202.500007724762,8|2,2:2|2:2,0:0:0:0:
340,206,203606,6,0,P|325:175|322:142,1,67.5000025749208,14|0,2:2|2:2,0:0:0:0:
422,221,203837,1,0,1:1:0:0:
456,95,203953,2,0,P|470:125|473:158,1,67.5000025749208,2|8,2:2|2:2,0:0:0:0:
374,363,204183,5,0,2:2:0:0:
315,309,204299,2,0,P|341:288|374:283,1,67.5000025749208,2|0,1:2|2:2,0:0:0:0:
138,169,204530,6,0,P|123:159|107:155,2,33.7500012874604,14|2|2,2:2|2:1|2:1,0:0:0:0:
233,307,204760,2,0,P|232:323|236:339,2,33.7500012874604,2|2|2,1:2|2:1|2:1,0:0:0:0:
306,156,204991,2,0,P|321:148|332:136,2,33.7500012874604,14|2|2,2:2|2:1|2:1,0:0:0:0:
227,213,205222,5,2,1:2:0:0:
159,252,205337,1,2,2:1:0:0:
89,290,205453,2,0,P|66:265|51:234,1,67.5000025749208,14|0,2:2|2:2,0:0:0:0:
134,69,205683,5,0,1:1:0:0:
70,117,205799,2,0,L|36:110,2,33.7500012874604,2|0|8,2:2|0:0|2:2,0:0:0:0:
145,78,206030,5,2,2:1:0:0:
200,134,206145,2,0,L|264:114,1,67.5000025749208,10|8,1:2|2:1,0:0:0:0:
379,46,206376,5,14,2:2:0:0:
467,49,206492,1,0,2:2:0:0:
491,133,206607,1,2,1:1:0:0:
419,183,206723,1,2,2:1:0:0:
349,128,206837,5,8,2:2:0:0:
292,179,206953,1,8,2:1:0:0:
301,133,207068,5,10,1:2:0:0:
332,203,207183,1,6,2:2:0:0:
419,183,207299,6,0,P|449:199|480:214,1,67.5000025749208,14|0,2:2|2:2,0:0:0:0:
399,364,207530,1,2,1:1:0:0:
477,378,207645,2,0,P|457:300|338:286,1,202.500007724762,2|10,2:2|1:2,0:0:0:0:
306,346,208106,1,8,2:1:0:0:
230,325,208222,5,10,2:2:0:0:
230,325,209145,6,0,B|259:106|259:106|170:137|170:137|221:153|228:204,1,396.000012084961,8|8,2:1|2:1,0:0:0:0:
229,194,210760,5,10,2:2:0:0:
229,194,210876,2,0,B|270:173|270:173|321:187,1,99.0000030212403,10|0,2:2|0:0,0:0:0:0:
280,259,211222,6,0,L|286:329,1,67.5000025749208,12|8,2:2|2:1,0:0:0:0:
489,274,211453,5,8,2:1:0:0:
433,330,211568,2,0,P|400:322|370:308,1,67.5000025749208,12|0,2:2|0:0,0:0:0:0:
272,246,211799,5,8,2:3:0:0:
216,190,211914,2,0,P|183:198|153:212,1,67.5000025749208,12|8,2:2|2:1,0:0:0:0:
355,228,212145,5,8,2:1:0:0:
431,207,212260,2,0,P|441:175|444:141,1,67.5000025749208,12|0,2:2|0:0,0:0:0:0:
293,36,212491,5,8,2:1:0:0:
239,91,212606,1,8,2:3:0:0:
174,50,212722,5,12,2:1:0:0:
256,192,212837,12,12,216414,2:2:0:0:
