osu file format v14

[General]
AudioFilename: audio.mp3
AudioLeadIn: 0
PreviewTime: 48010
Countdown: 0
SampleSet: Soft
StackLeniency: 0.7
Mode: 0
LetterboxInBreaks: 0
WidescreenStoryboard: 0

[Editor]
Bookmarks: 530,7914,24530,39299,48530,78068,85453,109453,142568,157453,172222,190683,198068,212722,216991
DistanceSpacing: 0.4
BeatDivisor: 16
GridSize: 32
TimelineZoom: 3.859998

[Metadata]
Title:Jibun Katte Dazzling
TitleUnicode:自分勝手Dazzling
Artist:Hoshimachi Suisei
ArtistUnicode:星街すいせい
Creator:Amateurre
Version:Shooting Star
Source:CHUNITHM PARADISE LOST
Tags:チュウニズム パラダイスロスト 音ゲー 音楽ゲーム Rhythm Game vtuber virtual youtuber jibunkatte hololive ホロライブ Rute 齋藤真也 saito masanari 河合泰志 taishi japanese pop jpop j-pop electronic still stellar suichan hosimati hoshimati hosimachi sui-chan shizuku- shikibe mayu kazato asa thzz mocaotic deppyforce koldnoodl matha petal bongo stratos kowari kisata apaffy
BeatmapID:3259473
BeatmapSetID:1595850

[Difficulty]
HPDrainRate:5
CircleSize:4
OverallDifficulty:8.6
ApproachRate:9.4
SliderMultiplier:1.8
SliderTickRate:1

[Events]
//Background and Video events
0,0,"suisei8.jpg",0,0
Video,0,"Jibun Katte Dazzling.mp4"
//Break Periods
//Storyboard Layer 0 (Background)
//Storyboard Layer 1 (Fail)
//Storyboard Layer 2 (Pass)
//Storyboard Layer 3 (Foreground)
//Storyboard Layer 4 (Overlay)
//Storyboard Sound Samples

[TimingPoints]
530,461.538461538462,4,2,2,60,1,0
530,-142.857142857143,4,2,2,60,0,0
7914,-100,4,2,2,80,0,0
15760,-100,4,2,3,80,0,0
16106,-100,4,2,2,80,0,0
16683,-100,4,2,3,80,0,0
17030,-100,4,2,2,80,0,0
17606,-100,4,2,3,80,0,0
17722,-100,4,2,2,80,0,0
20837,-45.4545454545455,4,2,2,80,0,0
21068,-45.4545454545455,4,2,2,90,0,0
21183,-45.4545454545455,4,2,3,90,0,0
21414,-40,4,2,3,90,0,0
21645,-40,4,2,2,90,0,0
21876,-40,4,2,3,90,0,0
22337,-40,4,2,2,90,0,0
22568,-40,4,2,3,90,0,0
23030,-40,4,2,2,90,0,0
23145,-66.6666666666667,4,2,2,90,0,0
24530,-125,4,2,2,80,0,0
25453,-125,4,2,4,80,0,0
26145,-125,4,2,2,80,0,0
27299,-125,4,2,4,80,0,0
27991,-125,4,2,2,80,0,0
29145,-125,4,2,4,80,0,0
29606,-125,4,2,2,80,0,0
30991,-125,4,2,4,80,0,0
31683,-125,4,2,2,80,0,0
31914,-83.3333333333333,4,2,2,85,0,0
32376,-83.3333333333333,4,2,4,85,0,0
32491,-83.3333333333333,4,2,2,85,0,0
33299,-83.3333333333333,4,2,4,85,0,0
33760,-83.3333333333333,4,2,2,85,0,0
34222,-83.3333333333333,4,2,4,85,0,0
34337,-83.3333333333333,4,2,2,85,0,0
35145,-83.3333333333333,4,2,4,85,0,0
35606,-83.3333333333333,4,2,2,85,0,0
36068,-83.3333333333333,4,2,4,85,0,0
36760,-83.3333333333333,4,2,2,85,0,0
36991,-83.3333333333333,4,2,4,85,0,0
37453,-66.6666666666667,4,2,2,90,0,0
37914,-66.6666666666667,4,2,4,90,0,0
38030,-66.6666666666667,4,2,2,90,0,0
38491,-66.6666666666667,4,2,3,90,0,0
38606,-66.6666666666667,4,2,2,90,0,0
38837,-66.6666666666667,4,2,3,90,0,0
39299,-66.6666666666667,4,2,2,75,0,0
40222,-66.6666666666667,4,2,4,75,0,0
40453,-66.6666666666667,4,2,2,75,0,0
41837,-66.6666666666667,4,2,4,75,0,0
42068,-66.6666666666667,4,2,2,75,0,0
42299,-100,4,2,2,90,0,0
42991,-100,4,2,2,85,0,0
43683,-100,4,2,3,85,0,0
44260,-100,4,2,2,85,0,0
44606,-100,4,2,3,85,0,0
44953,-100,4,2,2,85,0,0
45068,-100,4,2,3,85,0,0
45299,-100,4,2,2,85,0,0
45876,-100,4,2,5,85,0,0
45933,-100,4,2,3,85,0,0
46222,-100,4,2,3,90,0,0
46683,-66.6666666666667,4,2,4,90,0,0
46914,-66.6666666666667,4,2,2,90,0,0
47145,-66.6666666666667,4,2,4,90,0,0
47260,-66.6666666666667,4,2,2,90,0,0
48068,-250.000000000001,4,2,3,90,0,0
48414,-250.000000000001,4,2,3,5,0,0
48530,-33.3333333333333,4,2,5,95,0,0
48760,-33.3333333333333,4,2,2,95,0,0
48876,-50,4,2,2,95,0,0
48991,-50,4,2,6,95,0,0
49222,-50,4,2,2,95,0,0
49914,-50,4,2,6,95,0,0
50145,-50,4,2,2,95,0,0
50837,-50,4,2,6,95,0,0
51068,-50,4,2,2,95,0,0
51760,-50,4,2,6,95,0,0
51991,-50,4,2,2,95,0,0
52683,-50,4,2,6,95,0,0
52914,-50,4,2,2,95,0,0
53606,-50,4,2,6,95,0,0
53837,-50,4,2,2,95,0,0
54530,-50,4,2,5,95,0,0
54760,-50,4,2,2,95,0,0
55453,-50,4,2,6,95,0,0
55683,-50,4,2,2,95,0,0
55914,-50,4,2,7,95,0,0
56145,-50,4,2,2,95,0,0
56376,-50,4,2,6,95,0,0
56606,-50,4,2,2,95,0,0
57299,-50,4,2,6,95,0,0
57530,-50,4,2,2,95,0,0
58222,-50,4,2,6,95,0,0
58453,-50,4,2,2,95,0,0
59145,-50,4,2,6,95,0,0
59376,-50,4,2,2,95,0,0
59606,-50,4,2,7,95,0,0
59837,-50,4,2,2,95,0,0
60068,-40,4,2,5,95,0,0
60299,-40,4,2,2,95,0,0
60530,-50,4,2,7,95,0,0
60760,-50,4,2,2,95,0,0
60991,-40,4,2,5,95,0,0
61222,-40,4,2,2,95,0,0
61453,-40,4,2,8,95,0,0
61568,-40,4,2,3,95,0,0
61683,-66.6666666666667,4,2,2,95,0,0
61799,-66.6666666666667,4,2,9,95,0,0
61914,-66.6666666666667,4,2,2,95,0,0
62260,-50,4,2,2,95,0,0
62722,-50,4,2,3,95,0,0
62837,-50,4,2,8,95,0,0
63068,-50,4,2,10,95,0,0
63299,-50,4,2,11,95,0,0
63530,-50,4,2,2,95,0,0
63760,-50,4,2,6,95,0,0
63991,-50,4,2,2,95,0,0
64683,-50,4,2,6,95,0,0
64914,-50,4,2,2,95,0,0
65606,-50,4,2,6,95,0,0
65837,-50,4,2,2,95,0,0
66530,-50,4,2,6,95,0,0
66760,-50,4,2,2,95,0,0
67453,-50,4,2,6,95,0,0
67683,-50,4,2,2,95,0,0
68376,-50,4,2,6,95,0,0
68606,-50,4,2,2,95,0,0
68837,-50,4,2,7,95,0,0
69183,-50,4,2,2,95,0,0
70683,-50,4,2,11,95,0,0
70914,-50,4,2,2,95,0,0
71145,-50,4,2,6,95,0,0
71376,-50,4,2,2,95,0,0
72068,-50,4,2,6,95,0,0
72299,-50,4,2,2,95,0,0
72991,-50,4,2,6,95,0,0
73222,-50,4,2,2,95,0,0
73914,-50,4,2,6,95,0,0
74145,-50,4,2,2,95,0,0
74376,-50,4,2,7,95,0,0
74606,-50,4,2,2,95,0,0
74837,-50,4,2,5,95,0,0
74953,-50,4,2,2,95,0,0
75068,-50,4,2,3,95,0,0
75183,-50,4,2,2,95,0,0
75299,-50,4,2,7,95,0,0
75530,-50,4,2,2,95,0,0
75760,-50,4,2,12,95,0,0
75876,-50,4,2,3,95,0,0
75991,-50,4,2,9,95,0,0
76106,-50,4,2,4,95,0,0
76222,-50,4,2,7,95,0,0
76453,-50,4,2,2,95,0,0
76568,-50,4,2,3,95,0,0
76683,-50,4,2,12,95,0,0
76799,-50,4,2,3,95,0,0
76914,-50,4,2,4,95,0,0
77030,-50,4,2,2,95,0,0
77376,-50,4,2,9,95,0,0
77606,-50,4,2,2,95,0,0
77837,-50,4,2,13,95,0,0
77953,-50,4,2,4,95,0,0
78068,-100,4,2,2,80,0,0
78991,-100,4,2,4,80,0,0
79222,-55.5555555555556,4,2,2,80,0,0
79914,-83.3333333333333,4,2,2,80,0,0
80722,-83.3333333333333,4,2,5,80,0,0
80780,-83.3333333333333,4,2,2,80,0,0
80837,-83.3333333333333,4,2,4,80,0,0
81068,-45.4545454545455,4,2,2,80,0,0
81760,-83.3333333333333,4,2,2,80,0,0
82568,-83.3333333333333,4,2,5,80,0,0
82626,-83.3333333333333,4,2,2,80,0,0
82683,-83.3333333333333,4,2,6,80,0,0
82799,-83.3333333333333,4,2,2,80,0,0
83145,-83.3333333333333,4,2,6,80,0,0
83260,-83.3333333333333,4,2,4,80,0,0
83376,-83.3333333333333,4,2,2,80,0,0
83491,-83.3333333333333,4,2,4,80,0,0
83837,-55.5555555555556,4,2,2,90,0,0
84068,-55.5555555555556,4,2,4,90,0,0
84183,-55.5555555555556,4,2,2,90,0,0
84414,-55.5555555555556,4,2,4,90,0,0
84530,-55.5555555555556,4,2,2,90,0,0
84760,-55.5555555555556,4,2,4,90,0,0
84876,-55.5555555555556,4,2,3,90,0,0
85453,-76.9230769230769,4,2,2,80,0,0
85914,-76.9230769230769,4,2,4,80,0,0
86260,-76.9230769230769,4,2,2,80,0,0
86837,-76.9230769230769,4,2,4,80,0,0
87530,-76.9230769230769,4,2,2,80,0,0
87760,-76.9230769230769,4,2,4,80,0,0
87876,-76.9230769230769,4,2,2,80,0,0
88683,-76.9230769230769,4,2,4,80,0,0
89145,-76.9230769230769,4,2,2,80,0,0
89606,-76.9230769230769,4,2,4,80,0,0
89953,-76.9230769230769,4,2,2,80,0,0
90530,-76.9230769230769,4,2,4,80,0,0
90991,-76.9230769230769,4,2,2,80,0,0
91453,-76.9230769230769,4,2,4,80,0,0
91799,-76.9230769230769,4,2,2,80,0,0
92376,-76.9230769230769,4,2,4,80,0,0
92606,-76.9230769230769,4,2,2,80,0,0
92837,-76.9230769230769,4,2,2,85,0,0
93299,-76.9230769230769,4,2,4,85,0,0
93414,-76.9230769230769,4,2,2,85,0,0
94222,-76.9230769230769,4,2,4,85,0,0
94683,-76.9230769230769,4,2,2,85,0,0
95145,-76.9230769230769,4,2,4,85,0,0
95260,-76.9230769230769,4,2,2,85,0,0
96068,-76.9230769230769,4,2,4,85,0,0
96530,-76.9230769230769,4,2,2,85,0,0
96991,-76.9230769230769,4,2,4,85,0,0
97683,-76.9230769230769,4,2,2,85,0,0
97914,-76.9230769230769,4,2,4,85,0,0
98376,-76.9230769230769,4,2,2,85,0,0
98837,-76.9230769230769,4,2,4,85,0,0
99183,-76.9230769230769,4,2,2,85,0,0
99414,-76.9230769230769,4,2,4,85,0,0
99530,-76.9230769230769,4,2,2,85,0,0
99760,-76.9230769230769,4,2,4,85,0,0
100222,-76.9230769230769,4,2,2,75,0,0
101030,-76.9230769230769,4,2,5,75,0,0
101087,-76.9230769230769,4,2,2,75,0,0
101837,-76.9230769230769,4,2,3,75,0,0
102068,-76.9230769230769,4,2,2,75,0,0
102645,-76.9230769230769,4,2,5,75,0,0
102760,-76.9230769230769,4,2,2,75,0,0
102991,-76.9230769230769,4,2,4,75,0,0
103222,-76.9230769230769,4,2,2,75,0,0
103914,-76.9230769230769,4,2,7,83,0,0
104145,-76.9230769230769,4,2,3,83,0,0
104260,-76.9230769230769,4,2,2,83,0,0
104837,-76.9230769230769,4,2,7,86,0,0
105068,-76.9230769230769,4,2,3,86,0,0
105183,-76.9230769230769,4,2,2,86,0,0
105530,-76.9230769230769,4,2,3,86,0,0
105587,-76.9230769230769,4,2,2,86,0,0
105760,-76.9230769230769,4,2,14,90,0,0
105876,-76.9230769230769,4,2,2,90,0,0
105991,-76.9230769230769,4,2,3,90,0,0
106222,-76.9230769230769,4,2,2,90,0,0
107145,-76.9230769230769,4,2,3,90,0,0
107606,-66.6666666666667,4,2,2,80,0,0
108530,-66.6666666666667,4,2,12,90,0,0
108991,-125,4,2,2,60,0,0
109453,-33.3333333333333,4,2,5,95,0,0
109683,-33.3333333333333,4,2,2,95,0,0
109799,-50,4,2,2,95,0,0
109914,-50,4,2,6,95,0,0
110145,-50,4,2,2,95,0,0
110837,-50,4,2,6,95,0,0
111068,-50,4,2,2,95,0,0
111760,-50,4,2,6,95,0,0
111991,-50,4,2,2,95,0,0
112683,-50,4,2,6,95,0,0
112914,-50,4,2,2,95,0,0
113606,-50,4,2,6,95,0,0
113837,-50,4,2,2,95,0,0
114530,-50,4,2,6,95,0,0
114760,-50,4,2,2,95,0,0
115453,-50,4,2,5,95,0,0
115683,-50,4,2,2,95,0,0
116376,-50,4,2,6,95,0,0
116606,-50,4,2,2,95,0,0
116837,-50,4,2,7,95,0,0
117068,-50,4,2,2,95,0,0
117299,-50,4,2,6,95,0,0
117530,-50,4,2,2,95,0,0
118222,-50,4,2,6,95,0,0
118453,-50,4,2,2,95,0,0
119145,-50,4,2,6,95,0,0
119376,-50,4,2,2,95,0,0
120068,-50,4,2,6,95,0,0
120299,-50,4,2,2,95,0,0
120530,-50,4,2,7,95,0,0
120760,-50,4,2,2,95,0,0
120991,-40,4,2,5,95,0,0
121222,-40,4,2,2,95,0,0
121453,-50,4,2,7,95,0,0
121683,-50,4,2,2,95,0,0
121914,-40,4,2,5,95,0,0
122145,-40,4,2,2,95,0,0
122376,-40,4,2,8,95,0,0
122491,-40,4,2,3,95,0,0
122606,-66.6666666666667,4,2,2,95,0,0
122722,-66.6666666666667,4,2,9,95,0,0
122837,-66.6666666666667,4,2,2,95,0,0
123183,-50,4,2,2,95,0,0
123645,-50,4,2,3,95,0,0
123760,-50,4,2,8,95,0,0
123991,-50,4,2,10,95,0,0
124222,-50,4,2,11,95,0,0
124453,-50,4,2,2,95,0,0
124683,-50,4,2,6,95,0,0
124914,-50,4,2,2,95,0,0
125606,-50,4,2,6,95,0,0
125837,-50,4,2,2,95,0,0
126530,-50,4,2,6,95,0,0
126760,-50,4,2,2,95,0,0
127453,-50,4,2,6,95,0,0
127683,-50,4,2,2,95,0,0
128376,-50,4,2,6,95,0,0
128606,-50,4,2,2,95,0,0
129299,-50,4,2,6,95,0,0
129530,-50,4,2,2,95,0,0
129760,-50,4,2,7,95,0,0
130106,-50,4,2,2,95,0,0
131606,-50,4,2,11,95,0,0
131837,-50,4,2,2,95,0,0
132068,-50,4,2,6,95,0,0
132299,-50,4,2,2,95,0,0
132991,-50,4,2,6,95,0,0
133222,-50,4,2,2,95,0,0
133914,-50,4,2,6,95,0,0
134145,-50,4,2,2,95,0,0
134837,-50,4,2,6,95,0,0
135068,-50,4,2,2,95,0,0
135299,-50,4,2,7,95,0,0
135530,-50,4,2,2,95,0,0
135760,-50,4,2,5,95,0,0
135876,-50,4,2,2,95,0,0
135991,-50,4,2,3,95,0,0
136106,-50,4,2,2,95,0,0
136222,-50,4,2,7,95,0,0
136453,-50,4,2,2,95,0,0
136683,-50,4,2,12,95,0,0
136799,-50,4,2,3,95,0,0
136914,-50,4,2,9,95,0,0
137030,-50,4,2,4,95,0,0
137145,-50,4,2,7,95,0,0
137376,-50,4,2,2,95,0,0
137491,-50,4,2,3,95,0,0
137606,-50,4,2,12,95,0,0
137722,-50,4,2,3,95,0,0
137837,-50,4,2,4,95,0,0
137953,-50,4,2,2,95,0,0
138299,-50,4,2,9,95,0,0
138530,-50,4,2,2,95,0,0
138760,-50,4,2,13,95,0,0
138876,-50,4,2,4,95,0,0
138991,-125,4,2,2,80,0,0
139914,-125,4,2,4,80,0,0
140606,-125,4,2,15,80,0,0
141068,-66.6666666666667,4,2,2,90,0,0
141183,-66.6666666666667,4,2,3,90,0,0
141645,-66.6666666666667,4,2,2,90,0,0
141760,-55.5555555555556,4,2,2,90,0,0
141876,-55.5555555555556,4,2,3,90,0,0
142453,-55.5555555555556,4,2,2,90,0,0
142568,-66.6666666666667,4,2,2,85,0,0
143606,-66.6666666666667,4,2,4,85,0,0
144991,-66.6666666666667,4,2,2,85,0,0
145453,-66.6666666666667,4,2,4,85,0,0
145683,-66.6666666666667,4,2,2,85,0,0
146260,-66.6666666666667,4,2,7,85,0,0
147299,-66.6666666666667,4,2,6,85,0,0
148106,-66.6666666666667,4,2,2,85,0,0
149145,-66.6666666666667,4,2,16,85,0,0
149376,-66.6666666666667,4,2,2,85,0,0
149606,-66.6666666666667,4,2,16,85,0,0
149722,-66.6666666666667,4,2,2,85,0,0
150991,-66.6666666666667,4,2,15,85,0,0
152376,-66.6666666666667,4,2,2,85,0,0
152837,-66.6666666666667,4,2,4,85,0,0
153068,-66.6666666666667,4,2,2,85,0,0
154683,-66.6666666666667,4,2,15,85,0,0
155837,-66.6666666666667,4,2,4,90,0,0
156068,-66.6666666666667,4,2,17,90,0,0
156183,-66.6666666666667,4,2,2,90,0,0
156299,-66.6666666666667,4,2,17,90,0,0
156414,-66.6666666666667,4,2,7,90,0,0
156530,-66.6666666666667,4,2,4,90,0,0
156760,-66.6666666666667,4,2,2,90,0,0
157453,-66.6666666666667,4,2,2,85,0,0
157683,-133.333333333333,4,2,2,85,0,0
158376,-133.333333333333,4,2,15,85,0,0
158837,-133.333333333333,4,2,2,85,0,0
160222,-133.333333333333,4,2,4,85,0,0
160568,-133.333333333333,4,2,2,85,0,0
160683,-66.6666666666667,4,2,2,85,0,0
161145,-66.6666666666667,4,2,7,85,0,0
162068,-66.6666666666667,4,2,4,85,0,0
162299,-200,4,2,4,85,0,0
162530,-200,4,2,2,85,0,0
163683,-100,4,2,2,85,0,0
163799,-100,4,2,5,85,0,0
163856,-100,4,2,2,85,0,0
163914,-100,4,2,4,85,0,0
164145,-55.5555555555556,4,2,18,85,0,0
164491,-55.5555555555556,4,2,2,85,0,0
165068,-133.333333333333,4,2,2,85,0,0
165760,-133.333333333333,4,2,15,85,0,0
166222,-133.333333333333,4,2,2,85,0,0
167606,-133.333333333333,4,2,4,85,0,0
167837,-66.6666666666667,4,2,7,85,0,0
169453,-66.6666666666667,4,2,4,85,0,0
169683,-200,4,2,4,85,0,0
169914,-200,4,2,2,85,0,0
171299,-200,4,2,15,85,0,0
171414,-100,4,2,15,85,0,0
171760,-200,4,2,15,85,0,0
172222,-50,4,2,11,90,0,0
173606,-50,4,2,2,90,0,0
174991,-62.5,4,2,2,90,0,0
175683,-62.5,4,2,3,90,0,0
175914,-62.5,4,2,2,90,0,0
177299,-62.5,4,2,3,90,0,0
177414,-62.5,4,2,5,90,0,0
177645,-62.5,4,2,2,90,0,0
177991,-37.037037037037,4,2,7,90,0,0
178683,-58.8235294117647,4,2,7,90,0,0
179145,-58.8235294117647,4,2,3,90,0,0
179606,-38.4615384615385,4,2,7,90,0,0
179953,-45.4545454545455,4,2,7,90,0,0
180991,-45.4545454545455,4,2,3,90,0,0
181453,-45.4545454545455,4,2,2,90,0,0
181914,-45.4545454545455,4,2,3,90,0,0
182030,-45.4545454545455,4,2,2,90,0,0
182837,-45.4545454545455,4,2,3,90,0,0
182953,-45.4545454545455,4,2,7,90,0,0
183645,-45.4545454545455,4,2,2,90,0,0
183760,-62.5,4,2,3,90,0,0
183991,-62.5,4,2,2,90,0,0
184683,-62.5,4,2,18,90,0,0
184799,-62.5,4,2,9,90,0,0
185030,-62.5,4,2,18,90,0,0
185376,-62.5,4,2,2,90,0,0
185606,-62.5,4,2,3,90,0,0
185722,-50,4,2,2,90,0,0
186068,-58.8235294117647,4,2,2,90,0,0
186530,-58.8235294117647,4,2,3,90,0,0
186645,-58.8235294117647,4,2,2,90,0,0
187914,-58.8235294117647,4,2,3,90,0,0
188068,-58.8235294117647,4,2,2,90,0,0
188376,-50,4,2,2,90,0,0
188722,-58.8235294117647,4,2,2,90,0,0
190683,-250,4,2,2,75,0,0
195760,-250,4,2,8,95,0,0
196106,-250,4,2,8,5,0,0
196222,-55.5555555555556,4,2,2,90,0,0
196453,-55.5555555555556,4,2,4,90,0,0
196568,-55.5555555555556,4,2,2,90,0,0
196799,-55.5555555555556,4,2,3,90,0,0
196914,-55.5555555555556,4,2,2,90,0,0
197260,-55.5555555555556,4,2,3,90,0,0
197606,-55.5555555555556,4,2,2,90,0,0
198068,-76.9230769230769,4,2,2,80,0,0
198530,-76.9230769230769,4,2,9,95,0,0
198645,-50,4,2,9,95,0,0
198991,-50,4,2,2,95,0,0
199453,-50,4,2,6,95,0,0
199683,-50,4,2,2,95,0,0
200376,-50,4,2,6,95,0,0
200606,-50,4,2,2,95,0,0
201299,-50,4,2,6,95,0,0
201530,-50,4,2,2,95,0,0
201760,-50,4,2,19,95,0,0
201991,-50,4,2,2,95,0,0
202222,-50,4,2,5,95,0,0
202453,-50,4,2,2,95,0,0
202683,-50,4,2,19,95,0,0
202914,-50,4,2,2,95,0,0
203145,-50,4,2,5,95,0,0
203376,-50,4,2,2,95,0,0
203606,-40,4,2,7,95,0,0
203837,-40,4,2,2,95,0,0
203953,-50,4,2,2,95,0,0
204068,-50,4,2,5,95,0,0
204299,-50,4,2,2,95,0,0
204530,-50,4,2,20,95,0,0
204587,-50,4,2,2,95,0,0
204760,-50,4,2,3,95,0,0
204818,-50,4,2,2,95,0,0
204991,-50,4,2,21,95,0,0
205049,-50,4,2,2,95,0,0
205222,-50,4,2,3,95,0,0
205280,-50,4,2,2,95,0,0
205453,-50,4,2,7,100,0,0
205683,-50,4,2,2,100,0,0
205914,-50,4,2,5,100,0,0
206030,-50,4,2,2,100,0,0
206145,-50,4,2,16,100,0,0
206260,-50,4,2,3,100,0,0
206376,-50,4,2,7,100,0,0
206606,-50,4,2,2,100,0,0
206837,-50,4,2,12,100,0,0
206953,-50,4,2,3,100,0,0
207068,-50,4,2,9,100,0,0
207183,-50,4,2,4,100,0,0
207299,-33.3333333333333,4,2,7,100,0,0
207530,-33.3333333333333,4,2,2,100,0,0
207645,-33.3333333333333,4,2,3,100,0,0
207703,-33.3333333333333,4,2,2,100,0,0
207760,-40,4,2,12,100,0,0
207876,-40,4,2,3,100,0,0
207991,-40,4,2,16,100,0,0
208106,-40,4,2,3,100,0,0
208222,-40,4,2,2,80,0,0
209145,-66.6666666666667,4,2,2,80,0,0
210068,-66.6666666666667,4,2,4,85,0,0
210760,-66.6666666666667,4,2,15,85,0,0
211222,-66.6666666666667,4,2,2,90,0,0
211337,-66.6666666666667,4,2,3,90,0,0
211799,-66.6666666666667,4,2,2,90,0,0
211914,-55.5555555555556,4,2,2,90,0,0
212030,-55.5555555555556,4,2,3,90,0,0
212606,-55.5555555555556,4,2,2,90,0,0
212722,-83.3333333333333,4,2,5,90,0,0
213299,-83.3333333333333,4,2,19,80,0,0
215837,-83.3333333333333,4,2,19,5,0,0
216068,-50,4,2,19,95,0,0
216414,-100,4,2,2,95,0,0
216876,-100,4,2,2,5,0,0

[Colours]
Combo1 : 111,238,184
Combo2 : 104,162,249
Combo3 : 143,232,250

[HitObjects]
468,38,530,6,0,L|457:104,1,62.9999980773926,2|0,2:2|0:0,0:0:0:0:
457,112,876,1,2,2:2:0:0:
365,135,1106,1,2,2:2:0:0:
273,158,1337,1,2,2:2:0:0:
35,364,2145,5,2,2:2:0:0:
35,364,2376,2,0,L|21:277,1,62.9999980773926,2|0,2:2|0:0,0:0:0:0:
23,288,2722,1,2,2:2:0:0:
104,248,2953,1,2,2:2:0:0:
165,316,3183,1,2,2:2:0:0:
165,316,3760,1,2,2:2:0:0:
410,221,4222,6,0,L|420:149,1,62.9999980773926,2|0,2:2|0:0,0:0:0:0:
420,146,4568,1,2,2:2:0:0:
349,74,4799,1,2,2:2:0:0:
254,118,5030,1,2,2:2:0:0:
295,384,5837,5,2,2:2:0:0:
360,337,6068,2,0,L|347:268,1,62.9999980773926,2|0,2:2|0:0,0:0:0:0:
344,264,6414,1,2,2:2:0:0:
270,222,6645,1,2,2:2:0:0:
287,136,6876,1,2,2:2:0:0:
172,36,7106,5,2,2:2:0:0:
162,38,7221,1,2,0:0:0:0:
152,40,7337,1,2,0:0:0:0:
142,42,7453,1,2,0:0:0:0:
132,44,7567,1,0,0:0:0:0:
122,46,7683,1,0,0:0:0:0:
0,167,7914,6,0,P|43:173|77:145,1,90,12|0,2:1|0:0,0:0:0:0:
74,132,8260,1,0,0:0:0:0:
220,267,8491,1,0,0:0:0:0:
296,236,8722,2,0,L|404:245,2,90,0|2|0,0:0|2:1|0:0,0:0:0:0:
297,247,9299,1,2,2:1:0:0:
299,258,9414,1,0,0:0:0:0:
301,269,9530,1,0,0:0:0:0:
482,176,9760,5,0,0:0:0:0:
414,137,9991,1,0,0:0:0:0:
414,137,10106,2,0,L|423:35,1,90
421,47,10453,1,0,0:0:0:0:
421,47,10568,1,8,2:1:0:0:
326,152,10799,1,0,0:0:0:0:
318,160,10914,1,8,2:1:0:0:
311,168,11030,2,0,L|208:180,1,90
212,171,11376,1,0,0:0:0:0:
39,112,11606,6,0,P|25:59|54:9,1,90,8|0,2:1|0:0,0:0:0:0:
53,22,11953,1,0,0:0:0:0:
212,171,12183,1,0,0:0:0:0:
136,202,12414,2,0,L|28:193,2,90,0|2|0,0:0|2:1|0:0,0:0:0:0:
135,191,12991,1,2,2:1:0:0:
133,180,13106,1,0,0:0:0:0:
131,169,13222,1,0,0:0:0:0:
301,301,13453,6,0,L|310:345,2,45
311,283,13799,2,0,P|349:260|391:271,1,90
469,164,14260,2,0,L|484:60,1,90,8|0,2:1|0:0,0:0:0:0:
475,62,14606,1,8,2:1:0:0:
381,72,14837,2,0,L|312:84,2,67.5,2|0|0,2:1|0:0|0:0,0:0:0:0:
257,142,15299,5,12,2:1:0:0:
119,42,15760,6,0,P|74:71|78:112,1,90,2|0,2:2|0:0,0:0:0:0:
0,136,16106,2,0,P|62:134|119:206,1,135,2|0,2:2|0:0,0:0:0:0:
186,313,16683,6,0,L|202:216,1,90,2|0,2:2|0:0,0:0:0:0:
122,178,17030,2,0,L|99:311,1,135,2|0,2:2|0:0,0:0:0:0:
263,363,17606,5,2,2:2:0:0:
263,363,17722,2,0,L|384:341,2,90,2|10|2,2:2|2:2|2:2,0:0:0:0:
388,269,18414,2,0,P|438:327|429:388,1,135,2|2,2:2|2:2,0:0:0:0:
432,381,18876,1,2,2:2:0:0:
432,381,18991,1,8,2:1:0:0:
298,263,19222,5,0,0:0:0:0:
298,263,19337,2,0,L|315:152,1,90
304,164,19683,1,0,0:0:0:0:
304,164,19799,2,0,L|201:174,1,90,0|2,0:0|2:1,0:0:0:0:
205,185,20145,2,0,L|136:192,1,45
96,230,20376,1,10,2:1:0:0:
54,30,20606,1,8,2:1:0:0:
54,30,20953,5,0,0:0:0:0:
0,103,21068,2,0,B|64:100|83:149|83:149|82:99|134:72,1,198.000006042481,12|8,2:2|2:1,0:0:0:0:
329,56,21414,2,0,P|278:47|217:39,1,112.5,12|0,2:2|0:0,0:0:0:0:
131,73,21645,1,8,2:3:0:0:
199,152,21760,5,12,2:2:0:0:
271,140,21875,1,8,2:1:0:0:
337,173,21990,1,8,2:1:0:0:
377,245,22106,2,0,B|399:304|463:325|514:300|514:300|479:302|456:267,1,225,12|8,2:2|2:3,0:0:0:0:
298,321,22453,6,0,P|251:327|186:337,1,112.5,12|8,2:2|2:1,0:0:0:0:
117,371,22683,1,8,2:1:0:0:
10,194,22799,6,0,P|57:200|121:210,1,112.5,12|0,2:2|0:0,0:0:0:0:
191,244,23029,1,8,2:3:0:0:
384,69,23145,6,0,B|393:17|326:-20|263:27|252:77|264:149|360:196|371:121|442:148|523:210|530:255|502:340|442:402|334:371|292:297|328:233,1,675.000025749208,12|0,2:1|0:0,0:0:0:0:
159,349,24530,6,0,P|81:363|13:380,2,144,12|8|8,2:1|2:1|2:2,0:0:0:0:
65,285,25914,2,0,L|70:258,4,18,0|0|0|0|8,2:2|2:2|2:2|2:2|2:1,0:0:0:0:
15,159,26606,6,0,P|52:140|90:148,1,72,8|0,2:1|0:0,0:0:0:0:
145,99,26953,2,0,P|181:114|200:152,1,72,8|0,2:1|0:0,0:0:0:0:
235,218,27299,6,0,L|263:46,1,144,8|0,2:2|2:2,0:0:0:0:
260,66,27876,1,0,2:2:0:0:
261,57,27991,2,0,L|255:16,1,36,8|0,2:1|0:0,0:0:0:0:
348,147,28222,5,8,2:1:0:0:
352,139,28337,1,0,2:2:0:0:
357,131,28453,2,0,P|416:99|498:122,1,144,0|8,2:2|2:1,0:0:0:0:
505,337,29145,5,8,2:2:0:0:
380,298,29318,1,0,2:2:0:0:
471,208,29491,1,0,2:2:0:0:
454,279,29606,1,8,2:1:0:0:
290,352,30068,5,0,0:0:0:0:
241,246,30299,1,8,2:1:0:0:
143,322,30530,2,0,L|109:329,4,18,0|0|0|0|0,2:2|2:2|2:2|2:2|2:2,0:0:0:0:
241,246,30991,5,10,2:2:0:0:
200,178,31145,1,2,2:2:0:0:
241,106,31299,1,2,2:2:0:0:
204,31,31453,6,0,L|209:6,3,18,2|0|0|0,2:2|0:0|0:0|0:0,0:0:0:0:
140,84,31683,2,0,L|145:109,3,18,8|0|0|0,2:1|0:0|0:0|0:0,0:0:0:0:
241,106,31914,6,0,B|302:117|283:81|350:94,1,107.999996704102,12|0,2:1|0:0,0:0:0:0:
427,57,32260,2,0,P|439:30|433:-2,1,53.9999983520508,0|8,0:0|2:2,0:0:0:0:
376,165,32491,6,0,L|399:284,1,107.999996704102,10|10,2:2|2:2,0:0:0:0:
296,353,32953,5,0,0:0:0:0:
291,338,33068,1,0,0:0:0:0:
286,322,33183,1,0,0:0:0:0:
281,306,33299,2,0,L|287:272,2,26.9999991760254,8|0|0,2:2|0:0|0:0,0:0:0:0:
205,194,33530,5,2,2:2:0:0:
148,247,33645,1,0,0:0:0:0:
67,225,33760,2,0,B|37:164|79:185|35:92,1,107.999996704102,10|0,2:2|0:0,0:0:0:0:
136,44,34106,2,0,P|140:74|113:105,1,53.9999983520508,8|8,2:1|2:2,0:0:0:0:
205,194,34337,2,0,L|313:174,1,107.999996704102,10|10,2:2|2:2,0:0:0:0:
482,37,35145,5,8,2:2:0:0:
469,31,35261,1,0,0:0:0:0:
472,44,35376,2,0,P|461:88|456:119,1,53.9999983520508
487,249,35606,6,0,P|436:219|382:231,1,107.999996704102,10|8,2:2|2:1,0:0:0:0:
378,232,35953,1,0,0:0:0:0:
425,296,36068,2,0,B|444:250|407:214|412:235|364:194|398:142,1,161.999995056153,8|8,2:2|2:2,0:0:0:0:
331,91,36530,6,0,P|279:114|218:104,1,107.999996704102,2|8,2:2|2:1,0:0:0:0:
162,65,36876,1,0,0:0:0:0:
111,128,36991,2,0,P|115:154|125:199,1,53.9999983520508,8|0,2:2|0:0,0:0:0:0:
59,295,37222,2,0,P|55:269|45:224,1,53.9999983520508
225,182,37453,5,10,2:1:0:0:
286,239,37568,1,2,2:1:0:0:
367,215,37683,1,8,2:1:0:0:
331,91,37799,6,0,B|326:130|310:115|304:162,1,67.5000025749208,2|8,2:1|2:1,0:0:0:0:
329,341,38030,5,2,2:1:0:0:
398,288,38145,1,0,0:0:0:0:
479,317,38260,1,2,2:1:0:0:
410,383,38376,2,0,L|413:364,4,16.8750006437302,2|0|0|0|8,2:2|0:0|0:0|0:0|2:1,0:0:0:0:
198,277,38606,5,8,2:1:0:0:
129,336,38722,1,0,0:0:0:0:
48,301,38837,2,0,L|11:308,3,33.7500012874604,8|0|0|0,2:1|0:0|0:0|0:0,0:0:0:0:
113,244,39068,2,0,L|105:207,3,33.7500012874604
215,362,39299,5,10,2:2:0:0:
314,338,39530,1,0,0:0:0:0:
314,338,39646,1,2,2:2:0:0:
361,228,39876,5,2,2:2:0:0:
460,252,40107,1,2,2:2:0:0:
460,252,40223,1,8,2:2:0:0:
314,338,40453,6,0,B|325:214|325:214|323:209|323:209|334:97,1,236.250009012223,8|0,2:1|0:0,0:0:0:0:
343,109,40914,1,2,2:2:0:0:
246,223,41145,5,10,2:2:0:0:
147,199,41376,1,0,0:0:0:0:
147,199,41492,1,2,2:2:0:0:
56,17,41722,5,10,2:2:0:0:
2,97,41953,1,10,2:2:0:0:
2,97,42069,1,2,2:1:0:0:
75,115,42183,1,2,2:1:0:0:
135,64,42299,2,0,B|185:41|241:95|225:104|222:116|272:178|333:149,1,225,12|0,2:1|0:0,0:0:0:0:
461,145,42991,6,0,P|398:130|385:256,1,225,10|0,2:2|0:0,0:0:0:0:
500,321,43683,1,10,2:3:0:0:
504,309,43741,1,0,0:0:0:0:
504,299,43799,1,0,0:0:0:0:
503,289,43856,1,0,0:0:0:0:
499,281,43914,2,0,P|397:299|279:331,1,225,2|0,2:2|0:0,0:0:0:0:
131,373,44606,5,2,2:2:0:0:
128,363,44664,1,0,0:0:0:0:
123,356,44722,1,0,0:0:0:0:
119,346,44780,1,0,0:0:0:0:
114,337,44837,2,0,L|123:293,1,45,10|2,2:2|2:1,0:0:0:0:
36,316,45068,2,0,L|45:272,1,45,2|2,2:2|2:2,0:0:0:0:
210,261,45299,6,0,L|196:197,1,45,10|2,2:1|2:1,0:0:0:0:
288,240,45530,2,0,L|278:196,1,45,2|2,2:1|2:1,0:0:0:0:
112,43,45760,5,10,2:1:0:0:
36,54,45876,1,2,2:2:0:0:
24,129,45991,1,2,2:3:0:0:
92,164,46106,1,2,2:3:0:0:
147,110,46222,2,0,L|186:119,2,22.5,10|0|0,2:2|0:0|0:0,0:0:0:0:
256,201,46453,2,0,L|295:192,2,22.5,10|0|0,2:2|0:0|0:0,0:0:0:0:
419,88,46683,5,8,2:1:0:0:
413,100,46799,1,0,0:0:0:0:
451,169,46914,2,0,P|456:202|460:235,1,67.5000025749208,12|2,2:2|2:1,0:0:0:0:
277,195,47145,5,8,2:1:0:0:
254,270,47260,2,0,P|249:303|244:336,1,67.5000025749208,12|0,2:2|0:0,0:0:0:0:
340,269,47491,5,8,2:3:0:0:
166,294,47606,2,0,P|130:298|98:301,1,67.5000025749208,10|0,2:2|0:0,0:0:0:0:
348,277,47837,2,0,P|384:273|415:269,1,67.5000025749208,10|0,2:2|0:0,0:0:0:0:
498,116,48068,6,0,P|499:96|491:115,1,54,4|0,2:1|0:0,0:0:0:0:
498,116,48530,6,0,B|424:135|398:96|416:82|382:33|309:61,1,202.500007724762,12|0,2:1|0:0,0:0:0:0:
312,62,48760,1,2,1:2:0:0:
245,116,48876,2,0,L|197:109,2,45,2|0|8,2:2|0:0|2:2,0:0:0:0:
86,10,49106,2,0,P|97:63|105:130,1,90,2|0,2:2|1:1,0:0:0:0:
7,266,49337,6,0,P|87:258|158:338,1,180,2|0,2:2|2:2,0:0:0:0:
221,376,49683,2,0,P|281:355|294:303,1,90,0|0,1:1|2:2,0:0:0:0:
280,159,49914,6,0,L|311:17,1,135,10|0,2:2|0:0,0:0:0:0:
311,20,50145,2,0,P|349:50|346:96,1,90,2|0,1:2|2:2,0:0:0:0:
220,226,50376,6,0,P|145:197|75:203,1,135,10|0,2:2|0:0,0:0:0:0:
81,201,50606,1,2,1:2:0:0:
22,132,50722,2,0,L|32:77,2,45,2|0|8,2:2|0:0|2:2,0:0:0:0:
194,310,50953,6,0,P|256:306|293:283,1,90,2|0,2:2|1:1,0:0:0:0:
194,50,51183,6,0,P|219:135|218:234,1,180,2|0,2:2|2:2,0:0:0:0:
333,368,51530,1,0,1:1:0:0:
408,314,51645,5,0,2:2:0:0:
415,310,51703,1,0,0:0:0:0:
421,307,51760,2,0,P|469:317|511:328,1,90,10|0,2:2|2:2,0:0:0:0:
355,117,51991,6,0,P|306:165|315:239,1,135,2|0,1:2|0:0,0:0:0:0:
304,236,52222,2,0,P|251:241|204:210,1,90,10|0,2:2|2:2,0:0:0:0:
175,0,52453,2,0,P|180:53|149:100,1,90,2|2,1:2|2:2,0:0:0:0:
159,91,52626,1,0,0:0:0:0:
152,98,52683,1,8,2:2:0:0:
7,59,52799,2,0,P|71:39|115:36,1,90,2|0,2:2|1:1,0:0:0:0:
313,156,53030,6,0,P|402:162|496:210,1,180,2|0,2:2|2:2,0:0:0:0:
450,46,53376,2,0,P|415:89|424:141,1,90,2|0,1:2|2:2,0:0:0:0:
441,215,53606,2,0,P|463:203|494:200,2,45,10|0|0,2:2|0:0|2:2,0:0:0:0:
337,329,53837,6,0,P|346:277|360:219,1,90,2|0,1:2|2:2,0:0:0:0:
230,72,54068,6,0,P|169:125|99:115,1,135,10|0,2:2|0:0,0:0:0:0:
103,114,54299,2,0,P|53:125|3:139,1,90,2|2,1:2|2:2,0:0:0:0:
152,44,54530,5,8,2:2:0:0:
204,167,54645,2,0,L|194:210,2,45,0|0|2,2:2|0:0|1:2,0:0:0:0:
328,84,54876,2,0,B|403:61|384:103|466:79,1,135,2|0,2:2|0:0,0:0:0:0:
468,77,55106,1,0,2:2:0:0:
378,203,55222,2,0,L|367:156,2,45,2|0|0,1:2|0:0|2:2,0:0:0:0:
488,384,55453,6,0,P|499:318|514:235,1,135,10|0,2:2|0:0,0:0:0:0:
506,245,55683,2,0,P|458:248|420:280,1,90,10|0,1:2|2:2,0:0:0:0:
311,383,55914,6,0,P|280:318|193:293,1,135,14|0,2:2|0:0,0:0:0:0:
218,291,56145,1,2,1:2:0:0:
153,341,56260,2,0,P|130:346|107:352,2,45,2|0|8,2:2|0:0|2:2,0:0:0:0:
290,223,56491,2,0,P|336:213|381:201,1,90,2|0,2:2|1:1,0:0:0:0:
137,164,56722,6,0,P|147:86|158:-3,1,135,2|0,2:2|0:0,0:0:0:0:
156,21,56953,1,0,2:2:0:0:
47,173,57068,2,0,P|63:219|102:245,1,90,0|0,1:1|2:2,0:0:0:0:
281,81,57299,6,0,P|234:91|178:101,1,90,10|0,2:2|2:2,0:0:0:0:
216,313,57530,2,0,P|263:303|319:293,1,90,2|0,1:2|2:2,0:0:0:0:
500,164,57760,6,0,B|392:148|423:211|312:195,1,180,10|2,2:2|1:2,0:0:0:0:
245,177,58106,2,0,P|221:183|204:192,2,45,2|0|8,2:2|0:0|2:2,0:0:0:0:
404,276,58337,6,0,P|395:325|384:377,1,90,2|0,2:2|1:1,0:0:0:0:
245,177,58568,2,0,P|160:173|92:254,1,180,2|0,2:2|2:2,0:0:0:0:
93,247,58856,1,0,0:0:0:0:
91,258,58914,2,0,P|102:306|110:351,1,90,0|0,1:1|2:2,0:0:0:0:
336,264,59145,6,0,P|400:254|466:292,1,135,10|0,2:2|0:0,0:0:0:0:
471,289,59376,2,0,P|494:241|483:191,1,90,2|0,1:2|2:2,0:0:0:0:
328,0,59606,6,0,P|344:88|360:184,1,180,14|0,2:2|1:1,0:0:0:0:
358,177,59895,1,0,0:0:0:0:
358,177,59953,1,2,2:2:0:0:
452,64,60068,6,0,B|393:27|344:83|359:87|361:102|316:144|253:114,1,225,8|2,2:2|1:2,0:0:0:0:
184,64,60414,1,0,2:2:0:0:
112,178,60530,6,0,P|123:227|130:277,1,90,14|0,2:2|2:2,0:0:0:0:
38,379,60760,5,0,1:1:0:0:
40,370,60818,1,0,0:0:0:0:
42,360,60876,1,2,2:2:0:0:
43,350,60933,1,0,0:0:0:0:
44,339,60991,2,0,B|100:354|145:329|140:305|125:294|186:248|244:282,1,225,8|2,2:2|1:2,0:0:0:0:
290,378,61337,1,0,2:2:0:0:
206,351,61453,5,10,2:2:0:0:
321,299,61568,1,8,2:1:0:0:
417,379,61683,2,0,L|460:371,2,33.7500012874604,8|0|10,2:3|0:0|2:2,0:0:0:0:
395,236,61914,5,4,2:3:0:0:
422,123,62030,1,4,2:3:0:0:
505,194,62145,1,10,2:2:0:0:
315,166,62260,6,0,P|253:180|183:195,1,135,10|0,2:2|0:0,0:0:0:0:
176,192,62491,1,8,2:1:0:0:
85,244,62606,1,8,2:1:0:0:
18,170,62722,1,8,2:1:0:0:
116,64,62837,6,0,P|109:108|101:152,1,90,10|0,2:2|0:0,0:0:0:0:
0,341,63068,2,0,P|67:330|133:381,1,135,10|0,2:2|0:0,0:0:0:0:
131,374,63299,6,0,P|196:357|310:330,1,180,14|2,2:2|1:2,0:0:0:0:
451,372,63645,2,0,P|467:367|495:361,2,45,2|0|8,2:2|0:0|2:2,0:0:0:0:
432,206,63876,2,0,P|402:256|414:321,1,90,2|0,2:2|1:1,0:0:0:0:
257,190,64106,6,0,P|242:100|220:6,1,180,2|0,2:2|2:2,0:0:0:0:
411,30,64453,2,0,P|404:84|371:114,1,90,0|0,1:1|2:2,0:0:0:0:
372,114,64626,1,0,0:0:0:0:
359,119,64683,2,0,P|304:108|257:99,1,90,10|0,2:2|2:2,0:0:0:0:
128,283,64914,2,0,P|73:294|26:303,1,90,2|0,1:2|2:2,0:0:0:0:
25,121,65145,6,0,P|119:135|169:219,1,180,10|2,2:2|1:2,0:0:0:0:
203,339,65491,2,0,P|198:364|193:396,2,45,2|0|8,2:2|0:0|2:2,0:0:0:0:
291,307,65722,1,2,2:2:0:0:
128,283,65837,1,0,1:1:0:0:
259,209,65953,6,0,P|348:210|421:160,1,180,2|0,2:2|2:2,0:0:0:0:
380,14,66299,2,0,P|359:63|365:108,1,90,0|0,1:1|2:2,0:0:0:0:
488,219,66530,6,0,P|509:170|503:125,1,90,10|0,2:2|2:2,0:0:0:0:
270,54,66760,2,0,P|202:69|119:86,1,135,2|0,1:2|0:0,0:0:0:0:
126,78,66991,6,0,P|203:80|246:172,1,180,10|2,2:2|1:2,0:0:0:0:
193,336,67337,2,0,L|201:388,2,45,2|0|8,2:2|0:0|2:2,0:0:0:0:
174,234,67568,1,2,2:2:0:0:
100,295,67683,1,0,1:1:0:0:
265,265,67799,2,0,B|310:249|351:279|344:288|344:300|371:337|426:317,1,180,2|0,2:2|2:2,0:0:0:0:
512,232,68145,6,0,P|502:170|495:125,1,90,2|0,1:2|2:2,0:0:0:0:
442,19,68376,2,0,P|437:50|433:72,2,45,10|0|0,2:2|0:0|2:2,0:0:0:0:
355,115,68606,2,0,P|310:122|266:131,1,90,2|0,1:2|2:2,0:0:0:0:
142,359,68837,6,0,P|82:359|20:293,1,135,14|0,2:2|0:0,0:0:0:0:
25,302,69068,1,2,2:2:0:0:
127,183,69183,2,0,P|118:222|107:281,1,90,10|0,1:2|2:2,0:0:0:0:
279,378,69414,1,2,2:2:0:0:
293,354,69472,1,0,0:0:0:0:
318,337,69529,1,0,2:2:0:0:
348,330,69587,1,0,0:0:0:0:
383,342,69645,2,0,P|462:322|510:307,1,90,12|0,2:2|2:2,0:0:0:0:
317,187,69876,5,2,2:2:0:0:
419,159,69991,2,0,P|407:210|399:266,1,90,8|0,2:1|2:2,0:0:0:0:
402,248,70164,1,0,0:0:0:0:
402,248,70222,2,0,P|448:222|501:227,1,90,14|0,2:2|2:2,0:0:0:0:
368,19,70453,2,0,P|342:65|347:118,1,90,10|0,2:2|2:2,0:0:0:0:
280,378,70683,6,0,P|217:301|138:302,1,180,14|0,2:2|1:1,0:0:0:0:
67,339,71030,2,0,L|13:352,2,45,2|0|8,2:2|0:0|2:2,0:0:0:0:
257,184,71260,2,0,P|245:228|233:291,1,90,2|0,2:2|1:1,0:0:0:0:
69,217,71491,6,0,P|56:126|33:20,1,180,2|0,2:2|2:2,0:0:0:0:
146,0,71837,2,0,P|152:54|125:101,1,90,0|0,1:1|2:2,0:0:0:0:
138,85,72010,1,0,0:0:0:0:
138,85,72068,2,0,P|184:73|230:64,1,90,10|0,2:2|2:2,0:0:0:0:
390,187,72299,2,0,P|436:175|482:166,1,90,2|0,1:2|2:2,0:0:0:0:
455,23,72530,6,0,P|370:38|328:134,1,180,10|2,2:2|1:2,0:0:0:0:
376,269,72876,2,0,P|370:301|365:331,2,45,2|0|8,2:2|0:0|2:2,0:0:0:0:
222,232,73106,2,0,P|178:242|134:252,1,90,2|0,2:2|1:1,0:0:0:0:
33,87,73337,6,0,P|99:85|150:127,1,135,2|0,2:2|0:0,0:0:0:0:
154,136,73568,1,0,2:2:0:0:
239,113,73683,2,0,P|258:66|248:19,1,90,0|0,1:1|2:2,0:0:0:0:
38,273,73914,6,0,P|50:316|60:375,1,90,10|0,2:2|2:2,0:0:0:0:
154,339,74145,2,0,P|142:296|131:236,1,90,2|0,1:2|2:2,0:0:0:0:
316,205,74376,6,0,P|361:226|409:220,1,90,14|0,2:2|2:2,0:0:0:0:
473,61,74606,5,0,1:1:0:0:
474,52,74664,1,0,0:0:0:0:
476,43,74722,1,2,2:2:0:0:
478,34,74780,1,0,0:0:0:0:
480,25,74837,2,0,P|434:11|355:60,1,135,8|2,2:2|2:1,0:0:0:0:
357,57,75068,2,0,P|366:96|375:152,1,90,2|2,1:2|2:1,0:0:0:0:
491,384,75299,6,0,P|379:360|302:346,1,180,14|0,2:2|1:1,0:0:0:0:
311,342,75587,1,0,0:0:0:0:
307,335,75645,2,0,L|298:282,1,45,2|2,2:1|2:1,0:0:0:0:
223,358,75760,2,0,P|178:363|137:381,1,90,8|8,2:2|2:1,0:0:0:0:
113,257,75991,5,10,1:2:0:0:
68,150,76106,1,6,2:2:0:0:
0,226,76222,2,0,P|105:226|180:159,1,180,14|2,2:2|1:1,0:0:0:0:
262,33,76568,1,2,2:2:0:0:
262,33,76626,1,0,0:0:0:0:
262,33,76683,2,0,P|241:74|251:135,1,90,8|8,2:2|2:1,0:0:0:0:
334,142,76914,2,0,P|355:101|345:40,1,90,6|8,1:2|2:3,0:0:0:0:
163,184,77145,6,0,P|180:249|193:331,1,135,14|0,2:2|0:0,0:0:0:0:
186,332,77376,2,0,P|138:340|101:301,1,90,10|0,1:2|2:2,0:0:0:0:
341,354,77606,6,0,P|409:302|500:339,1,180,14|14,2:2|1:2,0:0:0:0:
492,330,77953,1,6,2:2:0:0:
426,384,78068,6,0,B|391:327|422:258|458:249|477:274|529:215|481:138,1,270,8|0,2:1|0:0,0:0:0:0:
487,150,78876,1,2,2:2:0:0:
487,150,78991,1,8,2:1:0:0:
280,29,79222,6,0,B|342:47|350:119|350:119|376:54|445:56,1,242.999992584229,12|0,2:1|0:0,0:0:0:0:
443,55,79683,1,2,2:2:0:0:
258,111,79914,6,0,P|227:103|205:98,1,53.9999983520508,10|0,2:2|0:0,0:0:0:0:
126,57,80145,1,2,2:2:0:0:
126,58,80260,2,0,P|119:84|112:110,1,53.9999983520508,10|0,2:2|0:0,0:0:0:0:
179,190,80491,2,0,P|172:216|166:243,1,53.9999983520508,2|8,2:2|2:1,0:0:0:0:
210,327,80722,1,2,2:2:0:0:
210,327,80837,1,8,2:1:0:0:
0,269,81068,6,0,P|197:289|303:333,1,297.000009063721,12|0,2:1|0:0,0:0:0:0:
287,325,81530,1,2,2:2:0:0:
461,201,81760,6,0,P|465:172|470:147,1,53.9999983520508,10|0,2:2|0:0,0:0:0:0:
379,94,81991,1,2,2:2:0:0:
379,94,82106,2,0,P|384:67|388:40,1,53.9999983520508,2|8,2:2|2:1,0:0:0:0:
477,9,82337,1,2,2:2:0:0:
354,182,82568,5,2,2:2:0:0:
279,200,82683,2,0,L|244:207,3,26.9999991760254,8|0|0|0,2:1|0:0|0:0|0:0,0:0:0:0:
358,193,82914,1,4,2:3:0:0:
512,292,83145,5,8,2:1:0:0:
472,360,83260,1,8,2:1:0:0:
399,379,83376,1,8,2:3:0:0:
328,350,83491,1,8,2:1:0:0:
328,350,83837,6,0,P|335:304|344:246,1,80.9999975280763,12|0,2:2|0:0,0:0:0:0:
358,193,84068,1,8,2:1:0:0:
241,285,84183,6,0,P|234:239|225:181,1,80.9999975280763,12|0,2:2|0:0,0:0:0:0:
211,128,84414,1,8,2:1:0:0:
364,201,84530,6,0,P|371:155|380:97,1,80.9999975280763,12|0,2:2|0:0,0:0:0:0:
394,44,84761,1,8,2:1:0:0:
201,121,84876,6,0,P|195:86|189:54,4,40.4999987640381,12|0|0|0|0,2:2|0:0|0:0|0:0|0:0,0:0:0:0:
47,287,85453,6,0,B|102:265|129:304|123:310|145:355|201:337,1,175.499991966248,12|2,2:1|2:2,0:0:0:0:
276,380,85914,1,8,2:2:0:0:
281,365,86030,1,2,2:2:0:0:
464,156,86260,6,0,P|505:210|485:268,1,116.999994644165,10|0,2:2|0:0,0:0:0:0:
486,261,86606,2,0,L|424:249,1,58.4999973220826,8|0,2:1|0:0,0:0:0:0:
350,231,86837,2,0,L|316:237,4,29.2499986610413,8|0|0|0|2,2:2|2:2|2:2|2:2|2:2,0:0:0:0:
350,231,87530,6,0,P|321:222|287:221,1,58.4999973220826,8|2,2:1|2:2,0:0:0:0:
176,107,87760,5,8,2:2:0:0:
244,137,87876,2,0,P|177:150|133:180,1,116.999994644165,10|10,2:2|2:2,0:0:0:0:
26,126,88337,5,0,0:0:0:0:
26,126,88453,2,0,L|44:7,1,116.999994644165,8|8,2:1|2:2,0:0:0:0:
43,10,88799,1,0,2:2:0:0:
43,10,88914,1,2,2:2:0:0:
5,244,89145,6,0,P|63:249|107:289,1,116.999994644165,10|0,2:2|0:0,0:0:0:0:
89,365,89491,1,2,2:2:0:0:
89,365,89606,2,0,L|28:380,1,58.4999973220826,8|2,2:2|2:2,0:0:0:0:
223,336,89953,6,0,L|238:219,1,116.999994644165,10|0,2:2|0:0,0:0:0:0:
164,165,90299,2,0,P|109:191|49:180,2,116.999994644165,10|10|2,2:2|2:2|2:2,0:0:0:0:
350,133,90991,6,0,L|372:0,1,116.999994644165,10|10,2:2|2:2,0:0:0:0:
369,17,91337,1,2,2:2:0:0:
461,69,91453,2,0,L|503:54,4,29.2499986610413,8|0|0|0|0,2:2|0:0|0:0|0:0|0:0,0:0:0:0:
284,10,91799,6,0,B|243:22|243:22|224:47|224:47|178:59,1,116.999994644165,10|0,2:2|0:0,0:0:0:0:
35,79,92145,2,0,P|35:16|90:35,1,116.999994644165,10|8,2:2|2:2,0:0:0:0:
85,18,92491,2,0,L|116:11,2,29.2499986610413,2|0|10,2:2|0:0|2:2,0:0:0:0:
6,212,92837,6,0,P|80:215|127:253,1,116.999994644165,12|2,2:1|2:2,0:0:0:0:
158,156,93183,2,0,L|146:98,1,58.4999973220826,2|8,2:2|2:2,0:0:0:0:
114,237,93414,2,0,L|94:371,1,116.999994644165,10|10,2:2|2:2,0:0:0:0:
96,352,94222,6,0,L|55:359,4,29.2499986610413,8|0|0|0|2,2:2|0:0|0:0|0:0|2:2,0:0:0:0:
200,296,94683,6,0,P|258:301|287:361,1,116.999994644165,10|10,2:2|2:2,0:0:0:0:
286,347,95030,1,2,2:2:0:0:
359,381,95145,2,0,P|384:381|418:363,1,58.4999973220826,8|10,2:2|2:2,0:0:0:0:
480,128,95491,6,0,L|499:251,1,116.999994644165,10|0,2:2|0:0,0:0:0:0:
498,243,95837,1,2,2:2:0:0:
414,223,96068,5,10,2:2:0:0:
414,223,96183,2,0,L|404:161,1,58.4999973220826,2|0,2:2|0:0,0:0:0:0:
326,15,96530,6,0,P|274:49|204:36,1,116.999994644165,10|10,2:2|2:2,0:0:0:0:
156,155,96876,1,2,2:2:0:0:
115,75,96991,2,0,P|218:91|242:182,1,175.499991966248,8|8,2:2|2:2,0:0:0:0:
219,283,97453,1,2,2:2:0:0:
219,283,97683,6,0,L|208:212,1,58.4999973220826,10|2,2:2|2:2,0:0:0:0:
154,352,97914,2,0,P|111:320|50:325,1,116.999994644165,8|2,2:2|2:2,0:0:0:0:
10,244,98260,1,0,0:0:0:0:
10,244,98376,2,0,L|26:126,1,116.999994644165,10|10,2:2|2:2,0:0:0:0:
113,33,98722,1,2,2:2:0:0:
119,46,98837,2,0,L|114:79,4,29.2499986610413,8|0|0|0|0,2:2|0:0|0:0|0:0|0:0,0:0:0:0:
206,119,99183,6,0,L|330:99,1,116.999994644165,10|8,2:2|2:1,0:0:0:0:
474,148,99530,1,2,2:1:0:0:
510,78,99645,1,2,2:1:0:0:
417,50,99760,6,0,L|428:94,3,29.2499986610413,8|0|0|0,2:1|0:0|0:0|0:0,0:0:0:0:
389,171,99991,2,0,L|400:215,3,29.2499986610413,2|0|0|0,2:2|0:0|0:0|0:0,0:0:0:0:
361,292,100222,5,10,2:2:0:0:
361,292,100683,6,0,P|388:311|424:298,1,58.4999973220826,2|2,2:1|2:2,0:0:0:0:
489,247,100914,2,0,L|493:218,3,29.2499986610413,2|2|2|2,2:3|2:3|2:2|2:3,0:0:0:0:
495,207,101145,1,2,2:1:0:0:
411,307,101376,6,0,B|347:268|273:319|339:341|267:389|196:361,1,233.999989288331,8|2,2:1|2:2,0:0:0:0:
70,179,102068,6,0,P|9:210|41:304,1,175.499991966248,10|2,2:2|2:2,0:0:0:0:
42,305,102530,1,2,2:3:0:0:
115,261,102760,2,0,L|183:271,1,58.4999973220826,2|2,2:1|2:2,0:0:0:0:
288,128,102991,5,8,2:1:0:0:
300,130,103106,1,8,2:1:0:0:
309,132,103222,2,0,B|344:114|327:55|259:19|190:60|178:156|253:238,1,292.499986610413,8|4,2:1|2:3,0:0:0:0:
314,299,103914,5,14,2:2:0:0:
420,258,104145,1,2,2:2:0:0:
496,341,104376,1,2,2:1:0:0:
385,376,104606,1,2,2:1:0:0:
182,221,104837,5,14,2:2:0:0:
111,298,105068,1,2,2:2:0:0:
0,263,105299,1,2,2:1:0:0:
76,180,105530,2,0,L|70:145,3,29.2499986610413,2|2|2|2,2:2|2:1|2:1|2:1,0:0:0:0:
130,42,105760,5,14,2:2:0:0:
179,22,105876,1,2,2:1:0:0:
238,37,105991,1,2,2:2:0:0:
267,86,106106,1,2,2:2:0:0:
223,166,106222,5,10,2:1:0:0:
215,204,106337,1,2,2:1:0:0:
207,242,106453,1,2,2:1:0:0:
199,280,106568,1,2,2:1:0:0:
148,351,106683,6,0,L|107:359,6,29.2499986610413,10|2|2|2|2|2|2,2:1|2:3|2:3|2:3|2:3|2:3|2:3,0:0:0:0:
61,291,107145,6,0,L|43:288,4,14.6249993305207,10|0|2|0|2,2:2|0:0|2:3|0:0|2:3,0:0:0:0:
96,208,107376,2,0,L|84:194,4,14.6249993305207,10|0|2|0|2,2:2|0:0|2:3|0:0|2:3,0:0:0:0:
188,178,107606,6,0,L|175:100,2,67.5000025749208,4|0|0,2:1|2:2|2:2,0:0:0:0:
260,234,107953,1,0,2:2:0:0:
351,202,108068,2,0,L|393:211,2,33.7500012874604,2|2|2,2:2|2:2|2:2,0:0:0:0:
281,127,108299,5,0,2:2:0:0:
278,143,108414,1,0,2:2:0:0:
386,298,108530,6,0,P|442:280|479:269,1,67.5000025749208,6|0,2:2|0:0,0:0:0:0:
188,178,108760,2,0,P|132:196|95:207,1,67.5000025749208,6|0,2:2|0:0,0:0:0:0:
256,384,108991,6,0,L|264:307,1,72,2|2,2:2|2:2,0:0:0:0:
263,312,109453,6,0,B|214:280|169:318|177:327|182:337|144:386|83:355,1,202.500007724762,12|0,2:1|0:0,0:0:0:0:
77,362,109683,1,2,1:2:0:0:
39,207,109799,2,0,L|52:151,2,45,2|0|8,2:2|0:0|2:2,0:0:0:0:
115,278,110030,2,0,P|124:233|133:189,1,90,2|0,2:2|1:1,0:0:0:0:
20,6,110260,6,0,P|80:69|167:63,1,180,2|0,2:2|2:2,0:0:0:0:
214,160,110606,2,0,P|259:165|302:174,1,90,0|0,1:1|2:2,0:0:0:0:
498,92,110837,6,0,P|430:84|364:71,1,135,10|0,2:2|0:0,0:0:0:0:
355,78,111068,2,0,P|331:41|352:3,1,90,2|0,1:2|2:2,0:0:0:0:
417,162,111299,6,0,P|406:227|397:295,1,135,10|0,2:2|0:0,0:0:0:0:
401,306,111530,1,2,1:2:0:0:
468,363,111645,2,0,P|493:360|512:358,2,45,2|0|8,2:2|0:0|2:2,0:0:0:0:
313,260,111876,2,0,P|271:263|223:269,1,90,2|0,2:2|1:1,0:0:0:0:
16,306,112106,6,0,B|65:285|108:320|93:333|124:374|200:344,1,180,2|0,2:2|2:2,0:0:0:0:
223,269,112453,1,0,1:1:0:0:
326,360,112568,5,0,2:2:0:0:
330,353,112626,1,0,0:0:0:0:
333,347,112683,2,0,P|323:299|312:257,1,90,10|0,2:2|2:2,0:0:0:0:
503,145,112914,6,0,P|486:210|473:276,1,135,2|0,1:2|0:0,0:0:0:0:
479,290,113145,2,0,P|413:307|393:282,1,90,10|0,2:2|2:2,0:0:0:0:
264,184,113376,2,0,P|269:136|274:94,1,90,2|2,1:2|2:2,0:0:0:0:
267,85,113549,1,0,0:0:0:0:
260,78,113606,1,8,2:2:0:0:
174,13,113722,2,0,P|166:79|201:106,1,90,2|0,2:2|1:1,0:0:0:0:
350,210,113953,6,0,P|260:206|176:236,1,180,2|0,2:2|2:2,0:0:0:0:
0,158,114299,2,0,P|-9:201|9:240,1,90,2|0,1:2|2:2,0:0:0:0:
91,300,114529,2,0,L|96:345,2,45,10|0|0,2:2|0:0|2:2,0:0:0:0:
104,166,114760,6,0,P|113:114|127:56,1,90,2|0,1:2|2:2,0:0:0:0:
238,0,114991,6,0,P|291:61|281:131,1,135,10|0,2:2|0:0,0:0:0:0:
295,123,115222,2,0,P|339:115|384:111,1,90,2|2,1:2|2:2,0:0:0:0:
477,188,115453,5,8,2:2:0:0:
502,78,115568,2,0,L|512:35,2,45,0|0|2,2:2|0:0|1:2,0:0:0:0:
484,182,115799,2,0,B|405:175|433:212|347:205,1,135,2|0,2:2|0:0,0:0:0:0:
345,204,116029,1,0,2:2:0:0:
287,268,116145,2,0,L|240:279,2,45,2|0|0,1:2|0:0|2:2,0:0:0:0:
295,123,116376,6,0,P|306:57|245:17,1,135,10|0,2:2|0:0,0:0:0:0:
249,4,116606,2,0,P|201:7|163:43,1,90,10|0,1:2|2:2,0:0:0:0:
1,123,116837,6,0,P|66:116|122:152,1,135,14|0,2:2|0:0,0:0:0:0:
129,162,117068,1,2,1:2:0:0:
209,137,117183,2,0,P|214:114|220:91,2,45,2|0|8,2:2|0:0|2:2,0:0:0:0:
166,255,117414,2,0,P|154:298|145:342,1,90,2|0,2:2|1:1,0:0:0:0:
311,332,117645,6,0,P|391:328|458:383,1,135,2|0,2:2|0:0,0:0:0:0:
448,366,117876,1,0,2:2:0:0:
387,288,117991,2,0,P|383:241|421:204,1,90,0|0,1:1|2:2,0:0:0:0:
482,75,118222,6,0,P|492:122|502:178,1,90,10|0,2:2|2:2,0:0:0:0:
311,332,118453,2,0,P|301:285|291:229,1,90,2|0,1:2|2:2,0:0:0:0:
409,114,118683,6,0,B|312:105|335:186|235:160,1,180,10|2,2:2|1:2,0:0:0:0:
103,153,119029,2,0,P|106:130|114:110,2,45,2|0|8,2:2|0:0|2:2,0:0:0:0:
160,242,119260,6,0,P|120:244|71:259,1,90,2|0,2:2|1:1,0:0:0:0:
14,92,119491,2,0,P|75:29|163:33,1,180,2|0,2:2|2:2,0:0:0:0:
169,41,119779,1,0,0:0:0:0:
175,50,119837,2,0,P|219:58|263:68,1,90,0|0,1:1|2:2,0:0:0:0:
336,292,120068,6,0,P|400:282|466:320,1,135,10|0,2:2|0:0,0:0:0:0:
471,317,120299,2,0,P|494:269|483:219,1,90,2|0,1:2|2:2,0:0:0:0:
328,0,120529,6,0,P|344:88|360:184,1,180,14|0,2:2|1:1,0:0:0:0:
358,177,120818,1,0,0:0:0:0:
358,177,120876,1,2,2:2:0:0:
489,233,120991,6,0,P|378:220|290:283,1,225,8|2,2:2|1:2,0:0:0:0:
134,236,121337,1,0,2:2:0:0:
186,384,121453,6,0,P|192:339|202:295,1,90,14|0,2:2|2:2,0:0:0:0:
35,111,121683,5,0,1:1:0:0:
37,120,121741,1,0,0:0:0:0:
39,130,121799,1,2,2:2:0:0:
40,140,121856,1,0,0:0:0:0:
41,151,121914,2,0,B|88:129|142:161|137:185|122:196|183:242|241:208,1,225,8|2,2:2|1:2,0:0:0:0:
385,158,122260,1,0,2:2:0:0:
337,247,122376,5,10,2:2:0:0:
285,132,122491,1,8,2:1:0:0:
371,54,122606,2,0,L|363:11,2,33.7500012874604,8|0|10,2:3|0:0|2:2,0:0:0:0:
400,168,122837,5,4,2:3:0:0:
510,210,122953,1,4,2:3:0:0:
483,97,123068,1,10,2:2:0:0:
389,311,123183,6,0,P|325:276|257:292,1,135,10|0,2:2|0:0,0:0:0:0:
259,295,123414,1,8,2:1:0:0:
186,214,123529,1,8,2:1:0:0:
90,263,123645,1,8,2:1:0:0:
156,380,123760,6,0,P|164:335|171:291,1,90,10|0,2:2|0:0,0:0:0:0:
0,143,123991,2,0,P|55:177|121:166,1,135,10|0,2:2|0:0,0:0:0:0:
128,153,124222,6,0,P|193:170|307:197,1,180,14|2,2:2|1:2,0:0:0:0:
468,96,124568,2,0,P|484:101|512:107,2,45,2|0|8,2:2|0:0|2:2,0:0:0:0:
411,30,124799,2,0,P|381:80|393:145,1,90,2|0,2:2|1:1,0:0:0:0:
484,275,125029,6,0,P|474:188|467:95,1,180,2|0,2:2|2:2,0:0:0:0:
307,8,125376,2,0,P|253:15|223:48,1,90,0|0,1:1|2:2,0:0:0:0:
223,47,125549,1,0,0:0:0:0:
218,60,125606,2,0,P|229:115|238:162,1,90,10|0,2:2|2:2,0:0:0:0:
107,346,125837,2,0,P|98:301|89:257,1,90,2|0,1:2|2:2,0:0:0:0:
0,227,126068,6,0,P|94:232|161:161,1,180,10|2,2:2|1:2,0:0:0:0:
298,213,126414,2,0,P|323:218|355:223,2,45,2|0|8,2:2|0:0|2:2,0:0:0:0:
196,257,126645,1,2,2:2:0:0:
235,148,126760,1,0,1:1:0:0:
319,294,126876,6,0,P|392:244|481:246,1,180,2|0,2:2|2:2,0:0:0:0:
398,117,127222,2,0,P|377:166|383:211,1,90,0|0,1:1|2:2,0:0:0:0:
348,384,127453,6,0,P|305:374|248:368,1,90,10|0,2:2|2:2,0:0:0:0:
10,292,127683,2,0,P|68:254|148:292,1,135,2|0,1:2|0:0,0:0:0:0:
133,365,127914,6,0,B|117:314|150:277|165:308|207:252|178:200,1,180,10|2,2:2|1:2,0:0:0:0:
129,85,128260,2,0,L|123:41,2,45,2|0|8,2:2|0:0|2:2,0:0:0:0:
101,183,128491,1,2,2:2:0:0:
27,122,128606,1,0,1:1:0:0:
211,134,128722,2,0,B|256:118|297:148|290:157|290:169|317:206|372:186,1,180,2|0,2:2|2:2,0:0:0:0:
512,292,129068,6,0,P|450:282|405:275,1,90,2|0,1:2|2:2,0:0:0:0:
368,186,129299,2,0,P|372:164|376:142,2,45,10|0|0,2:2|0:0|2:2,0:0:0:0:
278,263,129529,2,0,P|269:307|262:351,1,90,2|0,1:2|2:2,0:0:0:0:
19,357,129760,6,0,P|-10:305|15:218,1,135,14|0,2:2|0:0,0:0:0:0:
9,227,129991,1,2,2:2:0:0:
169,276,130106,2,0,P|129:281|70:292,1,90,10|0,1:2|2:2,0:0:0:0:
0,116,130337,5,2,2:2:0:0:
0,116,130395,1,0,0:0:0:0:
0,116,130452,1,0,2:2:0:0:
74,164,130568,2,0,P|118:155|162:149,1,90,12|0,2:2|2:2,0:0:0:0:
320,30,130799,5,2,2:2:0:0:
218,2,130914,2,0,P|230:53|238:109,1,90,8|0,2:1|2:2,0:0:0:0:
235,91,131087,1,0,0:0:0:0:
235,91,131145,2,0,P|189:65|136:70,1,90,14|0,2:2|2:2,0:0:0:0:
225,214,131376,2,0,P|269:211|307:187,1,90,10|0,2:2|2:2,0:0:0:0:
481,27,131606,6,0,P|404:90|405:169,1,180,14|0,2:2|1:1,0:0:0:0:
493,308,131953,2,0,L|480:362,2,45,2|0|8,2:2|0:0|2:2,0:0:0:0:
511,221,132183,2,0,P|464:224|427:255,1,90,2|0,2:2|1:1,0:0:0:0:
274,363,132414,6,0,P|289:275|307:187,1,180,2|0,2:2|2:2,0:0:0:0:
160,119,132760,2,0,P|154:65|181:18,1,90,0|0,1:1|2:2,0:0:0:0:
168,34,132933,1,0,0:0:0:0:
168,34,132991,2,0,P|212:25|255:13,1,90,10|0,2:2|2:2,0:0:0:0:
414,93,133222,2,0,P|370:102|327:114,1,90,2|0,1:2|2:2,0:0:0:0:
170,276,133453,6,0,P|84:288|14:209,1,180,10|2,2:2|1:2,0:0:0:0:
124,162,133799,2,0,P|119:184|116:207,2,45,2|0|8,2:2|0:0|2:2,0:0:0:0:
215,349,134029,2,0,P|259:337|303:329,1,90,2|0,2:2|1:1,0:0:0:0:
462,250,134260,6,0,P|507:297|510:363,1,135,2|0,2:2|0:0,0:0:0:0:
506,372,134491,1,0,2:2:0:0:
373,271,134606,2,0,P|378:224|382:177,1,90,0|0,1:1|2:2,0:0:0:0:
425,0,134837,6,0,P|468:12|527:22,1,90,10|0,2:2|2:2,0:0:0:0:
491,116,135068,2,0,P|448:104|388:93,1,90,2|0,1:2|2:2,0:0:0:0:
291,216,135299,6,0,P|246:217|206:197,1,90,14|0,2:2|2:2,0:0:0:0:
27,79,135529,5,0,1:1:0:0:
26,70,135587,1,0,0:0:0:0:
24,61,135645,1,2,2:2:0:0:
22,52,135703,1,0,0:0:0:0:
20,43,135760,2,0,P|66:29|145:78,1,135,8|2,2:2|2:1,0:0:0:0:
142,79,135991,2,0,P|180:106|237:91,1,90,2|2,1:2|2:1,0:0:0:0:
351,19,136222,6,0,P|375:131|389:208,1,180,14|0,2:2|1:1,0:0:0:0:
393,199,136510,1,0,0:0:0:0:
400,203,136568,2,0,L|453:212,1,45,2|2,2:1|2:1,0:0:0:0:
512,293,136683,2,0,P|467:298|426:316,1,90,8|8,2:2|2:1,0:0:0:0:
342,369,136914,5,10,1:2:0:0:
245,307,137029,1,6,2:2:0:0:
148,380,137145,2,0,L|172:183,1,180,14|2,2:2|1:1,0:0:0:0:
96,136,137491,1,2,2:2:0:0:
96,136,137549,1,0,0:0:0:0:
96,136,137606,2,0,P|75:177|85:238,1,90,8|8,2:2|2:1,0:0:0:0:
245,307,137837,2,0,P|286:286|347:296,1,90,6|8,1:2|2:3,0:0:0:0:
512,202,138068,6,0,P|455:228|378:205,1,135,14|0,2:2|0:0,0:0:0:0:
380,203,138299,2,0,P|384:150|386:113,1,90,10|0,1:2|2:2,0:0:0:0:
266,0,138530,2,0,P|262:44|259:89,1,90,14|0,2:2|2:2,0:0:0:0:
169,201,138760,5,14,1:2:0:0:
96,136,138876,1,6,2:2:0:0:
145,43,138991,2,0,P|131:187|117:311,1,270,8|0,2:1|0:0,0:0:0:0:
117,311,139914,2,0,B|75:316|47:361|47:361|37:308|-13:282,1,180,8|0,2:1|0:0,0:0:0:0:
0,288,140606,1,10,2:2:0:0:
0,288,140722,1,10,2:2:0:0:
9,295,141068,6,0,P|43:300|75:308,1,67.5000025749208,12|8,2:2|2:1,0:0:0:0:
140,352,141299,1,8,2:1:0:0:
85,215,141414,6,0,P|119:210|151:201,1,67.5000025749208,12|0,2:2|0:0,0:0:0:0:
216,158,141645,1,8,2:3:0:0:
241,309,141760,6,0,P|294:323|346:348,1,80.9999975280763,12|8,2:2|2:1,0:0:0:0:
384,374,141991,1,8,2:1:0:0:
334,201,142106,6,0,P|404:183|496:138,1,161.999995056153,12|8,2:2|2:1,0:0:0:0:
485,146,142453,1,8,2:3:0:0:
512,311,142568,6,0,P|449:287|379:275,1,135.000005149842,12|0,2:1|0:0,0:0:0:0:
382,275,142914,1,0,0:0:0:0:
271,120,143145,1,10,2:2:0:0:
273,110,143203,1,0,0:0:0:0:
275,100,143260,2,0,L|284:54,2,33.7500012874604
100,13,143606,6,0,P|98:84|142:140,1,135.000005149842,8|0,2:1|0:0,0:0:0:0:
133,134,143953,1,0,0:0:0:0:
87,207,144068,2,0,L|19:219,2,67.5000025749208,2|0|0,2:2|0:0|0:0,0:0:0:0:
259,360,144414,2,0,P|170:360|171:256,1,202.500007724762,2|0,2:2|0:0,0:0:0:0:
162,265,144991,5,10,2:2:0:0:
231,221,145106,2,0,P|335:243|372:252,1,135.000005149842,0|2,0:0|2:2,0:0:0:0:
362,249,145453,1,8,2:1:0:0:
502,37,145683,2,0,B|430:37|446:88|363:87,1,135.000005149842,8|2,2:1|2:2,0:0:0:0:
460,149,146030,2,0,P|455:174|447:221,1,67.5000025749208,8|0,2:1|0:0,0:0:0:0:
298,40,146260,6,0,P|227:102|118:82,1,202.500007724762,14|2,2:2|2:2,0:0:0:0:
125,87,146837,2,0,P|118:131|113:170,1,67.5000025749208,10|2,2:2|2:2,0:0:0:0:
21,179,147068,2,0,P|28:135|33:96,1,67.5000025749208,2|0,2:2|0:0,0:0:0:0:
185,220,147299,6,0,B|245:189|245:189|320:203,1,135.000005149842,6|2,2:2|2:2,0:0:0:0:
311,201,147645,1,2,2:2:0:0:
379,143,147760,5,2,2:2:0:0:
402,249,147876,2,0,P|392:291|377:357,1,67.5000025749208,2|0,2:2|0:0,0:0:0:0:
379,143,148106,2,0,P|395:75|419:-29,1,135.000005149842,4|2,2:1|2:2,0:0:0:0:
482,100,148453,1,2,2:2:0:0:
204,25,148683,6,0,P|150:39|118:44,1,67.5000025749208,10|2,2:2|2:2,0:0:0:0:
155,125,148914,2,0,P|209:111|241:106,1,67.5000025749208,2|0,2:2|0:0,0:0:0:0:
61,10,149145,6,0,P|44:86|30:173,1,135.000005149842,10|10,2:2|2:2,0:0:0:0:
34,142,149491,1,2,2:2:0:0:
99,208,149606,1,10,2:2:0:0:
67,290,149722,2,0,P|22:300|-17:311,1,67.5000025749208,10|0,2:2|0:0,0:0:0:0:
224,384,149953,6,0,P|289:367|355:352,1,135.000005149842,12|0,2:1|0:0,0:0:0:0:
430,378,150299,1,0,0:0:0:0:
496,136,150530,6,0,P|500:111|505:91,2,33.7500012874604,10|0|0,2:2|0:0|0:0,0:0:0:0:
416,116,150760,2,0,P|424:66|434:26,1,67.5000025749208,0|2,0:0|2:2,0:0:0:0:
512,223,150991,6,0,B|448:194|408:246|423:237|429:253|387:294|324:269,1,202.500007724762,10|2,2:2|2:2,0:0:0:0:
224,216,151453,1,2,2:2:0:0:
199,242,151568,2,0,P|207:272|216:312,1,67.5000025749208
313,170,151799,6,0,P|323:106|269:56,1,135.000005149842,2|0,2:2|0:0,0:0:0:0:
211,13,152145,2,0,P|184:19|142:28,1,67.5000025749208
58,198,152376,5,10,2:2:0:0:
9,132,152491,2,0,P|21:78|39:-6,1,135.000005149842,0|2,0:0|2:2,0:0:0:0:
37,0,152837,1,8,2:1:0:0:
58,198,153068,6,0,P|52:225|43:267,1,67.5000025749208,8|0,2:1|0:0,0:0:0:0:
130,384,153299,1,2,2:2:0:0:
0,353,153414,2,0,P|27:347|69:338,1,67.5000025749208,8|0,2:1|0:0,0:0:0:0:
288,173,153645,6,0,P|336:217|327:293,1,135.000005149842,12|2,2:1|2:2,0:0:0:0:
277,335,153991,2,0,P|238:327|197:321,1,67.5000025749208,2|0,2:2|0:0,0:0:0:0:
365,207,154222,6,0,P|443:223|525:235,1,135.000005149842,10|2,2:2|2:2,0:0:0:0:
480,145,154568,1,2,2:2:0:0:
480,145,154683,2,0,P|441:137|400:131,1,67.5000025749208,14|0,2:2|0:0,0:0:0:0:
240,72,154914,5,2,2:2:0:0:
158,89,155030,1,2,2:2:0:0:
185,11,155145,1,2,2:2:0:0:
215,153,155260,1,2,2:2:0:0:
18,331,155722,5,0,0:0:0:0:
18,331,155838,2,0,P|25:290|31:254,1,67.5000025749208,8|8,2:3|2:3,0:0:0:0:
108,280,156068,2,0,P|101:321|95:357,1,67.5000025749208,8|2,2:2|2:3,0:0:0:0:
184,380,156299,5,8,2:2:0:0:
248,318,156414,1,8,2:1:0:0:
331,348,156530,1,8,2:1:0:0:
499,200,156760,5,8,2:1:0:0:
496,188,156876,1,0,0:0:0:0:
491,178,156991,6,0,L|457:172,3,33.7500012874604
409,245,157222,6,0,L|372:238,1,33.7500012874604,2|2,2:1|2:1,0:0:0:0:
356,234,157337,2,0,L|319:227,1,33.7500012874604,2|2,2:1|2:1,0:0:0:0:
302,224,157453,1,12,2:1:0:0:
35,13,157683,5,2,2:2:0:0:
4,154,157799,1,2,2:2:0:0:
43,19,157914,1,2,2:2:0:0:
12,160,158030,2,0,L|81:147,1,67.5000025749208,2|0,2:2|0:0,0:0:0:0:
170,145,158375,5,10,2:2:0:0:
146,32,158491,1,2,2:2:0:0:
178,139,158606,1,2,2:2:0:0:
154,26,158722,2,0,L|223:39,1,67.5000025749208,2|0,2:2|0:0,0:0:0:0:
301,33,159067,5,2,2:2:0:0:
274,132,159183,1,2,2:2:0:0:
309,39,159298,1,2,2:2:0:0:
282,138,159414,2,0,L|351:125,1,67.5000025749208,2|0,2:2|0:0,0:0:0:0:
429,134,159760,5,2,2:2:0:0:
414,54,159876,1,2,2:2:0:0:
437,128,159991,1,2,2:2:0:0:
422,48,160107,2,0,L|458:56,1,33.7500012874604,2|8,2:2|2:1,0:0:0:0:
486,258,160453,5,2,2:2:0:0:
481,279,160569,1,8,2:1:0:0:
477,298,160683,2,0,P|443:299|410:306,1,67.5000025749208,2|0,2:2|0:0,0:0:0:0:
273,245,160914,2,0,P|306:243|339:236,1,67.5000025749208,10|0,2:2|0:0,0:0:0:0:
351,384,161145,6,0,L|385:85,1,270.000010299683,14|2,2:2|2:2,0:0:0:0:
387,118,161837,2,0,L|378:74,3,45.0000017166138,2|0|0|8,2:2|0:0|0:0|0:1,0:0:0:0:
482,115,162298,5,2,2:2:0:0:
497,35,162414,1,2,2:2:0:0:
474,109,162529,1,10,2:2:0:0:
489,29,162645,2,0,L|443:37,1,45,2|0,2:2|0:0,0:0:0:0:
360,70,162991,5,2,2:2:0:0:
368,111,163107,1,2,2:2:0:0:
352,76,163222,1,2,2:2:0:0:
360,117,163338,2,0,L|314:109,1,45,2|0,2:2|0:0,0:0:0:0:
214,121,163683,5,2,2:2:0:0:
209,112,163741,1,0,0:0:0:0:
204,101,163799,2,0,L|208:78,2,22.5,2|2|8,2:2|2:3|2:1,0:0:0:0:
148,175,164145,6,0,P|110:181|68:188,1,80.9999975280763,10|0,2:2|0:0,0:0:0:0:
60,198,164376,1,2,2:2:0:0:
9,116,164491,2,0,P|85:103|169:88,1,161.999995056153,8|0,2:1|0:0,0:0:0:0:
228,33,164837,5,12,2:1:0:0:
477,371,165068,5,2,2:2:0:0:
508,230,165184,1,2,2:2:0:0:
469,365,165299,1,2,2:2:0:0:
500,224,165415,2,0,L|431:237,1,67.5000025749208,2|0,2:2|0:0,0:0:0:0:
342,239,165760,5,10,2:2:0:0:
366,352,165876,1,2,2:2:0:0:
334,245,165991,1,2,2:2:0:0:
358,358,166107,2,0,L|289:345,1,67.5000025749208,2|0,2:2|0:0,0:0:0:0:
211,351,166452,5,2,2:2:0:0:
238,252,166568,1,2,2:2:0:0:
203,345,166683,1,2,2:2:0:0:
230,246,166799,2,0,L|161:259,1,67.5000025749208,2|0,2:2|0:0,0:0:0:0:
83,250,167145,5,2,2:2:0:0:
98,330,167261,1,2,2:2:0:0:
75,256,167376,1,2,2:2:0:0:
90,336,167492,2,0,L|54:328,1,33.7500012874604,2|8,2:2|2:1,0:0:0:0:
0,86,167837,5,10,2:2:0:0:
21,91,167953,1,0,0:0:0:0:
40,95,168067,2,0,P|41:129|48:162,1,67.5000025749208,2|0,2:2|0:0,0:0:0:0:
221,150,168298,2,0,P|219:117|212:84,1,67.5000025749208,2|0,2:2|0:0,0:0:0:0:
145,0,168529,6,0,L|115:268,1,270.000010299683,14|2,2:2|2:2,0:0:0:0:
121,277,169222,2,0,L|165:268,3,45.0000017166138,2|0|0|8,2:2|0:0|0:0|0:1,0:0:0:0:
30,269,169683,5,2,2:2:0:0:
15,349,169799,1,2,2:2:0:0:
38,275,169914,1,10,2:2:0:0:
23,355,170030,2,0,L|69:347,1,45,2|0,2:2|0:0,0:0:0:0:
156,321,170376,5,2,2:2:0:0:
148,280,170492,1,2,2:2:0:0:
164,315,170607,1,2,2:2:0:0:
156,274,170723,2,0,L|202:282,1,45,2|0,2:2|0:0,0:0:0:0:
284,300,171068,5,10,2:2:0:0:
281,320,171184,1,2,2:2:0:0:
292,306,171299,1,10,2:2:0:0:
289,326,171415,2,0,L|335:318,1,45,2|0,2:2|0:0,0:0:0:0:
426,311,171645,5,0,0:0:0:0:
426,311,171760,2,0,L|422:340,1,22.5
427,346,171991,2,0,L|430:323,1,22.5
478,129,172222,6,0,P|429:87|355:93,1,135,14|0,2:2|0:0,0:0:0:0:
351,96,172453,1,0,0:0:0:0:
191,119,172568,2,0,P|168:76|174:24,1,90,10|0,2:2|0:0,0:0:0:0:
169,35,172799,1,0,0:0:0:0:
36,152,172914,6,0,P|167:138|267:225,1,270,10|2,2:2|2:2,0:0:0:0:
341,283,173376,2,0,P|333:318|321:390,1,90,10|0,2:2|0:0,0:0:0:0:
413,342,173606,5,2,2:1:0:0:
255,309,173722,1,2,2:1:0:0:
413,342,173837,2,0,P|452:330|506:318,1,90,2|2,2:1|2:1,0:0:0:0:
431,53,174299,6,0,P|420:94|405:164,1,90,10|0,2:2|0:0,0:0:0:0:
409,140,174530,1,2,2:1:0:0:
508,159,174645,6,0,B|418:159|441:224|342:224,1,180,10|2,2:2|2:2,0:0:0:0:
144,96,174991,2,0,P|135:57|125:12,1,72,10|0,2:2|0:0,0:0:0:0:
206,10,175222,2,0,P|214:45|221:80,1,72,8|2,2:1|2:2,0:0:0:0:
167,274,175453,5,2,2:1:0:0:
111,209,175568,1,2,2:1:0:0:
22,235,175683,1,2,2:2:0:0:
263,370,175914,6,0,P|302:359|346:349,1,72,10|0,2:2|0:0,0:0:0:0:
404,377,176145,1,2,2:2:0:0:
486,216,176260,6,0,P|447:205|403:195,1,72,10|0,2:2|0:0,0:0:0:0:
345,223,176491,1,2,2:2:0:0:
217,110,176606,6,0,P|206:54|198:11,1,72,10|0,2:2|0:0,0:0:0:0:
299,58,176837,1,2,2:2:0:0:
151,184,176953,2,0,P|85:163|-3:148,1,144,2|2,2:2|2:2,0:0:0:0:
56,247,177299,5,2,2:2:0:0:
106,84,177414,1,2,2:2:0:0:
56,247,177530,2,0,P|67:281|78:326,1,72,2|2,2:2|2:1,0:0:0:0:
257,253,177991,6,0,B|298:226|351:252|327:295|366:321|443:289,1,182.250000695229,14|0,2:2|0:0,0:0:0:0:
425,293,178222,1,0,0:0:0:0:
496,237,178337,2,0,L|481:147,2,60.7500002317429,10|2|2,2:2|2:2|2:2,0:0:0:0:
186,384,178683,6,0,P|177:339|166:298,1,76.5000014591217,10|0,2:2|0:0,0:0:0:0:
257,253,178914,2,0,P|266:298|276:340,1,76.5000014591217,10|0,2:2|0:0,0:0:0:0:
57,234,179145,6,0,P|61:214|65:194,3,38.2500007295609,2|0|0|0,2:2|0:0|0:0|0:0,0:0:0:0:
24,110,179376,5,2,2:2:0:0:
23,102,179433,1,0,0:0:0:0:
21,93,179491,1,0,0:0:0:0:
20,86,179549,1,0,0:0:0:0:
19,78,179606,2,0,P|100:66|169:130,1,175.499991966248,14|0,2:2|0:0,0:0:0:0:
173,134,179837,1,2,2:2:0:0:
260,96,179953,2,0,P|283:51|267:-8,1,99.0000030212403,10|2,2:2|2:2,0:0:0:0:
178,143,180183,1,2,2:2:0:0:
370,185,180299,6,0,P|425:166|472:157,1,99.0000030212403,10|2,2:2|2:2,0:0:0:0:
388,88,180530,1,2,2:2:0:0:
388,88,180645,1,2,2:2:0:0:
448,259,180760,6,0,P|433:306|418:376,1,99.0000030212403,10|2,2:2|2:2,0:0:0:0:
259,224,180991,5,2,2:2:0:0:
294,381,181106,1,2,2:2:0:0:
259,224,181221,1,2,2:2:0:0:
294,381,181337,1,2,2:2:0:0:
128,339,181453,6,0,P|171:315|224:321,1,99.0000030212403,2|2,2:2|2:2,0:0:0:0:
423,174,181683,2,0,P|374:177|331:153,1,99.0000030212403,10|2,2:2|2:2,0:0:0:0:
142,83,181914,5,2,2:2:0:0:
212,5,182030,2,0,P|194:98|174:216,1,198.000006042481,10|2,2:2|2:2,0:0:0:0:
361,357,182376,5,10,2:2:0:0:
396,370,182453,1,2,2:2:0:0:
437,362,182530,1,2,2:2:0:0:
466,329,182606,1,0,0:0:0:0:
327,252,182722,1,8,2:1:0:0:
393,159,182837,2,0,P|405:207|416:255,1,99.0000030212403,2|2,2:2|2:2,0:0:0:0:
270,375,183068,5,2,2:2:0:0:
264,372,183145,1,2,2:2:0:0:
259,369,183222,1,2,2:2:0:0:
254,364,183299,6,0,B|217:336|176:348|186:374|137:396|68:367|48:296|102:246|154:249|176:285,1,297.000009063721,14|8,2:2|2:1,0:0:0:0:
393,159,183760,6,0,P|403:124|408:88,1,72,2|0,2:2|0:0,0:0:0:0:
486,144,183991,1,10,2:2:0:0:
319,106,184106,2,0,P|241:125|166:140,1,144,2|10,2:2|2:2,0:0:0:0:
219,26,184453,2,0,P|240:55|234:105,1,72,2|0,2:2|0:0,0:0:0:0:
72,280,184683,5,10,2:2:0:0:
97,183,184799,1,10,2:2:0:0:
3,209,184914,1,10,2:2:0:0:
167,249,185030,1,10,2:2:0:0:
167,249,185376,6,0,P|221:235|249:230,1,72,10|2,2:2|2:2,0:0:0:0:
504,312,185606,5,2,2:2:0:0:
436,366,185722,2,0,P|336:347|317:239,1,180,10|0,2:2|0:0,0:0:0:0:
400,104,186068,6,0,P|407:66|414:28,1,76.5000014591217,10|2,2:2|2:2,0:0:0:0:
331,9,186299,2,0,P|323:46|316:84,1,76.5000014591217,10|2,2:2|2:2,0:0:0:0:
459,176,186530,6,0,L|500:166,3,38.2500007295609,2|0|2|0,2:2|0:0|2:2|0:0,0:0:0:0:
334,206,186760,2,0,L|375:196,3,38.2500007295609,2|0|2|0,2:2|0:0|2:2|0:0,0:0:0:0:
246,226,186991,6,0,P|220:228|196:221,1,51.0000009727478,12|0,2:1|0:0,0:0:0:0:
123,115,187145,1,2,2:2:0:0:
123,115,187222,2,0,P|136:136|143:160,1,51.0000009727478,2|0,2:2|0:0,0:0:0:0:
89,278,187376,1,2,2:2:0:0:
89,278,187453,2,0,P|100:254|118:237,1,51.0000009727478,2|0,2:2|0:0,0:0:0:0:
222,145,187606,5,2,2:2:0:0:
222,145,187683,2,0,P|229:109|228:79,1,51.0000009727478,10|0,2:2|0:0,0:0:0:0:
65,181,187837,1,2,2:2:0:0:
65,181,187914,2,0,P|30:192|4:208,1,51.0000009727478,2|0,2:2|0:0,0:0:0:0:
174,298,188068,1,2,2:2:0:0:
174,298,188145,2,0,P|201:322|228:336,2,51.0000009727478,2|0|2,2:2|0:0|2:2,0:0:0:0:
123,115,188376,6,0,P|130:77|144:8,1,90,10|0,2:2|0:0,0:0:0:0:
27,59,188606,1,10,2:2:0:0:
229,94,188722,6,0,P|313:76|408:56,1,153.000002918243
511,147,189068,2,0,P|473:139|436:131,1,76.5000014591217,10|0,2:2|0:0,0:0:0:0:
493,54,189299,1,0,0:0:0:0:
452,222,189414,2,0,P|464:280|484:383,1,153.000002918243,10|0,2:2|0:0,0:0:0:0:
328,264,189760,5,10,2:2:0:0:
230,374,189914,1,0,0:0:0:0:
184,233,190068,1,0,0:0:0:0:
246,289,190222,1,0,0:0:0:0:
493,54,190683,6,0,B|447:49|420:96|420:96|406:43|361:29,1,180,12|0,2:1|0:0,0:0:0:0:
269,100,192068,6,0,P|250:105|223:110,1,36,2|2,2:2|2:2,0:0:0:0:
141,132,192530,2,0,B|194:105|238:145|219:157|259:197|318:167,1,180,2|0,2:2|0:0,0:0:0:0:
394,240,193914,6,0,L|388:290,1,36,2|2,2:2|2:2,0:0:0:0:
447,351,194376,2,0,P|388:306|284:317,1,180,2|2,2:2|2:2,0:0:0:0:
168,359,195760,6,0,P|150:350|170:351,1,54,12|0,2:1|0:0,0:0:0:0:
162,356,196222,6,0,P|168:318|176:276,1,80.9999975280763,12|0,2:2|0:0,0:0:0:0:
217,189,196453,1,8,2:1:0:0:
44,241,196568,6,0,P|79:227|120:214,1,80.9999975280763,12|0,2:1|0:0,0:0:0:0:
218,196,196798,1,8,2:1:0:0:
84,81,196914,6,0,P|113:105|145:133,1,80.9999975280763,12|0,2:2|0:0,0:0:0:0:
220,203,197145,1,8,2:3:0:0:
242,97,197260,6,0,P|246:77|250:57,2,40.4999987640381,12|0|0,2:2|0:0|0:0,0:0:0:0:
221,210,197492,1,8,2:1:0:0:
309,176,197606,6,0,P|328:172|348:167,2,40.4999987640381,12|0|0,2:2|0:0|0:0,0:0:0:0:
422,251,197837,2,0,P|441:254|461:259,2,40.4999987640381,12|0|0,2:2|0:0|0:0,0:0:0:0:
503,196,198068,6,0,P|397:229|315:262,1,175.499991966248,2|8,2:2|2:1,0:0:0:0:
336,252,198472,1,8,2:1:0:0:
336,252,198530,1,12,2:1:0:0:
322,353,198645,2,0,P|364:363|400:339,1,90,2|0,2:2|1:1,0:0:0:0:
309,176,198876,6,0,B|260:161|220:196|238:210|207:250|143:228,1,180,2|0,2:2|2:2,0:0:0:0:
0,104,199222,2,0,P|-6:158|21:205,1,90,0|0,1:1|2:2,0:0:0:0:
8,189,199395,1,0,0:0:0:0:
8,189,199453,2,0,P|59:178|122:169,1,90,10|0,2:2|2:2,0:0:0:0:
203,82,199684,2,0,P|215:128|224:174,1,90,2|0,1:2|2:2,0:0:0:0:
224,365,199915,6,0,P|289:308|390:336,1,180,10|2,2:2|1:2,0:0:0:0:
468,259,200261,2,0,P|490:262|512:267,2,45,2|0|8,2:2|0:0|2:2,0:0:0:0:
364,138,200491,2,0,P|374:182|384:226,1,90,2|0,2:2|1:1,0:0:0:0:
325,384,200722,6,0,P|290:327|301:262,1,135,2|0,2:2|0:0,0:0:0:0:
306,254,200953,1,0,2:2:0:0:
252,171,201068,2,0,P|205:152|158:162,1,90,0|0,1:1|2:2,0:0:0:0:
0,88,201299,6,0,P|12:45|22:-14,1,90,10|0,2:2|2:2,0:0:0:0:
116,22,201530,2,0,P|104:65|93:125,1,90,2|0,1:2|2:2,0:0:0:0:
114,263,201761,6,0,P|159:242|207:248,1,90,14|0,2:2|2:2,0:0:0:0:
410,290,201991,5,0,1:1:0:0:
419,291,202049,1,0,0:0:0:0:
428,293,202107,1,2,2:2:0:0:
437,295,202165,1,0,0:0:0:0:
446,297,202222,2,0,P|474:232|426:166,1,135,8|0,2:2|0:0,0:0:0:0:
438,167,202453,2,0,P|445:122|455:78,1,90,2|0,1:2|2:2,0:0:0:0:
356,0,202684,6,0,P|332:112|318:189,1,180,14|0,2:2|1:1,0:0:0:0:
316,183,202972,1,0,0:0:0:0:
309,187,203030,2,0,L|256:196,1,45,0|0,2:2|0:0,0:0:0:0:
198,134,203145,2,0,P|172:173|175:219,1,90,8|0,2:2|2:2,0:0:0:0:
178,355,203376,5,2,1:2:0:0:
101,309,203491,1,2,2:2:0:0:
37,363,203607,2,0,P|133:333|265:334,1,225,14|0,2:2|1:1,0:0:0:0:
431,240,203953,5,2,2:2:0:0:
431,240,204011,1,0,0:0:0:0:
431,240,204068,2,0,P|434:285|442:342,1,90,8|0,2:2|2:2,0:0:0:0:
350,377,204299,2,0,P|345:325|339:275,1,90,2|0,1:2|2:2,0:0:0:0:
365,105,204530,6,0,P|431:93|496:76,1,135,14|0,2:2|0:0,0:0:0:0:
505,78,204761,2,0,P|514:35|489:0,1,90,2|2,1:2|2:1,0:0:0:0:
325,198,204991,2,0,P|335:256|341:292,1,90,14|2,2:2|2:1,0:0:0:0:
239,206,205222,6,0,L|194:203,2,45,2|2|2,1:2|2:1|2:1,0:0:0:0:
476,314,205453,6,0,P|356:299|266:380,1,225,14|0,2:2|0:0,0:0:0:0:
277,358,205799,1,2,2:2:0:0:
184,384,205914,2,0,P|191:339|194:294,1,90,8|2,2:2|2:1,0:0:0:0:
56,156,206145,2,0,P|52:200|45:245,1,90,10|8,1:2|2:1,0:0:0:0:
46,246,206318,1,0,0:0:0:0:
46,246,206376,6,0,B|97:266|132:232|117:216|162:179|222:207,1,180,14|2,2:2|1:1,0:0:0:0:
275,246,206722,1,2,2:1:0:0:
365,222,206837,2,0,P|371:193|378:163,1,45,8|0,2:2|0:0,0:0:0:0:
298,122,206953,2,0,P|292:151|285:181,1,45,8|0,2:1|0:0,0:0:0:0:
416,347,207068,5,10,1:2:0:0:
422,356,207183,1,6,2:2:0:0:
500,276,207299,6,0,B|422:236|371:307|393:299|400:334|350:390|275:357,1,270.000010299683,14|2,2:2|1:1,0:0:0:0:
104,176,207645,1,2,2:2:0:0:
104,176,207703,1,2,2:1:0:0:
104,176,207760,2,0,P|73:225|88:293,1,112.5,8|8,2:2|2:1,0:0:0:0:
162,356,207991,5,10,1:2:0:0:
40,384,208106,1,8,2:1:0:0:
162,245,208222,5,10,2:2:0:0:
357,149,209145,6,0,B|406:181|457:136|461:44|348:16|299:71|304:85|311:100|269:129|237:121|204:73|204:73|228:92|259:89,1,405.000015449525,8|0,2:1|0:0,0:0:0:0:
260,0,209953,5,0,0:0:0:0:
260,0,210068,2,0,P|251:68|226:279,1,270.000010299683,8|0,2:1|0:0,0:0:0:0:
503,374,210760,5,10,2:2:0:0:
420,353,210876,1,10,2:2:0:0:
6,193,211222,6,0,P|38:183|71:177,1,67.5000025749208,12|8,2:2|2:1,0:0:0:0:
132,128,211453,1,8,2:1:0:0:
71,289,211568,6,0,P|103:298|136:304,1,67.5000025749208,12|0,2:2|0:0,0:0:0:0:
197,354,211799,1,8,2:3:0:0:
219,169,211914,6,0,P|257:157|297:150,1,80.9999975280763,12|8,2:2|2:1,0:0:0:0:
370,90,212145,1,8,2:1:0:0:
344,268,212260,6,0,P|382:279|422:286,1,80.9999975280763,12|0,2:2|0:0,0:0:0:0:
482,348,212491,1,8,2:1:0:0:
434,183,212606,1,8,2:3:0:0:
128,271,212722,6,0,B|105:277|86:299|86:299|134:321|159:321|159:321|146:353|157:386|157:386|190:362|201:331|201:331|233:354|269:353|269:353|257:314|231:295|231:295|262:271|273:236|273:236|233:236|206:255|206:255|193:218|163:197|163:197|150:235|160:266|160:266|6:291|-60:113|46:6|221:-24|205:88|203:105|204:125|251:225|389:172|458:99|423:11|350:-30|286:-18|267:45,1,1457.99995550537,12|0,2:1|0:0,0:0:0:0:
380,230,216068,6,0,P|438:191|513:203,1,135,12|0,2:2|0:0,0:0:0:0:
512,202,216299,1,2,2:2:0:0:
461,288,216414,2,0,B|378:274|378:274|375:270|375:270|285:256,1,180,12|0,2:2|0:0,0:0:0:0:
