osu file format v14

[General]
AudioFilename: audio.mp3
AudioLeadIn: 0
PreviewTime: 66570
Countdown: 0
SampleSet: Soft
StackLeniency: 0.4
Mode: 0
LetterboxInBreaks: 0
WidescreenStoryboard: 1

[Editor]
Bookmarks: 690,11239,21788,32338,42887,53437,66624,98272,108821,119371,129920,143107,174755,185305,201129,211679,261788,272668,278931
DistanceSpacing: 1.1
BeatDivisor: 4
GridSize: 32
TimelineZoom: 3.400001

[Metadata]
Title:GHOST
TitleUnicode:GHOST
Artist:Hoshimachi Suisei
ArtistUnicode:星街すいせい
Creator:Riven
Version:a faint silhouette dancing in the dark
Source:
Tags:hololive ホロライブ hosimati hoshimati hosimachi suichan sui-chan idol vtuber virtual youtuber singer jrock j-rock rock pop japanese jpop j-pop 佐藤厚仁 sato atsuhito Dream Monster カバー cover corp. ch ch. mocaotic koldnoodl spokenaway Nagaraia
BeatmapID:3527367
BeatmapSetID:1726003

[Difficulty]
HPDrainRate:5
CircleSize:4
OverallDifficulty:9.2
ApproachRate:9.3
SliderMultiplier:1.8
SliderTickRate:1

[Events]
//Background and Video events
Video,-617,"Dancer in The Dark.mp4"
0,0,"bg_waifu2x_art_scale_tta_1.jpg",0,0
//Break Periods
//Storyboard Layer 0 (Background)
//Storyboard Layer 1 (Fail)
//Storyboard Layer 2 (Pass)
//Storyboard Layer 3 (Foreground)
//Storyboard Layer 4 (Overlay)
//Storyboard Sound Samples

[TimingPoints]
687,329.67032967033,4,2,2,35,1,0
9917,-100,4,2,2,40,0,0
10577,-100,4,2,2,50,0,0
11236,-100,4,2,2,40,0,0
19148,-166.666666666667,4,2,2,45,0,0
20137,-166.666666666667,4,2,2,50,0,0
20796,-166.666666666667,4,2,2,5,0,0
20961,-200,4,2,2,45,0,0
21126,-200,4,2,2,50,0,0
21291,-166.666666666667,4,2,2,55,0,0
21456,-76.9230769230769,4,2,2,65,0,0
21785,-83.3333333333333,4,2,3,75,0,0
22280,-83.3333333333333,4,2,4,75,0,0
22774,-83.3333333333333,4,2,3,75,0,0
23269,-83.3333333333333,4,2,4,75,0,0
23763,-83.3333333333333,4,2,2,75,0,0
24423,-83.3333333333333,4,2,3,75,0,0
24917,-83.3333333333333,4,2,4,75,0,0
25412,-83.3333333333333,4,2,3,75,0,0
25906,-83.3333333333333,4,2,4,75,0,0
26401,-83.3333333333333,4,2,2,70,0,0
26730,-83.3333333333333,4,2,2,65,0,0
27060,-83.3333333333333,4,2,3,75,0,0
27555,-83.3333333333333,4,2,4,75,0,0
28049,-83.3333333333333,4,2,3,75,0,0
28544,-83.3333333333333,4,2,4,75,0,0
29038,-83.3333333333333,4,2,2,75,0,0
29697,-83.3333333333333,4,2,3,75,0,0
30192,-83.3333333333333,4,2,4,75,0,0
30687,-83.3333333333333,4,2,3,75,0,0
31181,-83.3333333333333,4,2,2,70,0,0
31511,-83.3333333333333,4,2,2,65,0,0
31676,-83.3333333333333,4,2,2,75,0,0
32335,-125,4,2,2,55,0,0
35961,-111.111111111111,4,2,2,55,0,0
36208,-111.111111111111,4,2,2,5,0,0
36291,-90.9090909090908,4,2,2,55,0,0
37445,-111.111111111111,4,2,2,55,0,0
37527,-111.111111111111,4,2,2,55,0,0
37610,-111.111111111111,4,2,2,55,0,0
40741,-90.9090909090909,4,2,2,55,0,0
41154,-90.9090909090909,4,2,2,5,0,0
41236,-83.3333333333333,4,2,2,55,0,0
42884,-100,4,2,3,60,0,0
45522,-100,4,2,2,60,0,0
52445,-100,4,2,4,60,0,0
52610,-100,4,2,2,55,0,0
52774,-100,4,2,2,50,0,0
52939,-100,4,2,2,45,0,0
53104,-100,4,2,2,40,0,0
53434,-100,4,2,3,60,0,0
53928,-100,4,2,2,60,0,0
56071,-100,4,2,3,60,0,0
56566,-100,4,2,2,60,0,0
57719,-100,4,2,3,60,0,0
57884,-100,4,2,3,55,0,0
58049,-100,4,2,3,50,0,0
58379,-100,4,2,2,55,0,0
58599,-100,4,2,2,50,0,0
58708,-100,4,2,3,60,0,0
59203,-100,4,2,3,40,0,0
61016,-100,4,2,2,50,0,0
61346,-100,4,2,3,35,0,0
61676,-100,4,2,3,40,0,0
62005,-100,4,2,3,45,0,0
62335,-100,4,2,3,50,0,0
62665,-100,4,2,3,55,0,0
62994,-100,4,2,3,60,0,0
63324,-100,4,2,3,65,0,0
63654,-100,4,2,3,70,0,0
63736,-100,4,2,2,70,0,0
63983,-100,4,2,3,60,0,0
64313,-100,4,2,2,60,0,0
64643,-100,4,2,2,70,0,0
64972,-100,4,2,2,80,0,0
65302,-333.333333333333,4,2,3,65,0,0
65961,-333.333333333333,4,2,3,45,0,0
66621,-66.6666666666667,4,2,3,70,0,1
67115,-66.6666666666667,4,2,4,70,0,1
67610,-66.6666666666667,4,2,2,70,0,1
68599,-76.9230769230769,4,2,3,70,0,1
68928,-66.6666666666667,4,2,4,70,0,1
69258,-66.6666666666667,4,2,3,70,0,1
69752,-66.6666666666667,4,2,4,70,0,1
70247,-66.6666666666667,4,2,2,70,0,1
71236,-66.6666666666667,4,2,3,70,0,1
71566,-66.6666666666667,4,2,4,70,0,1
71895,-66.6666666666667,4,2,3,70,0,1
72390,-66.6666666666667,4,2,4,70,0,1
72884,-66.6666666666667,4,2,2,70,0,1
73873,-66.6666666666667,4,2,3,70,0,1
74203,-66.6666666666667,4,2,4,70,0,1
74533,-66.6666666666667,4,2,3,70,0,1
75027,-66.6666666666667,4,2,2,70,0,1
75522,-58.8235294117647,4,2,2,70,0,1
75604,-66.6666666666667,4,2,2,65,0,1
75769,-66.6666666666667,4,2,2,60,0,1
75851,-58.8235294117647,4,2,2,80,0,1
76099,-55.5555555555556,4,2,2,80,0,1
76676,-55.5555555555556,4,2,2,80,0,0
76840,-55.5555555555556,4,2,4,70,0,0
77170,-83.3333333333333,4,2,3,75,0,1
77500,-83.3333333333333,4,2,2,75,0,1
82445,-83.3333333333333,4,2,3,75,0,1
84835,-83.3333333333333,4,2,2,70,0,1
84917,-83.3333333333333,4,2,2,65,0,1
85000,-83.3333333333333,4,2,2,60,0,1
85082,-83.3333333333333,4,2,3,75,0,1
85577,-66.6666666666667,4,2,4,75,0,1
86071,-66.6666666666667,4,2,3,75,0,1
86566,-76.9230769230769,4,2,4,75,0,1
87060,-66.6666666666667,4,2,2,70,0,1
87225,-66.6666666666667,4,2,2,65,0,1
87390,-66.6666666666667,4,2,2,60,0,1
87555,-66.6666666666667,4,2,2,55,0,1
87719,-83.3333333333333,4,2,3,80,0,1
88049,-83.3333333333333,4,2,2,80,0,1
90027,-83.3333333333333,4,2,3,80,0,1
90357,-83.3333333333333,4,2,4,80,0,1
90687,-83.3333333333333,4,2,2,80,0,1
91676,-83.3333333333333,4,2,3,80,0,1
92005,-83.3333333333333,4,2,2,80,0,1
92994,-83.3333333333333,4,2,3,75,0,1
93489,-83.3333333333333,4,2,4,75,0,1
93983,-83.3333333333333,4,2,3,75,0,1
94478,-83.3333333333333,4,2,4,75,0,1
94972,-83.3333333333333,4,2,3,75,0,1
95137,-83.3333333333333,4,2,2,70,0,1
95302,-83.3333333333333,4,2,2,65,0,1
95467,-83.3333333333333,4,2,2,60,0,1
95632,-83.3333333333333,4,2,3,60,0,1
95961,-83.3333333333333,4,2,3,65,0,1
96291,-83.3333333333333,4,2,3,70,0,1
96621,-83.3333333333333,4,2,3,75,0,1
96950,-125,4,2,3,80,0,0
97445,-83.3333333333333,4,2,3,45,0,0
97939,-83.3333333333333,4,2,3,75,0,0
98022,-83.3333333333333,4,2,2,70,0,0
98104,-83.3333333333333,4,2,2,65,0,0
98187,-83.3333333333333,4,2,2,60,0,0
98269,-83.3333333333333,4,2,3,75,0,0
98763,-83.3333333333333,4,2,4,75,0,0
99258,-83.3333333333333,4,2,3,75,0,0
99752,-83.3333333333333,4,2,4,75,0,0
100247,-83.3333333333333,4,2,2,75,0,0
100906,-83.3333333333333,4,2,3,75,0,0
101401,-83.3333333333333,4,2,4,75,0,0
101895,-83.3333333333333,4,2,3,75,0,0
102390,-83.3333333333333,4,2,4,75,0,0
102884,-83.3333333333333,4,2,2,70,0,0
103214,-83.3333333333333,4,2,2,65,0,0
103544,-83.3333333333333,4,2,3,75,0,0
104038,-83.3333333333333,4,2,4,75,0,0
104533,-83.3333333333333,4,2,3,75,0,0
105027,-83.3333333333333,4,2,4,75,0,0
105522,-83.3333333333333,4,2,2,75,0,0
106181,-83.3333333333333,4,2,3,75,0,0
106676,-83.3333333333333,4,2,4,75,0,0
107170,-83.3333333333333,4,2,3,75,0,0
107500,-83.3333333333333,4,2,2,55,0,0
107994,-83.3333333333333,4,2,2,45,0,0
108818,-250,4,2,2,40,0,0
110137,-83.3333333333333,4,2,2,45,0,0
110796,-166.666666666667,4,2,2,50,0,0
111456,-125,4,2,2,55,0,0
118873,-125,4,2,2,75,0,0
119368,-100,4,2,3,65,0,0
121346,-66.6666666666667,4,2,2,70,0,0
121593,-90.9090909090909,4,2,2,70,0,0
122005,-100,4,2,3,65,0,0
124148,-100,4,2,3,50,0,0
124313,-100,4,2,3,60,0,0
124478,-100,4,2,3,70,0,0
124643,-100,4,2,3,65,0,0
129258,-100,4,2,2,60,0,0
129423,-100,4,2,2,55,0,0
129588,-100,4,2,2,50,0,0
129917,-125,4,2,3,65,0,0
134697,-125,4,2,2,60,0,0
134862,-125,4,2,2,55,0,0
135192,-125,4,2,3,60,0,0
137500,-83.3333333333333,4,2,2,50,0,0
137747,-83.3333333333333,4,2,2,5,0,0
137829,-83.3333333333333,4,2,3,35,0,0
138159,-83.3333333333333,4,2,3,40,0,0
138489,-83.3333333333333,4,2,3,45,0,0
138818,-83.3333333333333,4,2,3,50,0,0
139148,-83.3333333333333,4,2,3,55,0,0
139478,-83.3333333333333,4,2,3,60,0,0
139807,-83.3333333333333,4,2,3,65,0,0
140137,-83.3333333333333,4,2,3,70,0,0
140219,-83.3333333333333,4,2,2,70,0,0
140384,-83.3333333333333,4,2,2,70,0,0
140467,-83.3333333333333,4,2,3,60,0,0
140796,-83.3333333333333,4,2,2,60,0,0
141126,-83.3333333333333,4,2,2,70,0,0
141456,-83.3333333333333,4,2,2,80,0,0
141785,-166.666666666667,4,2,3,65,0,0
142445,-166.666666666667,4,2,3,70,0,0
142774,-166.666666666667,4,2,2,65,0,0
142939,-100,4,2,2,60,0,0
143104,-166.666666666667,4,2,3,80,0,1
143599,-166.666666666667,4,2,4,80,0,1
144093,-76.923076923077,4,2,2,80,0,1
145082,-76.923076923077,4,2,3,80,0,1
145412,-166.666666666667,4,2,4,80,0,1
145741,-166.666666666667,4,2,3,80,0,1
146236,-166.666666666667,4,2,4,80,0,1
146730,-166.666666666667,4,2,2,80,0,1
147390,-76.9230769230769,4,2,2,75,0,1
147555,-76.9230769230769,4,2,2,70,0,1
147719,-166.666666666667,4,2,2,85,0,1
147884,-166.666666666667,4,2,2,85,0,0
148379,-71.4285714285714,4,2,3,80,0,1
148708,-83.3333333333333,4,2,2,80,0,1
149368,-83.3333333333333,4,2,4,85,0,1
149697,-83.3333333333333,4,2,2,80,0,1
151016,-83.3333333333333,4,2,3,80,0,1
151511,-83.3333333333333,4,2,4,80,0,1
152005,-71.4285714285714,4,2,2,75,0,1
152170,-71.4285714285714,4,2,2,70,0,1
152335,-76.9230769230769,4,2,2,80,0,1
153159,-55.5555555555556,4,2,2,80,0,0
153324,-83.3333333333333,4,2,4,70,0,0
153654,-83.3333333333333,4,2,3,75,0,1
153983,-83.3333333333333,4,2,2,75,0,1
158928,-83.3333333333333,4,2,3,75,0,1
161318,-83.3333333333333,4,2,2,70,0,1
161401,-83.3333333333333,4,2,2,65,0,1
161483,-83.3333333333333,4,2,2,60,0,1
161566,-83.3333333333333,4,2,3,75,0,1
162060,-83.3333333333333,4,2,4,75,0,1
162555,-76.9230769230769,4,2,3,75,0,1
163049,-76.9230769230769,4,2,4,75,0,1
163873,-76.9230769230769,4,2,2,60,0,1
164038,-83.3333333333333,4,2,2,55,0,1
164203,-83.3333333333333,4,2,3,80,0,1
164533,-83.3333333333333,4,2,2,80,0,1
166840,-83.3333333333333,4,2,4,80,0,1
167170,-83.3333333333333,4,2,2,80,0,1
168159,-83.3333333333333,4,2,3,80,0,1
168489,-83.3333333333333,4,2,2,80,0,1
169148,-83.3333333333333,4,2,2,70,0,1
169313,-83.3333333333333,4,2,2,60,0,1
169478,-83.3333333333333,4,2,3,75,0,1
169972,-83.3333333333333,4,2,4,75,0,1
170467,-83.3333333333333,4,2,3,75,0,1
170961,-83.3333333333333,4,2,4,75,0,1
171456,-83.3333333333333,4,2,3,75,0,1
171621,-83.3333333333333,4,2,3,70,0,1
171785,-83.3333333333333,4,2,2,65,0,1
171950,-83.3333333333333,4,2,2,60,0,1
172115,-71.4285714285714,4,2,3,60,0,1
172445,-83.3333333333333,4,2,3,65,0,1
172774,-83.3333333333333,4,2,3,70,0,1
173104,-100,4,2,3,75,0,1
173434,-117.647058823529,4,2,3,80,0,1
173928,-83.3333333333333,4,2,3,45,0,1
174093,-83.3333333333333,4,2,3,70,0,1
174423,-83.3333333333333,4,2,2,65,0,1
174505,-83.3333333333333,4,2,2,60,0,1
174588,-83.3333333333333,4,2,2,55,0,1
174670,-83.3333333333333,4,2,2,50,0,1
174752,-83.3333333333333,4,2,3,75,0,0
175247,-83.3333333333333,4,2,4,75,0,0
175741,-83.3333333333333,4,2,3,75,0,0
176236,-83.3333333333333,4,2,4,75,0,0
176730,-71.4285714285714,4,2,2,75,0,0
177390,-83.3333333333333,4,2,3,75,0,0
177884,-83.3333333333333,4,2,4,75,0,0
178379,-83.3333333333333,4,2,3,75,0,0
178873,-83.3333333333333,4,2,4,75,0,0
179368,-66.6666666666667,4,2,2,75,0,0
180027,-83.3333333333333,4,2,3,75,0,0
180110,-83.3333333333333,4,2,3,60,0,0
180357,-83.3333333333333,4,2,3,75,0,0
180439,-83.3333333333333,4,2,3,60,0,0
180522,-83.3333333333333,4,2,3,75,0,0
180604,-83.3333333333333,4,2,3,60,0,0
180851,-83.3333333333333,4,2,3,75,0,0
180934,-83.3333333333333,4,2,3,60,0,0
181016,-83.3333333333333,4,2,4,75,0,0
181099,-83.3333333333333,4,2,4,60,0,0
181511,-83.3333333333333,4,2,3,75,0,0
181593,-83.3333333333333,4,2,3,60,0,0
182005,-83.3333333333333,4,2,4,70,0,0
182335,-83.3333333333333,4,2,2,65,0,0
182500,-83.3333333333333,4,2,2,60,0,0
182665,-83.3333333333333,4,2,3,75,0,0
182829,-83.3333333333333,4,2,2,70,0,0
182912,-83.3333333333333,4,2,2,65,0,0
182994,-83.3333333333333,4,2,2,60,0,0
183159,-83.3333333333333,4,2,4,75,0,0
183324,-83.3333333333333,4,2,2,70,0,0
183406,-83.3333333333333,4,2,2,65,0,0
183489,-83.3333333333333,4,2,2,60,0,0
183654,-83.3333333333333,4,2,3,75,0,0
183818,-83.3333333333333,4,2,2,70,0,0
183901,-83.3333333333333,4,2,2,65,0,0
183983,-66.6666666666667,4,2,2,60,0,0
184148,-83.3333333333333,4,2,4,75,0,0
184643,-83.3333333333333,4,2,2,70,0,0
184807,-83.3333333333333,4,2,2,65,0,0
184972,-83.3333333333333,4,2,2,80,0,0
185302,-71.4285714285714,4,2,3,75,0,0
190000,-66.6666666666667,4,2,2,70,0,0
190165,-66.6666666666667,4,2,2,65,0,0
190247,-66.6666666666667,4,2,2,75,0,0
190577,-66.6666666666667,4,2,3,75,0,0
190906,-66.6666666666667,4,2,2,80,0,0
193214,-66.6666666666667,4,2,3,80,0,0
193544,-66.6666666666667,4,2,2,80,0,0
194533,-66.6666666666667,4,2,3,80,0,0
194862,-66.6666666666667,4,2,4,80,0,0
195274,-66.6666666666667,4,2,2,70,0,0
195357,-66.6666666666667,4,2,2,65,0,0
195522,-66.6666666666667,4,2,2,80,0,0
195851,-66.6666666666667,4,2,2,75,0,0
195934,-66.6666666666667,4,2,2,65,0,0
196346,-66.6666666666667,4,2,2,75,0,0
196428,-66.6666666666667,4,2,2,65,0,0
196840,-66.6666666666667,4,2,2,75,0,0
196923,-66.6666666666667,4,2,2,65,0,0
197500,-66.6666666666667,4,2,2,70,0,0
197829,-66.6666666666667,4,2,2,65,0,0
198159,-66.6666666666667,4,2,2,60,0,0
198324,-66.6666666666667,4,2,2,55,0,0
198489,-1000,4,2,3,80,0,0
198818,-66.6666666666667,4,2,3,75,0,0
199148,-66.6666666666667,4,2,3,65,0,0
199478,-66.6666666666667,4,2,3,55,0,0
199807,-66.6666666666667,4,2,3,45,0,0
200137,-66.6666666666667,4,2,3,35,0,0
200467,-66.6666666666667,4,2,3,25,0,0
200796,-66.6666666666667,4,2,3,15,0,0
201126,-66.6666666666667,4,2,3,60,0,0
201621,-66.6666666666667,4,2,3,50,0,0
201785,-142.857142857143,4,2,3,50,0,0
205741,-200,4,2,2,50,0,0
205989,-125,4,2,2,40,0,0
206236,-125,4,2,2,30,0,0
206401,-125,4,2,3,50,0,0
210851,-125,4,2,3,70,0,0
211016,-166.666666666667,4,2,3,70,0,0
211676,-111.111111111111,4,2,3,50,0,0
212994,-111.111111111111,4,2,3,55,0,0
214313,-111.111111111111,4,2,2,60,0,0
215632,-111.111111111111,4,2,2,65,0,0
216291,-99.9999999999999,4,2,2,65,0,0
216950,-125,4,2,3,65,0,0
217280,-125,4,2,2,65,0,0
219588,-83.3333333333333,4,2,3,70,0,0
220082,-83.3333333333333,4,2,4,70,0,0
220577,-83.3333333333333,4,2,3,70,0,0
221071,-83.3333333333333,4,2,4,70,0,0
221566,-83.3333333333333,4,2,2,70,0,0
221895,-100,4,2,2,65,0,0
222060,-100,4,2,2,60,0,0
222225,-83.3333333333333,4,2,3,70,0,0
222555,-83.3333333333333,4,2,2,75,0,0
224862,-83.3333333333333,4,2,3,80,0,0
225027,-83.3333333333333,4,2,3,50,0,0
225192,-83.3333333333333,4,2,2,60,0,0
225522,-83.3333333333333,4,2,2,65,0,0
225851,-83.3333333333333,4,2,2,70,0,0
226181,-83.3333333333333,4,2,2,75,0,0
226511,-83.3333333333333,4,2,2,80,0,0
226840,-83.3333333333333,4,2,2,85,0,0
227335,-83.3333333333333,4,2,2,75,0,0
230137,-83.3333333333333,4,2,2,35,0,0
232115,-83.3333333333333,4,2,2,75,0,0
232445,-83.3333333333333,4,2,2,70,0,0
232610,-83.3333333333333,4,2,2,65,0,0
232774,-66.6666666666667,4,2,3,85,0,1
233269,-66.6666666666667,4,2,4,85,0,1
233763,-66.6666666666667,4,2,3,85,0,1
234258,-66.6666666666667,4,2,4,85,0,1
234752,-66.6666666666667,4,2,3,85,0,1
235082,-66.6666666666667,4,2,2,70,0,1
235247,-66.6666666666667,4,2,2,65,0,1
235412,-76.9230769230769,4,2,3,85,0,1
235577,-66.6666666666667,4,2,2,70,0,1
235741,-66.6666666666667,4,2,2,60,0,1
235906,-66.6666666666667,4,2,4,85,0,1
236401,-66.6666666666667,4,2,3,85,0,1
236566,-66.6666666666667,4,2,2,70,0,1
236895,-66.6666666666667,4,2,2,65,0,1
237225,-66.6666666666667,4,2,2,60,0,1
237390,-66.6666666666667,4,2,3,85,0,1
237719,-66.6666666666667,4,2,4,85,0,1
238049,-66.6666666666667,4,2,3,85,0,1
238544,-66.6666666666667,4,2,4,85,0,1
238708,-66.6666666666667,4,2,2,70,0,1
238791,-66.6666666666667,4,2,2,65,0,1
238956,-66.6666666666667,4,2,2,85,0,1
239121,-66.6666666666667,4,2,2,70,0,1
239203,-66.6666666666667,4,2,2,65,0,1
239368,-66.6666666666667,4,2,2,80,0,1
239615,-71.4285714285714,4,2,2,80,0,1
240192,-55.5555555555556,4,2,2,80,0,0
240357,-55.5555555555556,4,2,4,70,0,0
240687,-83.3333333333333,4,2,3,75,0,1
241016,-83.3333333333333,4,2,2,75,0,1
245467,-83.3333333333333,4,2,2,70,0,1
245632,-83.3333333333333,4,2,2,65,0,1
245796,-83.3333333333333,4,2,2,60,0,1
245961,-83.3333333333333,4,2,3,75,0,1
248351,-83.3333333333333,4,2,2,70,0,1
248434,-83.3333333333333,4,2,2,65,0,1
248516,-83.3333333333333,4,2,2,60,0,1
248599,-71.4285714285714,4,2,3,75,0,1
248763,-66.6666666666667,4,2,3,75,0,1
249093,-66.6666666666667,4,2,4,75,0,1
249588,-66.6666666666667,4,2,3,75,0,1
250082,-76.9230769230769,4,2,4,75,0,1
250577,-90.9090909090909,4,2,2,70,0,1
250741,-83.3333333333333,4,2,2,65,0,1
250906,-83.3333333333333,4,2,2,60,0,1
251071,-66.6666666666667,4,2,2,55,0,1
251236,-125,4,2,3,80,0,0
251566,-125,4,2,3,70,0,0
253873,-125,4,2,4,70,0,0
255522,-125,4,2,3,70,0,0
255687,-125,4,2,2,65,0,0
255851,-125,4,2,2,60,0,0
256016,-125,4,2,2,55,0,0
256181,-100,4,2,2,50,0,0
256346,-125,4,2,2,45,0,0
256511,-125,4,2,3,70,0,0
259148,-76.9230769230769,4,2,3,80,0,1
259643,-76.9230769230769,4,2,4,80,0,1
260137,-66.6666666666667,4,2,2,70,0,1
260302,-66.6666666666667,4,2,2,60,0,1
260467,-71.4285714285714,4,2,3,80,0,0
260961,-66.6666666666667,4,2,3,70,0,0
261291,-83.3333333333333,4,2,2,65,0,0
261373,-83.3333333333333,4,2,2,60,0,0
261456,-76.9230769230769,4,2,2,65,0,0
261785,-66.6666666666667,4,2,3,75,0,0
262280,-83.3333333333333,4,2,4,75,0,0
262774,-83.3333333333333,4,2,3,75,0,0
263269,-83.3333333333333,4,2,4,75,0,0
263763,-83.3333333333333,4,2,2,75,0,0
264423,-83.3333333333333,4,2,3,75,0,0
264917,-83.3333333333333,4,2,4,75,0,0
265412,-83.3333333333333,4,2,3,75,0,0
265906,-83.3333333333333,4,2,4,75,0,0
266401,-83.3333333333333,4,2,2,75,0,0
267060,-83.3333333333333,4,2,3,80,0,0
267555,-83.3333333333333,4,2,4,80,0,0
268049,-83.3333333333333,4,2,3,80,0,0
268544,-83.3333333333333,4,2,4,80,0,0
269038,-83.3333333333333,4,2,2,80,0,0
269697,-83.3333333333333,4,2,3,80,0,0
270192,-83.3333333333333,4,2,4,80,0,0
270687,-83.3333333333333,4,2,3,80,0,0
270769,-83.3333333333333,4,2,2,70,0,0
270934,-83.3333333333333,4,2,2,65,0,0
271016,-83.3333333333333,4,2,3,80,0,0
272665,-500,4,2,3,75,0,0
273654,-55.5555555555556,4,2,3,70,0,0
274972,-55.5555555555556,4,2,3,65,0,0
275632,-55.5555555555556,4,2,3,60,0,0
276291,-55.5555555555556,4,2,3,55,0,0
276621,-55.5555555555556,4,2,3,50,0,0
276950,-55.5555555555556,4,2,3,45,0,0
277280,-55.5555555555556,4,2,3,40,0,0
277610,-55.5555555555556,4,2,3,35,0,0
277939,-55.5555555555556,4,2,3,30,0,0
278269,-55.5555555555556,4,2,3,25,0,0
278599,-55.5555555555556,4,2,3,20,0,0
278928,-55.5555555555556,4,2,3,15,0,0

[Colours]
Combo1 : 92,248,217
Combo2 : 143,226,250
Combo3 : 145,186,249
Combo4 : 200,133,254

[HitObjects]
256,192,17829,12,0,20796,0:0:0:0:
179,16,20961,6,0,P|157:9|135:6,2,45,2|2|0,2:0|2:0|3:2,2:0:0:0:
264,242,21456,6,0,P|350:252|346:151,1,175.499991966248,4|0,1:2|0:0,0:0:0:0:
359,165,21785,5,6,1:2:0:0:
396,346,21950,1,0,3:2:0:0:
399,353,22115,1,2,3:2:0:0:
196,117,22280,5,6,1:2:0:0:
380,179,22445,1,0,3:2:0:0:
386,180,22610,1,0,3:2:0:0:
35,206,22774,5,6,1:2:0:0:
203,106,22939,1,0,3:2:0:0:
209,103,23104,1,2,3:2:0:0:
121,366,23269,6,0,P|119:312|115:258,1,107.999996704102,6|0,1:2|3:2,0:0:0:0:
52,117,23599,1,2,3:2:0:0:
416,0,23763,6,0,P|460:51|439:76,1,107.999996704102,6|0,1:2|3:2,0:0:0:0:
80,191,24093,2,0,P|36:165|52:117,1,107.999996704102,6|0,1:2|3:2,0:0:0:0:
100,65,24340,1,0,3:2:0:0:
100,65,24423,5,6,1:2:0:0:
379,123,24588,1,0,3:2:0:0:
385,126,24752,1,0,3:2:0:0:
214,365,24917,5,6,1:2:0:0:
240,191,25082,1,0,3:2:0:0:
266,17,25247,1,2,3:2:0:0:
357,320,25412,6,0,B|385:302|388:264|388:264|354:240|314:252|314:252|298:279|265:285|247:284,1,215.999993408203,6|0,1:2|3:2,0:0:0:0:
428,21,25906,2,0,P|472:44|464:95,1,107.999996704102,4|0,1:2|3:2,0:0:0:0:
307,150,26236,5,2,3:2:0:0:
260,7,26401,1,8,3:0:0:0:
438,188,26566,1,8,3:0:0:0:
215,263,26730,1,4,3:0:0:0:
455,197,26895,1,4,3:0:0:0:
105,67,27060,5,6,1:2:0:0:
135,309,27225,1,0,3:2:0:0:
136,315,27390,1,2,3:2:0:0:
263,0,27555,5,6,1:2:0:0:
76,156,27719,1,0,3:2:0:0:
71,159,27884,1,2,3:2:0:0:
424,108,28049,5,6,1:2:0:0:
201,63,28214,1,0,3:2:0:0:
195,61,28379,1,2,3:2:0:0:
302,317,28544,6,0,P|355:307|408:302,1,107.999996704102,6|0,1:2|3:2,0:0:0:0:
332,173,28873,1,2,3:2:0:0:
91,361,29038,6,0,P|45:338|52:288,1,107.999996704102,6|0,1:2|3:2,0:0:0:0:
378,101,29368,2,0,P|423:123|416:173,1,107.999996704102,6|0,1:2|3:2,0:0:0:0:
336,177,29615,1,0,3:2:0:0:
336,177,29697,5,6,1:2:0:0:
190,33,29862,1,0,3:2:0:0:
186,29,30027,1,2,3:2:0:0:
159,305,30192,6,0,P|212:299|266:297,1,107.999996704102,6|0,1:2|3:2,0:0:0:0:
387,326,30522,1,0,3:2:0:0:
269,83,30687,5,6,1:2:0:0:
433,221,30851,1,0,3:2:0:0:
263,73,31016,1,2,3:2:0:0:
149,317,31181,5,8,3:0:0:0:
433,221,31346,1,8,3:0:0:0:
203,2,31511,1,4,3:0:0:0:
240,372,31676,5,2,1:2:0:0:
203,2,31840,1,2,3:0:0:0:
203,2,32335,6,0,P|274:4|351:11,1,144,6|2,3:2|3:2,0:0:0:0:
418,223,32994,2,0,P|393:183|375:127,1,72,2|0,3:2|0:2,3:2:0:0:
253,162,33324,2,0,P|283:126|331:93,1,72,2|0,3:2|0:2,3:2:0:0:
503,19,33654,6,0,P|475:80|408:70,1,144,2|0,3:2|3:2,0:0:0:0:
444,345,34313,2,0,P|429:307|397:269,1,72,2|0,3:2|0:2,3:2:0:0:
499,191,34643,2,0,P|459:184|409:193,1,72,2|0,3:2|0:2,3:2:0:0:
226,328,34972,6,0,P|292:340|322:280,1,144,2|0,3:2|3:2,0:0:0:0:
204,123,35632,1,2,3:2:0:0:
205,129,35961,6,0,B|190:149|149:148|149:148|125:113|145:79,1,121.499996292114,2|0,3:2|0:0,0:0:0:0:
219,36,36291,6,0,B|264:88|243:138|243:138|210:149|174:170|172:233|172:233|192:212|222:212,1,297.000009063721,2|2,3:2|2:0,0:0:0:0:
316,253,36950,5,0,3:2:0:0:
317,248,37280,1,2,3:2:0:0:
227,297,37445,2,0,P|228:317|236:335,1,40.4999987640381,0|0,3:2|3:2,0:0:0:0:
249,358,37610,6,0,P|158:326|58:348,1,161.999995056153,6|2,3:2|3:2,0:0:0:0:
23,372,38104,1,0,0:0:0:0:
23,372,38434,5,0,3:2:0:0:
96,318,38599,1,2,3:2:0:0:
122,204,38763,1,0,0:0:0:0:
47,108,38928,6,0,P|42:67|34:28,1,80.9999975280763,2|0,3:2|0:0,0:0:0:0:
227,162,39258,2,0,P|246:126|263:89,1,80.9999975280763,2|0,3:2|0:0,0:0:0:0:
339,310,39588,2,0,P|375:293|411:273,1,80.9999975280763,2|0,3:2|0:0,0:0:0:0:
216,170,39917,1,2,3:2:0:0:
212,167,40082,1,0,0:0:0:0:
330,326,40247,6,0,P|255:333|245:256,1,161.999995056153,2|0,3:2|3:2,0:0:0:0:
447,238,40741,6,0,B|464:246|475:265|475:265|472:234|461:206|429:187|384:190|384:190|355:240|305:239,1,247.500007553101,2|0,2:0|0:0,0:0:0:0:
254,186,41236,102,0,B|238:159|245:102|297:73|297:73|346:54|345:14|345:14|316:45|323:80|365:126,1,323.999990112305,2|0,3:2|0:0,0:0:0:0:
416,169,41895,1,2,3:2:0:0:
416,169,42225,5,2,1:2:0:0:
381,210,42307,1,0,1:2:0:0:
327,218,42390,1,0,1:2:0:0:
277,196,42472,1,0,1:2:0:0:
249,149,42555,1,2,1:2:0:0:
208,113,42637,1,0,1:2:0:0:
154,104,42719,1,0,1:2:0:0:
103,123,42802,1,0,1:2:0:0:
74,170,42884,6,0,P|74:85|56:18,1,135,6|0,3:2|0:0,0:0:0:0:
54,16,43214,2,0,P|99:7|176:11,1,90,2|0,1:2|1:2,0:0:0:0:
219,34,43461,1,0,1:2:0:0:
228,43,43544,1,2,3:2:0:0:
400,3,43708,1,0,3:2:0:0:
362,371,44038,5,2,1:2:0:0:
400,3,44368,5,0,3:2:0:0:
336,174,44533,1,0,1:2:0:0:
319,80,44697,5,0,1:2:0:0:
319,80,44780,1,0,1:2:0:0:
319,80,44862,2,0,P|365:82|424:90,1,90,2|0,3:2|3:2,0:0:0:0:
274,290,45192,1,2,1:2:0:0:
190,223,45357,5,0,1:2:0:0:
190,223,45439,1,0,1:2:0:0:
190,223,45522,2,0,P|144:225|84:233,1,90,6|0,3:2|0:0,0:0:0:0:
62,301,45851,2,0,P|85:347|138:329,1,90,0|2,1:2|1:2,0:0:0:0:
192,325,46099,1,0,1:2:0:0:
186,313,46181,1,2,3:2:0:0:
18,221,46346,1,2,3:2:0:0:
383,73,46676,5,2,1:2:0:0:
18,221,47005,5,2,3:2:0:0:
136,84,47170,1,2,1:2:0:0:
201,256,47335,1,2,3:2:0:0:
124,183,47500,5,2,3:2:0:0:
120,179,47665,1,2,3:2:0:0:
259,28,47829,1,2,1:2:0:0:
353,115,47994,5,2,1:2:0:0:
353,115,48077,1,0,1:2:0:0:
353,115,48159,2,0,P|405:114|460:98,1,90,4|2,3:2|3:2,0:0:0:0:
294,286,48489,1,0,1:2:0:0:
401,222,48654,1,2,1:2:0:0:
390,216,48736,1,0,1:2:0:0:
378,212,48818,1,0,3:2:0:0:
181,374,48983,6,0,P|248:370|314:384,1,135,2|0,3:2|0:0,0:0:0:0:
386,352,49313,1,2,1:2:0:0:
295,22,49643,5,0,3:2:0:0:
252,162,49807,2,0,P|222:116|261:65,1,90,0|0,1:2|0:0,0:0:0:0:
382,38,50137,1,2,3:2:0:0:
388,42,50302,1,0,3:2:0:0:
262,250,50467,1,2,1:2:0:0:
141,168,50632,1,2,1:2:0:0:
122,159,50714,1,0,1:2:0:0:
100,168,50796,6,0,P|70:214|109:265,1,90,4|2,3:2|3:2,0:0:0:0:
333,356,51126,1,2,1:2:0:0:
224,13,51456,5,2,3:2:0:0:
317,25,51621,1,2,3:2:0:0:
4,106,51950,5,2,1:2:0:0:
498,51,52280,5,2,3:2:0:0:
224,13,52445,1,6,1:2:0:0:
302,132,52610,5,8,3:0:0:0:
294,117,52692,1,8,3:0:0:0:
278,109,52774,2,0,P|252:157|274:215,1,90,4|8,3:0|3:0,0:0:0:0:
349,326,53104,5,8,3:0:0:0:
366,304,53214,5,4,3:0:0:0:
339,304,53324,5,8,3:0:0:0:
274,362,53434,6,0,P|179:350|197:281,1,180,6|0,3:2|1:2,0:0:0:0:
144,73,53928,1,8,3:0:0:0:
139,66,54011,1,4,3:0:0:0:
132,63,54093,6,0,P|68:92|72:140,1,90,2|0,3:2|3:2,0:0:0:0:
271,251,54423,1,0,1:2:0:0:
355,151,54588,5,8,3:0:0:0:
331,155,54670,1,4,3:0:0:0:
308,159,54752,1,2,3:2:0:0:
425,211,54917,1,0,3:2:0:0:
208,8,55082,1,0,1:2:0:0:
212,182,55247,5,8,3:0:0:0:
212,182,55329,1,4,3:0:0:0:
212,182,55412,2,0,P|214:137|221:92,1,90,0|2,3:2|3:2,0:0:0:0:
431,13,55741,2,0,P|475:25|478:92,1,90,0|8,1:2|3:0,0:0:0:0:
310,243,56071,6,0,P|222:222|132:214,1,180,4|0,3:2|1:2,0:0:0:0:
95,325,56566,1,8,3:0:0:0:
107,316,56648,1,4,3:0:0:0:
122,313,56730,1,0,3:2:0:0:
41,168,56895,1,0,3:2:0:0:
183,0,57060,2,0,P|174:44|170:91,1,90,0|0,1:2|0:0,0:0:0:0:
457,226,57390,6,0,P|424:196|385:169,1,90,0|0,3:2|3:2,0:0:0:0:
127,344,57719,1,4,1:2:0:0:
225,197,57884,2,0,L|292:210,1,45,0|0,1:2|1:2,0:0:0:0:
284,230,58049,5,0,1:2:0:0:
256,276,58159,1,0,1:2:0:0:
202,281,58269,1,0,1:2:0:0:
159,248,58379,5,8,3:0:0:0:
104,248,58489,1,8,3:0:0:0:
60,280,58599,1,4,3:0:0:0:
127,344,58708,5,6,3:2:0:0:
245,116,60851,6,0,L|298:112,1,45
314,124,61016,1,8,3:0:0:0:
192,198,61181,5,0,0:0:0:0:
192,198,61263,1,0,0:0:0:0:
192,198,61346,1,6,1:2:0:0:
330,133,61511,1,2,1:2:0:0:
196,45,61676,1,2,1:2:0:0:
246,277,61840,1,2,1:2:0:0:
361,48,62005,5,2,1:2:0:0:
120,121,62170,1,2,1:2:0:0:
408,248,62335,5,2,1:2:0:0:
248,109,62500,1,2,1:2:0:0:
311,367,62665,1,2,1:2:0:0:
361,48,62829,1,2,1:2:0:0:
126,288,62994,5,2,1:2:0:0:
271,13,63159,1,2,1:2:0:0:
311,367,63324,1,2,1:2:0:0:
271,13,63489,1,2,1:2:0:0:
9,181,63654,1,2,1:2:0:0:
347,132,63983,5,4,3:2:0:0:
161,228,64313,1,8,3:0:0:0:
428,281,64643,1,8,3:0:0:0:
170,9,64972,1,8,3:0:0:0:
52,361,65302,6,0,P|105:355|159:353,1,107.999996704102,4|2,3:2|2:0,0:0:0:0:
159,352,66621,5,6,1:2:0:0:
209,377,66703,1,0,3:2:0:0:
265,369,66785,1,0,3:2:0:0:
304,326,66868,1,0,3:2:0:0:
308,269,66950,1,2,3:2:0:0:
277,221,67033,1,0,3:2:0:0:
227,197,67115,1,6,1:2:0:0:
181,163,67197,1,0,3:2:0:0:
165,107,67280,1,0,3:2:0:0:
180,52,67362,1,0,3:2:0:0:
226,17,67445,2,0,P|260:10|297:29,3,67.5000025749208,0|0|0|0,3:2|3:2|1:2|3:2,3:2:0:0:
418,106,67774,5,2,3:2:0:0:
360,106,67857,1,0,3:2:0:0:
304,113,67939,1,0,3:2:0:0:
247,123,68022,1,0,3:2:0:0:
193,139,68104,1,4,1:2:0:0:
139,159,68187,1,0,3:2:0:0:
89,185,68269,2,0,P|58:201|21:229,1,67.5000025749208,2|0,3:2|3:2,0:0:0:0:
228,301,68434,1,0,3:2:0:0:
228,301,68516,1,0,3:2:0:0:
228,301,68599,2,0,L|293:288,3,58.4999973220826,6|0|0|0,1:2|3:2|3:2|3:2,0:0:0:0:
154,376,68928,5,6,1:2:0:0:
98,326,69011,1,0,3:2:0:0:
87,252,69093,1,0,3:2:0:0:
128,190,69176,1,0,3:2:0:0:
197,163,69258,1,4,1:2:0:0:
266,187,69340,1,0,3:2:0:0:
338,170,69423,1,0,3:2:0:0:
379,109,69505,1,0,3:2:0:0:
362,36,69588,1,0,3:2:0:0:
294,6,69670,1,0,3:2:0:0:
222,25,69752,2,0,L|230:98,3,67.5000025749208,4|0|0|0,1:2|3:2|3:2|3:2,0:0:0:0:
133,44,70082,5,0,3:2:0:0:
118,31,70165,1,0,3:2:0:0:
102,29,70247,2,0,P|65:48|39:74,1,67.5000025749208,6|0,1:2|3:2,0:0:0:0:
106,136,70412,1,0,3:2:0:0:
125,136,70494,1,0,3:2:0:0:
138,146,70577,2,0,P|151:185|152:221,1,67.5000025749208,2|0,3:2|3:2,0:0:0:0:
74,260,70741,2,0,P|43:245|17:224,1,67.5000025749208,4|0,1:2|3:2,0:0:0:0:
72,352,70906,5,2,3:2:0:0:
115,372,70989,1,0,3:2:0:0:
157,351,71071,1,0,3:2:0:0:
184,312,71154,1,0,3:2:0:0:
230,305,71236,2,0,P|265:319|285:347,3,67.5000025749208,4|0|0|0,1:2|3:2|3:2|3:2,0:0:0:0:
191,216,71566,6,0,L|258:207,1,67.5000025749208,6|0,1:2|3:2,0:0:0:0:
327,258,71730,2,0,L|394:266,1,67.5000025749208,2|0,3:2|3:2,0:0:0:0:
461,220,71895,5,6,1:2:0:0:
496,169,71978,1,0,3:2:0:0:
485,109,72060,1,0,3:2:0:0:
436,72,72143,1,0,3:2:0:0:
375,78,72225,1,2,3:2:0:0:
336,124,72307,1,0,3:2:0:0:
285,158,72390,1,6,1:2:0:0:
226,145,72472,1,0,3:2:0:0:
188,96,72555,1,0,3:2:0:0:
200,36,72637,1,0,3:2:0:0:
248,0,72719,2,0,P|280:-1|320:22,1,67.5000025749208,2|0,3:2|3:2,0:0:0:0:
118,1,72884,5,6,1:2:0:0:
98,72,72967,1,0,3:2:0:0:
110,144,73049,1,0,3:2:0:0:
152,205,73132,1,0,3:2:0:0:
214,244,73214,1,0,3:2:0:0:
288,253,73296,1,0,3:2:0:0:
358,230,73379,1,4,1:2:0:0:
412,181,73461,1,0,3:2:0:0:
441,113,73544,2,0,L|431:29,3,67.5000025749208,2|0|0|0,3:2|3:2|3:2|3:2,0:0:0:0:
512,181,73873,5,6,1:2:0:0:
512,181,73956,1,0,3:2:0:0:
512,181,74038,2,0,L|501:265,1,67.5000025749208,0|0,3:2|3:2,0:0:0:0:
448,323,74203,5,6,1:2:0:0:
399,358,74285,1,0,3:2:0:0:
337,357,74368,1,0,3:2:0:0:
288,320,74450,1,0,3:2:0:0:
268,261,74533,1,4,1:2:0:0:
230,213,74615,1,0,3:2:0:0:
172,195,74697,1,0,3:2:0:0:
113,213,74780,1,0,3:2:0:0:
79,263,74862,1,0,3:2:0:0:
77,324,74945,1,0,3:2:0:0:
114,371,75027,2,0,L|187:364,3,67.5000025749208,8|0|0|0,3:0|3:2|3:2|3:2,0:0:0:0:
271,336,75357,5,0,3:2:0:0:
271,336,75439,1,0,3:2:0:0:
272,337,75522,2,0,L|30:314,1,229.500004377365,6|4,1:2|3:0,0:0:0:0:
6,243,75851,6,0,B|32:208|78:201|78:201|121:243|200:210,1,153.000002918243,2|0,1:2|0:0,0:0:0:0:
206,177,76099,6,0,B|250:124|204:71|204:71|159:86,1,161.999995056153,2|0,1:2|0:0,0:0:0:0:
85,66,76346,6,0,P|64:34|79:-3,1,80.9999975280763,6|0,1:2|0:0,0:0:0:0:
255,351,76676,5,2,1:2:0:0:
299,44,76840,1,6,1:2:0:0:
416,150,77005,5,0,1:2:0:0:
416,150,77088,1,0,1:2:0:0:
416,150,77170,2,0,P|362:139|287:139,1,107.999996704102,6|0,3:2|0:0,0:0:0:0:
174,235,77500,1,2,1:3:0:0:
337,321,77665,5,2,1:2:0:0:
337,321,77747,1,0,1:2:0:0:
337,321,77829,1,2,3:0:0:0:
213,377,77994,1,0,3:2:0:0:
304,149,78159,1,2,1:3:0:0:
337,321,78324,6,0,P|444:305|458:209,1,215.999993408203,2|0,3:2|3:2,0:0:0:0:
213,377,78818,2,0,P|159:369|105:368,1,107.999996704102,2|0,1:3|3:2,0:0:0:0:
22,190,79148,1,2,3:0:0:0:
161,83,79313,1,0,3:2:0:0:
53,280,79478,6,0,P|135:267|214:265,1,161.999995056153,2|0,1:3|0:0,0:0:0:0:
279,321,79807,2,0,P|329:294|292:231,1,107.999996704102,2|0,3:0|0:0,0:0:0:0:
254,129,80137,1,2,1:3:0:0:
347,15,80302,1,0,3:2:0:0:
359,33,80384,1,0,1:2:0:0:
358,52,80467,1,2,3:0:0:0:
215,7,80632,1,0,3:2:0:0:
468,140,80796,6,0,P|414:144|361:154,1,107.999996704102,2|0,1:3|0:0,0:0:0:0:
153,113,81126,1,2,3:0:0:0:
375,241,81291,1,0,3:2:0:0:
87,328,81456,1,2,1:3:0:0:
239,170,81621,5,0,3:2:0:0:
239,170,81703,1,0,3:2:0:0:
239,170,81785,2,0,L|233:238,1,53.9999983520508,2|0,3:0|0:0,0:0:0:0:
228,304,81950,1,0,1:2:0:0:
248,322,82033,1,0,1:2:0:0:
286,326,82115,1,0,1:2:0:0:
324,302,82197,1,0,1:2:0:0:
366,265,82280,1,0,1:2:0:0:
422,256,82362,1,0,1:2:0:0:
475,282,82445,6,0,P|405:290|326:222,1,161.999995056153,4|0,3:2|0:0,0:0:0:0:
320,158,82774,2,0,P|352:116|404:147,1,107.999996704102,2|0,1:3|3:2,0:0:0:0:
465,169,83022,1,0,1:2:0:0:
470,182,83104,1,2,3:0:0:0:
407,33,83269,1,0,3:2:0:0:
306,330,83434,1,2,1:3:0:0:
165,183,83599,6,0,P|111:184|57:192,1,107.999996704102,2|2,3:2|3:0,0:0:0:0:
196,68,83928,1,0,3:2:0:0:
314,342,84093,6,0,P|387:327|405:275,1,107.999996704102,2|0,1:3|3:2,0:0:0:0:
388,29,84423,2,0,P|360:25|329:31,1,53.9999983520508,2|0,1:3|1:2,0:0:0:0:
294,185,84588,5,0,1:3:0:0:
289,195,84670,1,0,1:3:0:0:
280,202,84752,1,0,1:3:0:0:
271,160,84835,1,8,3:3:0:0:
295,125,84917,1,8,3:3:0:0:
336,115,85000,1,4,3:3:0:0:
382,145,85082,1,4,1:2:0:0:
431,166,85165,1,0,3:3:0:0:
482,149,85247,6,0,L|489:89,1,53.9999983520508,2|0,3:3|3:3,0:3:0:0:
369,238,85412,2,0,L|373:297,1,53.9999983520508,2|0,3:2|3:2,0:0:0:0:
416,56,85577,1,4,1:2:0:0:
416,42,85659,1,0,3:2:0:0:
411,29,85741,1,0,3:2:0:0:
401,18,85824,1,0,3:2:0:0:
389,13,85906,2,0,P|350:27|317:70,1,67.5000025749208,0|0,3:2|3:2,0:0:0:0:
249,118,86071,5,6,1:2:0:0:
210,130,86154,1,0,3:2:0:0:
170,120,86236,1,2,3:2:0:0:
146,87,86318,1,0,3:2:0:0:
146,46,86401,2,0,P|173:20|230:36,1,67.5000025749208,0|0,3:2|3:2,0:0:0:0:
86,203,86566,5,4,1:2:0:0:
122,250,86648,1,0,3:2:0:0:
180,261,86730,1,0,3:2:0:0:
233,232,86813,1,0,3:2:0:0:
282,197,86895,1,0,3:2:0:0:
342,201,86978,1,0,3:2:0:0:
390,235,87060,6,0,L|383:341,1,67.5000025749208,8|8,3:0|3:0,0:0:0:0:
484,172,87225,2,0,L|477:278,1,67.5000025749208,4|4,3:0|3:0,0:0:0:0:
334,92,87390,2,0,L|327:198,1,67.5000025749208,8|8,3:0|3:0,0:0:0:0:
225,355,87555,5,4,3:0:0:0:
225,355,87637,1,4,3:0:0:0:
225,355,87719,2,0,P|301:336|400:281,1,161.999995056153,6|0,3:2|0:0,0:0:0:0:
205,362,88049,5,2,1:3:0:0:
364,168,88214,1,0,3:2:0:0:
196,366,88379,5,2,1:3:0:0:
274,97,88544,1,0,3:2:0:0:
319,370,88708,5,2,1:3:0:0:
70,221,88873,1,0,3:2:0:0:
70,221,88956,1,0,3:2:0:0:
70,221,89038,5,2,1:3:0:0:
327,367,89203,1,0,3:2:0:0:
135,110,89368,5,2,1:3:0:0:
336,363,89533,1,0,3:2:0:0:
226,38,89697,5,2,1:3:0:0:
347,362,89862,1,0,3:2:0:0:
347,30,90027,5,6,1:2:0:0:
170,285,90192,1,0,3:2:0:0:
170,285,90274,1,0,3:2:0:0:
170,285,90357,2,0,L|300:274,1,107.999996704102,6|0,1:2|0:0,0:0:0:0:
441,72,90687,5,2,1:3:0:0:
224,145,90851,1,0,3:2:0:0:
404,315,91016,1,2,1:3:0:0:
305,12,91181,1,0,3:2:0:0:
218,289,91346,1,2,1:3:0:0:
512,218,91511,5,0,3:2:0:0:
512,218,91593,1,0,3:2:0:0:
512,218,91676,2,0,L|386:212,1,107.999996704102,4|0,1:2|3:2,0:0:0:0:
170,115,92005,5,2,1:3:0:0:
417,62,92170,1,0,3:2:0:0:
327,307,92335,1,2,1:3:0:0:
266,11,92500,1,0,3:2:0:0:
458,204,92665,1,2,1:3:0:0:
163,263,92829,1,0,3:2:0:0:
276,7,92994,6,0,P|270:87|267:168,1,161.999995056153,6|0,3:2|0:0,0:0:0:0:
332,248,93324,1,2,1:2:0:0:
49,329,93489,6,0,P|69:275|194:303,1,161.999995056153,4|0,3:2|0:0,0:0:0:0:
216,347,93818,1,0,1:2:0:0:
287,120,93983,6,0,P|339:146|451:167,1,161.999995056153,6|0,3:2|0:0,0:0:0:0:
512,106,94313,1,2,1:2:0:0:
236,4,94478,6,0,P|158:2|121:69,1,161.999995056153,4|0,3:2|0:0,0:0:0:0:
189,138,94807,1,0,1:2:0:0:
139,289,94972,6,0,P|106:296|76:286,1,53.9999983520508,4|0,3:2|3:2,0:0:0:0:
34,230,95137,1,8,3:0:0:0:
34,230,95219,1,8,3:0:0:0:
34,230,95302,2,0,L|43:122,1,107.999996704102,8|4,3:0|3:0,0:0:0:0:
461,183,95632,6,0,P|380:188|300:200,1,161.999995056153,6|0,3:2|0:0,0:0:0:0:
228,248,95961,1,2,3:2:0:0:
358,92,96126,1,2,1:2:0:0:
222,268,96291,1,2,3:2:0:0:
296,19,96456,1,2,1:2:0:0:
296,19,96538,1,2,1:2:0:0:
296,19,96621,1,2,1:2:0:0:
389,313,96785,1,2,1:2:0:0:
83,155,96950,6,0,P|190:159|298:168,1,216,6|2,3:2|2:0,0:0:0:0:
298,168,97939,5,0,1:2:0:0:
306,167,98022,1,8,3:0:0:0:
312,174,98104,2,0,P|307:208|287:248,1,53.9999983520508,4|8,3:0|3:0,0:0:0:0:
138,364,98269,5,6,1:2:0:0:
377,281,98434,1,0,3:2:0:0:
383,279,98599,1,2,3:2:0:0:
215,56,98763,5,6,1:2:0:0:
198,281,98928,1,0,3:2:0:0:
197,288,99093,1,0,3:2:0:0:
475,322,99258,5,6,1:2:0:0:
262,205,99423,1,0,3:2:0:0:
258,201,99588,1,2,3:2:0:0:
113,380,99752,6,0,P|166:376|220:374,1,107.999996704102,6|0,1:2|3:2,0:0:0:0:
357,186,100082,1,2,3:2:0:0:
77,0,100247,6,0,P|61:47|104:73,1,107.999996704102,6|0,1:2|3:2,0:0:0:0:
339,272,100577,2,0,P|353:320|309:345,1,107.999996704102,6|0,1:2|3:2,0:0:0:0:
246,303,100824,1,0,3:2:0:0:
246,303,100906,5,6,1:2:0:0:
267,102,101071,1,0,3:2:0:0:
269,95,101236,1,0,3:2:0:0:
80,220,101401,5,6,1:2:0:0:
261,204,101566,1,0,3:2:0:0:
442,188,101730,1,2,3:2:0:0:
161,129,101895,6,0,P|168:181|172:260,1,107.999996704102,6|0,1:2|3:2,0:0:0:0:
170,331,102225,1,0,3:2:0:0:
360,26,102390,6,0,P|353:86|349:157,1,107.999996704102,4|0,1:2|3:2,0:0:0:0:
361,232,102719,1,2,3:2:0:0:
257,142,102884,1,8,3:0:0:0:
363,239,103049,1,8,3:0:0:0:
444,80,103214,1,4,3:0:0:0:
344,326,103379,1,4,3:0:0:0:
344,326,103461,1,4,3:0:0:0:
344,326,103544,5,6,1:2:0:0:
144,266,103708,1,0,3:2:0:0:
137,264,103873,1,2,3:2:0:0:
484,220,104038,5,6,1:2:0:0:
254,269,104203,1,0,3:2:0:0:
249,272,104368,1,2,3:2:0:0:
61,148,104533,5,6,1:2:0:0:
336,227,104697,1,0,3:2:0:0:
341,229,104862,1,2,3:2:0:0:
156,10,105027,6,0,P|166:63|171:116,1,107.999996704102,6|0,1:2|3:2,0:0:0:0:
137,237,105357,1,2,3:2:0:0:
384,41,105522,6,0,P|434:34|456:80,1,107.999996704102,6|0,1:2|3:2,0:0:0:0:
262,297,105851,2,0,P|284:342|334:335,1,107.999996704102,6|0,1:2|3:2,0:0:0:0:
376,270,106099,1,0,3:2:0:0:
376,270,106181,5,6,1:2:0:0:
291,152,106346,1,0,3:2:0:0:
287,148,106511,1,2,3:2:0:0:
91,366,106676,6,0,P|144:367|198:373,1,107.999996704102,6|0,1:2|3:2,0:0:0:0:
164,184,107005,1,0,3:2:0:0:
231,253,107170,5,6,1:2:0:0:
234,258,107335,1,0,3:2:0:0:
365,96,107500,5,6,3:2:0:0:
321,254,110796,6,0,P|236:259|121:269,1,188.999994232178,0|0,2:0|0:0,0:0:0:0:
133,268,111456,6,0,P|135:232|142:169,1,72,2|0,3:2|0:0,0:0:0:0:
58,345,111785,1,8,2:0:0:0:
13,267,111950,1,2,3:2:0:0:
5,261,112033,1,8,2:0:0:0:
0,252,112115,6,0,P|4:180|12:101,1,144,2|0,3:2|0:0,0:0:0:0:
101,29,112610,2,0,P|165:13|212:84,1,144,8|2,2:0|3:2,0:0:0:0:
292,150,113104,2,0,P|296:107|308:56,1,72,8|0,2:0|3:2,0:0:0:0:
315,69,113351,1,8,2:0:0:0:
315,69,113434,1,0,3:2:0:0:
400,34,113599,1,0,3:2:0:0:
512,134,113763,6,0,P|476:127|415:125,1,72,2|2,2:0|2:0,0:0:0:0:
375,236,114093,2,0,P|411:229|472:227,1,72,2|0,3:2|0:0,0:0:0:0:
300,171,114423,1,10,2:0:0:0:
264,308,114588,1,2,3:2:0:0:
264,308,114670,1,8,2:0:0:0:
264,308,114752,2,0,L|271:384,2,72,0|2|2,3:2|3:2|2:0,0:0:0:0:
177,258,115247,1,10,2:0:0:0:
85,345,115412,6,0,P|49:342|22:313,1,72,2|0,2:0|3:2,0:0:0:0:
87,135,115741,2,0,P|92:188|94:242,1,108,10|8,2:0|2:0,0:0:0:0:
87,262,116071,2,0,P|122:259|184:255,1,72,2|0,3:2|3:2,0:0:0:0:
236,209,116401,1,10,2:0:0:0:
325,272,116566,1,2,3:2:0:0:
329,281,116648,1,8,2:0:0:0:
330,290,116730,6,0,P|427:267|422:210,1,144,0|8,3:2|2:0,0:0:0:0:
316,114,117225,2,0,P|335:113|351:120,1,36,2|8,3:2|2:0,0:0:0:0:
357,129,117390,6,0,P|353:93|350:57,1,72,0|0,3:2|3:2,0:0:0:0:
420,0,117719,1,0,0:0:0:0:
258,30,117884,2,0,P|223:29|187:24,1,72,8|0,2:0|0:0,0:0:0:0:
171,216,118214,6,0,P|218:202|294:195,2,108,2|2|0,3:2|2:0|3:2,0:0:0:0:
378,338,118873,5,2,1:2:0:0:
248,115,119038,1,2,1:2:0:0:
167,221,119203,1,0,0:0:0:0:
377,247,119368,6,0,P|422:238|466:233,1,90,6|0,3:2|0:0,0:0:0:0:
298,375,119697,2,0,P|253:366|209:361,1,90,2|0,1:2|3:2,0:0:0:0:
84,287,120027,1,2,3:2:0:0:
169,236,120192,1,0,3:2:0:0:
62,17,120522,5,2,1:2:0:0:
169,236,120851,1,0,3:2:0:0:
61,17,121016,2,0,P|106:16|151:27,1,90,0|0,1:2|3:2,0:0:0:0:
192,101,121346,6,0,P|259:77|258:14,1,135.000005149842,8|0,1:3|0:0,0:0:0:0:
336,0,121593,6,0,P|382:14|381:61,1,99.0000030212403,4|0,1:3|0:0,0:0:0:0:
477,112,121840,2,0,P|453:114|429:120,1,49.5000015106202,4|0,1:3|0:0,0:0:0:0:
287,210,122005,6,0,P|353:219|419:235,1,135,6|0,3:2|0:0,0:0:0:0:
419,235,122335,1,0,1:2:0:0:
356,356,122500,1,2,3:2:0:0:
342,365,122582,1,2,1:2:0:0:
325,365,122665,1,2,3:2:0:0:
209,262,122829,1,2,3:2:0:0:
209,262,123159,6,0,P|127:228|71:268,1,135,2|0,1:2|0:0,0:0:0:0:
90,245,123489,1,2,3:2:0:0:
292,81,123654,1,2,1:2:0:0:
203,15,123818,1,2,3:2:0:0:
203,15,123901,1,0,1:2:0:0:
203,15,123983,1,2,3:2:0:0:
240,158,124148,5,0,1:2:0:0:
281,184,124230,1,0,1:2:0:0:
328,174,124313,1,2,1:2:0:0:
359,136,124395,1,0,1:2:0:0:
400,109,124478,1,2,1:2:0:0:
448,107,124560,1,0,1:2:0:0:
487,136,124643,1,4,3:2:0:0:
391,280,124807,6,0,P|348:273|298:269,1,90,2|0,2:0|1:2,0:0:0:0:
165,358,125137,1,2,3:2:0:0:
166,366,125219,1,0,1:2:0:0:
171,372,125302,6,0,P|214:365|264:361,1,90,0|2,3:2|3:2,0:0:0:0:
119,93,125632,1,2,1:2:0:0:
39,195,125796,6,0,B|34:234|66:268|70:276|70:276|76:272|121:265|144:223,1,180,2|0,2:0|0:0,0:0:0:0:
303,20,126291,2,0,P|345:13|377:44,1,90,0|2,1:2|3:2,0:0:0:0:
385,120,126538,1,2,1:2:0:0:
378,133,126621,1,2,3:2:0:0:
279,256,126785,1,2,3:2:0:0:
133,65,126950,1,2,1:2:0:0:
286,139,127115,2,0,P|241:143|196:151,1,90,2|4,2:0|3:2,0:0:0:0:
50,300,127445,6,0,P|94:304|139:312,1,90,2|2,2:0|1:2,0:0:0:0:
295,382,127774,1,0,3:2:0:0:
295,382,127857,1,0,1:2:0:0:
295,382,127939,1,2,3:2:0:0:
180,236,128104,1,2,3:2:0:0:
370,89,128269,1,0,1:2:0:0:
260,0,128434,6,0,P|266:53|269:102,1,90,2|0,2:0|3:2,0:0:0:0:
173,246,128763,1,2,3:2:0:0:
473,118,128928,1,6,1:2:0:0:
295,186,129093,1,0,3:2:0:0:
332,191,129176,1,0,1:2:0:0:
368,196,129258,1,8,3:0:0:0:
268,89,129423,5,4,3:0:0:0:
184,235,129588,1,4,3:0:0:0:
274,185,129752,1,0,0:0:0:0:
441,348,129917,6,0,P|369:351|297:362,1,144,6|0,3:2|3:2,0:0:0:0:
208,384,130412,1,2,2:0:0:0:
11,118,130577,2,0,P|56:169|124:157,1,144,2|0,1:2|0:0,0:0:0:0:
200,76,131071,1,2,3:2:0:0:
200,76,131401,5,0,3:2:0:0:
228,247,131566,2,0,P|226:212|220:176,1,72,0|2,3:2|2:0,0:0:0:0:
105,29,131895,1,0,1:2:0:0:
293,0,132060,1,2,1:2:0:0:
293,0,132143,1,0,1:2:0:0:
293,0,132225,1,0,3:2:0:0:
199,75,132390,2,0,P|216:78|234:84,1,36,2|0,1:2|1:2,0:0:0:0:
314,148,132555,5,4,3:2:0:0:
183,84,132719,1,0,3:2:0:0:
183,84,133049,5,0,3:2:0:0:
40,302,133214,2,0,B|74:332|113:327|113:327|139:289|197:292,1,144,0|2,1:2|3:2,0:0:0:0:
258,373,133708,2,0,P|222:375|186:382,1,72,2|2,3:2|2:0,0:0:0:0:
494,194,134038,6,0,P|424:203|364:165,1,144,0|0,1:2|0:0,0:0:0:0:
311,109,134533,1,0,1:2:0:0:
331,146,134615,1,0,1:2:0:0:
325,188,134697,1,8,2:3:0:0:
298,222,134780,1,8,2:3:0:0:
284,262,134862,2,0,P|321:314|348:288,1,108,4|0,2:3|0:0,0:0:0:0:
360,277,135192,5,4,3:2:0:0:
360,277,137500,6,0,B|375:293|396:299|396:299|428:244|392:203|339:192,1,161.999995056153,8|0,3:0|0:0,0:0:0:0:
342,195,137829,5,6,1:2:0:0:
264,240,137994,1,2,1:2:0:0:
168,170,138159,1,2,1:2:0:0:
220,56,138324,1,2,1:2:0:0:
272,254,138489,5,2,1:2:0:0:
76,189,138654,1,2,1:2:0:0:
264,145,138818,1,2,1:2:0:0:
217,352,138983,1,2,1:2:0:0:
158,130,139148,5,2,1:2:0:0:
379,267,139313,1,2,1:2:0:0:
274,25,139478,1,2,1:2:0:0:
217,352,139643,1,2,1:2:0:0:
347,168,139807,5,2,1:2:0:0:
347,168,139890,1,0,1:2:0:0:
347,168,139972,1,2,1:2:0:0:
347,168,140055,1,0,1:2:0:0:
347,168,140137,6,0,P|263:181|245:104,1,161.999995056153,2|4,1:2|3:0,0:0:0:0:
255,103,140467,5,4,3:2:0:0:
164,229,140796,1,8,3:0:0:0:
372,84,141126,1,8,3:0:0:0:
36,190,141456,1,8,3:0:0:0:
468,298,141785,6,0,P|414:302|361:315,1,107.999996704102,4|0,3:2|0:0,0:0:0:0:
361,315,142445,5,0,1:2:0:0:
308,302,142527,1,0,1:2:0:0:
281,254,142610,1,0,1:2:0:0:
289,200,142692,1,0,1:2:0:0:
332,168,142774,1,8,3:0:0:0:
377,138,142857,1,8,3:0:0:0:
390,86,142939,2,0,L|334:75,1,45,4|4,3:0|3:0,0:0:0:0:
262,67,143104,5,6,1:2:0:0:
396,223,143269,1,0,3:2:0:0:
256,60,143434,1,2,3:2:0:0:
191,344,143599,5,6,1:2:0:0:
301,165,143763,1,0,3:2:0:0:
189,352,143928,1,2,3:2:0:0:
86,49,144093,5,4,1:2:0:0:
215,229,144258,1,2,3:2:0:0:
81,43,144423,1,0,3:2:0:0:
17,283,144588,5,4,1:2:0:0:
128,157,144752,2,0,P|65:151|-21:134,1,116.999994644165,2|0,3:2|3:2,0:0:0:0:
349,2,145082,6,0,P|400:24|385:101,1,116.999994644165,6|0,1:2|3:2,0:0:0:0:
261,213,145412,1,6,1:2:0:0:
246,113,145577,1,0,3:2:0:0:
290,107,145659,1,0,3:2:0:0:
324,134,145741,5,4,1:2:0:0:
233,309,145906,1,0,3:2:0:0:
329,125,146071,1,0,3:2:0:0:
404,378,146236,5,4,1:2:0:0:
162,215,146401,1,0,3:2:0:0:
417,79,146566,1,0,3:2:0:0:
352,238,146730,6,0,P|313:224|273:218,1,80.9999975280763,6|0,1:2|0:0,0:0:0:0:
255,234,147060,5,2,1:2:0:0:
210,207,147143,1,0,1:2:0:0:
200,156,147225,1,0,1:2:0:0:
222,110,147307,1,0,1:2:0:0:
269,89,147390,1,8,3:0:0:0:
306,54,147472,1,8,3:0:0:0:
297,2,147555,2,0,L|239:10,1,58.4999973220826,4|4,3:0|3:0,0:0:0:0:
101,29,147719,5,2,1:3:0:0:
432,94,147884,1,2,1:3:0:0:
432,94,148379,6,0,P|415:133|306:113,1,125.999996154785,6|0,3:2|3:2,0:0:0:0:
239,9,148708,1,2,1:3:0:0:
131,117,148873,2,0,P|157:110|184:107,1,53.9999983520508,0|0,3:2|1:2,0:0:0:0:
268,110,149038,1,2,3:0:0:0:
268,110,149203,1,0,3:2:0:0:
181,351,149368,6,0,P|101:352|53:290,1,161.999995056153,6|0,1:2|0:0,0:0:0:0:
63,267,149697,1,2,3:0:0:0:
215,196,149862,1,0,3:2:0:0:
111,13,150027,6,0,P|118:66|122:120,1,107.999996704102,2|0,1:3|3:2,0:0:0:0:
114,196,150274,1,0,1:2:0:0:
111,205,150357,2,0,P|51:207|32:154,1,107.999996704102,2|0,3:0|3:2,0:0:0:0:
314,116,150687,1,2,1:3:0:0:
233,36,150851,5,0,3:2:0:0:
233,36,150934,1,0,1:2:0:0:
233,36,151016,1,6,3:2:0:0:
289,226,151181,1,0,3:2:0:0:
422,80,151346,1,2,1:2:0:0:
201,141,151511,6,0,L|323:124,1,107.999996704102,6|0,3:2|0:0,0:0:0:0:
61,178,151840,1,0,1:2:0:0:
61,178,151923,1,0,1:2:0:0:
61,178,152005,6,0,L|254:151,1,188.999994232178,8|4,3:0|3:0,0:0:0:0:
321,206,152335,2,0,B|304:243|253:247|253:247|220:234,1,116.999994644165,2|0,1:2|0:0,0:0:0:0:
161,126,152582,6,0,P|173:98|194:77,1,60.0000022888184,2|0,1:2|0:0,0:0:0:0:
349,3,152829,6,0,P|378:-3|408:1,1,58.4999973220826,6|0,1:2|0:0,0:0:0:0:
122,281,153159,5,2,1:2:0:0:
457,178,153324,1,6,1:2:0:0:
295,95,153489,1,0,1:2:0:0:
295,95,153571,1,0,1:2:0:0:
295,95,153654,6,0,P|288:177|286:256,1,161.999995056153,6|0,3:2|0:0,0:0:0:0:
291,332,153983,1,2,1:3:0:0:
207,193,154148,5,2,3:2:0:0:
196,186,154230,1,0,1:2:0:0:
183,183,154313,1,2,3:0:0:0:
382,44,154478,1,0,3:2:0:0:
122,0,154643,1,2,1:3:0:0:
183,183,154807,6,0,P|261:132|238:17,1,215.999993408203,2|0,3:2|3:2,0:0:0:0:
381,285,155302,2,0,P|327:283|319:221,1,107.999996704102,2|0,1:3|3:2,0:0:0:0:
363,154,155549,1,0,1:2:0:0:
371,147,155632,6,0,P|425:150|480:163,1,107.999996704102,2|0,3:0|3:2,0:0:0:0:
248,353,155961,2,0,P|166:340|87:338,1,161.999995056153,2|0,1:3|0:0,0:0:0:0:
9,136,156291,6,0,P|36:86|99:123,1,107.999996704102,2|0,3:0|0:0,0:0:0:0:
197,242,156621,1,2,1:3:0:0:
95,206,156785,1,0,3:2:0:0:
76,205,156868,1,0,1:2:0:0:
58,217,156950,1,2,3:0:0:0:
186,103,157115,1,0,3:2:0:0:
334,311,157280,6,0,P|339:251|356:175,1,107.999996704102,2|0,1:3|0:0,0:0:0:0:
511,112,157609,1,2,3:0:0:0:
445,189,157774,1,0,3:2:0:0:
256,20,157939,6,0,L|378:17,1,107.999996704102,2|0,1:3|3:2,0:0:0:0:
363,17,158187,1,0,3:2:0:0:
363,17,158269,1,2,3:0:0:0:
335,191,158434,1,0,1:2:0:0:
292,211,158516,1,0,1:2:0:0:
246,197,158599,1,0,1:2:0:0:
210,164,158681,1,0,1:2:0:0:
204,116,158763,1,0,1:2:0:0:
369,308,158928,6,0,P|287:298|208:296,1,161.999995056153,4|0,3:2|0:0,0:0:0:0:
138,336,159258,2,0,P|89:351|60:310,1,107.999996704102,2|0,1:3|3:2,0:0:0:0:
86,237,159505,1,0,1:2:0:0:
94,233,159588,1,2,3:0:0:0:
0,127,159752,1,0,3:2:0:0:
295,29,159917,1,2,1:3:0:0:
132,117,160082,6,0,P|185:117|239:125,1,107.999996704102,2|2,3:2|3:0,0:0:0:0:
334,198,160412,1,0,3:2:0:0:
114,0,160577,6,0,P|65:16|57:70,1,107.999996704102,2|0,1:3|3:2,0:0:0:0:
333,65,160906,2,0,P|316:43|294:28,1,53.9999983520508,2|0,1:3|1:2,0:0:0:0:
209,45,161071,5,0,1:2:0:0:
209,45,161154,1,0,1:2:0:0:
209,45,161236,1,0,1:2:0:0:
171,66,161318,1,8,3:0:0:0:
158,107,161401,1,8,3:0:0:0:
175,146,161483,1,4,3:0:0:0:
223,169,161566,1,4,1:2:0:0:
240,220,161648,1,0,3:2:0:0:
210,264,161730,6,0,L|131:257,1,53.9999983520508,2|0,3:2|3:2,0:0:0:0:
47,190,161895,2,0,L|126:183,1,53.9999983520508,2|0,3:2|3:2,0:0:0:0:
295,112,162060,1,4,1:2:0:0:
307,114,162143,1,0,3:2:0:0:
318,121,162225,1,0,3:2:0:0:
327,131,162307,1,0,3:2:0:0:
331,143,162390,2,0,P|330:173|321:195,1,53.9999983520508,0|0,3:2|3:2,0:0:0:0:
359,282,162555,5,6,1:2:0:0:
381,316,162637,1,0,3:2:0:0:
419,330,162719,1,2,3:2:0:0:
459,326,162802,1,0,3:2:0:0:
489,298,162884,2,0,P|488:259|477:227,1,58.4999973220826,0|0,3:2|3:2,0:0:0:0:
445,103,163049,5,4,1:2:0:0:
390,74,163132,1,0,3:2:0:0:
330,84,163214,1,0,3:2:0:0:
285,126,163296,1,0,3:2:0:0:
228,150,163379,1,0,3:2:0:0:
168,140,163461,1,0,3:2:0:0:
123,100,163544,6,0,L|130:26,1,58.4999973220826,2|0,1:2|1:2,0:0:0:0:
28,178,163708,2,0,L|35:104,1,58.4999973220826,2|0,1:2|1:2,0:0:0:0:
158,281,163873,2,0,L|165:207,1,58.4999973220826,8|8,3:0|3:0,0:0:0:0:
258,18,164038,5,4,3:0:0:0:
258,18,164121,1,4,3:0:0:0:
258,18,164203,2,0,P|316:75|376:156,1,161.999995056153,6|0,3:2|0:0,0:0:0:0:
235,8,164533,5,2,1:3:0:0:
312,265,164697,1,0,3:2:0:0:
227,3,164862,5,2,1:3:0:0:
169,291,165027,1,0,3:2:0:0:
355,38,165192,5,2,1:3:0:0:
94,168,165357,1,0,3:2:0:0:
94,168,165439,1,0,3:2:0:0:
94,168,165522,5,2,1:3:0:0:
366,44,165687,1,0,3:2:0:0:
162,272,165851,5,2,1:3:0:0:
377,46,166016,1,0,3:2:0:0:
281,326,166181,5,2,1:3:0:0:
387,47,166346,1,0,3:2:0:0:
424,325,166511,5,2,1:3:0:0:
196,114,166676,1,0,3:2:0:0:
196,114,166758,1,0,3:2:0:0:
196,114,166840,2,0,L|326:118,1,107.999996704102,6|0,1:2|0:0,0:0:0:0:
74,167,167170,5,2,1:3:0:0:
258,9,167335,1,0,3:2:0:0:
303,256,167500,1,2,1:3:0:0:
114,40,167665,1,0,3:2:0:0:
374,150,167829,1,2,1:3:0:0:
168,325,167994,5,0,3:2:0:0:
168,325,168077,1,0,3:2:0:0:
168,325,168159,2,0,L|162:199,1,107.999996704102,4|0,1:2|3:2,0:0:0:0:
265,24,168489,5,2,1:3:0:0:
67,145,168654,1,0,3:2:0:0:
263,277,168818,1,2,1:3:0:0:
306,247,168901,1,2,3:2:0:0:
316,196,168983,1,0,1:2:0:0:
297,146,169066,1,0,1:2:0:0:
250,120,169148,1,8,3:0:0:0:
237,70,169230,1,8,3:0:0:0:
265,24,169313,1,4,3:0:0:0:
168,325,169478,6,0,P|254:327|343:337,1,161.999995056153,6|0,3:2|0:0,0:0:0:0:
423,384,169807,1,2,1:2:0:0:
505,136,169972,6,0,P|464:199|383:185,1,161.999995056153,4|0,3:2|0:0,0:0:0:0:
312,119,170302,1,0,1:2:0:0:
61,208,170467,6,0,P|140:190|220:180,1,161.999995056153,6|0,3:2|0:0,0:0:0:0:
294,244,170796,1,2,1:2:0:0:
112,45,170961,6,0,P|37:55|16:134,1,161.999995056153,4|0,3:2|0:0,0:0:0:0:
54,227,171291,1,0,1:2:0:0:
235,166,171456,2,0,P|208:163|181:162,1,53.9999983520508,4|0,3:2|3:2,0:0:0:0:
148,243,171621,5,0,1:2:0:0:
182,276,171703,1,0,1:2:0:0:
226,298,171785,1,8,3:0:0:0:
274,305,171868,1,8,3:0:0:0:
321,298,171950,1,4,3:0:0:0:
365,276,172033,1,4,3:0:0:0:
402,241,172115,6,0,B|440:210|446:175|425:124|425:124|380:122|358:167,1,188.999994232178,6|0,3:2|0:0,0:0:0:0:
321,207,172445,1,2,3:2:0:0:
281,64,172610,1,2,1:2:0:0:
271,279,172774,1,2,3:2:0:0:
162,40,172939,1,2,1:2:0:0:
274,305,173104,1,2,1:2:0:0:
460,126,173269,1,2,1:2:0:0:
460,126,173351,1,0,3:2:0:0:
459,126,173434,6,0,P|345:130|231:140,1,229.500004377365,6|2,3:2|2:0,0:0:0:0:
202,234,174093,5,0,1:2:0:0:
153,259,174176,1,0,1:2:0:0:
102,242,174258,1,0,1:2:0:0:
76,194,174340,1,0,1:2:0:0:
86,140,174423,2,0,P|111:123|141:123,1,53.9999983520508,8|8,3:0|3:0,0:0:0:0:
147,33,174588,2,0,P|176:34|201:52,1,53.9999983520508,4|4,3:0|3:0,0:0:0:0:
307,210,174752,5,6,1:2:0:0:
218,232,174917,1,0,3:2:0:0:
242,142,175082,1,0,3:2:0:0:
386,361,175247,6,0,P|335:343|282:333,1,107.999996704102,6|0,1:2|3:2,0:0:0:0:
181,351,175577,1,0,3:2:0:0:
237,125,175741,5,6,1:2:0:0:
323,215,175906,1,0,3:2:0:0:
204,245,176071,1,0,3:2:0:0:
62,93,176236,6,0,P|115:82|165:64,1,107.999996704102,6|0,1:2|3:2,0:0:0:0:
244,0,176566,1,0,3:2:0:0:
453,197,176730,6,0,B|466:198|472:165|472:165|447:136|417:120|367:154,1,125.999996154785,6|0,1:2|3:2,0:0:0:0:
59,219,177060,2,0,B|45:217|39:250|39:250|64:279|94:295|144:261,1,125.999996154785,6|0,1:2|3:2,0:0:0:0:
313,122,177390,5,6,1:2:0:0:
155,189,177555,1,0,3:2:0:0:
294,293,177719,1,2,3:2:0:0:
334,110,177884,5,6,1:2:0:0:
133,175,178049,1,0,3:2:0:0:
293,316,178214,1,2,3:2:0:0:
355,112,178379,5,6,1:2:0:0:
121,176,178544,1,0,3:2:0:0:
121,176,178626,1,2,3:2:0:0:
121,176,178708,1,2,3:2:0:0:
259,0,178873,6,0,L|251:113,1,107.999996704102,6|0,1:2|3:2,0:0:0:0:
240,206,179203,1,2,3:2:0:0:
117,338,179368,6,0,B|101:357|64:341|53:336|53:336|54:324|47:297|58:280|92:272,1,135.000005149842,6|0,1:2|3:2,0:0:0:0:
338,369,179697,2,0,B|352:389|390:375|401:371|401:371|401:359|410:332|400:315|366:305,1,135.000005149842,6|0,1:2|3:2,0:0:0:0:
238,327,180027,5,6,3:2:0:0:
231,316,180110,1,0,3:2:0:0:
227,296,180192,1,0,3:2:0:0:
226,269,180274,1,0,3:2:0:0:
239,240,180357,1,0,1:2:0:0:
265,219,180439,1,0,3:2:0:0:
297,203,180522,1,6,3:2:0:0:
332,182,180604,1,0,3:2:0:0:
355,143,180687,1,2,1:2:0:0:
363,97,180769,1,0,1:2:0:0:
338,57,180851,1,0,1:2:0:0:
291,48,180934,1,2,1:2:0:0:
251,73,181016,6,0,L|263:154,1,53.9999983520508,4|0,3:2|3:2,0:0:0:0:
162,21,181181,2,0,L|154:74,1,53.9999983520508,2|0,3:2|3:2,0:0:0:0:
71,110,181346,5,2,3:2:0:0:
67,107,181428,1,0,3:2:0:0:
63,104,181511,1,2,3:2:0:0:
59,102,181593,1,2,3:2:0:0:
56,99,181676,5,4,3:2:0:0:
25,148,181758,1,0,3:2:0:0:
40,204,181840,1,2,3:2:0:0:
89,234,181923,1,0,3:2:0:0:
147,226,182005,1,6,1:2:0:0:
192,191,182088,1,0,1:2:0:0:
249,181,182170,1,0,1:2:0:0:
305,197,182252,1,2,1:2:0:0:
341,241,182335,1,8,3:0:0:0:
346,300,182417,1,8,3:0:0:0:
322,352,182500,1,4,3:0:0:0:
272,381,182582,1,4,3:0:0:0:
212,375,182665,5,4,1:2:0:0:
164,109,182829,1,8,3:0:0:0:
420,219,182994,1,8,3:0:0:0:
100,261,183159,5,4,1:2:0:0:
393,358,183324,1,8,3:0:0:0:
313,76,183489,1,8,3:0:0:0:
91,272,183654,2,0,P|144:273|198:279,1,107.999996704102,4|8,1:2|3:0,0:0:0:0:
299,336,183983,6,0,B|341:358|381:312|375:283|357:250|320:242|276:266|276:266|222:283|184:254|168:214|186:190|205:171|230:163|253:173|275:209,1,405.000015449525,8|2,3:0|1:2,0:0:0:0:
253,186,184560,1,0,1:2:0:0:
255,196,184643,1,8,3:0:0:0:
371,126,184807,1,4,3:0:0:0:
373,116,184890,1,4,3:0:0:0:
370,108,184972,1,2,1:2:0:0:
323,122,185055,1,0,1:2:0:0:
279,101,185137,1,0,1:2:0:0:
271,47,185219,1,0,1:2:0:0:
304,8,185302,6,0,P|255:117|165:51,1,251.999992309571,4|2,3:2|1:3,0:0:0:0:
34,191,185796,1,2,3:2:0:0:
32,206,185879,1,0,1:2:0:0:
39,221,185961,2,0,B|78:239|96:233|96:233|118:203|153:203,1,125.999996154785,2|0,3:0|3:2,0:0:0:0:
350,320,186291,54,0,B|365:341|345:373|345:373|270:355|270:285|270:285|288:272|305:270|322:231,1,251.999992309571,2|2,1:3|3:0,0:0:0:0:
229,71,186785,2,0,P|237:135|242:225,1,125.999996154785,0|2,3:2|1:3,0:0:0:0:
176,311,187115,5,0,3:2:0:0:
176,311,187197,1,0,1:2:0:0:
176,311,187280,1,2,3:0:0:0:
309,377,187445,1,2,3:2:0:0:
141,180,187610,1,2,1:3:0:0:
295,285,187774,1,2,3:2:0:0:
293,7,187939,5,2,3:0:0:0:
141,180,188104,1,2,2:0:0:0:
428,227,188269,1,2,1:3:0:0:
256,114,188434,5,2,3:2:0:0:
256,114,188516,1,0,1:2:0:0:
256,114,188599,2,0,P|285:191|318:181,1,125.999996154785,2|2,3:0|3:2,0:0:0:0:
415,101,188928,1,2,1:3:0:0:
250,283,189093,5,2,3:2:0:0:
242,280,189176,1,0,1:2:0:0:
232,278,189258,1,2,3:0:0:0:
320,183,189423,1,2,3:2:0:0:
62,128,189588,1,2,1:3:0:0:
122,352,189752,6,0,P|127:289|136:226,1,125.999996154785,2|0,3:2|1:2,0:0:0:0:
145,197,190000,1,8,3:0:0:0:
174,181,190082,1,8,3:0:0:0:
207,186,190165,1,4,3:0:0:0:
232,207,190247,1,0,1:2:0:0:
276,222,190329,1,0,1:2:0:0:
320,205,190412,1,0,1:2:0:0:
346,166,190494,1,0,1:2:0:0:
350,118,190577,6,0,P|331:73|292:54,1,67.5000025749208,4|0,3:2|0:0,0:0:0:0:
235,49,190741,1,2,3:2:0:0:
235,49,190824,1,0,0:0:0:0:
235,49,190906,1,0,1:2:0:0:
442,167,191071,1,2,3:2:0:0:
238,312,191236,6,0,P|171:299|104:291,1,135.000005149842,2|2,1:3|3:2,0:0:0:0:
376,383,191566,1,2,1:3:0:0:
253,164,191730,5,2,3:2:0:0:
253,164,191813,1,0,0:0:0:0:
253,164,191895,1,2,1:3:0:0:
87,304,192060,1,2,3:2:0:0:
222,60,192225,1,2,1:3:0:0:
346,224,192390,1,2,3:2:0:0:
98,199,192555,5,2,1:3:0:0:
98,199,192637,1,0,3:2:0:0:
98,199,192719,2,0,P|133:191|180:190,1,67.5000025749208,2|0,3:2|0:0,0:0:0:0:
236,253,192884,2,0,P|245:313|196:366,1,135.000005149842,2|2,1:3|3:2,0:0:0:0:
436,118,193214,6,0,B|411:65|362:47|316:76|316:76|313:122|352:140,1,202.500007724762,4|0,1:2|0:0,0:0:0:0:
387,184,193544,1,2,1:3:0:0:
218,38,193708,1,0,3:2:0:0:
128,287,193873,5,2,1:3:0:0:
236,124,194038,1,2,3:2:0:0:
346,358,194203,2,0,P|279:345|212:342,1,135.000005149842,2|0,1:3|3:2,0:0:0:0:
107,85,194533,5,4,1:2:0:0:
250,254,194697,1,2,3:2:0:0:
403,33,194862,54,0,B|429:39|444:66|444:66|407:98|364:78|364:78|350:46|306:31,1,202.500007724762,4|0,1:2|0:0,0:0:0:0:
290,22,195192,2,0,P|299:95|306:183,1,135.000005149842,0|4,1:2|3:0,0:0:0:0:
293,254,195522,1,2,1:2:0:0:
289,256,195604,1,2,1:2:0:0:
286,259,195687,1,2,1:2:0:0:
283,262,195769,1,2,1:2:0:0:
281,266,195851,5,8,3:0:0:0:
326,308,195934,1,0,1:2:0:0:
389,310,196016,1,0,1:2:0:0:
437,272,196099,1,0,1:2:0:0:
450,212,196181,1,0,1:2:0:0:
422,157,196263,1,0,1:2:0:0:
365,134,196346,1,8,3:0:0:0:
305,145,196428,1,0,1:2:0:0:
260,189,196511,1,0,1:2:0:0:
208,222,196593,1,0,1:2:0:0:
146,223,196676,2,0,P|99:200|78:174,1,67.5000025749208,0|0,1:2|1:2,0:0:0:0:
82,84,196840,5,8,3:0:0:0:
116,21,196923,1,0,1:2:0:0:
184,0,197005,1,0,1:2:0:0:
253,18,197088,1,0,1:2:0:0:
298,73,197170,1,0,1:2:0:0:
290,143,197252,1,0,1:2:0:0:
248,200,197335,1,0,1:2:0:0:
233,270,197417,1,0,1:2:0:0:
263,335,197500,1,8,3:0:0:0:
325,367,197582,1,8,3:0:0:0:
394,349,197665,1,8,3:0:0:0:
440,295,197747,1,8,3:0:0:0:
438,223,197829,1,4,3:0:0:0:
394,165,197912,1,4,3:0:0:0:
325,145,197994,1,4,3:0:0:0:
258,174,198077,1,4,3:0:0:0:
194,205,198159,1,8,3:0:0:0:
124,190,198241,1,8,3:0:0:0:
76,135,198324,1,4,3:0:0:0:
74,62,198406,1,4,3:0:0:0:
120,6,198489,6,0,P|191:15|262:25,1,144,6|6,3:2|3:2,2:1:0:0:
262,25,201621,5,0,3:2:0:0:
177,221,201785,2,0,P|213:210|313:197,1,125.999996154785,0|0,1:2|0:0,0:0:0:0:
156,96,202280,6,0,P|129:114|119:144,1,62.9999980773926,0|0,1:2|0:0,0:0:0:0:
98,278,202610,2,0,P|68:268|37:262,2,62.9999980773926,0|0|0,0:0|3:2|0:0,0:0:0:0:
303,381,203104,6,0,P|370:354|354:292,1,125.999996154785,0|0,1:2|0:0,0:0:0:0:
368,309,203763,5,0,3:2:0:0:
207,221,203928,1,0,1:2:0:0:
207,221,204258,5,0,3:2:0:0:
463,140,204423,2,0,P|395:145|313:164,1,125.999996154785,0|0,1:2|0:0,0:0:0:0:
270,93,204917,6,0,P|266:66|302:28,1,62.9999980773926,0|0,1:2|0:0,0:0:0:0:
363,7,205247,1,0,1:2:0:0:
289,43,205412,1,0,3:2:0:0:
197,9,205741,6,0,P|163:2|112:-1,2,67.5,8|8|8,2:0|2:0|2:0,0:0:0:0:
114,207,206401,5,4,3:2:0:0:
101,115,206566,2,0,P|85:83|66:53,1,72
104,218,206895,1,0,3:2:0:0:
326,261,207060,6,0,P|254:258|182:268,1,144,0|0,1:2|0:0,0:0:0:0:
15,366,207555,6,0,P|35:336|50:303,1,72,0|0,1:2|0:0,0:0:0:0:
94,225,207884,1,0,1:2:0:0:
177,366,208049,6,0,P|219:360|236:316,1,72,0|0,3:2|0:0,0:0:0:0:
421,224,208379,2,0,P|351:223|306:169,1,144,0|0,1:2|0:0,0:0:0:0:
324,88,208873,5,0,3:2:0:0:
327,82,208956,1,0,3:2:0:0:
331,77,209038,1,0,3:2:0:0:
467,15,209203,1,0,1:2:0:0:
421,90,209368,1,0,3:2:0:0:
95,6,209697,6,0,P|166:8|238:16,1,144,0|0,1:2|0:0,0:0:0:0:
351,158,210192,1,0,1:2:0:0:
267,96,210357,5,0,3:2:0:0:
156,215,210522,1,0,1:2:0:0:
156,215,210851,2,0,P|177:212|208:211,1,36,2|2,3:2|3:2,0:0:0:0:
372,251,211016,6,0,P|392:313|365:373,1,134.999995880127,6|0,1:2|0:0,0:0:0:0:
298,340,211511,1,2,2:0:0:0:
291,335,211593,1,0,0:0:0:0:
288,329,211676,6,0,P|316:278|380:251,1,121.499996292114,4|2,3:2|2:0,0:0:0:0:
384,232,212005,2,0,P|392:188|360:130,1,80.9999975280763,0|2,3:2|2:0,0:0:0:0:
266,22,212335,1,2,3:2:0:0:
301,114,212500,1,0,0:0:0:0:
301,114,212582,2,0,P|255:110|190:107,1,80.9999975280763,2|0,2:0|0:0,0:0:0:0:
189,110,212829,1,2,1:2:0:0:
58,206,212994,6,0,P|104:202|169:199,1,80.9999975280763,2|0,3:2|0:0,0:0:0:0:
202,248,213241,1,2,2:0:0:0:
207,252,213324,2,0,P|214:292|190:325,1,80.9999975280763,0|2,3:2|2:0,0:0:0:0:
71,321,213654,1,2,3:2:0:0:
279,365,213818,1,0,1:2:0:0:
279,365,213901,2,0,P|319:367|359:370,1,80.9999975280763,2|0,2:0|0:0,0:0:0:0:
376,384,214148,1,2,1:2:0:0:
482,201,214313,6,0,P|432:250|329:235,1,161.999995056153,6|2,3:2|3:2,0:0:0:0:
149,36,214807,2,0,B|174:75|174:75|242:94|287:58,1,161.999995056153,2|0,2:0|0:0,0:0:0:0:
376,0,215302,1,2,3:2:0:0:
296,176,215467,5,2,1:2:0:0:
271,178,215549,1,2,3:2:0:0:
251,164,215632,1,2,3:2:0:0:
134,325,215796,1,0,1:2:0:0:
164,252,215961,2,0,P|201:240|231:264,1,80.9999975280763,2|0,3:2|0:0,0:0:0:0:
359,372,216291,5,2,3:2:0:0:
332,376,216401,5,0,1:2:0:0:
344,352,216511,5,0,1:2:0:0:
427,325,216621,6,0,P|463:252|421:212,1,135,8|0,3:0|3:2,0:0:0:0:
374,169,216950,6,0,P|309:167|311:102,1,144,4|2,3:2|3:0,0:0:0:0:
32,363,217610,2,0,P|105:351|190:343,1,144,2|2,1:3|3:0,0:0:0:0:
239,227,218104,1,2,1:2:0:0:
178,356,218269,5,2,3:0:0:0:
71,165,218434,2,0,P|106:169|142:171,1,72,2|2,1:2|2:3,0:0:0:0:
6,237,218763,1,2,3:2:0:0:
201,93,218928,5,2,1:3:0:0:
132,22,219093,1,2,3:2:0:0:
132,22,219176,1,0,1:2:0:0:
132,22,219258,1,2,1:3:0:0:
207,100,219423,2,0,P|224:97|242:95,1,36,2|0,3:2|3:2,0:0:0:0:
320,29,219588,6,0,P|387:37|377:123,1,161.999995056153,4|0,1:2|1:2,0:0:0:0:
324,163,219917,1,2,1:2:0:0:
300,199,220000,1,0,1:2:0:0:
301,241,220082,1,4,3:2:0:0:
328,274,220165,1,0,3:2:0:0:
371,285,220247,2,0,P|399:279|421:255,3,53.9999983520508,0|0|0|0,1:2|1:2|1:2|1:2,0:0:0:0:
312,368,220577,6,0,P|233:346|153:338,1,161.999995056153,4|0,3:2|1:2,0:0:0:0:
84,370,220906,1,2,1:2:0:0:
49,334,220989,1,0,1:2:0:0:
43,285,221071,1,4,3:2:0:0:
65,241,221154,1,2,1:2:0:0:
106,217,221236,1,2,1:2:0:0:
149,196,221318,1,0,1:2:0:0:
171,152,221401,1,0,1:2:0:0:
163,104,221483,1,0,1:2:0:0:
128,69,221566,6,0,L|57:83,1,53.9999983520508,8|0,3:0|0:0,0:0:0:0:
212,11,221730,2,0,L|265:0,1,53.9999983520508,2|0,1:2|1:2,0:0:0:0:
247,203,221895,1,8,3:0:0:0:
209,27,222060,1,4,3:0:0:0:
455,317,222225,6,0,P|375:307|294:301,1,161.999995056153,4|0,1:2|0:0,0:0:0:0:
222,326,222555,5,2,1:3:0:0:
343,78,222719,1,2,3:2:0:0:
127,249,222884,1,2,1:3:0:0:
393,188,223049,1,2,3:2:0:0:
127,127,223214,1,2,1:3:0:0:
343,297,223379,1,2,3:2:0:0:
343,297,223461,1,0,3:2:0:0:
343,297,223544,1,2,1:3:0:0:
222,52,223708,5,2,3:2:0:0:
216,351,223873,1,2,1:3:0:0:
359,54,224038,1,2,3:2:0:0:
101,259,224203,1,2,1:3:0:0:
420,187,224368,1,2,3:2:0:0:
101,114,224533,1,2,1:3:0:0:
359,318,224697,1,2,3:2:0:0:
359,318,224780,1,2,3:2:0:0:
359,318,224862,5,4,1:2:0:0:
324,192,225027,1,0,1:2:0:0:
211,265,225192,1,2,1:3:0:0:
305,102,225357,1,2,1:2:0:0:
258,343,225522,5,2,1:3:0:0:
208,92,225687,1,2,1:2:0:0:
434,197,225851,1,2,1:3:0:0:
133,199,226016,1,2,1:2:0:0:
401,329,226181,5,2,1:3:0:0:
208,92,226346,1,2,1:2:0:0:
268,366,226511,1,2,1:3:0:0:
362,36,226676,1,2,1:2:0:0:
61,239,226840,5,2,1:3:0:0:
480,192,227005,1,2,1:2:0:0:
163,2,227170,1,2,1:3:0:0:
272,381,227335,1,0,1:2:0:0:
73,122,232115,5,0,1:2:0:0:
105,158,232197,1,0,1:2:0:0:
154,165,232280,1,0,1:2:0:0:
191,142,232362,1,0,1:2:0:0:
218,114,232445,1,8,3:0:0:0:
243,108,232527,1,8,3:0:0:0:
260,118,232610,2,0,L|253:178,1,53.9999983520508,4|4,3:0|3:0,0:0:0:0:
170,241,232774,5,4,1:2:0:0:
156,250,232857,1,0,3:2:0:0:
142,259,232939,1,0,1:2:0:0:
129,266,233022,1,0,1:2:0:0:
114,272,233104,1,0,1:2:0:0:
339,186,233269,5,4,3:2:0:0:
355,186,233351,1,0,3:2:0:0:
371,187,233434,1,0,1:2:0:0:
387,189,233516,1,0,1:2:0:0:
402,194,233599,1,0,1:2:0:0:
170,130,233763,5,4,3:2:0:0:
156,121,233846,1,0,3:2:0:0:
144,111,233928,1,0,1:2:0:0:
132,99,234011,1,0,1:2:0:0:
122,87,234093,1,0,1:2:0:0:
273,274,234258,5,4,3:2:0:0:
279,290,234340,1,0,3:2:0:0:
282,305,234423,1,0,1:2:0:0:
285,321,234505,1,0,1:2:0:0:
286,337,234588,1,0,1:2:0:0:
274,97,234752,5,4,3:2:0:0:
279,81,234835,1,0,3:2:0:0:
285,66,234917,1,0,1:2:0:0:
291,52,235000,1,0,1:2:0:0:
301,39,235082,1,8,3:0:0:0:
431,209,235247,5,4,3:0:0:0:
431,209,235329,1,4,3:0:0:0:
431,209,235412,2,0,P|344:197|256:193,1,175.499991966248,4|8,1:2|3:0,0:0:0:0:
256,193,235741,2,0,L|265:273,1,67.5000025749208,4|4,3:0|3:0,0:0:0:0:
153,358,235906,6,0,P|87:361|63:296,1,135.000005149842,4|0,3:2|1:2,0:0:0:0:
20,229,236154,1,0,1:2:0:0:
27,220,236236,2,0,P|57:207|104:213,1,67.5000025749208,0|0,1:2|1:2,0:0:0:0:
152,272,236401,5,4,3:2:0:0:
207,270,236483,1,0,3:2:0:0:
263,260,236566,1,8,3:0:0:0:
317,242,236648,1,8,3:0:0:0:
367,217,236730,1,8,3:0:0:0:
412,183,236813,1,8,3:0:0:0:
452,143,236895,1,4,3:0:0:0:
486,97,236978,1,4,3:0:0:0:
511,47,237060,2,0,P|479:32|422:32,3,67.5000025749208,4|4|8|4,3:0|3:0|3:0|3:0,0:0:0:0:
315,49,237390,5,4,3:2:0:0:
314,43,237472,1,0,3:2:0:0:
313,37,237555,1,0,1:2:0:0:
312,31,237637,1,0,1:2:0:0:
311,24,237719,5,4,3:2:0:0:
365,29,237802,1,0,1:2:0:0:
408,62,237884,1,0,1:2:0:0:
421,114,237967,1,0,1:2:0:0:
396,161,238049,1,4,3:2:0:0:
349,189,238132,1,0,3:2:0:0:
295,181,238214,1,0,1:2:0:0:
244,160,238296,1,0,1:2:0:0:
191,170,238379,1,0,1:2:0:0:
153,209,238461,1,0,1:2:0:0:
140,261,238544,1,4,1:2:0:0:
154,312,238626,1,0,1:2:0:0:
195,347,238708,1,8,3:0:0:0:
248,355,238791,1,4,3:0:0:0:
298,335,238873,1,4,3:0:0:0:
347,313,238956,1,0,1:2:0:0:
399,322,239038,6,0,B|352:366|278:344|266:277|266:277|281:239,1,202.500007724762,0|4,1:2|3:0,0:0:0:0:
319,165,239368,6,0,B|343:152|380:171|380:171|387:207|357:235,1,135.000005149842,2|0,1:2|0:0,0:0:0:0:
256,97,239615,6,0,P|268:69|292:46,1,62.9999980773926,2|0,1:2|0:0,0:0:0:0:
45,224,239862,6,0,P|39:195|46:163,1,62.9999980773926,6|0,1:2|0:0,0:0:0:0:
361,370,240192,5,2,1:2:0:0:
319,165,240357,1,6,1:2:0:0:
175,304,240522,5,0,1:2:0:0:
175,304,240604,1,0,1:2:0:0:
175,304,240687,2,0,P|229:293|304:293,1,107.999996704102,6|0,3:2|0:0,0:0:0:0:
445,321,241016,1,2,1:3:0:0:
319,165,241181,1,2,1:2:0:0:
304,163,241263,1,0,1:2:0:0:
293,172,241346,1,2,3:0:0:0:
418,95,241511,1,0,3:2:0:0:
210,21,241676,1,2,1:3:0:0:
231,227,241840,6,0,P|320:180|302:80,1,215.999993408203,2|0,3:2|3:2,0:0:0:0:
73,307,242335,2,0,P|127:309|180:318,1,107.999996704102,2|0,1:3|3:2,0:0:0:0:
180,318,242582,1,0,1:2:0:0:
180,318,242665,1,2,3:0:0:0:
322,384,242829,1,0,3:2:0:0:
200,137,242994,6,0,P|119:139|39:152,1,161.999995056153,2|0,1:3|0:0,0:0:0:0:
223,6,243324,2,0,P|273:33|236:96,1,107.999996704102,2|0,3:0|0:0,0:0:0:0:
153,227,243654,1,2,1:3:0:0:
330,165,243818,1,0,3:2:0:0:
330,165,243901,1,0,1:2:0:0:
330,165,243983,1,2,3:0:0:0:
404,248,244148,1,0,3:2:0:0:
236,377,244313,6,0,P|240:323|250:270,1,107.999996704102,2|0,1:3|0:0,0:0:0:0:
307,62,244643,1,2,3:0:0:0:
221,142,244807,1,0,3:2:0:0:
82,12,244972,6,0,P|20:40|41:85,1,107.999996704102,2|0,1:3|3:2,0:0:0:0:
116,165,245302,2,0,P|177:147|243:141,1,107.999996704102,2|8,3:0|3:0,0:0:0:0:
264,145,245549,1,8,3:0:0:0:
298,170,245632,1,8,3:0:0:0:
316,208,245714,1,8,3:0:0:0:
318,250,245796,1,4,3:0:0:0:
302,290,245879,1,4,3:0:0:0:
269,318,245961,6,0,P|292:265|398:230,1,161.999995056153,4|0,3:2|0:0,0:0:0:0:
444,174,246291,2,0,P|448:124|401:105,1,107.999996704102,2|0,1:3|3:2,0:0:0:0:
330,82,246538,1,0,1:2:0:0:
324,90,246621,1,2,3:0:0:0:
496,37,246785,1,0,3:2:0:0:
247,165,246950,1,2,1:3:0:0:
134,39,247115,6,0,P|159:-4|211:0,1,107.999996704102,2|2,3:2|3:0,0:0:0:0:
336,77,247445,1,0,3:2:0:0:
108,204,247610,6,0,P|54:197|0:194,1,107.999996704102,2|0,1:3|3:2,0:0:0:0:
184,373,247939,2,0,P|185:346|188:319,1,53.9999983520508,2|0,1:3|1:2,0:0:0:0:
200,240,248104,5,0,1:2:0:0:
200,240,248187,1,0,1:2:0:0:
200,240,248269,1,0,1:2:0:0:
234,214,248351,1,8,3:0:0:0:
278,211,248434,1,8,3:0:0:0:
314,235,248516,1,4,3:0:0:0:
356,271,248599,1,4,1:2:0:0:
410,277,248681,1,0,3:2:0:0:
454,246,248763,6,0,L|458:167,1,67.5000025749208,2|0,3:2|3:2,0:0:0:0:
402,105,248928,2,0,L|333:109,1,67.5000025749208,2|0,3:2|3:2,0:0:0:0:
266,65,249093,1,4,1:2:0:0:
266,65,249176,1,0,3:2:0:0:
266,65,249258,1,0,3:2:0:0:
266,65,249340,1,0,3:2:0:0:
266,65,249423,2,0,L|198:69,1,67.5000025749208,0|0,3:2|3:2,0:0:0:0:
122,114,249588,5,6,1:2:0:0:
92,142,249670,1,0,3:2:0:0:
86,182,249752,1,2,3:2:0:0:
97,220,249835,1,0,3:2:0:0:
131,244,249917,2,0,P|169:238|200:223,1,67.5000025749208,0|0,3:2|3:2,0:0:0:0:
271,162,250082,5,4,1:2:0:0:
331,150,250165,1,0,3:2:0:0:
388,170,250247,1,0,3:2:0:0:
423,220,250329,1,0,3:2:0:0:
425,281,250412,1,0,3:2:0:0:
393,333,250494,1,0,3:2:0:0:
334,353,250577,6,0,L|324:236,1,99.0000030212403,8|4,3:0|3:0,0:0:0:0:
280,54,250906,2,0,L|270:170,1,107.999996704102,8|4,3:0|3:0,0:0:0:0:
35,293,251236,6,0,L|174:313,1,108,6|0,3:2|0:0,0:0:0:0:
165,324,251566,2,0,L|158:220,1,72,2|0,2:0|3:2,0:0:0:0:
149,30,251895,6,0,P|77:30|69:98,1,144,0|2,1:2|3:2,0:0:0:0:
260,173,252390,1,0,1:2:0:0:
158,136,252555,5,2,3:2:0:0:
384,51,252719,1,0,1:2:0:0:
260,173,252884,1,2,3:2:0:0:
281,80,253049,1,0,3:2:0:0:
411,246,253214,6,0,P|357:247|302:258,1,108,0|0,1:2|0:0,0:0:0:0:
258,324,253544,2,0,P|221:362|171:330,1,108,6|0,1:2|0:0,0:0:0:0:
177,343,253873,6,0,L|191:170,1,144,6|2,3:2|2:0,0:0:0:0:
135,123,254368,1,2,3:2:0:0:
262,8,254533,1,0,1:2:0:0:
176,18,254697,2,0,L|70:32,1,72,2|0,1:2|3:2,0:0:0:0:
405,118,255027,6,0,L|511:104,1,72,2|0,1:2|3:2,0:0:0:0:
85,242,255357,2,0,L|13:251,1,72,2|4,1:2|3:2,0:0:0:0:
340,344,255687,5,8,3:0:0:0:
340,344,255769,1,4,3:0:0:0:
340,344,255851,1,8,3:0:0:0:
262,263,256016,1,8,3:0:0:0:
340,344,256181,2,0,P|368:308|366:247,1,90,4|4,3:0|3:0,0:0:0:0:
261,11,256511,6,0,P|255:83|253:155,1,144,6|2,3:2|2:0,0:0:0:0:
253,154,257005,1,0,3:2:0:0:
133,374,257170,2,0,P|65:356|39:291,1,144,0|2,1:2|3:2,0:0:0:0:
131,80,257665,1,0,1:2:0:0:
158,173,257829,5,2,3:2:0:0:
340,76,257994,2,0,P|375:68|492:57,1,144,0|0,1:2|3:2,0:0:0:0:
249,285,258489,1,0,1:2:0:0:
290,197,258654,2,0,P|255:153|156:175,1,144,0|2,3:2|2:0,0:0:0:0:
69,351,259148,5,6,3:2:0:0:
141,245,259313,1,0,1:2:0:0:
147,265,259395,1,0,1:2:0:0:
151,282,259478,1,2,1:2:0:0:
154,27,259643,2,0,P|211:19|262:56,1,116.999994644165,6|0,3:2|1:2,0:0:0:0:
441,169,259972,5,0,1:2:0:0:
441,169,260055,1,0,1:2:0:0:
441,169,260137,2,0,P|396:124|303:162,1,135.000005149842,8|4,3:0|3:0,0:0:0:0:
215,307,260467,102,0,B|226:336|261:358|323:369|323:369|346:271|324:217|262:222|229:160,1,377.999988464356,4|2,3:2|2:0,0:0:0:0:
237,169,261291,1,8,3:0:0:0:
237,169,261373,1,4,3:0:0:0:
237,169,261456,2,0,L|366:178,1,116.999994644165,8|0,3:0|0:0,0:0:0:0:
137,326,261785,5,6,1:2:0:0:
379,296,261950,1,0,3:2:0:0:
385,295,262115,1,2,3:2:0:0:
70,168,262280,5,6,1:2:0:0:
226,355,262445,1,0,3:2:0:0:
229,360,262610,1,0,3:2:0:0:
178,7,262774,5,6,1:2:0:0:
133,230,262939,1,0,3:2:0:0:
131,235,263104,1,2,3:2:0:0:
365,118,263269,6,0,P|312:108|259:103,1,107.999996704102,6|0,1:2|3:2,0:0:0:0:
151,135,263599,1,2,3:2:0:0:
419,17,263763,6,0,P|463:68|442:93,1,107.999996704102,6|0,1:2|3:2,0:0:0:0:
267,281,264093,2,0,P|223:255|239:207,1,107.999996704102,6|0,1:2|3:2,0:0:0:0:
314,190,264340,1,0,3:2:0:0:
314,190,264423,5,6,1:2:0:0:
189,63,264588,1,0,3:2:0:0:
184,58,264752,1,0,3:2:0:0:
124,245,264917,5,6,1:2:0:0:
303,85,265082,1,0,3:2:0:0:
73,16,265247,1,2,3:2:0:0:
267,202,265412,6,0,B|312:232|349:211|349:211|355:183|372:155|420:147|420:147|403:163|405:187,1,215.999993408203,6|0,1:2|3:2,0:0:0:0:
265,361,265906,2,0,P|218:341|222:290,1,107.999996704102,4|0,1:2|3:2,0:0:0:0:
297,115,266236,5,2,3:2:0:0:
413,270,266401,1,8,3:0:0:0:
256,209,266566,1,8,3:0:0:0:
404,78,266730,1,4,3:0:0:0:
178,152,266895,1,4,3:0:0:0:
351,371,267060,5,6,1:2:0:0:
295,105,267225,1,0,3:2:0:0:
293,99,267390,1,2,3:2:0:0:
136,333,267555,5,6,1:2:0:0:
360,183,267719,1,0,3:2:0:0:
366,180,267884,1,0,3:2:0:0:
92,76,268049,5,6,1:2:0:0:
308,258,268214,1,0,3:2:0:0:
313,265,268379,1,2,3:2:0:0:
365,20,268544,6,0,P|313:8|258:4,1,107.999996704102,6|0,1:2|3:2,0:0:0:0:
138,162,268873,1,2,3:2:0:0:
403,297,269038,6,0,P|424:250|389:213,1,107.999996704102,6|0,1:2|3:2,0:0:0:0:
62,257,269368,2,0,P|40:303|75:340,1,107.999996704102,6|0,1:2|3:2,0:0:0:0:
151,328,269615,1,0,3:2:0:0:
156,318,269697,5,6,1:2:0:0:
222,184,269862,1,0,3:2:0:0:
63,90,270027,1,0,3:2:0:0:
379,0,270192,6,0,P|367:54|362:107,1,107.999996704102,6|0,1:2|3:2,0:0:0:0:
403,203,270522,1,2,3:2:0:0:
279,86,270687,1,6,1:2:0:0:
265,77,270769,1,8,3:0:0:0:
249,72,270851,1,8,3:0:0:0:
232,71,270934,1,4,3:0:0:0:
215,72,271016,5,6,1:2:0:0:
89,338,271263,5,2,1:2:0:0:
270,191,271511,5,2,1:2:0:0:
321,267,271676,1,2,1:2:0:0:
483,94,271923,5,2,1:2:0:0:
89,338,272170,5,2,1:2:0:0:
261,92,272665,6,0,B|268:63|261:19|224:-5|164:-15|116:22|84:96|115:165|241:138|271:319|271:319|260:209|337:148,1,684,4|0,3:2|0:0,0:0:0:0:
