osu file format v14

[General]
AudioFilename: audio.mp3
AudioLeadIn: 0
PreviewTime: 66570
Countdown: 0
SampleSet: Soft
StackLeniency: 0.4
Mode: 0
LetterboxInBreaks: 0
WidescreenStoryboard: 1

[Editor]
Bookmarks: 32338,42887,53437,66624,67118,67448,67777,68272,68602,68931,69261,69755,70250,70580,70909,71239,71569,71733,71898,72228,72393,72722,72887,73382,73547,73876,74206,74536,74865,75030,75360,75525,75854,76102,76349,76679,86404,185305,201129
DistanceSpacing: 1.1
BeatDivisor: 4
GridSize: 32
TimelineZoom: 3.300001

[Metadata]
Title:GHOST
TitleUnicode:GHOST
Artist:Hoshimachi Suisei
ArtistUnicode:星街すいせい
Creator:Riven
Version:Collab Insane
Source:
Tags:hololive ホロライブ hosimati hoshimati hosimachi suichan sui-chan idol vtuber virtual youtuber singer jrock j-rock rock pop japanese jpop j-pop 佐藤厚仁 sato atsuhito Dream Monster カバー cover corp. ch ch. mocaotic koldnoodl spokenaway Nagaraia
BeatmapID:3582595
BeatmapSetID:1726003

[Difficulty]
HPDrainRate:5
CircleSize:3.9
OverallDifficulty:8.2
ApproachRate:9
SliderMultiplier:1.6
SliderTickRate:1

[Events]
//Background and Video events
Video,-617,"Dancer in The Dark.mp4"
0,0,"bg_waifu2x_art_scale_tta_1.jpg",0,0
//Break Periods
//Storyboard Layer 0 (Background)
//Storyboard Layer 1 (Fail)
//Storyboard Layer 2 (Pass)
//Storyboard Layer 3 (Foreground)
//Storyboard Layer 4 (Overlay)
//Storyboard Sound Samples

[TimingPoints]
687,329.67032967033,4,2,2,35,1,0
9917,-100,4,2,2,40,0,0
19148,-100,4,2,2,45,0,0
20137,-100,4,2,2,50,0,0
20796,-100,4,2,2,5,0,0
20961,-200,4,2,2,45,0,0
21125,-200,4,2,2,50,0,0
21290,-200,4,2,2,55,0,0
21456,-83.3333333333333,4,2,2,65,0,0
21703,-83.3333333333333,4,2,2,65,0,0
21785,-83.3333333333333,4,2,3,75,0,0
22280,-83.3333333333333,4,2,4,75,0,0
22774,-83.3333333333333,4,2,3,75,0,0
23269,-83.3333333333333,4,2,4,75,0,0
23763,-83.3333333333333,4,2,2,75,0,0
24423,-83.3333333333333,4,2,3,75,0,0
24917,-83.3333333333333,4,2,4,75,0,0
25412,-83.3333333333333,4,2,3,75,0,0
25906,-83.3333333333333,4,2,4,75,0,0
26401,-83.3333333333333,4,2,2,70,0,0
26730,-83.3333333333333,4,2,2,65,0,0
27060,-83.3333333333333,4,2,3,75,0,0
27555,-83.3333333333333,4,2,4,75,0,0
28049,-83.3333333333333,4,2,3,75,0,0
28544,-83.3333333333333,4,2,4,75,0,0
29038,-83.3333333333333,4,2,2,75,0,0
29698,-83.3333333333333,4,2,3,75,0,0
30192,-83.3333333333333,4,2,4,75,0,0
30687,-83.3333333333333,4,2,3,75,0,0
31181,-83.3333333333333,4,2,2,70,0,0
31511,-83.3333333333333,4,2,2,65,0,0
31676,-83.3333333333333,4,2,2,75,0,0
32335,-111.111111111111,4,2,2,55,0,0
32829,-111.111111111111,4,2,2,75,0,0
32994,-111.111111111111,4,2,2,55,0,0
33489,-111.111111111111,4,2,2,55,0,0
33654,-111.111111111111,4,2,2,55,0,0
34477,-111.111111111111,4,2,2,55,0,0
34643,-111.111111111111,4,2,2,55,0,0
34807,-111.111111111111,4,2,2,55,0,0
34972,-111.111111111111,4,2,2,55,0,0
35467,-111.111111111111,4,2,2,75,0,0
35632,-111.111111111111,4,2,2,55,0,0
35796,-111.111111111111,4,2,2,75,0,0
35961,-111.111111111111,4,2,2,55,0,0
36125,-111.111111111111,4,2,2,75,0,0
36291,-111.111111111111,4,2,2,55,0,0
36868,-111.111111111111,4,2,2,75,0,0
36950,-111.111111111111,4,2,2,55,0,0
37114,-111.111111111111,4,2,2,75,0,0
37280,-111.111111111111,4,2,2,55,0,0
38104,-111.111111111111,4,2,2,55,0,0
38268,-111.111111111111,4,2,2,55,0,0
38763,-111.111111111111,4,2,2,55,0,0
38928,-111.111111111111,4,2,2,55,0,0
39752,-111.111111111111,4,2,2,55,0,0
39917,-111.111111111111,4,2,2,55,0,0
40081,-111.111111111111,4,2,2,55,0,0
40247,-111.111111111111,4,2,2,55,0,0
41154,-111.111111111111,4,2,2,5,0,0
41236,-100,4,2,2,55,0,0
41730,-100,4,2,2,55,0,0
41895,-166.666666666666,4,2,2,55,0,0
42142,-166.666666666666,4,2,2,75,0,0
42225,-90.9090909090908,4,2,2,55,0,0
42884,-90.9090909090908,4,2,3,60,0,0
43131,-90.9090909090908,4,2,3,60,0,0
43214,-90.9090909090908,4,2,3,60,0,0
45522,-90.9090909090908,4,2,2,60,0,0
49230,-90.9090909090908,4,2,2,60,0,0
49313,-90.9090909090908,4,2,2,60,0,0
51950,-83.3333333333333,4,2,2,60,0,0
52197,-83.3333333333333,4,2,2,75,0,0
52280,-83.3333333333333,4,2,2,60,0,0
52445,-83.3333333333333,4,2,4,60,0,0
52610,-83.3333333333333,4,2,2,55,0,0
52774,-83.3333333333333,4,2,2,50,0,0
52938,-83.3333333333333,4,2,2,45,0,0
53104,-83.3333333333333,4,2,2,40,0,0
53434,-83.3333333333333,4,2,3,60,0,0
53763,-90.9090909090909,4,2,3,60,0,0
53928,-90.9090909090909,4,2,2,60,0,0
56071,-90.9090909090909,4,2,3,60,0,0
56566,-90.9090909090909,4,2,2,60,0,0
57225,-90.9090909090909,4,2,2,60,0,0
57390,-90.9090909090909,4,2,2,60,0,0
57719,-90.9090909090909,4,2,3,60,0,0
57884,-90.9090909090909,4,2,3,55,0,0
58049,-90.9090909090909,4,2,3,50,0,0
58379,-90.9090909090909,4,2,2,55,0,0
58599,-90.9090909090909,4,2,2,50,0,0
58708,-125,4,2,3,60,0,0
61016,-125,4,2,2,50,0,0
61181,-125,4,2,2,50,0,0
61346,-90.9090909090909,4,2,3,35,0,0
61676,-90.9090909090909,4,2,3,40,0,0
62005,-90.9090909090909,4,2,3,45,0,0
62335,-90.9090909090909,4,2,3,50,0,0
62665,-83.3333333333333,4,2,3,55,0,0
62994,-83.3333333333333,4,2,3,60,0,0
63324,-83.3333333333333,4,2,3,65,0,0
63654,-83.3333333333333,4,2,3,70,0,0
63901,-83.3333333333333,4,2,2,70,0,0
63983,-83.3333333333333,4,2,3,60,0,0
64313,-83.3333333333333,4,2,2,60,0,0
64643,-83.3333333333333,4,2,2,70,0,0
64972,-100,4,2,2,80,0,0
65219,-100,4,2,2,5,0,0
65302,-100,4,2,3,65,0,0
66621,-66.6666666666667,4,2,3,70,0,1
67115,-66.6666666666667,4,2,4,70,0,1
67610,-66.6666666666667,4,2,4,70,0,1
68104,-66.6666666666667,4,2,2,70,0,1
68599,-66.6666666666667,4,2,3,70,0,1
68928,-66.6666666666667,4,2,4,70,0,1
69258,-66.6666666666667,4,2,3,70,0,1
69752,-66.6666666666667,4,2,4,70,0,1
70247,-66.6666666666667,4,2,2,70,0,1
71236,-66.6666666666667,4,2,3,70,0,1
71566,-66.6666666666667,4,2,4,70,0,1
71895,-66.6666666666667,4,2,3,70,0,1
72390,-66.6666666666667,4,2,4,70,0,1
72884,-66.6666666666667,4,2,2,70,0,1
73873,-66.6666666666667,4,2,3,70,0,1
74203,-66.6666666666667,4,2,4,70,0,1
74532,-66.6666666666667,4,2,3,70,0,1
75027,-66.6666666666667,4,2,2,70,0,1
75604,-66.6666666666667,4,2,2,65,0,1
75769,-66.6666666666667,4,2,2,60,0,1
75851,-66.6666666666667,4,2,2,80,0,1
76015,-66.6666666666667,4,2,2,80,0,1
76099,-66.6666666666667,4,2,2,80,0,1
76263,-66.6666666666667,4,2,2,80,0,1
76346,-66.6666666666667,4,2,2,80,0,1
76676,-55.5555555555556,4,2,2,80,0,0
76840,-55.5555555555556,4,2,4,70,0,0
77170,-71.4285714285714,4,2,3,75,0,1
77334,-71.4285714285714,4,2,3,75,0,1
77500,-71.4285714285714,4,2,2,75,0,1
79972,-71.4285714285714,4,2,2,75,0,1
80137,-71.4285714285714,4,2,2,75,0,1
80960,-71.4285714285714,4,2,2,75,0,1
81126,-71.4285714285714,4,2,2,75,0,1
82445,-71.4285714285714,4,2,3,75,0,1
82692,-71.4285714285714,4,2,3,75,0,1
82774,-71.4285714285714,4,2,3,75,0,1
84917,-71.4285714285714,4,2,2,65,0,1
85000,-71.4285714285714,4,2,2,60,0,1
85082,-71.4285714285714,4,2,3,75,0,1
85577,-71.4285714285714,4,2,4,75,0,1
86071,-71.4285714285714,4,2,3,75,0,1
86565,-71.4285714285714,4,2,4,75,0,1
87060,-71.4285714285714,4,2,2,70,0,1
87225,-71.4285714285714,4,2,2,65,0,1
87390,-71.4285714285714,4,2,2,60,0,1
87555,-71.4285714285714,4,2,2,55,0,1
87719,-71.4285714285714,4,2,3,80,0,1
88048,-71.4285714285714,4,2,2,80,0,1
89285,-71.4285714285714,4,2,2,5,0,1
89368,-71.4285714285714,4,2,2,80,0,1
90027,-71.4285714285714,4,2,3,80,0,1
90357,-71.4285714285714,4,2,4,80,0,1
90686,-71.4285714285714,4,2,2,80,0,1
91676,-71.4285714285714,4,2,3,80,0,1
91923,-71.4285714285714,4,2,3,70,0,1
92005,-71.4285714285714,4,2,2,80,0,1
92665,-90.9090909090909,4,2,2,80,0,1
92912,-90.9090909090909,4,2,2,5,0,1
92994,-71.4285714285714,4,2,3,75,0,1
93489,-71.4285714285714,4,2,4,75,0,1
93983,-71.4285714285714,4,2,3,75,0,1
94478,-71.4285714285714,4,2,4,75,0,1
94972,-71.4285714285714,4,2,3,75,0,1
95136,-71.4285714285714,4,2,2,70,0,1
95302,-71.4285714285714,4,2,2,65,0,1
95466,-71.4285714285714,4,2,2,60,0,1
95632,-71.4285714285714,4,2,3,60,0,1
95961,-71.4285714285714,4,2,3,65,0,1
96291,-71.4285714285714,4,2,3,70,0,1
96621,-71.4285714285714,4,2,3,75,0,1
96950,-125,4,2,3,80,0,0
97444,-125,4,2,3,45,0,0
97939,-100,4,2,3,75,0,0
98022,-100,4,2,2,70,0,0
98104,-100,4,2,2,65,0,0
98186,-100,4,2,2,60,0,0
98269,-83.3333333333333,4,2,3,75,0,0
98764,-83.3333333333333,4,2,4,75,0,0
99258,-83.3333333333333,4,2,3,75,0,0
99753,-83.3333333333333,4,2,4,75,0,0
100000,-83.3333333333333,4,2,4,5,0,0
100082,-83.3333333333333,4,2,4,75,0,0
100247,-83.3333333333333,4,2,2,75,0,0
100907,-83.3333333333333,4,2,3,75,0,0
101401,-83.3333333333333,4,2,4,75,0,0
101896,-83.3333333333333,4,2,3,75,0,0
102390,-83.3333333333333,4,2,4,75,0,0
102884,-83.3333333333333,4,2,2,70,0,0
103214,-83.3333333333333,4,2,2,65,0,0
103544,-83.3333333333333,4,2,3,75,0,0
104039,-83.3333333333333,4,2,4,75,0,0
104533,-83.3333333333333,4,2,3,75,0,0
105027,-83.3333333333333,4,2,4,75,0,0
105522,-83.3333333333333,4,2,2,75,0,0
106182,-83.3333333333333,4,2,3,75,0,0
106676,-83.3333333333333,4,2,4,75,0,0
107170,-83.3333333333333,4,2,3,75,0,0
107500,-83.3333333333333,4,2,2,55,0,0
111456,-111.111111111111,4,2,2,55,0,0
112444,-111.111111111111,4,2,2,55,0,0
112610,-111.111111111111,4,2,2,55,0,0
117719,-111.111111111111,4,2,2,55,0,0
117884,-111.111111111111,4,2,2,55,0,0
118873,-111.111111111111,4,2,2,75,0,0
119368,-90.9090909090909,4,2,3,65,0,0
119615,-90.9090909090909,4,2,3,5,0,0
119697,-90.9090909090909,4,2,3,65,0,0
121346,-90.9090909090909,4,2,2,70,0,0
122005,-90.9090909090909,4,2,3,65,0,0
124148,-90.9090909090909,4,2,3,50,0,0
124313,-90.9090909090909,4,2,3,60,0,0
124478,-90.9090909090909,4,2,3,70,0,0
124643,-90.9090909090909,4,2,3,65,0,0
126125,-90.9090909090909,4,2,3,65,0,0
126291,-90.9090909090909,4,2,3,65,0,0
129258,-90.9090909090909,4,2,2,60,0,0
129423,-90.9090909090909,4,2,2,55,0,0
129588,-90.9090909090909,4,2,2,50,0,0
129752,-90.9090909090909,4,2,2,50,0,0
129917,-83.3333333333333,4,2,3,65,0,0
130247,-100,4,2,3,65,0,0
130906,-100,4,2,3,65,0,0
131071,-100,4,2,3,65,0,0
134367,-100,4,2,3,65,0,0
134533,-100,4,2,3,65,0,0
134697,-100,4,2,2,60,0,0
134862,-100,4,2,2,55,0,0
135192,-100,4,2,3,60,0,0
137500,-100,4,2,2,50,0,0
137829,-90.9090909090909,4,2,3,35,0,0
138077,-90.9090909090909,4,2,3,5,0,0
138159,-90.9090909090909,4,2,3,40,0,0
138489,-90.9090909090909,4,2,3,45,0,0
138818,-90.9090909090909,4,2,3,50,0,0
139148,-90.9090909090909,4,2,3,55,0,0
139478,-90.9090909090909,4,2,3,60,0,0
139807,-90.9090909090909,4,2,3,65,0,0
140137,-90.9090909090909,4,2,3,70,0,0
140219,-90.9090909090909,4,2,2,70,0,0
140384,-90.9090909090909,4,2,2,70,0,0
140467,-90.9090909090909,4,2,3,60,0,0
140796,-90.9090909090909,4,2,2,60,0,0
141126,-90.9090909090909,4,2,2,70,0,0
141456,-90.9090909090909,4,2,2,80,0,0
141785,-90.9090909090909,4,2,3,65,0,0
142445,-90.9090909090909,4,2,3,70,0,0
142774,-90.9090909090909,4,2,2,65,0,0
142939,-90.9090909090909,4,2,2,60,0,0
143104,-66.6666666666667,4,2,3,80,0,1
143599,-66.6666666666667,4,2,4,80,0,1
144093,-66.6666666666667,4,2,2,80,0,1
145082,-66.6666666666667,4,2,3,80,0,1
145412,-66.6666666666667,4,2,4,80,0,1
145741,-66.6666666666667,4,2,3,80,0,1
146236,-66.6666666666667,4,2,4,80,0,1
146730,-66.6666666666667,4,2,2,80,0,1
146978,-66.6666666666667,4,2,2,80,0,1
147060,-66.6666666666667,4,2,2,80,0,1
147390,-66.6666666666667,4,2,2,75,0,1
147554,-66.6666666666667,4,2,2,70,0,1
147719,-66.6666666666667,4,2,2,85,0,1
147884,-166.666666666667,4,2,2,85,0,0
148379,-71.4285714285714,4,2,3,80,0,1
148708,-71.4285714285714,4,2,2,80,0,1
149368,-71.4285714285714,4,2,4,85,0,1
149697,-71.4285714285714,4,2,2,80,0,1
151016,-71.4285714285714,4,2,3,80,0,1
151511,-71.4285714285714,4,2,4,80,0,1
152005,-71.4285714285714,4,2,2,75,0,1
152170,-71.4285714285714,4,2,2,70,0,1
152252,-71.4285714285714,4,2,2,70,0,1
152335,-71.4285714285714,4,2,2,80,0,1
153159,-55.5555555555556,4,2,2,80,0,0
153324,-55.5555555555556,4,2,4,70,0,0
153654,-71.4285714285714,4,2,3,75,0,1
153983,-71.4285714285714,4,2,2,75,0,1
158928,-71.4285714285714,4,2,3,75,0,1
161401,-71.4285714285714,4,2,2,65,0,1
161483,-71.4285714285714,4,2,2,60,0,1
161565,-71.4285714285714,4,2,3,75,0,1
162060,-71.4285714285714,4,2,4,75,0,1
162555,-71.4285714285714,4,2,3,75,0,1
163048,-71.4285714285714,4,2,4,75,0,1
163873,-71.4285714285714,4,2,2,60,0,1
164038,-71.4285714285714,4,2,2,55,0,1
164203,-71.4285714285714,4,2,3,80,0,1
164532,-71.4285714285714,4,2,2,80,0,1
165769,-71.4285714285714,4,2,2,5,0,1
165851,-71.4285714285714,4,2,2,80,0,1
166840,-71.4285714285714,4,2,4,80,0,1
167169,-71.4285714285714,4,2,2,80,0,1
168159,-71.4285714285714,4,2,3,80,0,1
168406,-71.4285714285714,4,2,3,75,0,1
168488,-71.4285714285714,4,2,2,80,0,1
169148,-90.9090909090909,4,2,2,70,0,1
169395,-90.9090909090909,4,2,2,60,0,1
169478,-66.6666666666667,4,2,3,75,0,1
169972,-66.6666666666667,4,2,4,75,0,1
170467,-66.6666666666667,4,2,3,75,0,1
170961,-66.6666666666667,4,2,4,75,0,1
171456,-71.4285714285714,4,2,3,75,0,1
171619,-71.4285714285714,4,2,3,70,0,1
171785,-71.4285714285714,4,2,2,65,0,1
171949,-71.4285714285714,4,2,2,60,0,1
172115,-71.4285714285714,4,2,3,60,0,1
172444,-71.4285714285714,4,2,3,65,0,1
172774,-71.4285714285714,4,2,3,70,0,1
173104,-71.4285714285714,4,2,3,75,0,1
173434,-125,4,2,3,80,0,1
173928,-125,4,2,3,45,0,1
174093,-100,4,2,3,70,0,1
174423,-100,4,2,2,65,0,1
174670,-100,4,2,2,50,0,1
174752,-83.3333333333333,4,2,3,75,0,0
175247,-83.3333333333333,4,2,4,75,0,0
175741,-83.3333333333333,4,2,3,75,0,0
176236,-83.3333333333333,4,2,4,75,0,0
176730,-83.3333333333333,4,2,2,75,0,0
177390,-83.3333333333333,4,2,3,75,0,0
177884,-83.3333333333333,4,2,4,75,0,0
178379,-83.3333333333333,4,2,3,75,0,0
178873,-83.3333333333333,4,2,4,75,0,0
179368,-83.3333333333333,4,2,2,75,0,0
180027,-83.3333333333333,4,2,3,75,0,0
180109,-83.3333333333333,4,2,3,60,0,0
180357,-83.3333333333333,4,2,3,75,0,0
180439,-83.3333333333333,4,2,3,60,0,0
180522,-83.3333333333333,4,2,3,75,0,0
180604,-83.3333333333333,4,2,3,60,0,0
180851,-83.3333333333333,4,2,3,75,0,0
180934,-83.3333333333333,4,2,3,60,0,0
181016,-83.3333333333333,4,2,4,75,0,0
181098,-83.3333333333333,4,2,4,60,0,0
181511,-83.3333333333333,4,2,4,75,0,0
181593,-83.3333333333333,4,2,3,60,0,0
182005,-83.3333333333333,4,2,4,70,0,0
182335,-83.3333333333333,4,2,2,65,0,0
182499,-83.3333333333333,4,2,2,60,0,0
182665,-76.9230769230769,4,2,3,75,0,0
182829,-76.9230769230769,4,2,2,70,0,0
182994,-76.9230769230769,4,2,2,60,0,0
183159,-76.9230769230769,4,2,4,75,0,0
183323,-76.9230769230769,4,2,2,70,0,0
183489,-76.9230769230769,4,2,2,60,0,0
183654,-76.9230769230769,4,2,3,75,0,0
183818,-76.9230769230769,4,2,2,70,0,0
183983,-76.9230769230769,4,2,2,60,0,0
184148,-76.9230769230769,4,2,4,75,0,0
184643,-76.9230769230769,4,2,2,70,0,0
184807,-76.9230769230769,4,2,2,65,0,0
184972,-76.9230769230769,4,2,2,80,0,0
185302,-76.9230769230769,4,2,3,75,0,0
190000,-76.9230769230769,4,2,2,70,0,0
190165,-76.9230769230769,4,2,2,65,0,0
190247,-76.9230769230769,4,2,2,75,0,0
190577,-76.9230769230769,4,2,3,75,0,0
190906,-76.9230769230769,4,2,3,80,0,0
191236,-76.9230769230769,4,2,2,80,0,0
192637,-76.9230769230769,4,2,2,80,0,0
192719,-76.9230769230769,4,2,2,80,0,0
192802,-76.9230769230769,4,2,2,80,0,0
192884,-76.9230769230769,4,2,2,80,0,0
192967,-76.9230769230769,4,2,2,75,0,0
193049,-76.9230769230769,4,2,2,80,0,0
193214,-76.9230769230769,4,2,3,80,0,0
193461,-76.9230769230769,4,2,3,80,0,0
193544,-76.9230769230769,4,2,2,80,0,0
194533,-76.9230769230769,4,2,3,80,0,0
194862,-76.9230769230769,4,2,4,80,0,0
195357,-76.9230769230769,4,2,2,65,0,0
195522,-76.9230769230769,4,2,2,80,0,0
195851,-76.9230769230769,4,2,2,75,0,0
195933,-76.9230769230769,4,2,2,65,0,0
196345,-76.9230769230769,4,2,2,75,0,0
196427,-76.9230769230769,4,2,2,65,0,0
196840,-76.9230769230769,4,2,2,75,0,0
196922,-76.9230769230769,4,2,2,65,0,0
197499,-76.9230769230769,4,2,2,70,0,0
197829,-76.9230769230769,4,2,2,65,0,0
198158,-76.9230769230769,4,2,2,60,0,0
198323,-76.9230769230769,4,2,2,55,0,0
198489,-76.9230769230769,4,2,3,80,0,0
198654,-76.9230769230769,4,2,3,75,0,0
201044,-76.9230769230769,4,2,3,75,0,0
201126,-125,4,2,3,60,0,0
201621,-125,4,2,3,50,0,0
202114,-125,4,2,3,50,0,0
202280,-125,4,2,3,50,0,0
202610,-125,4,2,3,50,0,0
202774,-125,4,2,3,50,0,0
202938,-125,4,2,3,50,0,0
203104,-125,4,2,3,50,0,0
203433,-125,4,2,3,50,0,0
203599,-125,4,2,3,75,0,0
203763,-125,4,2,3,50,0,0
205576,-125,4,2,3,75,0,0
205741,-181.818181818182,4,2,2,50,0,0
205988,-181.818181818182,4,2,2,40,0,0
206235,-181.818181818182,4,2,2,30,0,0
206401,-125,4,2,3,50,0,0
206730,-125,4,2,3,50,0,0
206895,-125,4,2,3,50,0,0
207389,-125,4,2,3,50,0,0
207555,-125,4,2,3,50,0,0
208213,-125,4,2,3,50,0,0
208379,-125,4,2,3,50,0,0
208708,-125,4,2,3,50,0,0
208873,-125,4,2,3,50,0,0
210026,-125,4,2,3,50,0,0
210192,-125,4,2,3,50,0,0
210851,-125,4,2,3,70,0,0
211016,-166.666666666667,4,2,3,70,0,0
211676,-100,4,2,3,50,0,0
212499,-100,4,2,3,50,0,0
212582,-100,4,2,3,50,0,0
212994,-100,4,2,3,55,0,0
214313,-100,4,2,2,60,0,0
215136,-100,4,2,2,60,0,0
215302,-100,4,2,2,60,0,0
215632,-100,4,2,2,65,0,0
216125,-100,4,2,2,65,0,0
216291,-100,4,2,2,65,0,0
216868,-100,4,2,2,65,0,0
216950,-111.111111111111,4,2,3,65,0,0
217279,-111.111111111111,4,2,2,65,0,0
219588,-90.9090909090909,4,2,3,70,0,0
220082,-90.9090909090909,4,2,4,70,0,0
220165,-90.9090909090909,4,2,4,75,0,0
220247,-90.9090909090909,4,2,4,70,0,0
220577,-90.9090909090909,4,2,3,70,0,0
221071,-90.9090909090909,4,2,4,70,0,0
221154,-90.9090909090909,4,2,4,75,0,0
221236,-90.9090909090909,4,2,4,70,0,0
221566,-90.9090909090909,4,2,2,70,0,0
221648,-90.9090909090909,4,2,2,70,0,0
221730,-90.9090909090909,4,2,2,70,0,0
221895,-90.9090909090909,4,2,2,65,0,0
222059,-90.9090909090909,4,2,2,60,0,0
222225,-83.3333333333333,4,2,3,70,0,0
222555,-83.3333333333333,4,2,2,75,0,0
224862,-83.3333333333333,4,2,3,80,0,0
225191,-83.3333333333333,4,2,2,60,0,0
225522,-83.3333333333333,4,2,2,65,0,0
225851,-83.3333333333333,4,2,2,70,0,0
226181,-83.3333333333333,4,2,2,75,0,0
226511,-83.3333333333333,4,2,2,80,0,0
226840,-83.3333333333333,4,2,2,85,0,0
227335,-83.3333333333333,4,2,2,75,0,0
232445,-83.3333333333333,4,2,2,70,0,0
232609,-83.3333333333333,4,2,2,65,0,0
232774,-66.6666666666667,4,2,3,85,0,1
233269,-66.6666666666667,4,2,4,85,0,1
233763,-66.6666666666667,4,2,3,85,0,1
234258,-66.6666666666667,4,2,4,85,0,1
234752,-66.6666666666667,4,2,3,85,0,1
235082,-66.6666666666667,4,2,2,70,0,1
235247,-66.6666666666667,4,2,2,65,0,1
235411,-66.6666666666667,4,2,3,85,0,1
235576,-66.6666666666667,4,2,3,70,0,1
235741,-66.6666666666667,4,2,2,60,0,1
235906,-66.6666666666667,4,2,4,85,0,1
236401,-66.6666666666667,4,2,3,85,0,1
236566,-66.6666666666667,4,2,2,70,0,1
236895,-66.6666666666667,4,2,2,65,0,1
237224,-66.6666666666667,4,2,2,60,0,1
237390,-66.6666666666667,4,2,3,85,0,1
237719,-66.6666666666667,4,2,4,85,0,1
238049,-66.6666666666667,4,2,3,85,0,1
238543,-66.6666666666667,4,2,4,85,0,1
238707,-66.6666666666667,4,2,2,70,0,1
238790,-66.6666666666667,4,2,2,65,0,1
238956,-66.6666666666667,4,2,2,85,0,1
239121,-66.6666666666667,4,2,2,70,0,1
239203,-66.6666666666667,4,2,2,65,0,1
239285,-66.6666666666667,4,2,2,65,0,1
239368,-66.6666666666667,4,2,2,80,0,1
239533,-66.6666666666667,4,2,2,80,0,1
239615,-66.6666666666667,4,2,2,80,0,1
239780,-66.6666666666667,4,2,2,5,0,1
239862,-66.6666666666667,4,2,2,80,0,1
240192,-55.5555555555556,4,2,2,80,0,0
240357,-55.5555555555556,4,2,4,70,0,0
240687,-71.4285714285714,4,2,3,75,0,1
241017,-71.4285714285714,4,2,2,75,0,1
245467,-71.4285714285714,4,2,2,70,0,1
245632,-71.4285714285714,4,2,2,65,0,1
245797,-71.4285714285714,4,2,2,60,0,1
245962,-71.4285714285714,4,2,3,75,0,1
248433,-71.4285714285714,4,2,2,65,0,1
248515,-71.4285714285714,4,2,2,60,0,1
248598,-71.4285714285714,4,2,3,75,0,1
249094,-71.4285714285714,4,2,4,75,0,1
249588,-71.4285714285714,4,2,3,75,0,1
250082,-71.4285714285714,4,2,4,75,0,1
250577,-71.4285714285714,4,2,2,70,0,1
250741,-71.4285714285714,4,2,2,65,0,1
250906,-71.4285714285714,4,2,2,60,0,1
251072,-71.4285714285714,4,2,2,55,0,1
251236,-111.111111111111,4,2,3,80,0,0
251565,-111.111111111111,4,2,3,70,0,0
253873,-111.111111111111,4,2,4,70,0,0
255521,-111.111111111111,4,2,3,70,0,0
255687,-111.111111111111,4,2,2,65,0,0
255851,-111.111111111111,4,2,2,60,0,0
256016,-111.111111111111,4,2,2,55,0,0
256181,-111.111111111111,4,2,2,50,0,0
256511,-111.111111111111,4,2,3,70,0,0
257334,-111.111111111111,4,2,3,80,0,0
257500,-111.111111111111,4,2,3,70,0,0
259066,-111.111111111111,4,2,3,5,0,0
259148,-76.9230769230769,4,2,3,80,0,1
259643,-76.9230769230769,4,2,4,80,0,1
260137,-76.9230769230769,4,2,2,70,0,1
260301,-76.9230769230769,4,2,2,60,0,1
260467,-71.4285714285714,4,2,3,80,0,0
261291,-71.4285714285714,4,2,2,65,0,0
261373,-71.4285714285714,4,2,2,60,0,0
261456,-250.000000000001,4,2,2,65,0,0
261703,-250.000000000001,4,2,2,80,0,0
261785,-83.3333333333333,4,2,3,75,0,0
262280,-83.3333333333333,4,2,4,75,0,0
262774,-83.3333333333333,4,2,3,75,0,0
263269,-83.3333333333333,4,2,4,75,0,0
263516,-83.3333333333333,4,2,4,5,0,0
263599,-83.3333333333333,4,2,4,75,0,0
263763,-83.3333333333333,4,2,2,75,0,0
264423,-83.3333333333333,4,2,3,75,0,0
264917,-83.3333333333333,4,2,4,75,0,0
265412,-83.3333333333333,4,2,3,75,0,0
265906,-83.3333333333333,4,2,4,75,0,0
266401,-83.3333333333333,4,2,2,75,0,0
267060,-83.3333333333333,4,2,3,80,0,0
267555,-83.3333333333333,4,2,4,80,0,0
268049,-83.3333333333333,4,2,3,80,0,0
268544,-83.3333333333333,4,2,4,80,0,0
269038,-83.3333333333333,4,2,2,80,0,0
269698,-83.3333333333333,4,2,3,80,0,0
270192,-83.3333333333333,4,2,4,80,0,0
270687,-83.3333333333333,4,2,3,80,0,0
270851,-83.3333333333333,4,2,2,70,0,0
270934,-83.3333333333333,4,2,2,65,0,0
271016,-76.9230769230769,4,2,3,80,0,0
272665,-76.9230769230769,4,2,3,75,0,0
273654,-55.5555555555556,4,2,3,70,0,0
274972,-55.5555555555556,4,2,3,65,0,0
275632,-55.5555555555556,4,2,3,60,0,0
276291,-55.5555555555556,4,2,3,55,0,0
276621,-55.5555555555556,4,2,3,50,0,0
276950,-55.5555555555556,4,2,3,45,0,0
277280,-55.5555555555556,4,2,3,40,0,0
277610,-55.5555555555556,4,2,3,35,0,0
277939,-55.5555555555556,4,2,3,30,0,0
278269,-55.5555555555556,4,2,3,25,0,0
278599,-55.5555555555556,4,2,3,20,0,0
278928,-55.5555555555556,4,2,3,15,0,0

[Colours]
Combo1 : 92,248,217
Combo2 : 143,226,250
Combo3 : 145,186,249
Combo4 : 200,133,254

[HitObjects]
256,192,17829,12,0,20796,0:0:0:0:
446,326,20961,6,0,P|465:328|485:333,2,40,2|2|0,2:0|2:0|3:2,2:0:0:0:
400,220,21456,6,0,P|328:227|258:242,1,143.999995605469,4|0,1:2|0:0,0:0:0:0:
201,294,21785,2,0,P|165:299|131:229,1,95.9999970703126,6|0,1:2|3:2,0:0:0:0:
97,170,22115,1,2,3:2:0:0:
221,12,22280,6,0,P|205:106|194:202,1,191.999994140625,6|0,1:2|3:2,0:0:0:0:
394,351,22774,2,0,P|406:308|370:271,1,95.9999970703126,6|0,1:2|3:2,0:0:0:0:
281,257,23104,1,2,3:2:0:0:
373,57,23269,6,0,P|417:59|435:104,1,95.9999970703126,6|0,1:2|3:2,0:0:0:0:
396,180,23599,1,2,3:2:0:0:
193,272,23763,6,0,P|147:261|99:254,1,95.9999970703126,6|0,1:2|3:2,0:0:0:0:
418,330,24093,2,0,P|370:336|323:347,1,95.9999970703126,6|0,1:2|3:2,0:0:0:0:
321,356,24340,1,0,3:2:0:0:
321,365,24423,5,6,1:2:0:0:
429,312,24588,1,0,3:2:0:0:
327,376,24752,1,0,3:2:0:0:
276,157,24917,6,0,P|248:143|202:211,1,95.9999970703126,6|0,1:2|3:2,0:0:0:0:
135,250,25247,1,2,3:2:0:0:
65,27,25412,6,0,P|214:48|272:64,1,191.999994140625,6|0,1:2|3:2,0:0:0:0:
354,227,25906,2,0,P|398:240|431:208,1,95.9999970703126,4|0,1:2|3:2,0:0:0:0:
446,131,26236,5,2,3:2:0:0:
358,124,26401,1,8,3:0:0:0:
262,156,26566,1,8,3:0:0:0:
193,242,26730,1,4,3:0:0:0:
173,370,26895,1,4,3:0:0:0:
268,75,27060,6,0,P|283:169|292:265,1,191.999994140625,6|2,1:2|3:2,0:0:0:0:
96,148,27555,2,0,P|141:155|175:123,1,95.9999970703126,6|0,1:2|3:2,0:0:0:0:
183,33,27884,1,2,3:2:0:0:
12,240,28049,6,0,P|107:253|202:272,1,191.999994140625,6|2,1:2|3:2,0:0:0:0:
407,127,28544,2,0,P|392:76|344:70,1,95.9999970703126,6|0,1:2|3:2,0:0:0:0:
269,104,28873,1,2,3:2:0:0:
400,248,29038,6,0,P|446:237|494:230,1,95.9999970703126,6|0,1:2|3:2,0:0:0:0:
175,306,29368,2,0,P|223:312|270:323,1,95.9999970703126,6|0,1:2|3:2,0:0:0:0:
272,332,29615,1,0,3:2:0:0:
272,341,29698,5,6,1:2:0:0:
171,291,29863,1,0,3:2:0:0:
269,356,30027,1,2,3:2:0:0:
335,158,30192,6,0,P|425:139|486:207,1,191.999994140625,6|0,1:2|3:2,0:0:0:0:
236,13,30687,2,0,P|242:60|246:108,1,95.9999970703126,6|0,1:2|3:2,0:0:0:0:
186,179,31016,5,2,3:2:0:0:
289,371,31181,1,8,3:0:0:0:
321,269,31346,1,8,3:0:0:0:
289,371,31511,1,4,3:0:0:0:
297,146,31676,1,2,1:2:0:0:
99,252,31840,1,2,3:0:0:0:
99,252,32335,6,0,P|166:192|240:211,1,143.999995605469,6|2,3:2|3:2,0:0:0:0:
68,151,32829,1,0,0:0:0:0:
68,151,32994,2,0,P|53:87|30:8,1,143.999995605469,2|2,3:2|3:2,0:0:0:0:
148,108,33489,1,0,3:2:0:0:
15,216,33654,6,0,P|67:240|146:181,1,143.999995605469,2|0,3:2|3:2,0:0:0:0:
244,355,34313,2,0,P|199:338|171:333,1,71.9999978027344,2|0,3:2|3:2,0:0:0:0:
304,222,34643,2,0,P|259:239|231:244,1,71.9999978027344,2|0,3:2|3:2,0:0:0:0:
406,365,34972,6,0,P|443:330|421:229,1,143.999995605469,2|0,3:2|3:2,0:0:0:0:
428,234,35467,1,0,0:0:0:0:
299,149,35632,2,0,P|315:187|330:225,1,71.9999978027344,2|0,3:2|0:0,0:0:0:0:
448,113,35961,2,0,B|470:86|470:86|460:43,1,71.9999978027344,2|0,3:2|0:0,0:0:0:0:
256,19,36291,6,0,P|287:56|395:45,1,143.999995605469,2|0,3:2|3:2,0:0:0:0:
206,124,36785,1,2,2:0:0:0:
201,129,36868,1,0,0:0:0:0:
196,134,36950,2,0,P|214:169|228:205,1,71.9999978027344,0|0,3:2|0:0,0:0:0:0:
380,283,37280,1,2,3:2:0:0:
308,233,37445,1,0,3:2:0:0:
207,352,37610,6,0,P|161:315|59:342,1,143.999995605469,6|2,3:2|3:2,0:0:0:0:
21,186,38104,2,0,P|56:201|93:221,1,71.9999978027344,0|0,0:0|3:2,0:0:0:0:
217,125,38434,5,0,3:2:0:0:
229,278,38599,1,2,3:2:0:0:
113,215,38763,1,0,0:0:0:0:
195,206,38928,6,0,P|268:188|338:176,1,143.999995605469,2|2,3:2|3:2,0:0:0:0:
456,66,39588,2,0,P|444:104|431:144,1,71.9999978027344,2|0,3:2|0:0,0:0:0:0:
302,68,39917,2,0,P|290:30|277:-10,1,71.9999978027344,2|0,3:2|0:0,0:0:0:0:
336,177,40247,6,0,P|391:172|466:233,1,143.999995605469,2|0,3:2|3:2,0:0:0:0:
366,325,40741,1,2,2:0:0:0:
366,325,40906,2,0,P|296:305|240:295,1,107.999996704102,0|0,3:2|0:0,0:0:0:0:
178,348,41236,6,0,B|206:353|188:374|139:380|126:301|164:209|243:185,1,240,2|0,3:2|0:0,0:0:0:0:
134,99,41895,6,0,P|98:70|106:32,1,71.9999978027344,2|0,3:2|0:0,0:0:0:0:
166,14,42225,1,2,1:2:0:0:
192,21,42307,1,0,1:2:0:0:
219,28,42389,1,0,1:2:0:0:
246,35,42472,1,0,1:2:0:0:
273,42,42555,2,0,P|297:34|323:27,1,44.0000013427735,2|0,1:2|1:2,0:0:0:0:
386,136,42719,2,0,P|365:130|336:121,1,44.0000013427735,0|0,1:2|1:2,0:0:0:0:
279,222,42884,6,0,P|351:220|404:278,1,132.00000402832,6|0,3:2|0:0,0:0:0:0:
407,250,43214,6,0,L|394:353,1,88.000002685547,2|0,1:2|1:2,0:0:0:0:
403,346,43461,1,0,1:2:0:0:
403,346,43544,1,2,3:2:0:0:
319,384,43708,1,0,3:2:0:0:
481,181,44038,5,2,1:2:0:0:
319,384,44368,5,0,3:2:0:0:
132,274,44533,1,0,1:2:0:0:
226,362,44697,1,0,1:2:0:0:
226,362,44780,1,0,1:2:0:0:
226,362,44862,2,0,L|238:242,1,88.000002685547,2|0,3:2|3:2,0:0:0:0:
142,140,45192,2,0,P|98:135|58:151,1,88.000002685547,2|0,1:2|1:2,0:0:0:0:
38,222,45439,1,0,1:2:0:0:
39,229,45522,6,0,P|135:247|197:179,1,176.000005371094,6|0,3:2|1:2,0:0:0:0:
266,47,46016,1,2,1:2:0:0:
282,37,46099,1,0,1:2:0:0:
301,41,46181,1,2,3:2:0:0:
396,94,46346,1,2,3:2:0:0:
83,15,46676,5,2,1:2:0:0:
396,94,47005,5,2,3:2:0:0:
194,169,47170,2,0,P|235:157|279:152,1,88.000002685547,2|2,1:2|3:2,0:0:0:0:
389,313,47500,2,0,P|345:309|302:299,1,88.000002685547,2|2,3:2|3:2,0:0:0:0:
302,299,47829,1,2,1:2:0:0:
152,381,47994,5,2,1:2:0:0:
146,384,48077,1,0,1:2:0:0:
140,382,48159,2,0,P|133:335|131:284,1,88.000002685547,4|2,3:2|3:2,0:0:0:0:
189,70,48489,1,0,1:2:0:0:
101,117,48654,2,0,P|74:110|48:106,1,44.0000013427735,2|0,1:2|1:2,0:0:0:0:
146,202,48818,1,0,3:2:0:0:
189,70,48983,6,0,P|247:71|320:144,1,132.00000402832,2|0,3:2|0:0,0:0:0:0:
306,137,49313,6,0,B|336:165|382:154|404:123|395:83|395:83|372:69|353:37,1,176.000005371094,2|0,1:2|3:2,0:0:0:0:
447,2,49807,1,0,1:2:0:0:
447,2,50137,1,2,3:2:0:0:
497,99,50302,1,0,3:2:0:0:
296,149,50467,1,2,1:2:0:0:
421,254,50632,5,2,1:2:0:0:
421,254,50714,1,0,1:2:0:0:
421,254,50796,2,0,P|468:246|519:242,1,88.000002685547,4|2,3:2|3:2,0:0:0:0:
224,370,51126,1,2,1:2:0:0:
221,377,51456,5,2,3:2:0:0:
315,363,51621,1,2,3:2:0:0:
37,227,51950,6,0,B|68:249|105:243|127:208|127:208|119:183|105:178,1,143.999995605469,2|0,1:2|0:0,0:0:0:0:
99,182,52280,1,2,3:2:0:0:
262,13,52445,5,6,1:2:0:0:
257,114,52610,1,8,3:0:0:0:
253,119,52692,1,8,3:0:0:0:
250,124,52774,2,0,P|206:125|195:66,1,95.9999970703126,4|8,3:0|3:0,0:0:0:0:
367,188,53104,5,8,3:0:0:0:
370,195,53214,2,0,P|331:201|292:213,1,63.9999980468751,4|8,3:0|3:0,0:0:0:0:
255,284,53434,6,0,P|306:331|418:277,1,191.999994140625,6|0,3:2|1:2,0:0:0:0:
198,347,53928,1,8,3:0:0:0:
192,354,54011,1,4,3:0:0:0:
186,360,54093,2,0,P|144:345|98:333,1,88.000002685547,2|0,3:2|3:2,0:0:0:0:
167,199,54423,1,0,1:2:0:0:
43,153,54588,1,8,3:0:0:0:
36,159,54671,1,4,3:0:0:0:
30,165,54753,6,0,P|45:207|57:253,1,88.000002685547,2|0,3:2|3:2,0:0:0:0:
200,98,55082,1,0,1:2:0:0:
119,34,55247,1,8,3:0:0:0:
116,42,55329,1,4,3:0:0:0:
112,49,55412,1,0,3:2:0:0:
167,199,55577,1,2,3:2:0:0:
290,116,55741,2,0,P|309:76|306:31,1,88.000002685547,0|8,1:2|3:0,0:0:0:0:
241,254,56071,6,0,P|309:234|420:216,1,176.000005371094,4|0,3:2|1:2,0:0:0:0:
496,369,56566,1,8,3:0:0:0:
486,367,56649,1,4,3:0:0:0:
479,366,56731,2,0,P|464:325|452:278,1,88.000002685547,0|0,3:2|3:2,0:0:0:0:
504,127,57060,1,0,1:2:0:0:
413,217,57225,1,0,0:0:0:0:
306,68,57390,6,0,P|360:71|378:112,1,88.000002685547,0|0,3:2|3:2,0:0:0:0:
284,237,57719,1,4,1:2:0:0:
185,116,57884,5,0,1:2:0:0:
171,104,57967,1,0,1:2:0:0:
155,95,58049,2,0,P|143:129|131:157,1,58.6666684570313,0|0,1:2|1:2,0:0:0:0:
73,229,58269,5,0,1:2:0:0:
64,238,58379,2,0,P|76:272|88:300,1,58.6666684570313,8|8,3:0|3:0,0:0:0:0:
147,339,58599,5,4,3:0:0:0:
154,343,58708,1,6,3:2:0:0:
418,70,61016,5,8,3:0:0:0:
489,206,61181,1,0,0:0:0:0:
482,213,61263,1,0,0:0:0:0:
474,218,61346,6,0,P|432:193|383:173,1,88.000002685547,6|2,1:2|1:2,0:0:0:0:
256,307,61676,2,0,P|301:291|347:262,1,88.000002685547,2|2,1:2|1:2,0:0:0:0:
186,205,62005,1,2,1:2:0:0:
186,205,62170,1,2,1:2:0:0:
283,127,62335,2,0,P|291:85|306:37,1,88.000002685547,2|2,1:2|1:2,0:0:0:0:
152,124,62665,5,2,1:2:0:0:
268,206,62829,1,2,1:2:0:0:
92,315,62994,1,2,1:2:0:0:
186,205,63159,1,2,1:2:0:0:
18,252,63324,1,2,1:2:0:0:
178,373,63489,1,2,1:2:0:0:
4,241,63654,6,0,P|27:166|44:88,1,143.999995605469,2|4,1:2|3:0,0:0:0:0:
95,45,63983,1,4,3:2:0:0:
225,13,64313,1,8,3:0:0:0:
305,122,64643,1,8,3:0:0:0:
217,284,64972,6,0,P|169:261|170:188,1,120,8|0,3:0|0:0,0:0:0:0:
177,188,65302,1,4,3:2:0:0:
395,34,66621,5,6,1:2:0:0:
374,63,66703,1,0,3:2:0:0:
344,83,66785,1,0,3:2:0:0:
308,92,66868,1,0,3:2:0:0:
272,86,66950,1,2,3:2:0:0:
239,70,67033,1,0,3:2:0:0:
212,43,67115,2,0,L|152:36,3,60.0000022888184,6|0|0|0,1:2|3:2|3:2|3:2,0:0:0:0:
120,121,67445,2,0,L|60:128,2,60.0000022888184,0|0|0,3:2|3:2|1:2,3:2:0:0:
184,195,67774,5,2,3:2:0:0:
204,224,67857,1,0,3:2:0:0:
207,259,67939,1,0,3:2:0:0:
192,292,68022,1,0,3:2:0:0:
158,312,68104,1,4,1:2:0:0:
121,309,68187,1,0,3:2:0:0:
90,289,68269,2,0,P|74:263|71:233,2,60.0000022888184,2|0|0,3:2|3:2|3:2,0:0:0:0:
244,363,68599,2,0,P|273:359|299:343,3,60.0000022888184,6|0|0|0,1:2|3:2|3:2|3:2,0:0:0:0:
319,260,68928,5,6,1:2:0:0:
343,233,69011,1,0,3:2:0:0:
378,227,69093,1,0,3:2:0:0:
409,245,69176,1,0,3:2:0:0:
441,260,69258,1,4,1:2:0:0:
475,251,69340,1,0,3:2:0:0:
497,222,69423,2,0,L|491:129,2,60.0000022888184,0|0|0,3:2|3:2|3:2,0:0:0:0:
391,325,69752,2,0,L|387:384,2,60.0000022888184,4|0|0,1:2|3:2|3:2,0:0:0:0:
319,253,70082,5,0,3:2:0:0:
319,253,70165,1,0,3:2:0:0:
319,253,70247,2,0,L|261:264,3,60.0000022888184,6|0|0|0,1:2|3:2|3:2|3:2,0:0:0:0:
368,164,70577,2,0,L|356:99,3,60.0000022888184,2|0|4|0,3:2|3:2|1:2|3:2,0:0:0:0:
294,39,70906,5,2,3:2:0:0:
267,26,70989,1,0,3:2:0:0:
238,28,71071,1,0,3:2:0:0:
215,46,71154,1,0,3:2:0:0:
204,72,71236,2,0,P|207:102|223:128,2,60.0000022888184,4|0|0,1:2|3:2|3:2,0:0:0:0:
165,206,71566,1,6,1:2:0:0:
138,219,71649,1,0,3:2:0:0:
109,217,71731,1,2,3:2:0:0:
86,199,71814,1,0,3:2:0:0:
75,173,71895,6,0,P|78:143|94:117,3,60.0000022888184,6|0|0|0,1:2|3:2|3:2|3:2,0:0:0:0:
22,270,72225,1,2,3:2:0:0:
22,270,72307,1,0,3:2:0:0:
22,270,72390,2,0,L|29:340,2,60.0000022888184,6|0|0,1:2|3:2|3:2,3:2:0:0:
110,382,72719,1,2,3:2:0:0:
188,313,72884,5,6,1:2:0:0:
222,332,72966,1,0,3:2:0:0:
261,341,73048,1,0,3:2:0:0:
300,340,73131,1,0,3:2:0:0:
339,326,73213,1,0,3:2:0:0:
370,304,73296,1,0,3:2:0:0:
396,271,73379,2,0,L|384:190,3,60.0000022888184,4|0|2|0,1:2|3:2|3:2|3:2,0:0:0:0:
335,133,73708,1,0,3:2:0:0:
335,133,73791,1,0,3:2:0:0:
335,133,73873,2,0,L|340:72,2,60.0000022888184,6|0|0,1:2|3:2|3:2,0:0:0:0:
231,183,74203,5,6,1:2:0:0:
183,177,74285,1,0,3:2:0:0:
135,171,74367,1,0,3:2:0:0:
86,166,74450,1,0,3:2:0:0:
38,160,74533,2,0,L|45:229,2,60.0000022888184,4|0|0,1:2|3:2|3:2,0:0:0:0:
128,266,74862,1,0,3:2:0:0:
128,266,74945,1,0,3:2:0:0:
128,266,75027,2,0,L|120:331,2,60.0000022888184,8|0|0,3:0|3:2|3:2,0:0:0:0:
39,352,75357,5,0,3:2:0:0:
11,349,75439,1,0,3:2:0:0:
1,323,75522,2,0,P|90:331|179:344,1,180.000006866455,6|4,1:2|3:0,0:0:0:0:
191,366,75851,6,0,P|253:354|225:294,1,120.000004577637,2|0,1:2|0:0,0:0:0:0:
235,285,76099,6,0,B|216:231|266:198|266:198|281:206|275:220,1,120.000004577637,2|0,1:2|0:0,0:0:0:0:
281,224,76346,1,6,1:2:0:0:
67,106,76676,5,2,1:2:0:0:
263,27,76840,1,6,1:2:0:0:
306,137,77005,5,0,1:2:0:0:
306,137,77088,1,0,1:2:0:0:
306,137,77170,2,0,P|251:122|189:116,1,111.999996582031,6|0,3:2|0:0,0:0:0:0:
464,251,77500,1,2,1:3:0:0:
392,348,77665,1,2,1:2:0:0:
386,356,77747,1,0,1:2:0:0:
376,361,77829,2,0,P|332:332|338:279,2,111.999996582031,2|0|2,3:0|3:2|1:3,0:0:0:0:
389,193,78324,6,0,P|290:244|180:260,1,223.999993164063,2|0,3:2|3:2,0:0:0:0:
473,81,78818,1,2,1:3:0:0:
345,1,78983,1,0,3:2:0:0:
335,0,79065,1,0,1:2:0:0:
324,4,79147,2,0,P|317:56|362:85,1,111.999996582031,2|0,3:0|3:2,0:0:0:0:
408,325,79478,6,0,P|460:330|489:286,1,111.999996582031,2|0,1:3|3:2,0:0:0:0:
423,183,79807,1,2,3:0:0:0:
417,180,79972,1,0,0:0:0:0:
221,251,80137,1,2,1:3:0:0:
304,83,80302,1,0,3:2:0:0:
304,83,80384,1,0,1:2:0:0:
304,83,80467,2,0,P|312:156|315:203,1,111.999996582031,2|0,3:0|3:2,0:0:0:0:
149,356,80796,2,0,P|96:337|41:329,1,111.999996582031,2|0,1:3|0:0,0:0:0:0:
311,353,81126,6,0,P|361:333|374:281,1,111.999996582031,2|0,3:0|3:2,0:0:0:0:
201,160,81456,1,2,1:3:0:0:
209,279,81621,1,0,3:2:0:0:
223,279,81703,1,0,3:2:0:0:
236,275,81785,1,2,3:0:0:0:
329,159,81950,1,0,1:2:0:0:
343,159,82032,1,0,1:2:0:0:
356,163,82115,1,0,1:2:0:0:
386,138,82197,1,0,1:2:0:0:
404,103,82280,1,0,1:2:0:0:
398,64,82362,1,0,1:2:0:0:
374,32,82445,6,0,P|290:29|206:20,1,167.999994873047,4|0,3:2|0:0,0:0:0:0:
126,0,82774,2,0,L|145:135,1,111.999996582031,2|0,1:3|3:2,0:0:0:0:
137,125,83022,1,0,1:2:0:0:
128,130,83104,2,0,P|76:131|61:57,1,111.999996582031,2|0,3:0|3:2,0:0:0:0:
78,359,83434,1,2,1:3:0:0:
244,218,83599,6,0,P|133:236|25:265,1,223.999993164063,2|0,3:2|3:2,0:0:0:0:
308,348,84093,2,0,P|350:307|327:245,1,111.999996582031,2|0,1:3|3:2,0:0:0:0:
480,66,84423,2,0,P|449:21|395:23,1,111.999996582031,2|0,1:3|1:2,0:0:0:0:
386,32,84670,1,0,1:2:0:0:
383,43,84752,1,0,1:2:0:0:
261,163,84917,5,8,3:0:0:0:
240,181,85000,1,4,3:0:0:0:
212,182,85082,1,4,1:2:0:0:
187,168,85165,1,0,3:2:0:0:
172,144,85247,2,0,P|173:115|195:87,2,55.9999982910157,2|0|2,3:2|3:2|3:2,0:0:0:0:
125,23,85577,5,4,1:2:0:0:
102,3,85660,1,0,3:2:0:0:
72,2,85742,1,0,3:2:0:0:
45,17,85825,1,0,3:2:0:0:
29,43,85907,2,0,P|30:74|53:104,1,55.9999982910157,0|0,3:2|3:2,0:0:0:0:
89,166,86071,1,6,1:2:0:0:
45,245,86236,1,2,3:2:0:0:
45,245,86318,1,0,3:2:0:0:
45,245,86401,6,0,P|53:274|83:297,2,55.9999982910157,0|0|4,3:2|3:2|1:2,0:0:0:0:
159,309,86730,1,0,3:2:0:0:
186,302,86812,1,0,3:2:0:0:
213,295,86894,1,0,3:2:0:0:
240,288,86977,1,0,3:2:0:0:
267,281,87060,2,0,L|276:222,2,55.9999982910157,8|8|4,3:0|3:0|3:0,0:0:0:0:
334,349,87390,5,8,3:0:0:0:
407,212,87555,1,4,3:0:0:0:
423,217,87637,1,4,3:0:0:0:
429,230,87719,6,0,P|334:243|265:139,1,223.999993164063,6|2,3:2|1:3,0:0:0:0:
377,5,88214,1,0,3:2:0:0:
251,76,88379,2,0,P|241:137|260:188,1,111.999996582031,2|0,1:3|3:2,0:0:0:0:
468,321,88708,2,0,P|447:267|394:259,1,111.999996582031,2|0,1:3|3:2,0:0:0:0:
330,306,88956,1,0,3:2:0:0:
325,315,89038,6,0,P|254:349|159:379,1,167.999994873047,2|0,1:3|0:0,0:0:0:0:
145,373,89368,2,0,P|114:325|144:275,1,111.999996582031,2|0,1:3|3:2,0:0:0:0:
303,133,89697,1,2,1:3:0:0:
228,263,89862,1,0,3:2:0:0:
118,138,90027,2,0,P|172:162|234:173,1,111.999996582031,6|0,1:2|3:2,0:0:0:0:
185,74,90274,1,0,3:2:0:0:
175,66,90357,6,0,P|95:56|13:174,1,223.999993164063,6|2,1:2|1:3,0:0:0:0:
141,241,90851,1,0,3:2:0:0:
22,355,91016,5,2,1:3:0:0:
133,250,91181,1,0,3:2:0:0:
9,157,91346,2,0,P|32:212|48:269,1,111.999996582031,2|0,1:3|3:2,0:0:0:0:
100,325,91593,1,0,3:2:0:0:
111,332,91676,6,0,B|150:282|204:287|204:287|219:320|256:332,1,167.999994873047,4|0,1:2|0:0,0:0:0:0:
272,328,92005,5,2,1:3:0:0:
353,234,92170,1,0,3:2:0:0:
195,124,92335,5,2,1:3:0:0:
267,239,92500,1,0,3:2:0:0:
419,147,92665,2,0,P|366:122|372:49,1,132.00000402832,2|0,1:3|0:0,0:0:0:0:
449,19,92994,6,0,P|406:96|359:226,1,223.999993164063,6|2,3:2|1:2,0:0:0:0:
154,313,93489,6,0,B|202:256|282:258|282:258|302:305|347:312,1,223.999993164063,4|0,3:2|1:2,0:0:0:0:
147,154,93983,6,0,B|81:103|119:24|119:24|154:23|184:73,1,223.999993164063,6|2,3:2|1:2,0:0:0:0:
282,257,94478,6,0,P|185:284|119:384,1,223.999993164063,4|0,3:2|1:2,0:0:0:0:
17,264,94972,6,0,P|6:238|-1:206,2,55.9999982910157,4|0|8,3:2|3:2|3:0,0:0:0:0:
52,121,95302,2,0,P|85:80|63:24,1,111.999996582031,8|4,3:0|3:0,0:0:0:0:
150,208,95632,6,0,P|265:180|374:132,1,223.999993164063,6|2,3:2|3:2,0:0:0:0:
467,61,96126,1,2,1:2:0:0:
368,151,96291,1,2,3:2:0:0:
512,249,96456,1,2,1:2:0:0:
507,238,96538,1,2,1:2:0:0:
503,227,96621,1,2,1:2:0:0:
341,318,96785,1,2,1:2:0:0:
412,371,96950,6,0,B|318:393|329:295|225:321,1,192,6|2,3:2|2:0,0:0:0:0:
100,79,97939,5,0,1:2:0:0:
95,83,98022,1,8,3:0:0:0:
89,86,98104,2,0,P|77:55|67:34,1,40,4|8,3:0|3:0,0:0:0:0:
199,136,98269,6,0,P|152:142|129:194,1,95.9999970703126,6|0,1:2|3:2,0:0:0:0:
216,267,98599,1,2,3:2:0:0:
29,328,98764,6,0,B|73:276|142:288|142:288|155:331|202:346,1,191.999994140625,6|0,1:2|3:2,0:0:0:0:
378,242,99258,2,0,P|325:231|283:209,1,95.9999970703126,6|0,1:2|3:2,0:0:0:0:
350,333,99588,1,2,3:2:0:0:
460,195,99753,6,0,P|483:160|432:65,1,143.999995605469,6|0,1:2|0:0,0:0:0:0:
385,30,100083,1,2,3:2:0:0:
240,117,100247,2,0,P|267:167|305:170,1,95.9999970703126,6|0,1:2|3:2,0:0:0:0:
137,63,100577,2,0,P|164:13|202:10,1,95.9999970703126,6|0,1:2|3:2,0:0:0:0:
214,20,100824,1,0,3:2:0:0:
220,26,100907,5,6,1:2:0:0:
323,91,101072,1,0,3:2:0:0:
228,196,101236,1,0,3:2:0:0:
386,337,101401,6,0,P|358:336|322:266,1,95.9999970703126,6|0,1:2|3:2,0:0:0:0:
381,201,101731,1,2,3:2:0:0:
230,355,101896,6,0,P|150:303|49:327,1,191.999994140625,6|0,1:2|3:2,0:0:0:0:
15,154,102390,2,0,P|58:180|103:195,1,95.9999970703126,4|0,1:2|3:2,0:0:0:0:
236,36,102719,5,2,3:2:0:0:
176,104,102884,1,8,3:0:0:0:
228,196,103049,1,8,3:0:0:0:
350,171,103214,1,4,3:0:0:0:
347,42,103379,1,4,3:0:0:0:
277,127,103544,6,0,B|214:172|236:243|236:243|267:251|290:291,1,191.999994140625,6|2,1:2|3:2,0:0:0:0:
137,362,104039,2,0,P|185:355|212:318,1,95.9999970703126,6|0,1:2|3:2,0:0:0:0:
150,235,104368,1,2,3:2:0:0:
309,360,104533,6,0,P|395:348|441:256,1,191.999994140625,6|2,1:2|3:2,0:0:0:0:
302,107,105027,2,0,P|354:136|397:146,1,95.9999970703126,6|0,1:2|3:2,0:0:0:0:
278,186,105357,1,2,3:2:0:0:
423,61,105522,6,0,P|472:89|473:135,1,95.9999970703126,6|0,1:2|3:2,0:0:0:0:
361,257,105851,2,0,P|372:312|414:332,1,95.9999970703126,6|0,1:2|3:2,0:0:0:0:
434,322,106099,1,0,3:2:0:0:
442,318,106182,5,6,1:2:0:0:
325,375,106347,1,0,3:2:0:0:
251,270,106511,1,2,3:2:0:0:
130,372,106676,6,0,B|134:327|176:321|176:321|162:359,1,95.9999970703126,6|0,1:2|3:2,0:0:0:0:
285,170,107005,5,0,3:2:0:0:
184,215,107170,5,6,1:2:0:0:
135,138,107335,5,0,3:2:0:0:
60,166,107500,5,6,3:2:0:0:
311,105,111456,6,0,P|359:105|409:26,1,143.999995605469,2|8,3:2|2:0,0:0:0:0:
449,176,111950,1,2,3:2:0:0:
446,169,112033,1,8,2:0:0:0:
443,162,112115,1,2,3:2:0:0:
367,244,112280,2,0,P|326:222|323:186,1,71.9999978027344,0|0,3:2|0:0,0:0:0:0:
498,301,112610,6,0,P|431:332|366:382,1,143.999995605469,8|2,2:0|3:2,0:0:0:0:
266,275,113104,2,0,P|237:245|194:255,1,71.9999978027344,8|0,2:0|3:2,0:0:0:0:
189,257,113351,1,8,2:0:0:0:
176,265,113434,2,0,P|167:222|165:183,1,71.9999978027344,0|0,3:2|3:2,0:0:0:0:
72,333,113763,1,2,2:0:0:0:
0,149,114093,6,0,P|70:137|151:89,1,143.999995605469,2|10,3:2|2:0,0:0:0:0:
244,23,114588,1,2,3:2:0:0:
244,23,114670,1,8,2:0:0:0:
244,23,114752,2,0,P|217:79|214:117,1,71.9999978027344,0|2,3:2|3:2,0:0:0:0:
304,158,115082,1,2,2:0:0:0:
229,279,115247,6,0,P|153:256|127:177,1,143.999995605469,10|0,2:0|3:2,0:0:0:0:
309,350,115741,2,0,P|348:333|378:329,1,71.9999978027344,10|0,2:0|3:2,0:0:0:0:
405,316,115989,1,8,2:0:0:0:
416,314,116071,2,0,P|413:275|377:249,1,71.9999978027344,2|0,3:2|3:2,0:0:0:0:
293,186,116401,1,10,2:0:0:0:
435,126,116566,1,2,3:2:0:0:
442,118,116648,1,8,2:0:0:0:
448,109,116730,6,0,B|412:71|369:73|369:73|344:108|296:113,1,143.999995605469,0|8,3:2|2:0,0:0:0:0:
201,127,117225,1,2,3:2:0:0:
205,136,117307,1,8,2:0:0:0:
208,146,117390,1,0,3:2:0:0:
302,34,117555,2,0,P|262:17|231:-6,1,71.9999978027344,0|0,3:2|0:0,0:0:0:0:
98,97,117884,6,0,P|67:132|86:245,1,143.999995605469,8|2,2:0|3:2,0:0:0:0:
194,302,118379,1,8,2:0:0:0:
194,302,118708,5,0,3:2:0:0:
99,365,118873,1,2,1:2:0:0:
161,218,119038,1,2,1:2:0:0:
361,359,119368,6,0,P|403:330|392:240,1,132.00000402832,6|0,3:2|0:0,0:0:0:0:
384,237,119697,2,0,P|337:224|295:197,1,88.000002685547,2|0,1:2|3:2,0:0:0:0:
303,67,120027,1,2,3:2:0:0:
226,142,120192,1,0,3:2:0:0:
420,161,120522,6,0,P|468:140|464:30,1,176.000005371094,2|0,1:2|3:2,0:0:0:0:
314,186,121016,2,0,P|281:218|291:281,1,88.000002685547,0|0,1:2|3:2,0:0:0:0:
388,363,121346,5,8,1:3:0:0:
479,268,121593,5,4,1:3:0:0:
411,154,121840,5,4,1:3:0:0:
279,258,122005,6,0,P|192:243|106:210,1,176.000005371094,6|0,3:2|1:2,0:0:0:0:
26,115,122500,1,2,3:2:0:0:
29,122,122582,1,2,1:2:0:0:
32,130,122665,1,2,3:2:0:0:
130,44,122829,1,2,3:2:0:0:
280,235,123159,6,0,B|252:182|184:191|184:191|193:226|174:257,1,176.000005371094,2|2,1:2|3:2,0:0:0:0:
46,358,123654,2,0,P|8:328|25:278,1,88.000002685547,2|2,1:2|3:2,0:0:0:0:
26,276,123901,1,0,1:2:0:0:
35,267,123983,1,2,3:2:0:0:
158,357,124148,1,0,1:2:0:0:
158,357,124230,1,0,1:2:0:0:
158,357,124313,2,0,P|182:347|204:341,1,44.0000013427735,2|0,1:2|1:2,0:0:0:0:
294,311,124478,2,0,P|318:321|340:327,1,44.0000013427735,2|0,1:2|1:2,0:0:0:0:
481,360,124643,6,0,P|445:327|451:200,1,176.000005371094,4|0,3:2|1:2,0:0:0:0:
391,94,125137,1,2,3:2:0:0:
382,84,125219,1,0,1:2:0:0:
375,72,125302,2,0,P|424:91|467:95,1,88.000002685547,0|2,3:2|3:2,0:0:0:0:
336,185,125632,1,2,1:2:0:0:
238,42,125796,6,0,P|222:105|207:221,1,176.000005371094,2|0,2:0|0:0,0:0:0:0:
86,309,126291,2,0,P|49:282|50:239,1,88.000002685547,0|2,1:2|3:2,0:0:0:0:
61,227,126538,1,2,1:2:0:0:
70,217,126621,2,0,P|62:171|56:125,1,88.000002685547,2|2,3:2|3:2,0:0:0:0:
174,18,126950,1,2,1:2:0:0:
147,121,127115,1,2,2:0:0:0:
59,24,127280,6,0,P|125:60|239:87,1,176.000005371094,4|2,3:2|1:2,0:0:0:0:
372,36,127774,1,0,3:2:0:0:
366,28,127857,1,0,1:2:0:0:
359,21,127939,2,0,P|313:49|304:89,1,88.000002685547,2|2,3:2|3:2,0:0:0:0:
376,160,128269,1,0,1:2:0:0:
253,234,128434,6,0,P|206:217|163:210,1,88.000002685547,2|0,2:0|3:2,0:0:0:0:
91,286,128763,1,2,3:2:0:0:
275,372,128928,6,0,P|320:350|327:314,1,88.000002685547,6|0,1:2|3:2,0:0:0:0:
321,304,129176,1,0,1:2:0:0:
313,293,129258,5,8,3:0:0:0:
350,197,129423,5,4,3:0:0:0:
444,184,129588,5,4,3:0:0:0:
504,243,129752,5,0,0:0:0:0:
420,357,129917,6,0,P|423:305|441:153,1,191.999994140625,6|0,3:2|3:2,0:0:0:0:
491,98,130412,1,2,2:0:0:0:
348,23,130577,2,0,P|279:35|231:116,1,160,2|0,1:2|0:0,0:0:0:0:
322,192,131071,1,2,3:2:0:0:
322,192,131401,5,0,3:2:0:0:
218,261,131566,2,0,P|177:248|134:241,1,80,0|2,3:2|2:0,0:0:0:0:
26,355,131895,2,0,P|65:334|67:291,1,80,0|2,1:2|1:2,0:0:0:0:
63,286,132143,1,0,1:2:0:0:
57,275,132225,1,0,3:2:0:0:
1,162,132390,1,2,1:2:0:0:
1,162,132472,1,0,1:2:0:0:
1,162,132555,5,4,3:2:0:0:
171,116,132719,2,0,P|100:93|80:-1,1,160,0|0,3:2|3:2,0:0:0:0:
261,17,133214,1,0,1:2:0:0:
261,17,133544,5,2,3:2:0:0:
333,114,133708,2,0,P|322:158|316:203,1,80,2|2,3:2|2:0,0:0:0:0:
155,285,134038,2,0,B|254:248|254:248|278:272|312:278,1,160,0|0,1:2|0:0,0:0:0:0:
453,196,134533,1,0,1:2:0:0:
420,205,134615,1,0,1:2:0:0:
407,225,134697,1,8,2:3:0:0:
405,250,134780,1,8,2:3:0:0:
412,263,134862,1,4,2:3:0:0:
475,68,135192,5,4,3:2:0:0:
111,92,137500,5,8,3:0:0:0:
111,92,137829,6,0,P|162:71|241:104,1,132.00000402832,6|0,1:2|0:0,0:0:0:0:
251,110,138159,2,0,P|238:163|233:215,1,88.000002685547,2|2,1:2|1:2,0:0:0:0:
127,292,138489,1,2,1:2:0:0:
127,292,138654,1,2,1:2:0:0:
248,371,138818,2,0,P|298:356|307:314,1,88.000002685547,2|2,1:2|1:2,0:0:0:0:
413,190,139148,5,2,1:2:0:0:
290,250,139313,1,2,1:2:0:0:
432,301,139478,1,2,1:2:0:0:
294,156,139643,1,2,1:2:0:0:
466,87,139807,1,2,1:2:0:0:
466,87,139890,1,0,1:2:0:0:
466,87,139972,2,0,P|479:103|494:125,1,44.0000013427735,2|0,1:2|1:2,0:0:0:0:
385,33,140137,6,0,P|334:51|253:-2,1,132.00000402832,2|4,1:2|3:0,0:0:0:0:
190,32,140467,5,4,3:2:0:0:
306,144,140796,1,8,3:0:0:0:
194,260,141126,1,8,3:0:0:0:
78,148,141456,1,8,3:0:0:0:
197,137,141785,5,4,3:2:0:0:
57,351,142445,6,0,P|25:310|51:263,1,88.000002685547,0|0,1:2|1:2,0:0:0:0:
101,214,142692,5,0,1:2:0:0:
109,204,142774,2,0,P|105:181|96:158,1,44.0000013427735,8|8,3:0|3:0,0:0:0:0:
31,81,142939,2,0,P|35:58|53:35,1,44.0000013427735,4|4,3:0|3:0,0:0:0:0:
172,83,143104,6,0,P|230:65|313:49,1,120.000004577637,6|0,1:2|3:2,0:0:0:0:
430,107,143434,1,2,3:2:0:0:
349,267,143599,6,0,P|315:216|336:157,1,120.000004577637,6|0,1:2|3:2,0:0:0:0:
489,258,143928,1,2,3:2:0:0:
389,372,144093,5,4,1:2:0:0:
475,267,144258,1,2,3:2:0:0:
325,262,144423,1,0,3:2:0:0:
456,122,144588,5,4,1:2:0:0:
381,73,144752,2,0,P|318:66|249:29,1,120.000004577637,2|0,3:2|3:2,0:0:0:0:
118,214,145082,2,0,P|181:207|250:170,1,120.000004577637,6|0,1:2|3:2,0:0:0:0:
17,136,145412,1,6,1:2:0:0:
116,28,145577,1,0,3:2:0:0:
125,20,145659,1,0,3:2:0:0:
134,13,145741,6,0,P|191:56|170:98,1,120.000004577637,4|0,1:2|3:2,0:0:0:0:
36,221,146071,1,0,3:2:0:0:
176,308,146236,2,0,P|150:254|132:194,1,120.000004577637,4|0,1:2|3:2,0:0:0:0:
277,98,146566,1,0,3:2:0:0:
401,243,146730,6,0,P|310:197|240:266,1,180.000006866455,6|0,1:2|0:0,0:0:0:0:
273,313,147060,1,2,1:2:0:0:
273,313,147143,1,0,1:2:0:0:
273,313,147225,2,0,P|285:343|294:379,1,60.0000022888184,0|0,1:2|1:2,0:0:0:0:
387,368,147390,1,8,3:0:0:0:
413,361,147472,1,8,3:0:0:0:
439,355,147554,1,4,3:0:0:0:
465,350,147637,1,4,3:0:0:0:
492,343,147719,5,2,1:3:0:0:
390,223,147884,1,2,1:3:0:0:
151,178,148379,6,0,B|188:106|270:119|270:119|289:159|335:164,1,223.999993164063,6|2,3:2|1:3,0:0:0:0:
466,47,148873,1,0,3:2:0:0:
458,31,148956,1,0,1:2:0:0:
445,19,149038,2,0,P|384:40|353:82,1,111.999996582031,2|0,3:0|3:2,0:0:0:0:
502,290,149368,6,0,P|424:322|322:231,1,223.999993164063,6|2,1:2|3:0,0:0:0:0:
143,243,149862,1,0,3:2:0:0:
262,102,150027,2,0,P|242:158|233:221,1,111.999996582031,2|0,1:3|3:2,0:0:0:0:
236,227,150274,1,0,1:2:0:0:
244,241,150357,1,2,3:0:0:0:
139,354,150522,1,0,3:2:0:0:
49,246,150687,2,0,P|27:192|56:143,1,111.999996582031,2|0,1:3|3:2,0:0:0:0:
64,138,150934,1,0,1:2:0:0:
77,127,151016,5,6,3:2:0:0:
181,42,151181,1,0,3:2:0:0:
50,10,151346,1,2,1:2:0:0:
191,160,151511,6,0,P|289:134|426:116,1,223.999993164063,6|0,3:2|1:2,0:0:0:0:
476,172,151923,1,0,1:2:0:0:
483,177,152005,6,0,B|435:214|429:264|429:264|458:283|470:314,1,167.999994873047,8|4,3:0|3:0,0:0:0:0:
395,333,152335,6,0,P|341:357|283:311,1,111.999996582031,2|0,1:2|0:0,0:0:0:0:
260,267,152582,6,0,P|230:254|190:252,1,55.9999982910157,2|0,1:2|0:0,0:0:0:0:
64,357,152829,6,0,P|34:342|7:313,1,55.9999982910157,6|0,1:2|0:0,0:0:0:0:
161,147,153159,5,2,1:2:0:0:
52,229,153324,1,6,1:2:0:0:
42,76,153489,1,0,1:2:0:0:
26,84,153571,1,0,1:2:0:0:
14,99,153654,6,0,P|78:147|233:165,1,223.999993164063,6|2,3:2|1:3,0:0:0:0:
330,38,154148,1,2,3:2:0:0:
336,30,154230,1,0,1:2:0:0:
346,25,154312,2,0,P|390:54|384:107,1,111.999996582031,2|0,3:0|3:2,0:0:0:0:
313,209,154643,1,2,1:3:0:0:
489,333,154807,6,0,P|390:282|290:331,1,223.999993164063,2|0,3:2|3:2,0:0:0:0:
185,190,155301,1,2,1:3:0:0:
98,323,155466,1,0,3:2:0:0:
103,331,155548,1,0,1:2:0:0:
113,337,155632,2,0,P|171:323|221:299,1,111.999996582031,2|0,3:0|3:2,0:0:0:0:
81,138,155961,6,0,P|31:155|24:207,1,111.999996582031,2|0,1:3|3:2,0:0:0:0:
205,168,156290,1,2,3:0:0:0:
205,168,156455,1,0,0:0:0:0:
121,40,156620,1,2,1:3:0:0:
269,101,156785,1,0,3:2:0:0:
269,101,156867,1,0,1:2:0:0:
269,101,156950,2,0,P|331:86|380:77,1,111.999996582031,2|0,3:0|3:2,0:0:0:0:
203,257,157280,2,0,P|265:272|314:281,1,111.999996582031,2|0,1:3|0:0,0:0:0:0:
491,352,157609,6,0,P|440:331|428:279,1,111.999996582031,2|0,3:0|3:2,0:0:0:0:
490,111,157939,1,2,1:3:0:0:
361,185,158104,1,0,3:2:0:0:
367,194,158186,1,0,3:2:0:0:
373,203,158268,1,2,3:0:0:0:
376,37,158433,1,0,1:2:0:0:
366,31,158515,1,0,1:2:0:0:
355,27,158599,1,0,1:2:0:0:
320,55,158681,1,0,1:2:0:0:
279,73,158763,1,0,1:2:0:0:
234,63,158846,1,0,1:2:0:0:
209,25,158928,6,0,P|143:41|106:127,1,167.999994873047,4|0,3:2|0:0,0:0:0:0:
121,149,159257,2,0,P|179:168|239:192,1,111.999996582031,2|0,1:3|3:2,0:0:0:0:
160,260,159505,1,0,1:2:0:0:
151,264,159588,2,0,P|82:254|70:206,1,111.999996582031,2|0,3:0|3:2,0:0:0:0:
216,354,159917,1,2,1:3:0:0:
340,233,160082,6,0,B|437:247|463:348|463:348|445:332|397:328,1,223.999993164063,2|0,3:2|3:2,0:0:0:0:
257,277,160577,2,0,P|242:219|233:168,1,111.999996582031,2|0,1:3|3:2,0:0:0:0:
393,34,160906,2,0,P|358:76|305:70,1,111.999996582031,2|0,1:3|1:2,0:0:0:0:
296,59,161153,1,0,1:2:0:0:
293,48,161235,1,0,1:2:0:0:
465,139,161401,5,8,3:0:0:0:
459,171,161483,1,4,3:0:0:0:
455,205,161565,1,4,1:2:0:0:
450,238,161648,1,0,3:2:0:0:
446,271,161730,2,0,P|422:296|388:308,3,55.9999982910157,2|0|2|0,3:2|3:2|3:2|3:2,0:0:0:0:
345,226,162060,5,4,1:2:0:0:
322,206,162143,1,0,3:2:0:0:
292,205,162225,1,0,3:2:0:0:
265,220,162308,1,0,3:2:0:0:
249,246,162390,2,0,P|255:278|264:310,1,55.9999982910157,0|0,3:2|3:2,0:0:0:0:
181,351,162555,1,6,1:2:0:0:
107,290,162719,1,2,3:2:0:0:
107,290,162802,1,0,3:2:0:0:
107,290,162884,6,0,P|113:258|118:225,2,55.9999982910157,0|0|4,3:2|3:2|1:2,0:0:0:0:
175,155,163214,1,0,3:2:0:0:
201,163,163296,1,0,3:2:0:0:
229,157,163379,1,0,3:2:0:0:
251,140,163461,1,0,3:2:0:0:
269,118,163544,6,0,P|266:85|260:59,2,55.9999982910157,2|0|2,1:2|1:2|1:2,0:0:0:0:
333,9,163873,1,8,3:0:0:0:
504,171,164038,1,4,3:0:0:0:
509,187,164121,1,4,3:0:0:0:
504,198,164203,6,0,P|457:228|300:143,1,223.999993164063,6|2,3:2|1:3,0:0:0:0:
189,359,164697,1,0,3:2:0:0:
150,193,164862,2,0,P|207:222|260:237,1,111.999996582031,2|0,1:3|3:2,0:0:0:0:
32,320,165191,2,0,P|-10:280|2:229,1,111.999996582031,2|0,1:3|3:2,0:0:0:0:
54,173,165439,1,0,3:2:0:0:
63,165,165521,6,0,P|43:92|28:-5,1,167.999994873047,2|0,1:3|0:0,0:0:0:0:
107,20,165851,2,0,P|153:57|203:42,1,111.999996582031,2|0,1:3|3:2,0:0:0:0:
335,116,166180,1,2,1:3:0:0:
193,204,166345,1,0,3:2:0:0:
358,258,166510,2,0,P|340:309|324:372,1,111.999996582031,2|0,1:3|3:2,0:0:0:0:
245,341,166758,1,0,3:2:0:0:
242,353,166840,6,0,B|290:288|363:307|363:307|385:350|430:363,1,223.999993164063,6|2,1:2|1:3,0:0:0:0:
494,190,167334,1,0,3:2:0:0:
361,211,167499,5,2,1:3:0:0:
494,298,167664,1,0,3:2:0:0:
348,202,167829,2,0,P|329:147|374:105,1,111.999996582031,2|0,1:3|3:2,0:0:0:0:
442,90,168076,1,0,3:2:0:0:
451,84,168159,2,0,P|388:82|327:-2,1,167.999994873047,4|0,1:2|0:0,0:0:0:0:
346,0,168488,5,2,1:3:0:0:
270,88,168653,1,0,3:2:0:0:
191,46,168818,5,2,1:3:0:0:
325,179,168983,1,0,1:2:0:0:
148,263,169148,2,0,B|138:289|80:217|151:155,1,132.00000402832,8|4,3:0|3:0,0:0:0:0:
227,169,169478,6,0,P|127:128|-3:192,1,240.000009155274,6|2,3:2|1:2,0:0:0:0:
164,367,169972,6,0,B|186:311|269:290|305:306|305:306|261:325|228:306,1,240.000009155274,4|0,3:2|1:2,0:0:0:0:
314,146,170467,6,0,B|364:70|459:88|459:88|400:107|389:149,1,240.000009155274,6|2,3:2|1:2,0:0:0:0:
386,339,170961,6,0,P|486:350|455:254,1,240.000009155274,4|0,3:2|1:2,0:0:0:0:
326,252,171456,6,0,P|300:263|261:269,2,55.9999982910157,4|0|0,3:2|3:2|1:2,0:0:0:0:
186,204,171785,2,0,P|168:159|148:94,1,111.999996582031,8|4,3:0|3:0,0:0:0:0:
5,348,172115,6,0,P|50:307|204:351,1,223.999993164063,6|2,3:2|3:2,0:0:0:0:
0,205,172609,1,2,1:2:0:0:
149,93,172774,1,2,3:2:0:0:
111,247,172939,1,2,1:2:0:0:
106,236,173021,1,2,1:2:0:0:
102,225,173104,1,2,1:2:0:0:
41,56,173268,1,2,1:2:0:0:
29,67,173351,1,0,3:2:0:0:
24,86,173434,6,0,B|106:68|106:68|128:43|128:43|212:28,1,192,6|2,3:2|2:0,0:0:0:0:
262,188,174093,5,0,1:2:0:0:
254,189,174176,1,0,1:2:0:0:
245,188,174258,1,0,1:2:0:0:
238,182,174340,1,0,1:2:0:0:
233,175,174423,2,0,P|288:187|323:256,1,120,8|4,3:0|3:0,0:0:0:0:
312,274,174752,6,0,P|286:327|266:380,1,95.9999970703126,6|0,1:2|3:2,0:0:0:0:
159,224,175082,1,0,3:2:0:0:
77,336,175247,2,0,P|125:372|164:346,1,95.9999970703126,6|0,1:2|3:2,0:0:0:0:
16,225,175577,1,0,3:2:0:0:
161,195,175741,2,0,P|185:148|152:111,1,95.9999970703126,6|0,1:2|3:2,0:0:0:0:
115,5,176071,1,0,3:2:0:0:
0,141,176236,6,0,P|78:124|186:68,1,191.999994140625,6|0,1:2|3:2,0:0:0:0:
354,29,176730,5,6,1:2:0:0:
260,142,176895,1,0,3:2:0:0:
385,173,177060,1,6,1:2:0:0:
272,53,177225,1,0,3:2:0:0:
143,226,177390,6,0,P|182:270|306:245,1,191.999994140625,6|2,1:2|3:2,0:0:0:0:
470,351,177884,2,0,P|417:326|412:288,1,95.9999970703126,6|0,1:2|3:2,0:0:0:0:
493,142,178214,1,2,3:2:0:0:
309,159,178379,2,0,P|370:185|411:208,1,95.9999970703126,6|0,1:2|3:2,0:0:0:0:
299,45,178708,1,2,3:2:0:0:
142,226,178873,5,6,1:2:0:0:
223,154,179038,1,0,3:2:0:0:
120,116,179203,1,2,3:2:0:0:
238,269,179368,6,0,P|291:250|339:244,1,95.9999970703126,6|0,1:2|3:2,0:0:0:0:
128,364,179697,2,0,P|75:345|27:339,1,95.9999970703126,6|0,1:2|3:2,0:0:0:0:
2,246,180027,5,6,3:2:0:0:
2,246,180110,1,0,3:2:0:0:
2,246,180192,2,0,L|15:186,3,47.9999985351563,0|0|0|0,3:2|3:2|1:2|3:2,0:0:0:0:
89,148,180522,1,6,3:2:0:0:
89,148,180604,1,0,3:2:0:0:
89,148,180687,2,0,L|78:65,3,47.9999985351563,2|0|0|2,1:2|1:2|1:2|1:2,0:0:0:0:
147,43,181016,1,4,3:2:0:0:
168,50,181098,1,0,3:2:0:0:
182,64,181181,1,2,3:2:0:0:
237,183,181346,1,2,3:2:0:0:
356,125,181511,6,0,L|345:65,3,47.9999985351563,2|2|4|0,3:2|3:2|3:2|3:2,3:2:0:0:
418,199,181840,2,0,L|408:264,1,47.9999985351563,2|0,3:2|3:2,0:0:0:0:
346,304,182005,2,0,P|352:333|360:368,2,47.9999985351563,6|0|0,1:2|1:2|1:2,0:0:0:0:
292,236,182252,1,2,1:2:0:0:
284,227,182335,2,0,P|230:212|186:237,1,95.9999970703126,8|4,3:0|3:0,0:0:0:0:
135,271,182582,1,4,3:0:0:0:
129,284,182665,6,0,P|145:336|161:411,1,103.999995239258,4|8,1:2|3:0,0:0:0:0:
19,214,182994,1,8,3:0:0:0:
108,106,183159,2,0,P|159:80|204:102,1,103.999995239258,4|8,1:2|3:0,0:0:0:0:
351,178,183489,1,8,3:0:0:0:
324,8,183654,6,0,P|303:69|279:115,1,103.999995239258,4|8,1:2|3:0,0:0:0:0:
179,184,183983,1,8,3:0:0:0:
327,262,184148,1,4,1:2:0:0:
173,340,184313,1,0,1:2:0:0:
234,255,184478,5,2,1:2:0:0:
234,255,184560,1,0,1:2:0:0:
234,255,184643,2,0,L|257:314,3,51.999997619629,8|8|4|4,3:0|3:0|3:0|3:0,0:0:0:0:
316,353,184972,2,0,P|387:335|394:248,1,155.999992858887,2|0,1:2|1:2,0:0:0:0:
336,212,185302,6,0,B|297:192|299:151|299:151|371:105|419:157,1,207.999990478516,4|2,3:2|1:3,0:0:0:0:
273,47,185796,1,2,3:2:0:0:
273,47,185879,1,0,1:2:0:0:
273,47,185961,2,0,P|197:51|109:59,1,155.999992858887,2|0,3:0|0:0,0:0:0:0:
58,115,186291,2,0,B|22:137|25:181|25:181|72:208|98:186,1,155.999992858887,2|0,1:3|1:2,0:0:0:0:
117,171,186621,5,2,3:0:0:0:
204,308,186785,2,0,P|153:295|102:288,1,103.999995239258,0|2,3:2|1:3,0:0:0:0:
254,195,187115,1,0,3:2:0:0:
266,213,187197,1,0,1:2:0:0:
271,237,187280,1,2,3:0:0:0:
380,143,187445,1,2,3:2:0:0:
333,315,187610,1,2,1:3:0:0:
333,315,187774,1,2,3:2:0:0:
250,90,187939,5,2,3:0:0:0:
377,233,188104,1,2,2:0:0:0:
166,154,188269,1,2,1:3:0:0:
331,34,188434,6,0,B|370:84|347:141|347:141|325:154|314:169,1,155.999992858887,2|0,3:2|0:0,0:0:0:0:
315,168,188763,1,2,3:2:0:0:
225,348,188928,1,2,1:3:0:0:
225,348,189011,1,0,0:0:0:0:
225,348,189093,2,0,P|274:334|345:322,1,103.999995239258,2|2,3:2|3:0,0:0:0:0:
444,335,189423,1,2,3:2:0:0:
249,228,189588,1,2,1:3:0:0:
398,199,189752,6,0,P|447:213|499:222,1,103.999995239258,2|0,3:2|1:2,0:0:0:0:
503,236,190000,1,8,3:0:0:0:
512,222,190082,1,8,3:0:0:0:
512,198,190165,1,4,3:0:0:0:
508,173,190247,1,0,1:2:0:0:
492,148,190329,1,0,1:2:0:0:
457,119,190412,1,0,1:2:0:0:
409,107,190494,1,0,1:2:0:0:
352,119,190577,2,0,P|286:99|311:17,1,155.999992858887,4|0,3:2|0:0,0:0:0:0:
281,20,190906,6,0,P|333:13|407:5,1,103.999995239258,0|2,1:2|3:2,0:0:0:0:
96,154,191236,6,0,L|222:139,1,103.999995239258,2|2,1:3|3:2,0:0:0:0:
335,236,191566,6,0,L|461:221,1,103.999995239258,2|2,1:3|3:2,0:0:0:0:
62,324,191895,6,0,L|188:309,1,103.999995239258,2|2,1:3|3:2,0:0:0:0:
371,354,192225,6,0,L|497:339,1,103.999995239258,2|2,1:3|3:2,0:0:0:0:
251,327,192555,5,2,1:3:0:0:
252,314,192637,1,0,3:2:0:0:
254,301,192719,1,2,3:2:0:0:
255,288,192802,1,0,3:2:0:0:
257,275,192884,1,2,1:3:0:0:
197,199,193049,1,2,3:2:0:0:
335,95,193214,6,0,B|388:95|407:121|407:121|458:114|477:91,1,155.999992858887,4|0,1:2|0:0,0:0:0:0:
484,109,193544,6,0,L|490:-16,1,103.999995239258,2|0,1:3|3:2,0:0:0:0:
342,189,193873,1,2,1:3:0:0:
408,258,194038,1,2,3:2:0:0:
247,384,194203,2,0,L|242:280,1,103.999995239258,2|0,1:3|3:2,0:0:0:0:
103,48,194533,5,4,1:2:0:0:
158,219,194697,1,2,3:2:0:0:
315,67,194862,2,0,B|339:67|359:92|359:92|349:128|325:141|288:148|288:148|267:123|239:114,1,207.999990478516,4|0,1:2|1:2,0:0:0:0:
307,344,195357,6,0,L|301:292,1,51.999997619629,4|4,3:0|3:0,0:0:0:0:
211,255,195522,1,2,1:2:0:0:
211,255,195604,1,2,1:2:0:0:
211,255,195687,2,0,L|216:203,1,51.999997619629,2|2,1:2|1:2,0:0:0:0:
309,157,195851,5,8,3:0:0:0:
314,156,195933,1,0,1:2:0:0:
319,156,196015,1,0,1:2:0:0:
324,155,196098,1,0,1:2:0:0:
330,154,196181,2,0,L|320:81,2,51.999997619629,0|0|8,1:2|1:2|3:0,0:0:0:0:
239,61,196510,5,0,1:2:0:0:
229,60,196592,1,0,1:2:0:0:
220,59,196675,1,0,1:2:0:0:
211,58,196757,1,0,1:2:0:0:
202,56,196840,2,0,L|216:-36,2,51.999997619629,8|0|0,3:0|1:2|1:2,0:0:0:0:
123,109,197170,6,0,L|41:124,1,51.999997619629,0|0,1:2|1:2,0:0:0:0:
86,200,197335,2,0,L|168:185,1,51.999997619629,0|0,1:2|1:2,0:0:0:0:
223,228,197500,5,8,3:0:0:0:
244,257,197582,1,8,3:0:0:0:
244,293,197665,1,8,3:0:0:0:
232,326,197747,1,8,3:0:0:0:
207,351,197829,2,0,P|172:354|139:331,2,51.999997619629,4|4|4,3:0|3:0|3:0,3:0:0:0:
329,293,198159,1,8,3:0:0:0:
368,302,198241,1,8,3:0:0:0:
398,331,198324,1,4,3:0:0:0:
401,372,198406,1,4,3:0:0:0:
393,374,198489,5,6,3:2:0:0:
256,192,198654,12,0,201044,0:0:0:0:
204,249,201126,5,6,3:2:0:0:
204,249,201621,5,0,3:2:0:0:
73,343,201785,2,0,P|60:285|49:214,1,128,0|0,1:2|0:0,0:0:0:0:
142,121,202280,1,0,1:2:0:0:
47,63,202610,5,0,0:0:0:0:
142,121,202774,2,0,P|191:104|214:102,1,64,0|0,3:2|0:0,0:0:0:0:
320,164,203104,2,0,P|349:150|361:56,1,128,0|0,1:2|0:0,0:0:0:0:
237,192,203599,5,0,0:0:0:0:
237,192,203681,1,0,0:0:0:0:
237,192,203763,1,0,3:2:0:0:
323,263,203928,2,0,P|368:250|462:237,1,128,0|0,1:2|3:2,0:0:0:0:
491,131,204423,1,0,1:2:0:0:
491,131,204917,6,0,P|450:112|439:22,1,128,0|0,1:2|1:2,0:0:0:0:
331,86,205412,2,0,P|301:114|303:146,1,64,0|0,3:2|0:0,0:0:0:0:
149,73,205741,6,0,P|98:51|68:43,2,66.0000020141602,8|8|8,2:0|2:0|2:0,0:0:0:0:
202,183,206401,6,0,B|169:219|122:213|122:213|108:191|77:177,1,128,4|0,3:2|0:0,0:0:0:0:
27,124,206895,1,0,3:2:0:0:
53,253,207060,6,0,P|24:273|15:365,1,128,0|0,1:2|0:0,0:0:0:0:
151,315,207555,1,0,1:2:0:0:
232,367,207884,5,0,1:2:0:0:
151,315,208049,2,0,P|138:271|153:248,1,64,0|0,3:2|0:0,0:0:0:0:
291,207,208379,2,0,P|234:197|158:162,1,128,0|0,1:2|0:0,0:0:0:0:
111,61,208873,5,0,3:2:0:0:
115,69,208956,1,0,3:2:0:0:
119,77,209038,1,0,3:2:0:0:
207,61,209203,1,0,1:2:0:0:
294,42,209368,1,0,3:2:0:0:
294,42,209697,6,0,P|358:61|437:78,1,128,0|0,1:2|0:0,0:0:0:0:
495,174,210192,1,0,1:2:0:0:
391,236,210357,1,0,3:2:0:0:
494,343,210522,2,0,P|449:364|367:310,1,128,0|2,1:2|3:2,0:0:0:0:
316,293,210934,5,2,3:2:0:0:
309,287,211016,2,0,P|260:304|153:333,1,143.999995605469,6|2,1:2|2:0,0:0:0:0:
23,250,211676,6,0,P|62:259|126:198,1,120,4|2,3:2|2:0,0:0:0:0:
126,185,212005,2,0,P|107:145|96:109,1,80,0|2,3:2|2:0,0:0:0:0:
189,23,212335,2,0,P|235:45|237:83,1,80,2|0,3:2|0:0,0:0:0:0:
235,85,212582,1,2,2:0:0:0:
228,95,212665,1,0,3:2:0:0:
295,192,212829,1,2,1:2:0:0:
450,135,212994,6,0,P|393:131|327:99,1,120,2|2,3:2|2:0,0:0:0:0:
333,67,213324,2,0,P|373:48|411:57,1,80,0|2,3:2|2:0,0:0:0:0:
475,146,213654,1,2,3:2:0:0:
387,260,213818,1,0,1:2:0:0:
473,318,213983,1,0,3:2:0:0:
374,249,214148,1,2,1:2:0:0:
238,356,214313,6,0,P|285:368|397:342,1,160,6|2,3:2|3:2,0:0:0:0:
263,243,214807,2,0,P|233:204|273:93,1,160,2|0,2:0|0:0,0:0:0:0:
386,49,215302,2,0,P|330:42|303:29,1,80,2|2,3:2|1:2,0:0:0:0:
289,19,215549,1,2,3:2:0:0:
282,9,215632,5,2,3:2:0:0:
170,126,215796,1,0,1:2:0:0:
106,73,215961,2,0,P|82:39|105:-3,1,80,2|0,3:2|0:0,0:0:0:0:
78,168,216291,5,2,3:2:0:0:
72,188,216401,5,0,1:2:0:0:
66,208,216511,5,0,1:2:0:0:
59,228,216621,6,0,P|43:285|21:352,1,120,8|0,3:0|3:2,0:0:0:0:
102,362,216950,6,0,B|141:324|187:333|187:333|202:364|242:371,1,143.999995605469,4|2,3:2|3:0,0:0:0:0:
309,156,217610,2,0,P|287:209|256:301,1,143.999995605469,2|2,1:3|3:0,0:0:0:0:
417,363,218104,1,2,1:2:0:0:
355,308,218269,1,2,3:0:0:0:
490,191,218434,1,2,1:2:0:0:
411,183,218599,6,0,P|419:221|437:256,1,71.9999978027344,2|2,2:3|3:2,0:0:0:0:
483,77,218928,2,0,P|431:66|421:30,1,71.9999978027344,2|2,1:3|3:2,0:0:0:0:
415,35,219176,1,0,1:2:0:0:
407,22,219258,1,2,1:3:0:0:
306,91,219424,1,2,3:2:0:0:
296,96,219506,1,0,3:2:0:0:
286,101,219588,6,0,P|228:77|225:34,1,88.000002685547,4|2,1:2|1:2,0:0:0:0:
205,32,219835,1,0,1:2:0:0:
197,28,219917,2,0,L|151:48,1,44.0000013427735,2|0,1:2|1:2,0:0:0:0:
54,92,220082,5,4,3:2:0:0:
169,170,220247,1,0,1:2:0:0:
168,189,220329,1,0,1:2:0:0:
155,204,220412,2,0,P|128:201|93:181,1,44.0000013427735,0|0,1:2|1:2,0:0:0:0:
221,269,220577,2,0,P|272:263|307:175,1,132.00000402832,4|0,3:2|1:2,0:0:0:0:
301,172,220906,5,2,1:2:0:0:
321,156,220989,1,0,1:2:0:0:
346,152,221071,1,4,3:2:0:0:
463,163,221236,2,0,P|472:185|467:217,3,44.0000013427735,2|0|0|0,1:2|1:2|1:2|1:2,0:0:0:0:
427,280,221566,6,0,L|378:269,1,44.0000013427735,8|0,3:0|0:0,0:0:0:0:
311,333,221730,2,0,L|262:344,1,44.0000013427735,2|0,1:2|1:2,0:0:0:0:
144,286,221895,2,0,P|127:244|153:195,1,88.000002685547,8|4,3:0|3:0,0:0:0:0:
248,86,222225,5,4,1:2:0:0:
248,86,222555,6,0,L|151:74,1,95.9999970703126,2|2,1:3|3:2,0:0:0:0:
328,252,222884,6,0,L|231:240,1,95.9999970703126,2|2,1:3|3:2,0:0:0:0:
489,97,223214,6,0,L|392:85,1,95.9999970703126,2|2,1:3|3:2,0:0:0:0:
371,82,223461,1,0,3:2:0:0:
371,82,223544,2,0,P|348:135|373:178,1,95.9999970703126,2|2,1:3|3:2,0:0:0:0:
510,290,223873,5,2,1:3:0:0:
441,199,224038,1,2,3:2:0:0:
355,364,224203,5,2,1:3:0:0:
428,285,224368,1,2,3:2:0:0:
296,217,224533,2,0,P|226:206|191:185,1,95.9999970703126,2|2,1:3|3:2,0:0:0:0:
161,125,224780,1,2,3:2:0:0:
155,115,224862,6,0,B|111:59|35:87|35:87|37:124|86:149,1,191.999994140625,4|2,1:2|1:3,0:0:0:0:
140,247,225357,1,2,1:2:0:0:
18,326,225522,2,0,P|37:278|51:235,1,95.9999970703126,2|2,1:3|1:2,0:0:0:0:
206,357,225851,1,2,1:3:0:0:
129,220,226016,1,2,1:2:0:0:
218,369,226181,6,0,P|273:354|289:313,1,95.9999970703126,2|2,1:3|1:2,0:0:0:0:
429,201,226511,1,2,1:3:0:0:
383,317,226676,1,2,1:2:0:0:
287,125,226840,1,2,1:3:0:0:
353,235,227005,1,2,1:2:0:0:
426,39,227170,1,2,1:3:0:0:
190,158,227335,1,0,1:2:0:0:
85,298,232115,5,0,1:2:0:0:
112,271,232197,1,0,1:2:0:0:
149,261,232280,1,0,1:2:0:0:
186,266,232362,1,0,1:2:0:0:
217,288,232445,2,0,L|210:365,2,47.9999985351563,8|8|4,3:0|3:0|3:0,0:0:0:0:
320,349,232774,6,0,P|346:356|379:331,2,60.0000022888184,4|0|0,1:2|3:2|1:2,0:0:0:0:
410,237,233104,5,0,1:2:0:0:
405,208,233187,1,0,1:2:0:0:
381,191,233269,2,0,P|355:184|322:209,2,60.0000022888184,4|0|0,3:2|3:2|1:2,0:0:0:0:
222,118,233598,5,0,1:2:0:0:
200,137,233681,1,0,1:2:0:0:
200,166,233763,2,0,P|215:187|257:189,2,60.0000022888184,4|0|0,3:2|3:2|1:2,0:0:0:0:
319,109,234093,5,0,1:2:0:0:
335,84,234176,1,0,1:3:0:0:
327,55,234258,2,0,P|311:33|269:31,2,60.0000022888184,4|0|0,3:2|3:2|1:2,0:0:0:0:
150,69,234588,5,0,1:2:0:0:
125,85,234671,1,0,1:2:0:0:
96,77,234753,2,0,P|74:61|72:19,3,60.0000022888184,4|0|0|0,3:2|3:2|1:2|1:2,0:0:0:0:
12,146,235082,1,8,3:0:0:0:
12,146,235165,1,0,3:2:0:0:
12,146,235247,1,4,3:0:0:0:
100,241,235412,6,0,L|169:231,2,60.0000022888184,4|0|0,1:2|3:2|3:2,0:0:0:0:
259,189,235741,1,4,3:0:0:0:
227,340,235906,1,4,3:2:0:0:
227,340,235988,1,0,3:2:0:0:
227,340,236071,2,0,L|141:328,2,60.0000022888184,0|0|0,1:2|1:2|1:2,0:0:0:0:
318,259,236401,5,4,3:2:0:0:
361,247,236483,1,0,3:2:0:0:
404,268,236566,1,8,3:0:0:0:
423,304,236648,1,8,3:0:0:0:
424,335,236730,1,8,3:0:0:0:
408,356,236813,1,8,3:0:0:0:
393,367,236895,1,4,3:0:0:0:
377,374,236978,1,4,3:0:0:0:
366,375,237060,2,0,P|335:371|304:362,2,60.0000022888184,4|4|8,3:0|3:0|3:0,0:0:0:0:
234,315,237390,2,0,P|203:319|172:328,2,60.0000022888184,4|0|0,3:2|3:2|1:2,0:0:0:0:
313,278,237719,5,4,3:2:0:0:
335,257,237802,1,0,1:2:0:0:
344,228,237884,1,0,1:2:0:0:
338,198,237967,1,0,1:2:0:0:
324,171,238049,2,0,P|314:138|315:103,2,60.0000022888184,4|0|0,3:2|3:2|1:2,0:0:0:0:
354,39,238379,1,0,1:2:0:0:
509,137,238543,2,0,P|504:166|495:197,2,60.0000022888184,4|0|8,1:2|1:2|3:0,0:0:0:0:
443,303,238873,1,4,3:0:0:0:
429,322,238956,1,0,1:2:0:0:
433,345,239038,6,0,P|311:315|304:265,1,180.000006866455,0|4,1:2|3:0,0:0:0:0:
243,223,239368,2,0,B|203:181|148:189|148:189|168:217,1,120.000004577637,2|0,1:2|0:0,0:0:0:0:
163,283,239615,2,0,B|160:320|120:338|120:338|137:314|135:285,1,120.000004577637,2|0,1:2|0:0,0:0:0:0:
82,234,239862,1,6,1:2:0:0:
261,130,240192,5,2,1:2:0:0:
112,50,240357,1,6,1:2:0:0:
196,13,240522,5,0,1:2:0:0:
196,13,240605,1,0,1:2:0:0:
196,13,240687,2,0,P|189:73|172:141,1,111.999996582031,6|0,3:2|0:0,0:0:0:0:
66,231,241017,1,2,1:3:0:0:
134,337,241182,1,2,1:2:0:0:
140,345,241264,1,0,1:2:0:0:
150,350,241346,2,0,P|187:314|175:260,1,111.999996582031,2|0,3:0|3:2,0:0:0:0:
291,164,241676,1,2,1:3:0:0:
415,287,241840,6,0,B|331:312|262:241|262:241|294:257|336:242,1,223.999993164063,2|0,3:2|3:2,0:0:0:0:
468,130,242335,1,2,1:3:0:0:
357,25,242500,1,0,3:2:0:0:
347,24,242582,1,0,1:2:0:0:
336,28,242664,2,0,P|355:92|378:141,1,111.999996582031,2|0,3:0|3:2,0:0:0:0:
438,299,242995,6,0,P|488:285|499:233,1,111.999996582031,2|0,1:3|3:2,0:0:0:0:
364,147,243324,1,2,3:0:0:0:
364,147,243489,1,0,0:0:0:0:
253,284,243654,1,2,1:3:0:0:
190,164,243819,1,0,3:2:0:0:
190,164,243901,1,0,1:2:0:0:
190,164,243984,2,0,P|259:188|304:201,1,111.999996582031,2|0,3:0|3:2,0:0:0:0:
174,360,244313,2,0,P|118:344|66:333,1,111.999996582031,2|0,1:3|0:0,0:0:0:0:
5,205,244643,6,0,P|25:155|77:142,1,111.999996582031,2|0,3:0|3:2,0:0:0:0:
231,75,244973,1,2,1:3:0:0:
100,13,245138,1,0,3:2:0:0:
104,23,245220,1,0,3:2:0:0:
109,32,245302,1,2,3:0:0:0:
225,166,245467,1,8,3:0:0:0:
229,176,245549,1,8,3:0:0:0:
235,185,245632,1,8,3:0:0:0:
272,196,245714,1,8,3:0:0:0:
311,191,245797,1,4,3:0:0:0:
335,152,245879,1,4,3:0:0:0:
340,112,245962,6,0,P|310:200|281:273,1,167.999994873047,4|0,3:2|0:0,0:0:0:0:
215,314,246291,2,0,P|240:346|330:332,1,111.999996582031,2|0,1:3|3:2,0:0:0:0:
370,307,246539,1,0,1:2:0:0:
379,302,246621,2,0,P|431:301|446:375,1,111.999996582031,2|0,3:0|3:2,0:0:0:0:
472,141,246951,1,2,1:3:0:0:
273,159,247116,6,0,P|375:206|484:228,1,223.999993164063,2|0,3:2|3:2,0:0:0:0:
376,92,247610,2,0,P|342:46|395:-5,1,111.999996582031,2|0,1:3|3:2,0:0:0:0:
253,170,247939,2,0,P|184:155|134:130,1,111.999996582031,2|0,1:3|1:2,0:0:0:0:
138,124,248187,1,0,1:2:0:0:
136,107,248269,1,0,1:2:0:0:
38,37,248433,5,8,3:0:0:0:
40,65,248515,1,4,3:0:0:0:
42,93,248598,1,4,1:2:0:0:
43,121,248680,1,0,3:2:0:0:
45,149,248763,2,0,L|35:213,3,55.9999982910157,2|0|2|0,3:2|3:2|3:2|3:2,0:0:0:0:
96,275,249094,5,4,1:2:0:0:
119,295,249177,1,0,3:2:0:0:
149,296,249259,1,0,3:2:0:0:
176,281,249340,1,0,3:2:0:0:
192,255,249423,2,0,P|194:224|180:194,1,55.9999982910157,0|0,3:2|3:2,0:0:0:0:
146,123,249588,1,6,1:2:0:0:
238,61,249753,1,2,3:2:0:0:
238,61,249835,1,0,3:2:0:0:
238,61,249918,6,0,P|267:71|288:102,3,55.9999982910157,0|0|4|0,3:2|3:2|1:2|3:2,0:0:0:0:
363,110,250247,1,0,3:2:0:0:
379,139,250329,1,0,3:2:0:0:
376,172,250411,1,0,3:2:0:0:
357,200,250494,1,0,3:2:0:0:
328,218,250577,6,0,P|291:208|252:201,2,55.9999982910157,8|8|4,3:0|3:0|3:0,0:0:0:0:
391,289,250906,1,8,3:0:0:0:
207,313,251072,1,4,3:0:0:0:
195,331,251154,1,4,3:0:0:0:
201,351,251236,6,0,P|254:376|321:318,1,143.999995605469,6|2,3:2|2:0,0:0:0:0:
149,230,251730,1,0,3:2:0:0:
299,112,251895,2,0,P|277:180|262:261,1,143.999995605469,0|2,1:2|3:2,0:0:0:0:
444,94,252390,1,0,1:2:0:0:
379,167,252555,5,2,3:2:0:0:
312,21,252719,1,0,1:2:0:0:
215,75,252884,2,0,P|163:59|156:35,1,71.9999978027344,2|0,3:2|3:2,0:0:0:0:
52,18,253214,2,0,P|56:55|67:100,1,71.9999978027344,0|0,1:2|3:2,0:0:0:0:
209,167,253544,1,6,1:2:0:0:
209,167,253873,6,0,B|181:122|131:126|131:126|114:157|78:163,1,143.999995605469,6|2,3:2|2:0,0:0:0:0:
12,210,254368,1,2,3:2:0:0:
149,308,254533,1,0,1:2:0:0:
41,354,254697,2,0,P|55:312|68:283,1,71.9999978027344,2|0,1:2|3:2,0:0:0:0:
195,189,255027,6,0,P|235:213|243:242,1,71.9999978027344,2|0,1:2|3:2,0:0:0:0:
322,347,255357,2,0,P|330:305|342:270,1,71.9999978027344,2|4,1:2|3:2,0:0:0:0:
469,198,255687,1,8,3:0:0:0:
464,207,255769,1,4,3:0:0:0:
459,216,255851,1,8,3:0:0:0:
380,179,256016,1,8,3:0:0:0:
304,137,256181,1,4,3:0:0:0:
304,137,256511,6,0,B|367:124|367:124|382:105|382:105|460:89,1,143.999995605469,6|2,3:2|2:0,0:0:0:0:
499,255,257005,1,0,3:2:0:0:
436,304,257170,2,0,P|393:298|379:274,1,71.9999978027344,0|0,1:2|0:0,0:0:0:0:
307,215,257500,1,2,3:2:0:0:
237,318,257665,1,0,1:2:0:0:
191,228,257829,5,2,3:2:0:0:
317,328,257994,1,0,1:2:0:0:
177,379,258159,2,0,P|135:368|103:352,1,71.9999978027344,2|0,2:0|3:2,0:0:0:0:
51,241,258489,2,0,P|20:269|20:311,1,71.9999978027344,0|0,1:2|3:2,0:0:0:0:
116,145,258818,6,0,P|110:95|107:23,1,107.999996704102,2|0,2:0|0:0,0:0:0:0:
188,42,259148,6,0,P|232:73|291:58,1,103.999995239258,6|0,3:2|1:2,0:0:0:0:
309,45,259395,1,0,1:2:0:0:
316,31,259478,1,2,1:2:0:0:
390,142,259643,2,0,P|371:201|360:250,1,103.999995239258,6|0,3:2|1:2,0:0:0:0:
283,330,259972,1,0,1:2:0:0:
257,349,260055,1,0,1:2:0:0:
226,342,260137,2,0,P|209:311|209:283,1,51.999997619629,8|8,3:0|3:0,0:0:0:0:
131,253,260302,2,0,P|137:218|155:196,1,51.999997619629,4|4,3:0|3:0,0:0:0:0:
201,132,260467,5,4,3:2:0:0:
351,66,261291,5,8,3:0:0:0:
351,66,261373,1,4,3:0:0:0:
351,66,261456,2,0,P|380:56|399:48,1,48,8|0,3:0|0:0,0:0:0:0:
470,81,261785,6,0,P|455:134|448:178,1,95.9999970703126,6|0,1:2|3:2,0:0:0:0:
384,304,262115,1,2,3:2:0:0:
201,220,262280,6,0,P|258:159|378:190,1,191.999994140625,6|0,1:2|3:2,0:0:0:0:
300,328,262774,2,0,P|247:317|194:312,1,95.9999970703126,6|0,1:2|3:2,0:0:0:0:
108,230,263104,1,2,3:2:0:0:
252,128,263269,6,0,B|291:68|253:20|253:20|247:42|231:58,1,143.999995605469,6|0,1:2|0:0,0:0:0:0:
206,60,263599,1,2,3:2:0:0:
82,127,263763,2,0,P|41:96|43:47,1,95.9999970703126,6|0,1:2|3:2,0:0:0:0:
213,212,264093,2,0,P|196:266|185:311,1,95.9999970703126,6|0,1:2|3:2,0:0:0:0:
181,321,264340,1,0,3:2:0:0:
175,329,264423,1,6,1:2:0:0:
76,222,264588,1,0,3:2:0:0:
167,136,264752,1,0,3:2:0:0:
66,307,264917,6,0,P|38:306|2:236,1,95.9999970703126,6|0,1:2|3:2,0:0:0:0:
193,216,265247,1,2,3:2:0:0:
287,357,265412,6,0,B|324:293|390:302|390:302|411:335|447:342,1,191.999994140625,6|0,1:2|3:2,0:0:0:0:
510,172,265906,2,0,P|479:227|459:261,1,95.9999970703126,4|0,1:2|3:2,0:0:0:0:
376,68,266236,5,2,3:2:0:0:
305,145,266401,1,8,3:0:0:0:
223,39,266566,1,8,3:0:0:0:
145,174,266730,1,4,3:0:0:0:
41,46,266895,1,4,3:0:0:0:
226,235,267060,6,0,P|143:205|46:279,1,191.999994140625,6|2,1:2|3:2,0:0:0:0:
140,373,267555,2,0,P|185:355|203:313,1,95.9999970703126,6|0,1:2|3:2,0:0:0:0:
309,222,267884,1,0,3:2:0:0:
412,353,268049,5,6,1:2:0:0:
330,321,268214,1,0,3:2:0:0:
402,262,268379,1,2,3:2:0:0:
315,337,268544,6,0,P|258:331|239:294,1,95.9999970703126,6|0,1:2|3:2,0:0:0:0:
127,196,268873,1,2,3:2:0:0:
252,94,269038,6,0,P|237:146|218:199,1,95.9999970703126,6|0,1:2|3:2,0:0:0:0:
96,316,269367,2,0,P|41:305|32:260,1,95.9999970703126,6|0,1:2|3:2,0:0:0:0:
40,258,269615,1,0,3:2:0:0:
44,250,269698,5,6,1:2:0:0:
148,169,269863,1,0,3:2:0:0:
30,99,270027,1,0,3:2:0:0:
176,14,270192,6,0,P|222:34|281:49,1,95.9999970703126,6|0,1:2|3:2,0:0:0:0:
430,88,270522,1,2,3:2:0:0:
337,233,270687,2,0,P|310:187|332:140,1,95.9999970703126,6|8,1:2|3:0,0:0:0:0:
333,136,270934,1,4,3:0:0:0:
333,136,271016,6,0,P|271:142|221:145,1,103.999995239258,6|0,1:2|0:0,0:0:0:0:
158,186,271263,6,0,P|96:180|46:177,1,103.999995239258,2|0,1:2|0:0,0:0:0:0:
8,239,271511,1,2,1:2:0:0:
120,363,271676,6,0,P|170:328|163:270,1,103.999995239258,2|0,1:2|0:0,0:0:0:0:
240,247,271923,6,0,P|299:263|345:267,1,103.999995239258,2|0,1:2|0:0,0:0:0:0:
410,317,272170,1,2,1:2:0:0:
256,128,272665,5,4,3:2:0:0:
256,192,272747,12,0,278928,0:0:0:0:
