osu file format v14

[General]
AudioFilename: audio.mp3
AudioLeadIn: 0
PreviewTime: 66549
Countdown: 0
SampleSet: Soft
StackLeniency: 0.7
Mode: 3
LetterboxInBreaks: 0
SpecialStyle: 0
WidescreenStoryboard: 0

[Editor]
DistanceSpacing: 0.4
BeatDivisor: 4
GridSize: 32
TimelineZoom: 3.699998

[Metadata]
Title:GHOST
TitleUnicode:GHOST
Artist:Hoshimachi Suisei
ArtistUnicode:星街すいせい
Creator:Rivals_7
Version:Cosmos
Source:
Tags:hololive ホロライブ hosimati hoshimati hosimachi suichan idol vtuber virtual youtuber singer jrock j-rock rock pop japanese jpop j-pop 佐藤厚仁 sato atsuhito Dream Monster カバー cover corp. ch ch. 森本練 Ren Morimoto 北村望 Kitamura Nozomi mokoppe 紋
BeatmapID:3012110
BeatmapSetID:1466713

[Difficulty]
HPDrainRate:8.5
CircleSize:4
OverallDifficulty:8.5
ApproachRate:5
SliderMultiplier:1.4
SliderTickRate:1

[Events]
//Background and Video events
0,0,"88638741_p0.jpg",0,0
//Break Periods
//Storyboard Layer 0 (Background)
//Storyboard Layer 1 (Fail)
//Storyboard Layer 2 (Pass)
//Storyboard Layer 3 (Foreground)
//Storyboard Layer 4 (Overlay)
//Storyboard Sound Samples
Sample,81632,0,"drum-hitfinish.wav",35
Sample,87071,0,"Tom2.wav",70
Sample,134873,0,"Tom2.wav",60
Sample,195862,0,"Tom2.wav",70
Sample,196357,0,"Tom2.wav",70

[TimingPoints]
698,329.67032967033,4,2,1,60,1,0
21796,-100,4,2,1,60,0,1
31851,-100,4,2,1,60,0,0
66632,-100,4,2,1,60,0,1
75862,-100,4,2,1,60,0,0
77181,-100,4,2,1,60,0,1
97621,-100,4,2,1,60,0,0
98280,-100,4,2,1,60,0,1
107511,-100,4,2,1,60,0,0
143115,-100,4,2,1,60,0,1
147895,-100,4,2,1,60,0,0
148390,-100,4,2,1,60,0,1
152346,-100,4,2,1,60,0,0
153665,-100,4,2,1,60,0,1
173939,-100,4,2,1,60,0,0
174763,-100,4,2,1,60,0,1
185313,-100,4,2,1,60,0,0
232785,-100,4,2,1,60,0,1
239379,-100,4,2,1,60,0,0
240698,-100,4,2,1,60,0,1
261137,-100,4,2,1,60,0,0
261796,-100,4,2,1,60,0,1
271027,-100,4,2,1,60,0,0

[HitObjects]
64,192,698,5,0,0:0:0:0:
448,192,698,128,0,3335:0:0:0:0:
192,192,1192,1,0,0:0:0:0:
320,192,1687,1,0,0:0:0:0:
192,192,2181,1,0,0:0:0:0:
64,192,2676,1,0,0:0:0:0:
64,192,3335,128,0,5972:0:0:0:0:
192,192,3335,1,0,0:0:0:0:
320,192,3829,1,0,0:0:0:0:
192,192,4324,1,0,0:0:0:0:
448,192,4818,1,0,0:0:0:0:
320,192,5313,1,0,0:0:0:0:
192,192,5972,1,0,0:0:0:0:
320,192,5972,128,0,8610:0:0:0:0:
64,192,6467,1,0,0:0:0:0:
192,192,6961,1,0,0:0:0:0:
448,192,7456,1,0,0:0:0:0:
64,192,7950,1,0,0:0:0:0:
192,192,8610,128,0,11247:0:0:0:0:
448,192,8610,1,0,0:0:0:0:
320,192,9104,1,0,0:0:0:0:
448,192,9599,1,0,0:0:0:0:
64,192,9928,128,0,10093:0:0:0:0:
320,192,10093,1,0,0:0:0:0:
64,192,10588,1,0,0:0:0:0:
448,192,10588,128,0,10752:0:0:0:0:
320,192,11247,128,0,11412:0:0:0:0:
64,192,11412,128,0,11577:0:0:0:0:
320,192,11741,128,0,11906:0:0:0:0:
64,192,12071,128,0,13225:0:0:0:0:
448,192,12401,128,0,13225:0:0:0:0:
320,192,13225,128,0,13390:0:0:0:0:
192,192,13307,128,0,13472:0:0:0:0:
448,192,13884,128,0,14049:0:0:0:0:
64,192,14049,128,0,14214:0:0:0:0:
320,192,14214,1,0,0:0:0:0:
448,192,14379,128,0,14544:0:0:0:0:
192,192,14544,1,0,0:0:0:0:
320,192,14708,128,0,15862:0:0:0:0:
64,192,15038,128,0,16357:0:0:0:0:
320,192,16357,1,0,0:0:0:0:
192,192,16439,1,0,0:0:0:0:
64,192,16522,1,0,0:0:0:0:
448,192,16522,128,0,16687:0:0:0:0:
192,192,16687,128,0,16851:0:0:0:0:
320,192,16851,1,0,0:0:0:0:
448,192,17016,128,0,17181:0:0:0:0:
64,192,17181,1,0,0:0:0:0:
192,192,17346,128,0,19159:0:0:0:0:
320,192,17511,128,0,17840:0:0:0:0:
448,192,17676,128,0,18994:0:0:0:0:
64,192,17840,128,0,19159:0:0:0:0:
320,192,18500,128,0,18994:0:0:0:0:
448,192,19159,128,0,19324:0:0:0:0:
64,192,19324,1,0,0:0:0:0:
192,192,19489,1,0,0:0:0:0:
320,192,19654,128,0,20807:0:0:0:0:
64,192,19983,128,0,20807:0:0:0:0:
448,192,20148,128,0,20313:0:0:0:0:
448,192,20478,128,0,20807:0:0:0:0:
192,192,20643,128,0,20807:0:0:0:0:
64,192,20972,1,0,0:0:0:0:
64,192,21137,1,0,0:0:0:0:
64,192,21302,1,2,0:0:0:0:
320,192,21302,1,0,0:0:0:0:
64,192,21467,1,8,0:0:0:0:
320,192,21467,1,4,0:0:0:0:
448,192,21467,1,0,0:0:0:0:
64,192,21796,1,8,0:0:0:0:
192,192,21796,1,4,0:0:0:0:
320,192,21796,1,0,0:0:0:0:
448,192,21796,1,0,0:0:0:0:
64,192,21961,1,2,0:0:0:0:
192,192,21961,1,0,0:0:0:0:
320,192,22126,1,2,0:0:0:0:
448,192,22126,1,0,0:0:0:0:
64,192,22291,1,8,0:0:0:0:
192,192,22291,1,4,0:0:0:0:
320,192,22291,1,0,0:0:0:0:
448,192,22291,1,0,0:0:0:0:
192,192,22456,1,2,0:0:0:0:
448,192,22456,1,0,0:0:0:0:
64,192,22621,1,2,0:0:0:0:
320,192,22621,1,0,0:0:0:0:
64,192,22785,1,4,0:0:0:0:
192,192,22785,1,8,0:0:0:0:
320,192,22785,1,0,0:0:0:0:
448,192,22785,1,0,0:0:0:0:
64,192,22950,1,2,0:0:0:0:
192,192,22950,1,0,0:0:0:0:
320,192,23115,1,2,0:0:0:0:
448,192,23115,1,0,0:0:0:0:
64,192,23280,1,8,0:0:0:0:
192,192,23280,1,4,0:0:0:0:
320,192,23280,1,0,0:0:0:0:
448,192,23280,1,0,0:0:0:0:
64,192,23445,1,2,0:0:0:0:
320,192,23445,1,0,0:0:0:0:
192,192,23610,1,2,0:0:0:0:
448,192,23610,1,0,0:0:0:0:
64,192,23774,1,4,0:0:0:0:
192,192,23774,1,8,0:0:0:0:
320,192,23774,1,0,0:0:0:0:
448,192,23774,1,0,0:0:0:0:
64,192,23939,1,2,0:0:0:0:
320,192,23939,1,0,0:0:0:0:
64,192,24104,1,4,0:0:0:0:
192,192,24104,1,8,0:0:0:0:
320,192,24104,1,0,0:0:0:0:
448,192,24104,1,0,0:0:0:0:
192,192,24269,1,2,0:0:0:0:
448,192,24269,1,0,0:0:0:0:
320,192,24351,1,2,0:0:0:0:
64,192,24434,1,4,0:0:0:0:
192,192,24434,1,8,0:0:0:0:
448,192,24434,1,0,0:0:0:0:
64,192,24599,1,2,0:0:0:0:
320,192,24599,1,0,0:0:0:0:
192,192,24763,1,2,0:0:0:0:
448,192,24763,1,0,0:0:0:0:
64,192,24928,1,4,0:0:0:0:
192,192,24928,1,8,0:0:0:0:
320,192,24928,1,0,0:0:0:0:
448,192,24928,1,0,0:0:0:0:
64,192,25093,1,2,0:0:0:0:
320,192,25093,1,0,0:0:0:0:
192,192,25258,1,2,0:0:0:0:
448,192,25258,1,0,0:0:0:0:
64,192,25423,1,8,0:0:0:0:
192,192,25423,1,4,0:0:0:0:
320,192,25423,1,0,0:0:0:0:
448,192,25423,1,0,0:0:0:0:
320,192,25588,1,2,0:0:0:0:
448,192,25588,1,0,0:0:0:0:
64,192,25752,1,2,0:0:0:0:
192,192,25752,1,0,0:0:0:0:
64,192,25917,1,4,0:0:0:0:
192,192,25917,1,8,0:0:0:0:
320,192,25917,1,0,0:0:0:0:
448,192,25917,1,0,0:0:0:0:
320,192,26082,1,2,0:0:0:0:
448,192,26082,1,0,0:0:0:0:
64,192,26247,1,2,0:0:0:0:
192,192,26247,1,0,0:0:0:0:
320,192,26412,1,0,0:0:0:70:Tom1.wav
448,192,26412,1,0,0:0:0:0:
192,192,26577,1,0,0:0:0:70:Tom2.wav
320,192,26577,1,0,0:0:0:0:
64,192,26741,1,0,0:0:0:70:Tom3.wav
192,192,26741,1,0,0:0:0:0:
320,192,26906,1,2,0:0:0:0:
448,192,26906,1,0,0:0:0:0:
192,192,26989,1,2,0:0:0:0:
64,192,27071,1,8,0:0:0:0:
320,192,27071,1,4,0:0:0:0:
448,192,27071,1,0,0:0:0:0:
64,192,27236,1,2,0:0:0:0:
192,192,27236,1,0,0:0:0:0:
320,192,27401,1,2,0:0:0:0:
448,192,27401,1,0,0:0:0:0:
64,192,27566,1,8,0:0:0:0:
192,192,27566,1,4,0:0:0:0:
320,192,27566,1,0,0:0:0:0:
448,192,27566,1,0,0:0:0:0:
192,192,27730,1,2,0:0:0:0:
448,192,27730,1,0,0:0:0:0:
64,192,27895,1,2,0:0:0:0:
320,192,27895,1,0,0:0:0:0:
64,192,28060,1,4,0:0:0:0:
192,192,28060,1,8,0:0:0:0:
320,192,28060,1,0,0:0:0:0:
448,192,28060,1,0,0:0:0:0:
64,192,28225,1,2,0:0:0:0:
192,192,28225,1,0,0:0:0:0:
320,192,28390,1,2,0:0:0:0:
448,192,28390,1,0,0:0:0:0:
64,192,28555,1,8,0:0:0:0:
192,192,28555,1,4,0:0:0:0:
320,192,28555,1,0,0:0:0:0:
448,192,28555,1,0,0:0:0:0:
64,192,28719,1,2,0:0:0:0:
192,192,28719,1,0,0:0:0:0:
320,192,28884,1,2,0:0:0:0:
448,192,28884,1,0,0:0:0:0:
64,192,29049,1,4,0:0:0:0:
192,192,29049,1,8,0:0:0:0:
320,192,29049,1,0,0:0:0:0:
448,192,29049,1,0,0:0:0:0:
192,192,29214,1,2,0:0:0:0:
320,192,29214,1,0,0:0:0:0:
64,192,29379,1,4,0:0:0:0:
192,192,29379,1,8,0:0:0:0:
320,192,29379,1,0,0:0:0:0:
448,192,29379,1,0,0:0:0:0:
64,192,29544,1,2,0:0:0:0:
192,192,29544,1,0,0:0:0:0:
320,192,29626,1,2,0:0:0:0:
64,192,29708,1,4,0:0:0:0:
192,192,29708,1,8,0:0:0:0:
448,192,29708,1,0,0:0:0:0:
320,192,29873,1,2,0:0:0:0:
448,192,29873,1,0,0:0:0:0:
64,192,30038,1,2,0:0:0:0:
192,192,30038,1,0,0:0:0:0:
64,192,30203,1,4,0:0:0:0:
192,192,30203,1,8,0:0:0:0:
320,192,30203,1,0,0:0:0:0:
448,192,30203,1,0,0:0:0:0:
320,192,30368,1,2,0:0:0:0:
448,192,30368,1,0,0:0:0:0:
64,192,30533,1,2,0:0:0:0:
192,192,30533,1,0,0:0:0:0:
64,192,30698,1,8,0:0:0:0:
192,192,30698,1,4,0:0:0:0:
320,192,30698,1,0,0:0:0:0:
448,192,30698,1,0,0:0:0:0:
320,192,30862,1,2,0:0:0:0:
448,192,30862,1,0,0:0:0:0:
64,192,31027,1,2,0:0:0:0:
192,192,31027,1,0,0:0:0:0:
64,192,31192,1,4,0:0:0:0:
192,192,31192,1,8,0:0:0:0:
320,192,31192,1,0,0:0:0:60:Tom3.wav
448,192,31192,1,0,0:0:0:0:
320,192,31357,1,2,0:0:0:0:
448,192,31357,1,0,0:0:0:0:
192,192,31522,1,2,0:0:0:0:
448,192,31522,1,0,0:0:0:0:
64,192,31687,1,8,0:0:0:0:
192,192,31687,1,0,0:0:0:60:Tom3.wav
320,192,31687,1,0,0:0:0:0:
64,192,31851,1,2,0:0:0:0:
192,192,31851,1,0,0:0:0:70:LR_CymbalSSD.wav
320,192,31851,1,0,0:0:0:0:
192,192,32346,1,4,0:0:0:0:
320,192,32346,1,2,0:0:0:0:
448,192,32346,128,0,32511:0:0:0:0:
64,192,32511,1,0,0:0:0:0:
192,192,32676,128,2,32840:0:0:0:0:
320,192,32676,1,0,0:0:0:0:
448,192,32840,1,0,0:0:0:0:
64,192,33005,128,2,33170:0:0:0:0:
320,192,33005,1,0,0:0:0:0:
192,192,33170,1,0,0:0:0:0:
320,192,33335,1,2,0:0:0:0:
448,192,33335,128,0,33500:0:0:0:0:
192,192,33500,128,0,33665:0:0:0:0:
320,192,33582,1,0,0:0:0:0:
64,192,33665,128,2,33829:0:0:0:0:
448,192,33665,1,0,0:0:0:0:
320,192,33829,1,0,0:0:0:0:
64,192,33994,1,2,0:0:0:0:
192,192,33994,1,0,0:0:0:0:
448,192,34159,1,0,0:0:0:0:
192,192,34324,1,2,0:0:0:0:
320,192,34324,128,0,34489:0:0:0:0:
64,192,34489,1,0,0:0:0:0:
192,192,34654,1,2,0:0:0:0:
448,192,34654,128,0,34818:0:0:0:0:
320,192,34818,1,0,0:0:0:0:
64,192,34983,128,2,35478:0:0:0:0:
192,192,34983,1,0,0:0:0:0:
448,192,35148,1,0,0:0:0:0:
192,192,35313,1,2,0:0:0:0:
448,192,35313,1,0,0:0:0:0:
320,192,35478,128,0,35643:0:0:0:0:
64,192,35643,1,2,0:0:0:0:
448,192,35643,128,0,36467:0:0:0:0:
192,192,35807,1,0,0:0:0:0:
192,192,35972,1,2,0:0:0:0:
320,192,35972,1,0,0:0:0:0:
64,192,36137,1,0,0:0:0:0:
64,192,36302,1,2,0:0:0:0:
320,192,36302,1,0,0:0:0:0:
192,192,36467,1,0,0:0:0:0:
64,192,36632,1,2,0:0:0:0:
448,192,36632,1,0,0:0:0:0:
320,192,36755,1,0,0:0:0:0:
192,192,36796,1,0,0:0:0:0:
320,192,36961,1,2,0:0:0:0:
448,192,36961,1,0,0:0:0:0:
192,192,37126,1,0,0:0:0:0:
64,192,37291,1,2,0:0:0:0:
448,192,37291,128,0,37621:0:0:0:0:
320,192,37456,1,0,0:0:0:0:
64,192,37621,128,2,37785:0:0:0:0:
192,192,37621,1,0,0:0:0:70:LR_CymbalSSD.wav
320,192,37785,1,0,0:0:0:0:
192,192,37950,1,2,0:0:0:0:
448,192,37950,128,0,38115:0:0:0:0:
320,192,38115,128,0,38280:0:0:0:0:
64,192,38280,1,2,0:0:0:0:
192,192,38280,1,0,0:0:0:0:
64,192,38445,128,0,38610:0:0:0:0:
320,192,38527,1,0,0:0:0:0:
192,192,38610,1,2,0:0:0:0:
448,192,38610,128,0,38774:0:0:0:0:
64,192,38774,128,0,38939:0:0:0:0:
320,192,38939,1,2,0:0:0:0:
448,192,38939,128,0,39269:0:0:0:0:
192,192,39104,1,0,0:0:0:0:
64,192,39269,1,2,0:0:0:0:
320,192,39269,128,0,39599:0:0:0:0:
448,192,39434,1,0,0:0:0:0:
64,192,39599,128,2,39928:0:0:0:0:
192,192,39599,1,0,0:0:0:0:
320,192,39763,1,0,0:0:0:0:
192,192,39928,1,2,0:0:0:0:
448,192,39928,1,0,0:0:0:0:
448,192,40093,128,0,41247:0:0:0:0:
64,192,40258,1,2,0:0:0:0:
192,192,40258,1,0,0:0:0:0:
320,192,40423,1,0,0:0:0:0:
64,192,40588,1,2,0:0:0:0:
320,192,40588,1,0,0:0:0:0:
192,192,40752,1,0,0:0:0:0:
192,192,40917,1,2,0:0:0:0:
320,192,40917,1,0,0:0:0:0:
64,192,41082,1,0,0:0:0:0:
64,192,41247,1,2,0:0:0:0:
320,192,41247,1,0,0:0:0:0:
192,192,41412,1,0,0:0:0:0:
320,192,41577,1,2,0:0:0:0:
448,192,41577,1,0,0:0:0:0:
192,192,41741,1,0,0:0:0:0:
64,192,41906,1,2,0:0:0:0:
448,192,41906,1,0,0:0:0:45:LR_CymbalG.wav
320,192,42236,1,8,0:0:0:0:
448,192,42236,1,0,0:0:0:0:
64,192,42318,1,8,0:0:0:0:
192,192,42318,1,0,0:0:0:0:
320,192,42401,1,8,0:0:0:0:
448,192,42401,1,0,0:0:0:0:
320,192,42483,1,8,0:0:0:0:
448,192,42483,1,0,0:0:0:0:
64,192,42566,1,8,0:0:0:0:
192,192,42566,1,0,0:0:0:0:
64,192,42648,1,8,0:0:0:0:
192,192,42648,1,0,0:0:0:0:
320,192,42730,1,8,0:0:0:0:
448,192,42730,1,0,0:0:0:0:
192,192,42813,1,8,0:0:0:0:
64,192,42895,1,2,0:0:0:0:
320,192,42895,1,4,0:0:0:0:
448,192,42895,1,0,0:0:0:0:
192,192,43060,1,0,0:0:0:0:
64,192,43225,1,8,0:0:0:0:
320,192,43225,1,0,0:0:0:0:
448,192,43225,1,0,0:0:0:0:
192,192,43390,1,0,0:0:0:0:
320,192,43472,1,8,0:0:0:0:
448,192,43472,1,0,0:0:0:0:
64,192,43555,1,2,0:0:0:0:
192,192,43555,1,0,0:0:0:0:
320,192,43719,1,2,0:0:0:0:
448,192,43719,1,0,0:0:0:0:
64,192,43884,1,0,0:0:0:0:
64,192,44049,1,8,0:0:0:0:
320,192,44049,1,0,0:0:0:0:
448,192,44049,1,0,0:0:0:0:
192,192,44214,1,0,0:0:0:0:
64,192,44379,1,2,0:0:0:0:
448,192,44379,1,0,0:0:0:0:
192,192,44544,1,8,0:0:0:0:
320,192,44544,1,0,0:0:0:0:
448,192,44544,1,0,0:0:0:0:
64,192,44708,1,0,0:0:0:0:
320,192,44791,1,8,0:0:0:0:
448,192,44791,1,0,0:0:0:0:
64,192,44873,1,2,0:0:0:0:
192,192,44873,1,0,0:0:0:0:
320,192,45038,1,2,0:0:0:0:
448,192,45038,1,0,0:0:0:0:
64,192,45203,1,8,0:0:0:0:
192,192,45203,1,0,0:0:0:0:
448,192,45203,1,0,0:0:0:0:
64,192,45368,1,8,0:0:0:0:
320,192,45368,1,0,0:0:0:0:
192,192,45450,1,8,0:0:0:0:
448,192,45450,1,0,0:0:0:0:
64,192,45533,1,2,0:0:0:0:
320,192,45533,1,0,0:0:0:0:
192,192,45698,1,0,0:0:0:0:
192,192,45862,1,8,0:0:0:0:
320,192,45862,1,0,0:0:0:0:
448,192,45862,1,0,0:0:0:0:
64,192,46027,1,0,0:0:0:0:
320,192,46110,1,8,0:0:0:0:
448,192,46110,1,0,0:0:0:0:
64,192,46192,1,2,0:0:0:0:
192,192,46192,1,0,0:0:0:0:
320,192,46357,1,2,0:0:0:0:
448,192,46357,1,0,0:0:0:0:
192,192,46522,1,0,0:0:0:0:
64,192,46687,1,8,0:0:0:0:
192,192,46687,1,0,0:0:0:0:
448,192,46687,1,0,0:0:0:0:
320,192,46851,1,0,0:0:0:0:
64,192,47016,1,2,0:0:0:0:
192,192,47016,1,0,0:0:0:0:
64,192,47181,1,8,0:0:0:0:
192,192,47181,1,0,0:0:0:0:
448,192,47181,1,0,0:0:0:0:
320,192,47346,1,0,0:0:0:0:
64,192,47511,1,2,0:0:0:0:
192,192,47511,1,0,0:0:0:0:
320,192,47676,1,2,0:0:0:0:
448,192,47676,1,0,0:0:0:0:
64,192,47840,1,8,0:0:0:0:
192,192,47840,1,0,0:0:0:0:
448,192,47840,1,0,0:0:0:0:
64,192,48005,1,8,0:0:0:0:
320,192,48005,1,0,0:0:0:0:
192,192,48088,1,8,0:0:0:0:
448,192,48088,1,0,0:0:0:0:
64,192,48170,1,2,0:0:0:0:
320,192,48170,1,0,0:0:0:50:LR_CymbalSSD.wav
192,192,48335,1,0,0:0:0:0:
192,192,48500,1,8,0:0:0:0:
320,192,48500,1,0,0:0:0:0:
448,192,48500,1,0,0:0:0:0:
64,192,48665,1,0,0:0:0:0:
192,192,48747,1,8,0:0:0:0:
448,192,48747,1,0,0:0:0:0:
64,192,48829,1,2,0:0:0:0:
320,192,48829,1,0,0:0:0:0:
192,192,48994,1,2,0:0:0:0:
448,192,48994,1,0,0:0:0:0:
320,192,49159,1,0,0:0:0:0:
64,192,49324,1,8,0:0:0:0:
192,192,49324,1,0,0:0:0:0:
320,192,49324,1,0,0:0:0:0:
448,192,49489,1,0,0:0:0:0:
192,192,49654,1,2,0:0:0:0:
320,192,49654,1,0,0:0:0:0:
64,192,49818,1,8,0:0:0:0:
320,192,49818,1,0,0:0:0:0:
448,192,49818,1,0,0:0:0:0:
192,192,49983,1,0,0:0:0:0:
320,192,50148,1,2,0:0:0:0:
448,192,50148,1,0,0:0:0:0:
64,192,50313,1,2,0:0:0:0:
192,192,50313,1,0,0:0:0:0:
64,192,50478,1,8,0:0:0:0:
320,192,50478,1,0,0:0:0:0:
448,192,50478,1,0,0:0:0:0:
192,192,50643,1,8,0:0:0:0:
448,192,50643,1,0,0:0:0:0:
64,192,50725,1,8,0:0:0:0:
320,192,50725,1,0,0:0:0:0:
192,192,50807,1,2,0:0:0:0:
448,192,50807,1,0,0:0:0:0:
320,192,50972,1,0,0:0:0:0:
64,192,51137,1,8,0:0:0:0:
192,192,51137,1,0,0:0:0:0:
320,192,51137,1,0,0:0:0:0:
448,192,51302,1,0,0:0:0:0:
64,192,51467,1,2,0:0:0:0:
192,192,51467,1,0,0:0:0:0:
320,192,51632,1,2,0:0:0:0:
448,192,51632,1,0,0:0:0:0:
192,192,51796,1,0,0:0:0:0:
64,192,51961,1,8,0:0:0:0:
192,192,51961,1,0,0:0:0:0:
448,192,51961,1,0,0:0:0:0:
320,192,52126,1,0,0:0:0:0:
64,192,52291,1,2,0:0:0:0:
192,192,52291,1,0,0:0:0:0:
64,192,52456,1,8,0:0:0:0:
320,192,52456,1,0,0:0:0:0:
448,192,52456,1,0,0:0:0:0:
192,192,52621,1,0,0:0:0:70:Tom1.wav
448,192,52621,1,0,0:0:0:0:
64,192,52703,1,0,0:0:0:70:Tom1.wav
320,192,52785,1,0,0:0:0:70:Tom1.wav
448,192,52785,1,0,0:0:0:0:
192,192,52895,1,0,0:0:0:70:Tom2.wav
64,192,53005,1,0,0:0:0:70:Tom2.wav
320,192,53115,1,0,0:0:0:70:Tom2.wav
448,192,53115,1,0,0:0:0:0:
64,192,53225,1,0,0:0:0:70:Tom3.wav
192,192,53225,1,0,0:0:0:0:
320,192,53335,1,0,0:0:0:70:Tom3.wav
64,192,53445,1,2,0:0:0:0:
192,192,53445,1,4,0:0:0:0:
448,192,53445,128,0,53610:0:0:0:0:
320,192,53610,128,0,53774:0:0:0:0:
64,192,53774,128,8,53939:0:0:0:0:
192,192,53774,1,0,0:0:0:0:
448,192,53774,1,0,0:0:0:0:
320,192,53939,128,0,54104:0:0:0:70:Tom3.wav
448,192,54022,1,0,0:0:0:70:Tom3.wav
64,192,54104,1,2,0:0:0:0:
192,192,54104,1,0,0:0:0:0:
192,192,54269,128,2,54434:0:0:0:0:
448,192,54269,1,0,0:0:0:0:
64,192,54434,128,8,54599:0:0:0:0:
320,192,54434,1,0,0:0:0:0:
448,192,54434,1,0,0:0:0:0:
320,192,54599,128,0,54763:0:0:0:0:
192,192,54681,1,0,0:0:0:70:Tom1.wav
64,192,54763,1,2,0:0:0:0:
448,192,54763,1,0,0:0:0:0:
192,192,54928,128,2,55093:0:0:0:0:
320,192,54928,1,0,0:0:0:0:
64,192,55093,1,8,0:0:0:0:
320,192,55093,1,0,0:0:0:0:
448,192,55093,128,0,55258:0:0:0:0:
64,192,55258,128,0,55423:0:0:0:0:
192,192,55340,1,0,0:0:0:70:Tom2.wav
320,192,55423,1,2,0:0:0:0:
448,192,55423,1,0,0:0:0:0:
64,192,55588,1,2,0:0:0:0:
192,192,55588,128,0,55752:0:0:0:0:
64,192,55752,1,8,0:0:0:0:
320,192,55752,1,0,0:0:0:0:
448,192,55752,128,0,55917:0:0:0:0:
192,192,55917,1,0,0:0:0:0:
64,192,56082,1,2,0:0:0:0:
320,192,56082,128,4,56247:0:0:0:0:
448,192,56082,1,0,0:0:0:0:
192,192,56247,128,0,56412:0:0:0:0:
64,192,56412,1,8,0:0:0:0:
320,192,56412,1,0,0:0:0:0:
448,192,56412,128,0,56577:0:0:0:0:
64,192,56577,128,0,56741:0:0:0:70:Tom3.wav
192,192,56659,1,0,0:0:0:70:Tom3.wav
320,192,56741,1,2,0:0:0:0:
448,192,56741,1,0,0:0:0:0:
64,192,56906,1,2,0:0:0:0:
192,192,56906,128,0,57071:0:0:0:0:
64,192,57071,1,8,0:0:0:0:
320,192,57071,128,0,57236:0:0:0:0:
448,192,57071,1,0,0:0:0:0:
192,192,57236,128,0,57401:0:0:0:0:
64,192,57401,1,2,0:0:0:0:
448,192,57401,128,0,57566:0:0:0:0:
64,192,57566,128,2,57730:0:0:0:0:
320,192,57566,1,0,0:0:0:0:
192,192,57730,1,8,0:0:0:0:
320,192,57730,1,4,0:0:0:0:
448,192,57730,128,0,57895:0:0:0:0:
64,192,57895,1,8,0:0:0:0:
192,192,57895,1,0,0:0:0:0:
320,192,57978,1,8,0:0:0:0:
448,192,57978,1,0,0:0:0:0:
64,192,58060,1,8,0:0:0:0:
192,192,58060,1,0,0:0:0:0:
320,192,58170,1,8,0:0:0:0:
448,192,58170,1,0,0:0:0:0:
320,192,58280,1,8,0:0:0:0:
448,192,58280,1,0,0:0:0:0:
192,192,58390,1,0,0:0:0:70:Tom1.wav
192,192,58500,1,0,0:0:0:70:Tom2.wav
320,192,58610,1,0,0:0:0:70:Tom3.wav
64,192,58719,1,2,0:0:0:0:
192,192,58719,1,4,0:0:0:0:
448,192,58719,128,0,58884:0:0:0:0:
320,192,58884,1,0,0:0:0:0:
64,192,59049,1,0,0:0:0:0:
448,192,59214,128,0,59544:0:0:0:0:
448,192,59708,128,0,59873:0:0:0:0:
320,192,59873,1,0,0:0:0:0:
64,192,60038,1,0,0:0:0:0:
448,192,60203,128,0,60533:0:0:0:0:
320,192,60533,1,0,0:0:0:0:
192,192,60698,1,0,0:0:0:0:
448,192,60862,128,0,61027:0:0:0:0:
192,192,61027,1,2,0:0:0:0:
320,192,61027,1,0,0:0:0:0:
64,192,61192,1,2,0:0:0:0:
320,192,61192,1,0,0:0:0:0:
192,192,61247,1,2,0:0:0:0:
64,192,61357,1,8,0:0:0:0:
320,192,61357,1,4,0:0:0:0:
448,192,61357,1,0,0:0:0:0:
64,192,61522,1,8,0:0:0:0:
448,192,61522,1,0,0:0:0:0:
192,192,61687,1,8,0:0:0:0:
320,192,61687,1,2,0:0:0:0:
448,192,61687,1,0,0:0:0:0:
192,192,61851,1,8,0:0:0:0:
448,192,61851,1,0,0:0:0:0:
64,192,62016,1,8,0:0:0:0:
192,192,62016,1,2,0:0:0:0:
320,192,62016,1,0,0:0:0:0:
64,192,62181,1,8,0:0:0:0:
320,192,62181,1,0,0:0:0:0:
192,192,62346,1,8,0:0:0:0:
320,192,62346,1,2,0:0:0:0:
448,192,62346,1,0,0:0:0:0:
192,192,62511,1,8,0:0:0:0:
448,192,62511,1,0,0:0:0:0:
64,192,62676,1,8,0:0:0:0:
320,192,62676,1,2,0:0:0:0:
448,192,62676,1,0,0:0:0:0:
64,192,62840,1,8,0:0:0:0:
320,192,62840,1,0,0:0:0:0:
64,192,63005,1,8,0:0:0:0:
192,192,63005,1,2,0:0:0:0:
448,192,63005,1,0,0:0:0:0:
192,192,63170,1,8,0:0:0:0:
448,192,63170,1,0,0:0:0:0:
64,192,63335,1,8,0:0:0:0:
192,192,63335,1,4,0:0:0:0:
320,192,63335,1,2,0:0:0:0:
448,192,63335,1,0,0:0:0:0:
64,192,63500,1,2,0:0:0:0:
320,192,63582,1,2,0:0:0:0:
448,192,63582,1,0,0:0:0:0:
64,192,63665,1,8,0:0:0:0:
192,192,63665,1,0,0:0:0:70:Tom1.wav
448,192,63747,1,0,0:0:0:70:Tom1.wav
320,192,63829,1,0,0:0:0:70:Tom2.wav
192,192,63912,1,0,0:0:0:70:Tom2.wav
64,192,63994,128,2,64324:0:0:0:0:
320,192,63994,1,4,0:0:0:0:
448,192,63994,1,0,0:0:0:0:
320,192,64324,1,2,0:0:0:0:
448,192,64324,128,0,64489:0:0:0:70:Tom2.wav
192,192,64489,128,0,64654:0:0:0:0:
320,192,64654,1,2,0:0:0:0:
448,192,64654,128,0,64818:0:0:0:70:Tom2.wav
64,192,64818,128,0,64983:0:0:0:0:
320,192,64983,128,2,65148:0:0:0:0:
448,192,64983,1,0,0:0:0:70:Tom2.wav
192,192,65148,128,0,65313:0:0:0:0:
64,192,65313,1,2,0:0:0:0:
320,192,65313,1,4,0:0:0:0:
448,192,65313,128,0,65972:0:0:0:0:
64,192,65972,1,0,0:0:0:0:
64,192,66632,1,8,0:0:0:0:
320,192,66632,1,4,0:0:0:0:
448,192,66632,1,0,0:0:0:0:
192,192,66714,1,2,0:0:0:0:
320,192,66796,1,2,0:0:0:0:
448,192,66796,1,0,0:0:0:0:
64,192,66879,1,2,0:0:0:0:
192,192,66879,1,0,0:0:0:0:
320,192,66961,1,2,0:0:0:0:
448,192,66961,1,0,0:0:0:0:
192,192,67044,1,2,0:0:0:0:
64,192,67126,1,8,0:0:0:0:
448,192,67126,1,0,0:0:0:0:
320,192,67208,1,2,0:0:0:0:
64,192,67291,1,2,0:0:0:0:
192,192,67291,1,0,0:0:0:0:
320,192,67373,1,2,0:0:0:0:
448,192,67373,1,0,0:0:0:0:
64,192,67456,1,2,0:0:0:0:
192,192,67456,1,0,0:0:0:0:
320,192,67538,1,2,0:0:0:0:
64,192,67621,1,8,0:0:0:0:
448,192,67621,1,0,0:0:0:0:
192,192,67703,1,2,0:0:0:0:
320,192,67785,1,2,0:0:0:0:
448,192,67785,1,0,0:0:0:0:
64,192,67868,1,2,0:0:0:0:
192,192,67868,1,0,0:0:0:0:
320,192,67950,1,2,0:0:0:0:
448,192,67950,1,0,0:0:0:0:
192,192,68033,1,2,0:0:0:0:
64,192,68115,1,8,0:0:0:0:
448,192,68115,1,0,0:0:0:0:
320,192,68198,1,2,0:0:0:0:
64,192,68280,1,2,0:0:0:0:
192,192,68280,1,0,0:0:0:0:
448,192,68362,1,2,0:0:0:0:
64,192,68445,1,2,0:0:0:0:
192,192,68445,1,0,0:0:0:0:
320,192,68527,1,2,0:0:0:0:
448,192,68527,1,0,0:0:0:0:
64,192,68610,1,8,0:0:0:0:
192,192,68610,1,0,0:0:0:0:
320,192,68692,1,2,0:0:0:0:
448,192,68692,1,0,0:0:0:0:
64,192,68774,1,2,0:0:0:0:
192,192,68774,1,0,0:0:0:0:
320,192,68857,1,2,0:0:0:0:
448,192,68857,1,0,0:0:0:0:
64,192,68939,1,8,0:0:0:0:
192,192,68939,1,0,0:0:0:0:
320,192,69022,1,2,0:0:0:0:
448,192,69022,1,0,0:0:0:0:
64,192,69104,1,8,0:0:0:0:
192,192,69104,1,0,0:0:0:0:
320,192,69187,1,8,0:0:0:0:
64,192,69269,1,8,0:0:0:0:
192,192,69269,1,4,0:0:0:0:
448,192,69269,1,0,0:0:0:0:
320,192,69351,1,2,0:0:0:0:
64,192,69434,1,2,0:0:0:0:
192,192,69434,1,0,0:0:0:0:
320,192,69516,1,2,0:0:0:0:
448,192,69516,1,0,0:0:0:0:
64,192,69599,1,2,0:0:0:0:
192,192,69599,1,0,0:0:0:0:
320,192,69681,1,2,0:0:0:0:
64,192,69763,1,8,0:0:0:0:
448,192,69763,1,0,0:0:0:0:
192,192,69846,1,2,0:0:0:0:
320,192,69928,1,2,0:0:0:0:
448,192,69928,1,0,0:0:0:0:
64,192,70011,1,2,0:0:0:0:
192,192,70011,1,0,0:0:0:0:
320,192,70093,1,2,0:0:0:0:
448,192,70093,1,0,0:0:0:0:
192,192,70176,1,2,0:0:0:0:
64,192,70258,1,8,0:0:0:0:
448,192,70258,1,0,0:0:0:0:
320,192,70340,1,2,0:0:0:0:
64,192,70423,1,2,0:0:0:0:
192,192,70423,1,0,0:0:0:0:
320,192,70505,1,2,0:0:0:0:
448,192,70505,1,0,0:0:0:0:
64,192,70588,1,2,0:0:0:0:
192,192,70588,1,0,0:0:0:0:
320,192,70670,1,2,0:0:0:0:
64,192,70752,1,8,0:0:0:0:
448,192,70752,1,0,0:0:0:0:
192,192,70835,1,2,0:0:0:0:
320,192,70917,1,2,0:0:0:0:
448,192,70917,1,0,0:0:0:0:
64,192,71000,1,2,0:0:0:0:
192,192,71000,1,0,0:0:0:0:
320,192,71082,1,2,0:0:0:0:
448,192,71082,1,0,0:0:0:0:
64,192,71165,1,2,0:0:0:0:
320,192,71247,1,8,0:0:0:0:
448,192,71247,1,0,0:0:0:0:
64,192,71329,1,2,0:0:0:0:
192,192,71329,1,0,0:0:0:0:
320,192,71412,1,2,0:0:0:0:
448,192,71412,1,0,0:0:0:0:
64,192,71494,1,2,0:0:0:0:
192,192,71494,1,0,0:0:0:0:
320,192,71577,1,8,0:0:0:0:
448,192,71577,1,0,0:0:0:0:
64,192,71659,1,2,0:0:0:0:
192,192,71659,1,0,0:0:0:0:
320,192,71741,1,2,0:0:0:0:
448,192,71741,1,0,0:0:0:0:
192,192,71824,1,2,0:0:0:0:
64,192,71906,1,4,0:0:0:0:
320,192,71906,1,8,0:0:0:0:
448,192,71906,1,0,0:0:0:0:
192,192,71989,1,2,0:0:0:0:
320,192,72071,1,2,0:0:0:0:
448,192,72071,1,0,0:0:0:0:
64,192,72154,1,2,0:0:0:0:
192,192,72154,1,0,0:0:0:0:
320,192,72236,1,2,0:0:0:0:
448,192,72236,1,0,0:0:0:0:
192,192,72318,1,2,0:0:0:0:
64,192,72401,1,8,0:0:0:0:
448,192,72401,1,0,0:0:0:0:
320,192,72483,1,2,0:0:0:0:
64,192,72566,1,2,0:0:0:0:
192,192,72566,1,0,0:0:0:0:
320,192,72648,1,2,0:0:0:0:
448,192,72648,1,0,0:0:0:0:
64,192,72730,1,2,0:0:0:0:
192,192,72730,1,0,0:0:0:0:
320,192,72813,1,2,0:0:0:0:
64,192,72895,1,8,0:0:0:0:
448,192,72895,1,0,0:0:0:0:
192,192,72978,1,2,0:0:0:0:
320,192,73060,1,2,0:0:0:0:
448,192,73060,1,0,0:0:0:0:
64,192,73143,1,2,0:0:0:0:
192,192,73143,1,0,0:0:0:0:
320,192,73225,1,2,0:0:0:0:
448,192,73225,1,0,0:0:0:0:
192,192,73307,1,2,0:0:0:0:
64,192,73390,1,8,0:0:0:0:
448,192,73390,1,0,0:0:0:0:
320,192,73472,1,2,0:0:0:0:
64,192,73555,1,2,0:0:0:0:
192,192,73555,1,0,0:0:0:0:
448,192,73637,1,2,0:0:0:0:
64,192,73719,1,2,0:0:0:0:
192,192,73719,1,0,0:0:0:0:
320,192,73802,1,2,0:0:0:0:
448,192,73802,1,0,0:0:0:0:
64,192,73884,1,8,0:0:0:0:
192,192,73884,1,0,0:0:0:0:
320,192,73967,1,2,0:0:0:0:
448,192,73967,1,0,0:0:0:0:
64,192,74049,1,2,0:0:0:0:
192,192,74049,1,0,0:0:0:0:
320,192,74132,1,2,0:0:0:0:
448,192,74132,1,0,0:0:0:0:
64,192,74214,1,8,0:0:0:0:
192,192,74214,1,0,0:0:0:0:
320,192,74296,1,2,0:0:0:0:
448,192,74296,1,0,0:0:0:0:
64,192,74379,1,8,0:0:0:0:
192,192,74379,1,0,0:0:0:0:
320,192,74461,1,8,0:0:0:0:
64,192,74544,1,4,0:0:0:0:
192,192,74544,1,8,0:0:0:0:
448,192,74544,1,0,0:0:0:0:
320,192,74626,1,2,0:0:0:0:
64,192,74708,1,2,0:0:0:0:
192,192,74708,1,0,0:0:0:0:
320,192,74791,1,2,0:0:0:0:
448,192,74791,1,0,0:0:0:0:
64,192,74873,1,2,0:0:0:0:
192,192,74873,1,0,0:0:0:0:
320,192,74956,1,2,0:0:0:0:
64,192,75038,1,0,0:0:0:70:Tom2.wav
448,192,75038,1,0,0:0:0:0:
192,192,75121,1,2,0:0:0:0:
64,192,75203,1,0,0:0:0:70:Tom2.wav
448,192,75203,1,0,0:0:0:0:
320,192,75285,1,2,0:0:0:0:
64,192,75368,1,8,0:0:0:0:
192,192,75368,1,0,0:0:0:0:
320,192,75450,1,8,0:0:0:0:
448,192,75450,1,0,0:0:0:0:
64,192,75533,1,2,0:0:0:0:
192,192,75533,1,0,0:0:0:70:Tom1.wav
320,192,75615,1,0,0:0:0:70:Tom1.wav
448,192,75615,1,0,0:0:0:0:
192,192,75698,1,0,0:0:0:70:Tom2.wav
320,192,75780,1,0,0:0:0:70:Tom2.wav
64,192,75862,1,8,0:0:0:0:
192,192,75862,1,0,0:0:0:0:
448,192,75862,1,0,0:0:0:0:
64,192,76110,1,8,0:0:0:0:
192,192,76110,1,0,0:0:0:0:
320,192,76110,1,0,0:0:0:0:
64,192,76357,1,8,0:0:0:0:
192,192,76357,1,2,0:0:0:0:
320,192,76357,1,4,0:0:0:0:
448,192,76357,1,0,0:0:0:0:
192,192,76687,1,8,0:0:0:0:
320,192,76687,1,0,0:0:0:0:
448,192,76687,1,0,0:0:0:0:
64,192,76851,1,8,0:0:0:0:
192,192,76851,1,4,0:0:0:0:
320,192,76851,1,2,0:0:0:0:
448,192,76851,1,0,0:0:0:0:
64,192,77181,1,4,0:0:0:0:
320,192,77181,1,2,0:0:0:0:
448,192,77181,1,0,0:0:0:0:
192,192,77346,1,0,0:0:0:0:
64,192,77511,1,8,0:0:0:0:
320,192,77511,1,0,0:0:0:35:drum-hitfinish.wav
448,192,77511,1,0,0:0:0:0:
64,192,77676,1,2,0:0:0:0:
320,192,77758,1,8,0:0:0:0:
448,192,77758,1,0,0:0:0:0:
64,192,77840,1,2,0:0:0:0:
192,192,77840,1,0,0:0:0:35:drum-hitfinish.wav
320,192,78005,1,2,0:0:0:0:
448,192,78005,1,0,0:0:0:0:
64,192,78170,1,8,0:0:0:0:
192,192,78170,1,0,0:0:0:35:drum-hitfinish.wav
448,192,78170,1,0,0:0:0:0:
320,192,78335,1,0,0:0:0:0:
64,192,78500,1,2,0:0:0:0:
320,192,78500,1,0,0:0:0:35:drum-hitfinish.wav
192,192,78665,1,0,0:0:0:0:
64,192,78829,1,8,0:0:0:0:
320,192,78829,1,0,0:0:0:35:drum-hitfinish.wav
448,192,78829,1,0,0:0:0:0:
448,192,78994,1,2,0:0:0:0:
192,192,79077,1,8,0:0:0:0:
320,192,79077,1,0,0:0:0:0:
64,192,79159,1,2,0:0:0:0:
448,192,79159,1,0,0:0:0:35:drum-hitfinish.wav
192,192,79324,1,2,0:0:0:0:
320,192,79324,1,0,0:0:0:0:
64,192,79489,1,8,0:0:0:0:
192,192,79489,1,0,0:0:0:35:drum-hitfinish.wav
448,192,79489,1,0,0:0:0:0:
320,192,79654,1,0,0:0:0:0:
64,192,79818,1,2,0:0:0:0:
192,192,79818,1,0,0:0:0:35:drum-hitfinish.wav
320,192,79983,1,0,0:0:0:0:
64,192,80148,1,8,0:0:0:0:
192,192,80148,1,0,0:0:0:35:drum-hitfinish.wav
448,192,80148,1,0,0:0:0:0:
320,192,80313,1,2,0:0:0:0:
64,192,80395,1,8,0:0:0:0:
192,192,80395,1,0,0:0:0:0:
320,192,80478,1,2,0:0:0:0:
448,192,80478,1,0,0:0:0:35:drum-hitfinish.wav
64,192,80643,1,2,0:0:0:0:
192,192,80643,1,0,0:0:0:0:
64,192,80807,1,8,0:0:0:0:
320,192,80807,1,0,0:0:0:35:drum-hitfinish.wav
448,192,80807,1,0,0:0:0:0:
192,192,80972,1,0,0:0:0:0:
320,192,81137,1,2,0:0:0:0:
448,192,81137,1,0,0:0:0:35:drum-hitfinish.wav
64,192,81302,1,2,0:0:0:0:
192,192,81302,1,0,0:0:0:0:
64,192,81467,1,8,0:0:0:0:
320,192,81467,1,0,0:0:0:35:drum-hitfinish.wav
448,192,81467,1,0,0:0:0:0:
192,192,81632,1,2,0:0:0:0:
320,192,81714,1,8,0:0:0:0:
448,192,81714,1,0,0:0:0:0:
64,192,81796,1,2,0:0:0:0:
192,192,81796,1,0,0:0:0:35:drum-hitfinish.wav
64,192,81961,1,8,0:0:0:0:
448,192,81961,1,0,0:0:0:0:
192,192,82044,1,8,0:0:0:0:
320,192,82126,1,2,0:0:0:0:
448,192,82126,1,0,0:0:0:0:
64,192,82208,1,8,0:0:0:0:
192,192,82208,1,0,0:0:0:0:
320,192,82291,1,8,0:0:0:0:
448,192,82291,1,0,0:0:0:0:
192,192,82373,1,8,0:0:0:0:
64,192,82456,1,2,0:0:0:0:
320,192,82456,1,4,0:0:0:0:
448,192,82456,1,0,0:0:0:0:
192,192,82621,1,0,0:0:0:0:
64,192,82785,1,8,0:0:0:0:
320,192,82785,1,0,0:0:0:60:LR_Ride Med.wav
448,192,82785,1,0,0:0:0:0:
192,192,82950,1,2,0:0:0:0:
320,192,83033,1,8,0:0:0:0:
448,192,83033,1,0,0:0:0:0:
64,192,83115,1,2,0:0:0:0:
192,192,83115,1,0,0:0:0:60:LR_Ride Med.wav
320,192,83280,1,2,0:0:0:0:
448,192,83280,1,0,0:0:0:0:
64,192,83445,1,8,0:0:0:0:
192,192,83445,1,0,0:0:0:60:LR_Ride Med.wav
448,192,83445,1,0,0:0:0:0:
192,192,83610,1,0,0:0:0:0:
320,192,83774,1,2,0:0:0:0:
448,192,83774,1,0,0:0:0:60:LR_Ride Med.wav
64,192,83939,1,2,0:0:0:0:
192,192,83939,1,0,0:0:0:0:
64,192,84104,1,8,0:0:0:0:
320,192,84104,1,0,0:0:0:60:LR_Ride Med.wav
448,192,84104,1,0,0:0:0:0:
192,192,84269,1,2,0:0:0:0:
320,192,84269,1,0,0:0:0:0:
64,192,84434,1,8,0:0:0:0:
192,192,84434,1,0,0:0:0:60:LR_Ride Med.wav
448,192,84434,1,0,0:0:0:0:
320,192,84516,1,8,0:0:0:0:
64,192,84599,1,8,0:0:0:0:
192,192,84599,1,0,0:0:0:0:
320,192,84681,1,2,0:0:0:0:
448,192,84681,1,0,0:0:0:0:
64,192,84763,1,8,0:0:0:0:
192,192,84763,1,0,0:0:0:0:
320,192,84846,1,2,0:0:0:0:
448,192,84846,1,0,0:0:0:0:
64,192,84928,1,8,0:0:0:0:
192,192,85011,1,8,0:0:0:0:
64,192,85093,1,2,0:0:0:0:
320,192,85093,1,4,0:0:0:0:
448,192,85093,1,0,0:0:0:0:
192,192,85176,1,2,0:0:0:0:
448,192,85258,1,2,0:0:0:0:
320,192,85258,1,0,0:0:0:0:
192,192,85340,1,2,0:0:0:0:
64,192,85423,1,8,0:0:0:0:
448,192,85423,1,0,0:0:0:0:
320,192,85505,1,8,0:0:0:0:
64,192,85588,1,8,0:0:0:0:
192,192,85588,1,4,0:0:0:0:
448,192,85588,1,0,0:0:0:0:
320,192,85670,1,2,0:0:0:0:
192,192,85752,1,2,0:0:0:0:
64,192,85752,1,0,0:0:0:0:
320,192,85835,1,2,0:0:0:0:
448,192,85917,1,8,0:0:0:0:
64,192,85917,1,0,0:0:0:0:
192,192,86000,1,8,0:0:0:0:
448,192,86082,1,8,0:0:0:0:
320,192,86082,1,4,0:0:0:0:
64,192,86082,1,0,0:0:0:0:
192,192,86165,1,2,0:0:0:0:
448,192,86247,1,2,0:0:0:0:
320,192,86247,1,0,0:0:0:0:
64,192,86329,1,2,0:0:0:0:
448,192,86412,1,8,0:0:0:0:
320,192,86412,1,0,0:0:0:0:
64,192,86494,1,8,0:0:0:0:
448,192,86577,1,8,0:0:0:0:
320,192,86577,1,4,0:0:0:0:
192,192,86577,1,0,0:0:0:0:
64,192,86659,1,2,0:0:0:0:
320,192,86741,1,8,0:0:0:0:
192,192,86741,1,0,0:0:0:0:
448,192,86824,1,8,0:0:0:0:
192,192,86906,1,8,0:0:0:0:
64,192,86906,1,0,0:0:0:0:
448,192,86989,1,8,0:0:0:0:
320,192,86989,1,0,0:0:0:0:
64,192,87071,1,2,0:0:0:0:
320,192,87154,1,2,0:0:0:0:
192,192,87236,1,8,0:0:0:0:
64,192,87236,1,0,0:0:0:0:
448,192,87318,1,8,0:0:0:0:
320,192,87318,1,0,0:0:0:0:
192,192,87401,1,8,0:0:0:0:
64,192,87401,1,0,0:0:0:0:
320,192,87566,1,0,0:0:0:70:Tom3.wav
192,192,87648,1,2,0:0:0:0:
64,192,87730,128,8,87895:0:0:0:0:
320,192,87730,1,4,0:0:0:0:
448,192,87730,128,0,87895:0:0:0:0:
64,192,88060,1,8,0:0:0:0:
320,192,88060,128,0,88225:0:0:0:35:drum-hitfinish.wav
448,192,88060,128,0,88225:0:0:0:0:
64,192,88225,1,2,0:0:0:0:
192,192,88225,1,0,0:0:0:0:
192,192,88390,1,8,0:0:0:0:
320,192,88390,1,0,0:0:0:35:drum-hitfinish.wav
448,192,88390,1,0,0:0:0:0:
64,192,88555,1,2,0:0:0:0:
320,192,88555,1,0,0:0:0:0:
64,192,88719,1,8,0:0:0:0:
192,192,88719,128,0,88884:0:0:0:35:drum-hitfinish.wav
448,192,88719,128,0,88884:0:0:0:0:
64,192,88884,1,2,0:0:0:0:
320,192,88884,1,0,0:0:0:0:
320,192,88967,1,2,0:0:0:0:
64,192,89049,128,8,89214:0:0:0:0:
192,192,89049,128,0,89214:0:0:0:35:drum-hitfinish.wav
448,192,89049,1,0,0:0:0:0:
320,192,89214,1,2,0:0:0:0:
448,192,89214,1,0,0:0:0:0:
64,192,89379,1,8,0:0:0:0:
320,192,89379,128,0,89544:0:0:0:35:drum-hitfinish.wav
448,192,89379,128,0,89544:0:0:0:0:
64,192,89544,1,2,0:0:0:0:
192,192,89544,1,0,0:0:0:0:
192,192,89708,1,8,0:0:0:0:
320,192,89708,1,0,0:0:0:35:drum-hitfinish.wav
448,192,89708,1,0,0:0:0:0:
64,192,89873,1,2,0:0:0:0:
320,192,89873,1,0,0:0:0:0:
448,192,90038,128,4,90203:0:0:0:0:
64,192,90038,128,8,90203:0:0:0:0:
192,192,90203,1,2,0:0:0:0:
320,192,90203,1,0,0:0:0:0:
320,192,90285,1,2,0:0:0:0:
64,192,90368,128,4,90533:0:0:0:0:
192,192,90368,128,8,90533:0:0:0:0:
448,192,90368,1,0,0:0:0:0:
64,192,90698,128,8,90862:0:0:0:0:
320,192,90698,128,0,90862:0:0:0:35:drum-hitfinish.wav
448,192,90698,1,0,0:0:0:0:
192,192,90862,128,2,91027:0:0:0:0:
448,192,90862,128,0,91027:0:0:0:0:
64,192,91027,1,8,0:0:0:0:
320,192,91027,1,0,0:0:0:35:drum-hitfinish.wav
64,192,91192,128,2,91357:0:0:0:0:
192,192,91192,128,0,91357:0:0:0:0:
320,192,91357,1,8,0:0:0:0:
448,192,91357,1,0,0:0:0:35:drum-hitfinish.wav
192,192,91522,1,2,0:0:0:0:
448,192,91522,128,0,91851:0:0:0:0:
192,192,91604,1,2,0:0:0:0:
64,192,91687,1,8,0:0:0:0:
320,192,91687,1,4,0:0:0:0:
64,192,91851,128,0,92016:0:0:0:0:
192,192,92016,1,8,0:0:0:0:
320,192,92016,1,0,0:0:0:35:drum-hitfinish.wav
448,192,92016,1,0,0:0:0:0:
320,192,92181,128,2,92346:0:0:0:0:
448,192,92181,128,0,92346:0:0:0:35:drum-hitfinish.wav
64,192,92346,1,8,0:0:0:0:
192,192,92346,1,0,0:0:0:35:drum-hitfinish.wav
192,192,92511,1,2,0:0:0:0:
320,192,92511,1,0,0:0:0:0:
64,192,92676,128,8,92840:0:0:0:0:
320,192,92676,128,0,92840:0:0:0:35:drum-hitfinish.wav
448,192,92676,1,0,0:0:0:0:
64,192,93005,1,2,0:0:0:0:
320,192,93005,128,4,93170:0:0:0:0:
448,192,93005,128,0,93170:0:0:0:0:
192,192,93170,1,0,0:0:0:0:
64,192,93335,1,8,0:0:0:0:
320,192,93335,128,0,93500:0:0:0:0:
448,192,93335,128,0,93500:0:0:0:0:
64,192,93500,1,2,0:0:0:0:
192,192,93500,1,4,0:0:0:0:
192,192,93665,1,0,0:0:0:0:
64,192,93829,1,8,0:0:0:0:
320,192,93829,1,0,0:0:0:0:
448,192,93829,1,0,0:0:0:0:
64,192,93994,128,2,94159:0:0:0:0:
320,192,93994,1,4,0:0:0:0:
448,192,93994,128,0,94159:0:0:0:0:
64,192,94324,128,8,94489:0:0:0:0:
192,192,94324,128,0,94489:0:0:0:0:
320,192,94324,1,0,0:0:0:0:
320,192,94489,1,2,0:0:0:0:
448,192,94489,1,4,0:0:0:0:
64,192,94654,128,0,94818:0:0:0:0:
448,192,94654,128,0,94818:0:0:0:0:
192,192,94818,1,8,0:0:0:0:
320,192,94818,1,0,0:0:0:0:
64,192,94983,1,2,0:0:0:0:
192,192,94983,1,4,0:0:0:0:
320,192,94983,1,0,0:0:0:0:
448,192,94983,1,0,0:0:0:0:
448,192,95148,1,0,0:0:0:70:Tom1.wav
192,192,95230,1,0,0:0:0:70:Tom1.wav
320,192,95313,1,0,0:0:0:70:Tom2.wav
192,192,95395,1,0,0:0:0:70:Tom2.wav
64,192,95478,1,0,0:0:0:70:Tom3.wav
320,192,95560,1,0,0:0:0:70:Tom3.wav
64,192,95643,1,2,0:0:0:0:
192,192,95643,1,4,0:0:0:0:
448,192,95643,1,0,0:0:0:0:
320,192,95807,1,0,0:0:0:0:
64,192,95972,1,8,0:0:0:0:
192,192,95972,1,0,0:0:0:0:
448,192,95972,1,0,0:0:0:0:
64,192,96137,1,8,0:0:0:0:
448,192,96137,1,0,0:0:0:0:
320,192,96219,1,2,0:0:0:0:
64,192,96302,1,8,0:0:0:0:
448,192,96302,1,0,0:0:0:0:
192,192,96384,1,2,0:0:0:0:
320,192,96467,1,8,0:0:0:0:
448,192,96467,1,0,0:0:0:0:
320,192,96549,1,8,0:0:0:0:
448,192,96549,1,0,0:0:0:0:
64,192,96632,1,8,0:0:0:0:
192,192,96632,1,0,0:0:0:0:
64,192,96714,1,8,0:0:0:0:
192,192,96714,1,0,0:0:0:0:
448,192,96796,1,0,0:0:0:70:Tom2.wav
64,192,96961,1,2,0:0:0:0:
192,192,96961,1,4,0:0:0:0:
320,192,96961,1,0,0:0:0:0:
448,192,96961,128,0,97621:0:0:0:0:
64,192,97950,1,8,0:0:0:0:
192,192,97950,1,0,0:0:0:0:
448,192,97950,1,0,0:0:0:0:
320,192,98033,1,0,0:0:0:70:Tom1.wav
192,192,98115,1,0,0:0:0:70:Tom2.wav
448,192,98198,1,0,0:0:0:70:Tom2.wav
64,192,98280,1,8,0:0:0:0:
192,192,98280,1,4,0:0:0:0:
320,192,98280,1,0,0:0:0:0:
320,192,98445,1,2,0:0:0:0:
448,192,98445,1,0,0:0:0:0:
64,192,98610,1,2,0:0:0:0:
192,192,98610,1,0,0:0:0:0:
64,192,98774,1,8,0:0:0:0:
192,192,98774,1,4,0:0:0:0:
320,192,98774,1,0,0:0:0:0:
448,192,98774,1,0,0:0:0:0:
64,192,98939,1,2,0:0:0:0:
320,192,98939,1,0,0:0:0:0:
192,192,99104,1,2,0:0:0:0:
448,192,99104,1,0,0:0:0:0:
64,192,99269,1,4,0:0:0:0:
192,192,99269,1,8,0:0:0:0:
320,192,99269,1,0,0:0:0:0:
448,192,99269,1,0,0:0:0:0:
320,192,99434,1,2,0:0:0:0:
448,192,99434,1,0,0:0:0:0:
64,192,99599,1,2,0:0:0:0:
192,192,99599,1,0,0:0:0:0:
64,192,99763,1,8,0:0:0:0:
192,192,99763,1,4,0:0:0:0:
320,192,99763,1,0,0:0:0:0:
448,192,99763,1,0,0:0:0:0:
192,192,99928,1,2,0:0:0:0:
448,192,99928,1,0,0:0:0:0:
64,192,100093,1,2,0:0:0:0:
320,192,100093,1,0,0:0:0:0:
64,192,100258,1,4,0:0:0:0:
192,192,100258,1,8,0:0:0:0:
320,192,100258,1,0,0:0:0:0:
448,192,100258,1,0,0:0:0:0:
192,192,100423,1,2,0:0:0:0:
448,192,100423,1,0,0:0:0:0:
64,192,100588,1,4,0:0:0:0:
192,192,100588,1,8,0:0:0:0:
320,192,100588,1,0,0:0:0:0:
448,192,100588,1,0,0:0:0:0:
64,192,100752,1,2,0:0:0:0:
320,192,100752,1,0,0:0:0:0:
192,192,100835,1,2,0:0:0:0:
64,192,100917,1,4,0:0:0:0:
320,192,100917,1,8,0:0:0:0:
448,192,100917,1,0,0:0:0:0:
192,192,101082,1,2,0:0:0:0:
448,192,101082,1,0,0:0:0:0:
64,192,101247,1,2,0:0:0:0:
320,192,101247,1,0,0:0:0:0:
64,192,101412,1,4,0:0:0:0:
192,192,101412,1,8,0:0:0:0:
320,192,101412,1,0,0:0:0:0:
448,192,101412,1,0,0:0:0:0:
192,192,101577,1,2,0:0:0:0:
448,192,101577,1,0,0:0:0:0:
64,192,101741,1,2,0:0:0:0:
320,192,101741,1,0,0:0:0:0:
64,192,101906,1,8,0:0:0:0:
192,192,101906,1,4,0:0:0:0:
320,192,101906,1,0,0:0:0:0:
448,192,101906,1,0,0:0:0:0:
64,192,102071,1,2,0:0:0:0:
192,192,102071,1,0,0:0:0:0:
320,192,102236,1,2,0:0:0:0:
448,192,102236,1,0,0:0:0:0:
64,192,102401,1,4,0:0:0:0:
192,192,102401,1,8,0:0:0:0:
320,192,102401,1,0,0:0:0:0:
448,192,102401,1,0,0:0:0:0:
64,192,102566,1,2,0:0:0:0:
192,192,102566,1,0,0:0:0:0:
320,192,102730,1,2,0:0:0:0:
448,192,102730,1,0,0:0:0:0:
64,192,102895,1,0,0:0:0:70:Tom1.wav
192,192,102895,1,0,0:0:0:0:
192,192,103060,1,0,0:0:0:70:Tom2.wav
320,192,103060,1,0,0:0:0:0:
320,192,103225,1,0,0:0:0:70:Tom3.wav
448,192,103225,1,0,0:0:0:0:
64,192,103390,1,2,0:0:0:0:
192,192,103390,1,0,0:0:0:0:
320,192,103472,1,2,0:0:0:0:
64,192,103555,1,8,0:0:0:0:
192,192,103555,1,4,0:0:0:0:
448,192,103555,1,0,0:0:0:0:
320,192,103719,1,2,0:0:0:0:
448,192,103719,1,0,0:0:0:0:
64,192,103884,1,2,0:0:0:0:
192,192,103884,1,0,0:0:0:0:
64,192,104049,1,8,0:0:0:0:
192,192,104049,1,4,0:0:0:0:
320,192,104049,1,0,0:0:0:0:
448,192,104049,1,0,0:0:0:0:
64,192,104214,1,2,0:0:0:0:
320,192,104214,1,0,0:0:0:0:
192,192,104379,1,2,0:0:0:0:
448,192,104379,1,0,0:0:0:0:
64,192,104544,1,4,0:0:0:0:
192,192,104544,1,8,0:0:0:0:
320,192,104544,1,0,0:0:0:0:
448,192,104544,1,0,0:0:0:0:
320,192,104708,1,2,0:0:0:0:
448,192,104708,1,0,0:0:0:0:
64,192,104873,1,2,0:0:0:0:
192,192,104873,1,0,0:0:0:0:
64,192,105038,1,8,0:0:0:0:
192,192,105038,1,4,0:0:0:0:
320,192,105038,1,0,0:0:0:0:
448,192,105038,1,0,0:0:0:0:
320,192,105203,1,2,0:0:0:0:
448,192,105203,1,0,0:0:0:0:
64,192,105368,1,2,0:0:0:0:
192,192,105368,1,0,0:0:0:0:
64,192,105533,1,4,0:0:0:0:
192,192,105533,1,8,0:0:0:0:
320,192,105533,1,0,0:0:0:0:
448,192,105533,1,0,0:0:0:0:
192,192,105698,1,2,0:0:0:0:
320,192,105698,1,0,0:0:0:0:
64,192,105862,1,4,0:0:0:0:
192,192,105862,1,8,0:0:0:0:
320,192,105862,1,0,0:0:0:0:
448,192,105862,1,0,0:0:0:0:
320,192,106027,1,2,0:0:0:0:
448,192,106027,1,0,0:0:0:0:
192,192,106110,1,2,0:0:0:0:
64,192,106192,1,4,0:0:0:0:
320,192,106192,1,8,0:0:0:0:
448,192,106192,1,0,0:0:0:0:
64,192,106357,1,2,0:0:0:0:
192,192,106357,1,0,0:0:0:0:
320,192,106522,1,2,0:0:0:0:
448,192,106522,1,0,0:0:0:0:
64,192,106687,1,8,0:0:0:0:
192,192,106687,1,4,0:0:0:0:
320,192,106687,1,0,0:0:0:0:
448,192,106687,1,0,0:0:0:0:
64,192,106851,1,0,0:0:0:70:Tom2.wav
192,192,106851,1,0,0:0:0:0:
320,192,107016,1,0,0:0:0:70:Tom2.wav
448,192,107016,1,0,0:0:0:0:
192,192,107181,1,0,0:0:0:70:Tom1.wav
320,192,107181,1,0,0:0:0:0:
64,192,107346,1,0,0:0:0:70:Tom2.wav
192,192,107346,1,0,0:0:0:0:
64,192,107511,128,2,108005:0:0:0:0:
320,192,107511,1,4,0:0:0:0:
448,192,107511,1,0,0:0:0:0:
320,192,108005,128,0,108500:0:0:0:0:
448,192,108500,128,0,108829:0:0:0:0:
192,192,108829,1,0,0:0:0:0:
192,192,108994,1,0,0:0:0:0:
320,192,109159,1,0,0:0:0:0:
64,192,109324,1,0,0:0:0:0:
320,192,109654,1,0,0:0:0:0:
192,192,109818,1,0,0:0:0:0:
448,192,110148,1,0,0:0:0:0:
448,192,110313,1,0,0:0:0:0:
192,192,110478,1,0,0:0:0:0:
64,192,110560,1,0,0:0:0:0:
448,192,110643,1,0,0:0:0:0:
192,192,110807,1,0,0:0:0:0:
192,192,110972,1,0,0:0:0:0:
192,192,111137,128,0,111467:0:0:0:0:
64,192,111467,1,2,0:0:0:0:
448,192,111467,1,0,0:0:0:0:
64,192,111632,1,0,0:0:0:0:
320,192,111796,1,0,0:0:0:70:LR_Drum Click.wav
64,192,111961,128,0,112126:0:0:0:0:
448,192,112044,1,0,0:0:0:70:LR_Drum Click.wav
320,192,112126,1,2,0:0:0:0:
64,192,112208,128,0,112373:0:0:0:0:
320,192,112291,1,2,0:0:0:0:
64,192,112456,128,0,112621:0:0:0:0:
448,192,112456,1,0,0:0:0:0:
320,192,112621,1,0,0:0:0:70:LR_Drum Click.wav
192,192,112785,1,0,0:0:0:0:
64,192,112950,1,2,0:0:0:0:
448,192,112950,128,0,113115:0:0:0:0:
192,192,113115,1,0,0:0:0:70:LR_Drum Click.wav
448,192,113198,128,0,113362:0:0:0:0:
192,192,113362,1,0,0:0:0:70:LR_Drum Click.wav
320,192,113445,1,2,0:0:0:0:
448,192,113445,128,0,113610:0:0:0:0:
64,192,113610,1,2,0:0:0:0:
192,192,113610,1,0,0:0:0:0:
448,192,113774,1,0,0:0:0:70:LR_Drum Click.wav
192,192,113939,1,0,0:0:0:0:
64,192,114104,1,2,0:0:0:0:
320,192,114104,1,0,0:0:0:0:
448,192,114269,128,0,114434:0:0:0:0:
192,192,114434,1,0,0:0:0:70:LR_Drum Click.wav
448,192,114599,128,0,114763:0:0:0:0:
192,192,114681,1,0,0:0:0:70:LR_Drum Click.wav
64,192,114763,1,2,0:0:0:0:
448,192,114846,128,0,115011:0:0:0:0:
64,192,114928,1,2,0:0:0:0:
320,192,115093,1,0,0:0:0:0:
64,192,115258,1,0,0:0:0:70:LR_Drum Click.wav
192,192,115258,128,0,115423:0:0:0:0:
448,192,115423,1,0,0:0:0:0:
64,192,115588,1,2,0:0:0:0:
320,192,115588,128,0,115752:0:0:0:0:
192,192,115752,1,0,0:0:0:70:LR_Drum Click.wav
320,192,115835,128,0,116000:0:0:0:0:
64,192,116000,1,0,0:0:0:70:LR_Drum Click.wav
192,192,116082,1,2,0:0:0:0:
448,192,116082,1,0,0:0:0:0:
320,192,116247,1,2,0:0:0:0:
448,192,116247,1,0,0:0:0:0:
64,192,116412,1,0,0:0:0:70:LR_Drum Click.wav
320,192,116577,1,0,0:0:0:0:
448,192,116659,1,0,0:0:0:70:LR_Drum Click.wav
64,192,116741,1,2,0:0:0:0:
192,192,116741,1,0,0:0:0:0:
320,192,116906,1,0,0:0:0:0:
64,192,117071,1,0,0:0:0:70:LR_Drum Click.wav
448,192,117236,128,0,117401:0:0:0:0:
192,192,117318,1,0,0:0:0:70:LR_Drum Click.wav
64,192,117401,1,2,0:0:0:0:
448,192,117483,128,0,117648:0:0:0:0:
192,192,117566,1,2,0:0:0:0:
320,192,117730,1,0,0:0:0:0:
448,192,117895,1,0,0:0:0:70:LR_Drum Click.wav
192,192,118060,1,0,0:0:0:0:
64,192,118225,128,2,118390:0:0:0:0:
448,192,118225,1,0,0:0:0:0:
320,192,118390,1,0,0:0:0:70:LR_Drum Click.wav
64,192,118472,128,0,118637:0:0:0:0:
448,192,118555,128,0,118719:0:0:0:0:
192,192,118719,1,2,0:0:0:0:
320,192,118719,1,0,0:0:0:0:
64,192,118884,1,8,0:0:0:0:
192,192,118884,1,0,0:0:0:0:
448,192,118884,1,0,0:0:0:0:
192,192,119049,128,0,119214:0:0:0:0:
448,192,119049,128,0,119214:0:0:0:0:
64,192,119049,128,8,119214:0:0:0:0:
64,192,119379,1,2,0:0:0:0:
192,192,119379,128,4,119544:0:0:0:0:
320,192,119379,1,0,0:0:0:0:
448,192,119379,1,0,0:0:0:0:
320,192,119544,1,0,0:0:0:0:
192,192,119708,1,8,0:0:0:0:
64,192,119708,1,0,0:0:0:0:
448,192,119708,128,0,119873:0:0:0:0:
320,192,119873,1,0,0:0:0:0:
192,192,120038,128,2,120203:0:0:0:0:
448,192,120038,1,0,0:0:0:0:
64,192,120203,1,2,0:0:0:0:
448,192,120203,1,0,0:0:0:0:
320,192,120368,128,0,120533:0:0:0:0:
64,192,120533,1,8,0:0:0:0:
192,192,120533,128,0,120698:0:0:0:0:
448,192,120533,1,0,0:0:0:0:
448,192,120698,128,0,120862:0:0:0:0:
64,192,120862,1,2,0:0:0:0:
192,192,120862,1,0,0:0:0:0:
64,192,121027,1,8,0:0:0:0:
320,192,121027,1,0,0:0:0:0:
448,192,121027,1,0,0:0:0:0:
192,192,121192,1,0,0:0:0:0:
64,192,121357,1,8,0:0:0:0:
320,192,121357,1,0,0:0:0:70:Tom1.wav
448,192,121357,1,0,0:0:0:0:
192,192,121604,1,8,0:0:0:0:
320,192,121604,1,0,0:0:0:70:Tom2.wav
64,192,121851,1,8,0:0:0:0:
192,192,121851,1,0,0:0:0:70:Tom3.wav
64,192,122016,1,4,0:0:0:0:
320,192,122016,1,2,0:0:0:0:
448,192,122016,128,0,122511:0:0:0:0:
64,192,122346,1,8,0:0:0:0:
192,192,122346,1,0,0:0:0:0:
320,192,122511,1,2,0:0:0:0:
64,192,122593,1,8,0:0:0:0:
192,192,122593,1,0,0:0:0:0:
320,192,122676,1,2,0:0:0:0:
448,192,122676,128,0,123665:0:0:0:0:
64,192,122840,1,2,0:0:0:0:
192,192,122840,1,0,0:0:0:0:
320,192,123005,1,0,0:0:0:0:
64,192,123170,1,8,0:0:0:0:
192,192,123170,1,0,0:0:0:0:
192,192,123335,1,0,0:0:0:0:
64,192,123500,1,2,0:0:0:0:
320,192,123500,1,0,0:0:0:0:
192,192,123665,1,8,0:0:0:0:
320,192,123665,1,0,0:0:0:0:
448,192,123829,1,2,0:0:0:0:
64,192,123912,1,8,0:0:0:0:
320,192,123912,1,0,0:0:0:0:
192,192,123994,1,2,0:0:0:0:
448,192,123994,1,4,0:0:0:0:
64,192,124159,1,8,0:0:0:0:
320,192,124159,1,0,0:0:0:0:
448,192,124241,1,8,0:0:0:0:
64,192,124324,1,8,0:0:0:0:
192,192,124324,1,0,0:0:0:0:
320,192,124406,1,8,0:0:0:0:
448,192,124406,1,0,0:0:0:0:
64,192,124489,1,8,0:0:0:0:
192,192,124489,1,0,0:0:0:0:
320,192,124571,1,8,0:0:0:0:
64,192,124654,1,2,0:0:0:0:
192,192,124654,1,4,0:0:0:0:
448,192,124654,1,0,0:0:0:0:
320,192,124818,128,0,124983:0:0:0:0:
64,192,124983,1,8,0:0:0:0:
192,192,124983,1,0,0:0:0:35:drum-hitfinish.wav
448,192,124983,1,0,0:0:0:0:
64,192,125148,128,2,125313:0:0:0:0:
192,192,125230,1,8,0:0:0:0:
320,192,125313,1,2,0:0:0:0:
448,192,125313,1,0,0:0:0:35:drum-hitfinish.wav
64,192,125478,1,2,0:0:0:0:
192,192,125478,128,0,125643:0:0:0:0:
64,192,125643,1,8,0:0:0:0:
320,192,125643,1,0,0:0:0:35:drum-hitfinish.wav
448,192,125643,128,0,125807:0:0:0:0:
64,192,125807,128,0,125972:0:0:0:0:
192,192,125972,1,2,0:0:0:0:
448,192,125972,1,0,0:0:0:35:drum-hitfinish.wav
320,192,126137,1,0,0:0:0:0:
64,192,126302,1,8,0:0:0:0:
192,192,126302,1,0,0:0:0:35:drum-hitfinish.wav
448,192,126302,1,0,0:0:0:0:
320,192,126467,128,2,126632:0:0:0:0:
192,192,126549,1,8,0:0:0:0:
64,192,126632,1,2,0:0:0:0:
448,192,126632,128,0,126796:0:0:0:35:drum-hitfinish.wav
192,192,126796,128,2,126961:0:0:0:0:
320,192,126796,1,0,0:0:0:0:
64,192,126961,1,8,0:0:0:0:
320,192,126961,128,0,127126:0:0:0:35:drum-hitfinish.wav
448,192,126961,1,0,0:0:0:0:
64,192,127126,128,0,127291:0:0:0:0:
192,192,127291,1,2,0:0:0:0:
320,192,127291,1,4,0:0:0:0:
448,192,127291,1,0,0:0:0:35:drum-hitfinish.wav
448,192,127456,128,0,128280:0:0:0:0:
64,192,127621,1,8,0:0:0:0:
192,192,127621,1,0,0:0:0:35:drum-hitfinish.wav
320,192,127785,1,2,0:0:0:0:
64,192,127868,1,8,0:0:0:0:
192,192,127950,1,2,0:0:0:0:
320,192,127950,1,0,0:0:0:35:drum-hitfinish.wav
64,192,128115,1,2,0:0:0:0:
192,192,128115,1,0,0:0:0:0:
64,192,128280,1,8,0:0:0:0:
320,192,128280,1,0,0:0:0:35:drum-hitfinish.wav
192,192,128445,1,0,0:0:0:0:
320,192,128610,1,2,0:0:0:0:
448,192,128610,1,0,0:0:0:35:drum-hitfinish.wav
192,192,128774,1,2,0:0:0:0:
320,192,128774,1,0,0:0:0:0:
64,192,128939,1,8,0:0:0:0:
192,192,128939,1,4,0:0:0:0:
448,192,128939,1,0,0:0:0:0:
64,192,129104,1,8,0:0:0:0:
320,192,129104,1,0,0:0:0:0:
192,192,129187,1,8,0:0:0:0:
448,192,129187,1,0,0:0:0:0:
64,192,129269,1,8,0:0:0:0:
320,192,129269,1,0,0:0:0:0:
192,192,129434,1,0,0:0:0:70:Tom2.wav
448,192,129434,1,0,0:0:0:0:
320,192,129599,1,0,0:0:0:70:Tom3.wav
448,192,129599,1,0,0:0:0:0:
64,192,129763,1,0,0:0:0:0:
64,192,129928,1,2,0:0:0:0:
192,192,129928,128,4,130258:0:0:0:0:
320,192,129928,1,0,0:0:0:0:
448,192,129928,1,0,0:0:0:0:
320,192,130258,1,2,0:0:0:0:
448,192,130258,1,0,0:0:0:0:
192,192,130423,128,0,130588:0:0:0:0:
64,192,130588,1,8,0:0:0:0:
320,192,130588,1,0,0:0:0:0:
448,192,130588,128,0,130917:0:0:0:0:
64,192,130752,1,2,0:0:0:0:
192,192,130752,1,0,0:0:0:0:
320,192,130917,1,0,0:0:0:0:
64,192,131082,1,2,0:0:0:0:
192,192,131082,128,0,131247:0:0:0:0:
448,192,131247,128,0,131577:0:0:0:0:
64,192,131412,1,2,0:0:0:0:
320,192,131412,1,0,0:0:0:0:
64,192,131577,1,2,0:0:0:0:
192,192,131577,128,0,131741:0:0:0:0:
320,192,131741,128,0,131906:0:0:0:0:
64,192,131906,1,8,0:0:0:0:
192,192,131906,1,0,0:0:0:0:
448,192,131906,1,0,0:0:0:0:
320,192,132071,1,8,0:0:0:0:
448,192,132071,1,0,0:0:0:0:
64,192,132154,1,8,0:0:0:0:
192,192,132154,1,0,0:0:0:0:
320,192,132236,1,2,0:0:0:0:
64,192,132401,1,8,0:0:0:0:
192,192,132401,1,0,0:0:0:0:
320,192,132483,1,8,0:0:0:0:
448,192,132483,1,0,0:0:0:0:
64,192,132566,128,2,132895:0:0:0:0:
192,192,132566,1,4,0:0:0:0:
192,192,132730,1,2,0:0:0:0:
448,192,132730,1,0,0:0:0:0:
320,192,132895,1,0,0:0:0:0:
64,192,133060,1,2,0:0:0:0:
192,192,133060,1,0,0:0:0:0:
192,192,133225,1,8,0:0:0:0:
320,192,133225,1,0,0:0:0:0:
448,192,133225,1,0,0:0:0:0:
64,192,133390,1,0,0:0:0:0:
64,192,133555,1,2,0:0:0:0:
192,192,133555,128,0,133719:0:0:0:0:
320,192,133719,1,2,0:0:0:0:
448,192,133719,128,0,133884:0:0:0:0:
192,192,133884,128,0,134214:0:0:0:0:
320,192,134049,1,8,0:0:0:0:
448,192,134049,1,0,0:0:0:0:
64,192,134214,128,0,134544:0:0:0:0:
320,192,134544,1,8,0:0:0:0:
448,192,134544,1,0,0:0:0:0:
64,192,134626,1,8,0:0:0:0:
192,192,134626,1,0,0:0:0:0:
320,192,134708,1,8,0:0:0:0:
448,192,134708,1,0,0:0:0:0:
64,192,134791,1,8,0:0:0:0:
192,192,134791,1,0,0:0:0:0:
320,192,134873,128,2,135203:0:0:0:0:
64,192,135203,1,4,0:0:0:0:
192,192,135203,1,2,0:0:0:0:
448,192,135203,128,0,135368:0:0:0:0:
320,192,135368,1,0,0:0:0:0:
192,192,135533,1,0,0:0:0:0:
448,192,135698,128,0,136027:0:0:0:0:
64,192,135862,128,0,136110:0:0:0:0:
192,192,136110,1,0,0:0:0:0:
448,192,136192,128,0,136357:0:0:0:0:
192,192,136357,1,0,0:0:0:30:drum-hitfinish.wav
64,192,136439,1,0,0:0:0:30:drum-hitfinish.wav
320,192,136522,1,0,0:0:0:30:drum-hitfinish.wav
448,192,136687,128,0,137016:0:0:0:0:
192,192,137016,1,0,0:0:0:0:
64,192,137181,128,0,137511:0:0:0:0:
448,192,137346,128,0,137511:0:0:0:0:
192,192,137511,1,2,0:0:0:0:
320,192,137511,1,0,0:0:0:0:
64,192,137840,1,4,0:0:0:0:
192,192,137840,1,8,0:0:0:0:
448,192,137840,1,0,0:0:0:0:
64,192,138005,1,8,0:0:0:0:
448,192,138005,1,0,0:0:0:0:
64,192,138170,1,2,0:0:0:0:
192,192,138170,1,8,0:0:0:0:
320,192,138170,1,0,0:0:0:0:
64,192,138335,1,8,0:0:0:0:
320,192,138335,1,0,0:0:0:0:
192,192,138500,1,2,0:0:0:0:
320,192,138500,1,8,0:0:0:0:
448,192,138500,1,0,0:0:0:0:
192,192,138665,1,8,0:0:0:0:
448,192,138665,1,0,0:0:0:0:
64,192,138829,1,2,0:0:0:0:
192,192,138829,1,8,0:0:0:0:
320,192,138829,1,0,0:0:0:0:
64,192,138994,1,8,0:0:0:0:
320,192,138994,1,0,0:0:0:0:
64,192,139159,1,2,0:0:0:0:
192,192,139159,1,8,0:0:0:0:
448,192,139159,1,0,0:0:0:0:
192,192,139324,1,8,0:0:0:0:
448,192,139324,1,0,0:0:0:0:
64,192,139489,1,2,0:0:0:0:
320,192,139489,1,8,0:0:0:0:
448,192,139489,1,0,0:0:0:0:
64,192,139654,1,8,0:0:0:0:
320,192,139654,1,0,0:0:0:0:
64,192,139818,1,2,0:0:0:0:
192,192,139818,1,4,0:0:0:0:
448,192,139818,1,8,0:0:0:0:
448,192,139983,1,8,0:0:0:0:
64,192,140066,1,8,0:0:0:0:
192,192,140066,1,0,0:0:0:0:
320,192,140148,1,8,0:0:0:0:
448,192,140148,1,0,0:0:0:0:
64,192,140230,1,0,0:0:0:70:Tom1.wav
192,192,140313,1,0,0:0:0:70:Tom2.wav
320,192,140395,1,0,0:0:0:70:Tom3.wav
64,192,140478,1,2,0:0:0:0:
192,192,140478,1,4,0:0:0:0:
448,192,140478,128,0,140807:0:0:0:0:
64,192,140807,128,2,140972:0:0:0:0:
192,192,140807,1,0,0:0:0:70:Tom2.wav
320,192,140972,128,0,141137:0:0:0:0:
64,192,141137,128,2,141302:0:0:0:0:
192,192,141137,1,0,0:0:0:70:Tom2.wav
448,192,141302,128,0,141467:0:0:0:0:
64,192,141467,1,2,0:0:0:0:
192,192,141467,128,0,141796:0:0:0:70:Tom2.wav
320,192,141632,128,0,141796:0:0:0:0:
64,192,141796,128,2,142456:0:0:0:0:
448,192,141796,1,4,0:0:0:0:
192,192,142126,128,0,142456:0:0:0:0:
320,192,142456,1,2,0:0:0:0:
448,192,142456,1,0,0:0:0:0:
64,192,142538,1,8,0:0:0:0:
192,192,142538,1,0,0:0:0:0:
320,192,142621,1,8,0:0:0:0:
448,192,142621,1,0,0:0:0:0:
64,192,142703,1,8,0:0:0:0:
192,192,142703,1,0,0:0:0:0:
320,192,142785,1,8,0:0:0:0:
448,192,142785,1,0,0:0:0:0:
192,192,142868,1,0,0:0:0:70:Tom2.wav
64,192,142950,1,0,0:0:0:70:Tom2.wav
320,192,143033,1,2,0:0:0:0:
64,192,143115,1,4,0:0:0:0:
192,192,143115,1,8,0:0:0:0:
448,192,143115,1,0,0:0:0:0:
320,192,143280,1,2,0:0:0:0:
448,192,143280,1,0,0:0:0:0:
64,192,143445,1,2,0:0:0:0:
192,192,143445,1,0,0:0:0:0:
64,192,143610,1,4,0:0:0:0:
192,192,143610,1,8,0:0:0:0:
320,192,143610,1,0,0:0:0:0:
448,192,143610,1,0,0:0:0:0:
64,192,143774,1,2,0:0:0:0:
320,192,143774,1,0,0:0:0:0:
192,192,143939,1,2,0:0:0:0:
448,192,143939,1,0,0:0:0:0:
64,192,144104,1,8,0:0:0:0:
192,192,144104,1,4,0:0:0:0:
320,192,144104,1,0,0:0:0:0:
448,192,144104,1,0,0:0:0:0:
320,192,144269,1,2,0:0:0:0:
448,192,144269,1,0,0:0:0:0:
64,192,144434,1,2,0:0:0:0:
192,192,144434,1,0,0:0:0:0:
64,192,144599,1,4,0:0:0:0:
192,192,144599,1,8,0:0:0:0:
320,192,144599,1,0,0:0:0:0:
448,192,144599,1,0,0:0:0:0:
192,192,144763,1,2,0:0:0:0:
448,192,144763,1,0,0:0:0:0:
64,192,144928,1,2,0:0:0:0:
320,192,144928,1,0,0:0:0:0:
64,192,145093,1,8,0:0:0:0:
192,192,145093,1,4,0:0:0:0:
320,192,145093,1,0,0:0:0:0:
448,192,145093,1,0,0:0:0:0:
192,192,145258,1,2,0:0:0:0:
448,192,145258,1,0,0:0:0:0:
64,192,145423,1,8,0:0:0:0:
192,192,145423,1,4,0:0:0:0:
320,192,145423,1,0,0:0:0:0:
448,192,145423,1,0,0:0:0:0:
64,192,145588,1,2,0:0:0:0:
320,192,145588,1,0,0:0:0:0:
192,192,145670,1,2,0:0:0:0:
64,192,145752,1,8,0:0:0:0:
320,192,145752,1,4,0:0:0:0:
448,192,145752,1,0,0:0:0:0:
192,192,145917,1,2,0:0:0:0:
448,192,145917,1,0,0:0:0:0:
64,192,146082,1,2,0:0:0:0:
320,192,146082,1,0,0:0:0:0:
64,192,146247,1,8,0:0:0:0:
192,192,146247,1,4,0:0:0:0:
320,192,146247,1,0,0:0:0:0:
448,192,146247,1,0,0:0:0:0:
192,192,146412,1,2,0:0:0:0:
448,192,146412,1,0,0:0:0:0:
64,192,146577,1,2,0:0:0:0:
320,192,146577,1,0,0:0:0:0:
64,192,146741,1,8,0:0:0:0:
192,192,146741,1,0,0:0:0:0:
320,192,146741,1,0,0:0:0:0:
320,192,147071,1,2,0:0:0:0:
448,192,147071,1,0,0:0:0:0:
64,192,147154,1,8,0:0:0:0:
192,192,147154,1,0,0:0:0:0:
320,192,147236,1,8,0:0:0:0:
448,192,147236,1,0,0:0:0:0:
64,192,147318,1,8,0:0:0:0:
192,192,147318,1,0,0:0:0:0:
320,192,147401,1,8,0:0:0:0:
448,192,147401,1,0,0:0:0:0:
192,192,147483,1,0,0:0:0:70:Tom2.wav
64,192,147566,1,0,0:0:0:70:Tom2.wav
320,192,147648,1,0,0:0:0:70:Tom3.wav
64,192,147730,1,8,0:0:0:0:
192,192,147730,128,0,147813:0:0:0:0:
448,192,147730,128,0,147813:0:0:0:0:
192,192,147895,128,8,147978:0:0:0:0:
320,192,147895,1,0,0:0:0:0:
448,192,147895,128,0,147978:0:0:0:0:
64,192,148390,1,2,0:0:0:0:
192,192,148390,1,4,0:0:0:0:
320,192,148390,1,0,0:0:0:0:
448,192,148390,1,0,0:0:0:0:
64,192,148555,1,0,0:0:0:0:
192,192,148719,1,8,0:0:0:0:
320,192,148719,1,0,0:0:0:35:LR_CymbalG.wav
448,192,148719,1,0,0:0:0:0:
64,192,148884,1,2,0:0:0:0:
320,192,148967,1,8,0:0:0:0:
448,192,148967,1,0,0:0:0:0:
64,192,149049,1,2,0:0:0:0:
192,192,149049,1,0,0:0:0:35:LR_CymbalG.wav
320,192,149214,1,2,0:0:0:0:
448,192,149214,1,0,0:0:0:0:
64,192,149379,128,8,149708:0:0:0:0:
192,192,149379,1,4,0:0:0:0:
320,192,149379,1,0,0:0:0:0:
448,192,149379,1,0,0:0:0:0:
192,192,149708,1,2,0:0:0:0:
320,192,149708,1,0,0:0:0:0:
320,192,149873,1,2,0:0:0:0:
448,192,149873,1,0,0:0:0:0:
64,192,150038,1,8,0:0:0:0:
192,192,150038,1,0,0:0:0:35:LR_CymbalG.wav
448,192,150038,1,0,0:0:0:0:
320,192,150203,1,2,0:0:0:0:
64,192,150285,1,8,0:0:0:0:
192,192,150285,1,0,0:0:0:0:
320,192,150368,1,2,0:0:0:0:
448,192,150368,1,0,0:0:0:35:LR_CymbalG.wav
64,192,150533,1,2,0:0:0:0:
192,192,150533,1,0,0:0:0:0:
64,192,150698,1,8,0:0:0:0:
320,192,150698,1,0,0:0:0:35:LR_CymbalG.wav
448,192,150698,1,0,0:0:0:0:
192,192,150862,1,2,0:0:0:0:
64,192,150945,1,8,0:0:0:0:
448,192,150945,1,0,0:0:0:0:
192,192,151027,1,2,0:0:0:0:
320,192,151027,1,0,0:0:0:35:LR_CymbalG.wav
320,192,151192,1,2,0:0:0:0:
448,192,151192,1,0,0:0:0:0:
64,192,151357,1,8,0:0:0:0:
192,192,151357,1,0,0:0:0:35:LR_CymbalG.wav
448,192,151357,1,0,0:0:0:0:
64,192,151522,1,8,0:0:0:0:
192,192,151522,1,4,0:0:0:0:
320,192,151522,128,0,151851:0:0:0:0:
448,192,151522,1,0,0:0:0:0:
64,192,151851,1,8,0:0:0:0:
192,192,151851,1,0,0:0:0:0:
320,192,151934,1,8,0:0:0:0:
448,192,151934,1,0,0:0:0:0:
64,192,152016,1,8,0:0:0:0:
192,192,152016,1,0,0:0:0:0:
320,192,152099,1,0,0:0:0:70:Tom2.wav
448,192,152181,1,0,0:0:0:70:Tom2.wav
192,192,152263,1,2,0:0:0:0:
64,192,152346,1,8,0:0:0:0:
320,192,152346,1,0,0:0:0:0:
448,192,152346,1,0,0:0:0:0:
192,192,152593,1,8,0:0:0:0:
320,192,152593,1,0,0:0:0:0:
448,192,152593,1,0,0:0:0:0:
64,192,152840,1,8,0:0:0:0:
192,192,152840,1,4,0:0:0:0:
320,192,152840,1,2,0:0:0:0:
448,192,152840,1,0,0:0:0:0:
64,192,153170,1,8,0:0:0:0:
192,192,153170,1,0,0:0:0:0:
320,192,153170,1,0,0:0:0:0:
64,192,153335,1,8,0:0:0:0:
320,192,153335,1,2,0:0:0:0:
448,192,153335,1,4,0:0:0:0:
192,192,153500,1,8,0:0:0:0:
448,192,153500,1,0,0:0:0:0:
64,192,153582,1,8,0:0:0:0:
320,192,153582,1,0,0:0:0:0:
192,192,153665,1,2,0:0:0:0:
448,192,153665,1,4,0:0:0:0:
320,192,153829,1,0,0:0:0:0:
64,192,153994,1,8,0:0:0:0:
192,192,153994,1,0,0:0:0:35:drum-hitfinish.wav
448,192,153994,1,0,0:0:0:0:
320,192,154159,1,2,0:0:0:0:
192,192,154241,1,8,0:0:0:0:
448,192,154241,1,0,0:0:0:0:
64,192,154324,1,2,0:0:0:0:
320,192,154324,1,0,0:0:0:35:drum-hitfinish.wav
64,192,154489,1,2,0:0:0:0:
192,192,154489,1,0,0:0:0:0:
192,192,154654,1,8,0:0:0:0:
320,192,154654,1,0,0:0:0:35:drum-hitfinish.wav
448,192,154654,1,0,0:0:0:0:
64,192,154818,1,0,0:0:0:0:
320,192,154983,1,2,0:0:0:0:
448,192,154983,1,0,0:0:0:35:drum-hitfinish.wav
64,192,155148,1,2,0:0:0:0:
192,192,155148,1,0,0:0:0:0:
64,192,155313,1,8,0:0:0:0:
320,192,155313,1,0,0:0:0:35:drum-hitfinish.wav
448,192,155313,1,0,0:0:0:0:
192,192,155478,1,2,0:0:0:0:
320,192,155560,1,8,0:0:0:0:
448,192,155560,1,0,0:0:0:0:
64,192,155643,1,2,0:0:0:0:
192,192,155643,1,0,0:0:0:35:drum-hitfinish.wav
320,192,155807,1,2,0:0:0:0:
448,192,155807,1,0,0:0:0:0:
64,192,155972,1,8,0:0:0:0:
192,192,155972,1,0,0:0:0:35:drum-hitfinish.wav
448,192,155972,1,0,0:0:0:0:
320,192,156137,1,0,0:0:0:0:
64,192,156302,1,2,0:0:0:0:
320,192,156302,1,0,0:0:0:35:drum-hitfinish.wav
192,192,156467,1,0,0:0:0:0:
64,192,156632,1,8,0:0:0:0:
320,192,156632,1,0,0:0:0:35:drum-hitfinish.wav
448,192,156632,1,0,0:0:0:0:
192,192,156796,1,2,0:0:0:0:
320,192,156879,1,8,0:0:0:0:
448,192,156879,1,0,0:0:0:0:
64,192,156961,1,2,0:0:0:0:
192,192,156961,1,0,0:0:0:35:drum-hitfinish.wav
320,192,157126,1,2,0:0:0:0:
448,192,157126,1,0,0:0:0:0:
192,192,157291,1,8,0:0:0:0:
320,192,157291,1,0,0:0:0:35:drum-hitfinish.wav
448,192,157291,1,0,0:0:0:0:
64,192,157456,1,0,0:0:0:0:
320,192,157621,1,2,0:0:0:0:
448,192,157621,1,0,0:0:0:35:drum-hitfinish.wav
64,192,157785,1,2,0:0:0:0:
192,192,157785,1,0,0:0:0:0:
64,192,157950,1,8,0:0:0:0:
320,192,157950,1,0,0:0:0:35:drum-hitfinish.wav
448,192,157950,1,0,0:0:0:0:
192,192,158115,1,2,0:0:0:0:
448,192,158115,1,0,0:0:0:35:drum-hitfinish.wav
64,192,158198,1,8,0:0:0:0:
320,192,158280,1,2,0:0:0:0:
448,192,158280,1,0,0:0:0:35:drum-hitfinish.wav
64,192,158445,1,8,0:0:0:0:
192,192,158445,1,0,0:0:0:0:
320,192,158527,1,8,0:0:0:0:
448,192,158527,1,0,0:0:0:0:
64,192,158610,1,2,0:0:0:0:
192,192,158610,1,0,0:0:0:0:
448,192,158692,1,8,0:0:0:0:
320,192,158774,1,8,0:0:0:0:
192,192,158857,1,8,0:0:0:0:
64,192,158939,1,2,0:0:0:0:
320,192,158939,1,4,0:0:0:0:
448,192,158939,1,0,0:0:0:0:
64,192,159269,1,8,0:0:0:0:
192,192,159269,1,0,0:0:0:60:LR_Ride Med.wav
448,192,159269,1,0,0:0:0:0:
448,192,159434,1,2,0:0:0:0:
64,192,159516,1,8,0:0:0:0:
192,192,159516,1,0,0:0:0:0:
320,192,159599,1,2,0:0:0:0:
448,192,159599,1,0,0:0:0:60:LR_Ride Med.wav
64,192,159763,1,2,0:0:0:0:
320,192,159763,1,0,0:0:0:0:
64,192,159928,1,8,0:0:0:0:
192,192,159928,1,0,0:0:0:60:LR_Ride Med.wav
448,192,159928,1,0,0:0:0:0:
192,192,160093,1,0,0:0:0:0:
320,192,160258,1,2,0:0:0:0:
448,192,160258,1,0,0:0:0:60:LR_Ride Med.wav
64,192,160423,1,2,0:0:0:0:
320,192,160423,1,0,0:0:0:0:
64,192,160588,1,8,0:0:0:0:
192,192,160588,1,0,0:0:0:60:LR_Ride Med.wav
448,192,160588,1,0,0:0:0:0:
320,192,160752,1,2,0:0:0:0:
64,192,160835,1,0,0:0:0:0:
192,192,160835,1,0,0:0:0:0:
320,192,160917,1,8,0:0:0:0:
448,192,160917,1,0,0:0:0:60:LR_Ride Med.wav
64,192,161082,1,8,0:0:0:0:
192,192,161082,1,0,0:0:0:0:
320,192,161165,1,2,0:0:0:0:
448,192,161165,1,0,0:0:0:0:
64,192,161247,1,8,0:0:0:0:
192,192,161247,1,0,0:0:0:0:
320,192,161329,1,2,0:0:0:0:
448,192,161329,1,0,0:0:0:0:
64,192,161412,1,8,0:0:0:0:
192,192,161412,1,0,0:0:0:0:
448,192,161494,1,8,0:0:0:0:
64,192,161577,1,2,0:0:0:0:
192,192,161577,1,4,0:0:0:0:
320,192,161577,1,0,0:0:0:0:
448,192,161659,1,2,0:0:0:0:
64,192,161741,1,2,0:0:0:0:
320,192,161741,1,0,0:0:0:0:
192,192,161824,1,2,0:0:0:0:
320,192,161906,1,8,0:0:0:0:
448,192,161906,1,0,0:0:0:0:
64,192,161989,1,8,0:0:0:0:
192,192,162071,1,8,0:0:0:0:
320,192,162071,1,4,0:0:0:0:
448,192,162071,1,0,0:0:0:0:
64,192,162154,1,2,0:0:0:0:
192,192,162236,1,2,0:0:0:0:
448,192,162236,1,0,0:0:0:0:
320,192,162318,1,2,0:0:0:0:
64,192,162401,1,8,0:0:0:0:
192,192,162401,1,0,0:0:0:0:
320,192,162483,1,8,0:0:0:0:
64,192,162566,1,8,0:0:0:0:
192,192,162566,1,4,0:0:0:0:
448,192,162566,1,0,0:0:0:0:
320,192,162648,1,2,0:0:0:0:
64,192,162730,1,2,0:0:0:0:
448,192,162730,1,0,0:0:0:0:
192,192,162813,1,2,0:0:0:0:
64,192,162895,1,8,0:0:0:0:
448,192,162895,1,0,0:0:0:0:
320,192,162978,1,8,0:0:0:0:
64,192,163060,1,8,0:0:0:0:
192,192,163060,1,4,0:0:0:0:
448,192,163060,1,0,0:0:0:0:
320,192,163143,1,2,0:0:0:0:
64,192,163225,1,8,0:0:0:0:
192,192,163225,1,0,0:0:0:0:
320,192,163307,1,8,0:0:0:0:
448,192,163307,1,0,0:0:0:0:
64,192,163390,1,8,0:0:0:0:
192,192,163390,1,0,0:0:0:0:
320,192,163472,1,8,0:0:0:0:
64,192,163555,1,2,0:0:0:0:
448,192,163555,1,0,0:0:0:70:LR_Ride Med.wav
192,192,163637,1,2,0:0:0:0:
320,192,163719,1,8,0:0:0:0:
448,192,163719,1,0,0:0:0:0:
64,192,163802,1,8,0:0:0:0:
192,192,163802,1,0,0:0:0:0:
320,192,163884,1,8,0:0:0:0:
448,192,163884,1,0,0:0:0:0:
192,192,163967,1,0,0:0:0:70:Tom3.wav
320,192,164049,1,0,0:0:0:70:Tom3.wav
64,192,164132,1,2,0:0:0:0:
192,192,164214,128,8,164379:0:0:0:0:
320,192,164214,1,4,0:0:0:0:
448,192,164214,128,0,164379:0:0:0:0:
64,192,164544,1,8,0:0:0:0:
192,192,164544,128,0,164708:0:0:0:35:drum-hitfinish.wav
320,192,164544,128,0,164708:0:0:0:0:
64,192,164708,1,2,0:0:0:0:
448,192,164708,1,0,0:0:0:0:
192,192,164873,1,8,0:0:0:0:
320,192,164873,1,0,0:0:0:35:drum-hitfinish.wav
448,192,164873,1,0,0:0:0:0:
64,192,165038,1,2,0:0:0:0:
448,192,165038,1,0,0:0:0:0:
192,192,165203,1,8,0:0:0:0:
320,192,165203,128,0,165368:0:0:0:35:drum-hitfinish.wav
448,192,165203,128,0,165368:0:0:0:0:
64,192,165368,1,2,0:0:0:0:
192,192,165368,1,0,0:0:0:0:
64,192,165450,1,2,0:0:0:0:
192,192,165533,1,8,0:0:0:0:
320,192,165533,128,0,165698:0:0:0:35:drum-hitfinish.wav
448,192,165533,128,0,165698:0:0:0:0:
64,192,165698,1,2,0:0:0:0:
192,192,165862,128,8,166027:0:0:0:0:
320,192,165862,1,0,0:0:0:35:drum-hitfinish.wav
448,192,165862,128,0,166027:0:0:0:0:
64,192,166027,1,2,0:0:0:0:
320,192,166027,1,0,0:0:0:0:
64,192,166192,1,8,0:0:0:0:
192,192,166192,1,0,0:0:0:35:drum-hitfinish.wav
448,192,166192,1,0,0:0:0:0:
192,192,166357,1,2,0:0:0:0:
320,192,166357,1,0,0:0:0:0:
64,192,166522,128,8,166687:0:0:0:0:
320,192,166522,1,0,0:0:0:35:drum-hitfinish.wav
448,192,166522,128,0,166687:0:0:0:0:
192,192,166687,1,2,0:0:0:0:
320,192,166687,1,0,0:0:0:0:
192,192,166769,1,2,0:0:0:0:
64,192,166851,128,4,167016:0:0:0:0:
320,192,166851,128,8,167016:0:0:0:0:
448,192,166851,1,0,0:0:0:0:
64,192,167181,1,8,0:0:0:0:
320,192,167181,128,0,167346:0:0:0:35:drum-hitfinish.wav
448,192,167181,128,0,167346:0:0:0:0:
64,192,167346,128,2,167511:0:0:0:0:
192,192,167346,128,0,167511:0:0:0:0:
320,192,167511,1,8,0:0:0:0:
448,192,167511,1,0,0:0:0:35:drum-hitfinish.wav
192,192,167676,128,2,167840:0:0:0:0:
320,192,167676,128,0,167840:0:0:0:0:
64,192,167840,1,8,0:0:0:0:
448,192,167840,1,0,0:0:0:35:drum-hitfinish.wav
320,192,168005,128,2,168170:0:0:0:0:
448,192,168005,128,0,168170:0:0:0:0:
64,192,168088,1,2,0:0:0:0:
64,192,168170,1,8,0:0:0:0:
192,192,168170,1,0,0:0:0:35:drum-hitfinish.wav
192,192,168335,128,0,168500:0:0:0:0:
448,192,168335,128,0,168500:0:0:0:0:
64,192,168500,1,8,0:0:0:0:
320,192,168500,1,0,0:0:0:35:drum-hitfinish.wav
64,192,168665,128,2,168994:0:0:0:0:
192,192,168665,128,0,168994:0:0:0:35:drum-hitfinish.wav
320,192,168829,1,8,0:0:0:0:
448,192,168829,1,0,0:0:0:35:drum-hitfinish.wav
448,192,168994,1,2,0:0:0:0:
320,192,169077,1,2,0:0:0:0:
64,192,169159,128,8,169324:0:0:0:0:
192,192,169159,128,0,169324:0:0:0:0:
448,192,169241,1,0,0:0:0:70:Tom3.wav
320,192,169324,1,0,0:0:0:70:Tom3.wav
64,192,169489,128,2,169654:0:0:0:0:
192,192,169489,1,4,0:0:0:0:
448,192,169489,128,0,169654:0:0:0:0:
320,192,169654,128,0,169818:0:0:0:0:
64,192,169818,1,8,0:0:0:0:
192,192,169818,1,0,0:0:0:0:
448,192,169818,128,0,169983:0:0:0:0:
64,192,169983,1,2,0:0:0:0:
192,192,169983,1,4,0:0:0:0:
320,192,169983,1,0,0:0:0:0:
192,192,170313,1,8,0:0:0:0:
320,192,170313,1,0,0:0:0:0:
448,192,170313,1,0,0:0:0:0:
64,192,170478,128,2,170643:0:0:0:0:
192,192,170478,128,4,170643:0:0:0:0:
448,192,170478,1,0,0:0:0:0:
320,192,170643,1,0,0:0:0:0:
64,192,170807,128,8,170972:0:0:0:0:
192,192,170807,1,0,0:0:0:0:
448,192,170807,128,0,170972:0:0:0:0:
192,192,170972,1,2,0:0:0:0:
320,192,170972,128,4,171137:0:0:0:0:
64,192,171137,128,0,171302:0:0:0:0:
192,192,171302,1,8,0:0:0:0:
320,192,171302,1,0,0:0:0:0:
448,192,171302,1,0,0:0:0:0:
64,192,171467,1,2,0:0:0:0:
192,192,171467,1,4,0:0:0:0:
320,192,171467,1,0,0:0:0:0:
448,192,171467,1,0,0:0:0:0:
64,192,171632,1,8,0:0:0:0:
192,192,171632,1,0,0:0:0:0:
320,192,171714,1,8,0:0:0:0:
448,192,171714,1,0,0:0:0:0:
64,192,171796,1,8,0:0:0:0:
192,192,171796,1,0,0:0:0:0:
320,192,171879,1,0,0:0:0:70:Tom2.wav
448,192,171961,1,0,0:0:0:70:Tom3.wav
192,192,172044,1,0,0:0:0:70:Tom3.wav
64,192,172126,1,2,0:0:0:0:
320,192,172126,1,4,0:0:0:0:
448,192,172126,1,0,0:0:0:0:
192,192,172291,1,0,0:0:0:0:
64,192,172456,1,8,0:0:0:0:
320,192,172456,1,0,0:0:0:0:
448,192,172456,1,0,0:0:0:0:
64,192,172621,1,8,0:0:0:0:
320,192,172621,1,0,0:0:0:0:
448,192,172621,1,0,0:0:0:0:
64,192,172785,1,8,0:0:0:0:
320,192,172785,1,0,0:0:0:0:
448,192,172785,1,0,0:0:0:0:
64,192,172950,1,8,0:0:0:0:
320,192,172950,1,0,0:0:0:0:
448,192,172950,1,0,0:0:0:0:
64,192,173115,1,8,0:0:0:0:
320,192,173115,1,0,0:0:0:0:
448,192,173115,1,0,0:0:0:0:
192,192,173280,1,2,0:0:0:0:
192,192,173362,1,2,0:0:0:0:
64,192,173445,1,2,0:0:0:0:
320,192,173445,1,4,0:0:0:0:
448,192,173445,128,0,173939:0:0:0:0:
64,192,174104,1,8,0:0:0:0:
192,192,174104,1,0,0:0:0:0:
320,192,174269,1,8,0:0:0:0:
448,192,174269,1,0,0:0:0:0:
320,192,174351,1,8,0:0:0:0:
448,192,174351,1,0,0:0:0:0:
64,192,174434,1,8,0:0:0:0:
192,192,174434,1,0,0:0:0:0:
320,192,174516,1,0,0:0:0:70:Tom2.wav
192,192,174599,1,0,0:0:0:70:Tom2.wav
448,192,174681,1,0,0:0:0:70:Tom3.wav
64,192,174763,1,8,0:0:0:0:
192,192,174763,1,4,0:0:0:0:
320,192,174763,1,0,0:0:0:0:
64,192,174928,1,2,0:0:0:0:
448,192,174928,1,0,0:0:0:0:
192,192,175093,1,2,0:0:0:0:
320,192,175093,1,0,0:0:0:0:
64,192,175258,1,8,0:0:0:0:
192,192,175258,1,4,0:0:0:0:
320,192,175258,1,0,0:0:0:0:
448,192,175258,1,0,0:0:0:0:
320,192,175423,1,2,0:0:0:0:
448,192,175423,1,0,0:0:0:0:
64,192,175588,1,2,0:0:0:0:
192,192,175588,1,0,0:0:0:0:
64,192,175752,1,4,0:0:0:0:
192,192,175752,1,8,0:0:0:0:
320,192,175752,1,0,0:0:0:0:
448,192,175752,1,0,0:0:0:0:
64,192,175917,1,2,0:0:0:0:
320,192,175917,1,0,0:0:0:0:
192,192,176082,1,2,0:0:0:0:
448,192,176082,1,0,0:0:0:0:
64,192,176247,1,8,0:0:0:0:
192,192,176247,1,4,0:0:0:0:
320,192,176247,1,0,0:0:0:0:
448,192,176247,1,0,0:0:0:0:
192,192,176412,1,2,0:0:0:0:
320,192,176412,1,0,0:0:0:0:
64,192,176577,1,2,0:0:0:0:
448,192,176577,1,0,0:0:0:0:
64,192,176741,1,4,0:0:0:0:
192,192,176741,1,8,0:0:0:0:
320,192,176741,1,0,0:0:0:0:
448,192,176741,1,0,0:0:0:0:
192,192,176906,1,2,0:0:0:0:
320,192,176906,1,0,0:0:0:0:
64,192,177071,1,4,0:0:0:0:
192,192,177071,1,8,0:0:0:0:
320,192,177071,1,0,0:0:0:0:
448,192,177071,1,0,0:0:0:0:
64,192,177236,1,2,0:0:0:0:
448,192,177236,1,0,0:0:0:0:
192,192,177318,1,2,0:0:0:0:
64,192,177401,1,4,0:0:0:0:
320,192,177401,1,8,0:0:0:0:
448,192,177401,1,0,0:0:0:0:
192,192,177483,1,0,0:0:0:0:
320,192,177566,1,2,0:0:0:0:
448,192,177566,1,0,0:0:0:0:
192,192,177648,1,0,0:0:0:0:
320,192,177730,1,2,0:0:0:0:
448,192,177730,1,0,0:0:0:0:
64,192,177813,1,0,0:0:0:0:
192,192,177895,1,4,0:0:0:0:
320,192,177895,1,8,0:0:0:0:
448,192,177895,1,0,0:0:0:0:
64,192,177978,1,0,0:0:0:0:
320,192,178060,1,2,0:0:0:0:
448,192,178060,1,0,0:0:0:0:
192,192,178143,1,0,0:0:0:0:
320,192,178225,1,2,0:0:0:0:
448,192,178225,1,0,0:0:0:0:
192,192,178307,1,0,0:0:0:0:
64,192,178390,1,8,0:0:0:0:
320,192,178390,1,4,0:0:0:0:
448,192,178390,1,0,0:0:0:0:
192,192,178472,1,0,0:0:0:0:
320,192,178555,1,2,0:0:0:0:
448,192,178555,1,0,0:0:0:0:
192,192,178637,1,0,0:0:0:0:
64,192,178719,1,2,0:0:0:0:
448,192,178719,1,0,0:0:0:0:
320,192,178802,1,0,0:0:0:0:
64,192,178884,1,4,0:0:0:0:
192,192,178884,1,8,0:0:0:0:
448,192,178884,1,0,0:0:0:0:
320,192,178967,1,0,0:0:0:0:
64,192,179049,1,2,0:0:0:0:
192,192,179049,1,0,0:0:0:0:
448,192,179132,1,0,0:0:0:0:
64,192,179214,1,2,0:0:0:0:
192,192,179214,1,0,0:0:0:0:
448,192,179296,1,0,0:0:0:0:
64,192,179379,1,8,0:0:0:0:
192,192,179379,1,4,0:0:0:0:
320,192,179379,1,0,0:0:0:0:
448,192,179461,1,0,0:0:0:0:
64,192,179544,1,2,0:0:0:0:
192,192,179544,1,0,0:0:0:0:
320,192,179626,1,0,0:0:0:0:
64,192,179708,1,8,0:0:0:0:
192,192,179708,1,4,0:0:0:0:
448,192,179708,1,0,0:0:0:0:
320,192,179791,1,0,0:0:0:0:
64,192,179873,1,2,0:0:0:0:
192,192,179873,1,0,0:0:0:0:
320,192,179956,1,2,0:0:0:0:
64,192,180038,1,8,0:0:0:0:
192,192,180038,1,4,0:0:0:0:
448,192,180038,1,0,0:0:0:0:
320,192,180121,1,2,0:0:0:0:
64,192,180203,1,2,0:0:0:0:
320,192,180285,1,2,0:0:0:0:
448,192,180285,1,0,0:0:0:0:
64,192,180368,1,8,0:0:0:0:
192,192,180368,1,0,0:0:0:0:
448,192,180450,1,2,0:0:0:0:
64,192,180533,1,8,0:0:0:0:
192,192,180533,1,4,0:0:0:0:
320,192,180533,1,0,0:0:0:0:
448,192,180698,1,2,0:0:0:0:
64,192,180780,1,2,0:0:0:0:
192,192,180780,1,0,0:0:0:0:
320,192,180862,1,8,0:0:0:0:
448,192,180862,1,0,0:0:0:0:
64,192,180945,1,2,0:0:0:0:
192,192,181027,1,8,0:0:0:0:
320,192,181027,1,4,0:0:0:0:
448,192,181027,1,0,0:0:0:0:
64,192,181192,1,2,0:0:0:0:
320,192,181274,1,2,0:0:0:0:
448,192,181274,1,0,0:0:0:0:
64,192,181357,1,8,0:0:0:0:
192,192,181357,1,0,0:0:0:0:
448,192,181439,1,2,0:0:0:0:
64,192,181522,1,8,0:0:0:0:
192,192,181522,1,4,0:0:0:0:
320,192,181522,1,0,0:0:0:0:
448,192,181687,1,2,0:0:0:0:
64,192,181769,1,2,0:0:0:0:
192,192,181769,1,0,0:0:0:0:
320,192,181851,1,8,0:0:0:0:
448,192,181851,1,0,0:0:0:0:
64,192,181934,1,2,0:0:0:0:
192,192,182016,1,8,0:0:0:0:
320,192,182016,1,4,0:0:0:0:
448,192,182016,1,0,0:0:0:0:
64,192,182099,1,2,0:0:0:0:
192,192,182181,1,8,0:0:0:0:
320,192,182181,1,0,0:0:0:0:
448,192,182263,1,8,0:0:0:0:
64,192,182346,1,8,0:0:0:0:
192,192,182346,1,0,0:0:0:0:
448,192,182428,1,0,0:0:0:70:Tom1.wav
320,192,182511,1,0,0:0:0:70:Tom2.wav
448,192,182593,1,0,0:0:0:70:Tom3.wav
64,192,182676,1,8,0:0:0:0:
192,192,182676,1,4,0:0:0:0:
320,192,182676,1,0,0:0:0:0:
64,192,182840,1,0,0:0:0:70:Tom1.wav
448,192,182840,1,0,0:0:0:0:
192,192,182923,1,0,0:0:0:70:Tom2.wav
320,192,183005,1,2,0:0:0:0:
448,192,183005,1,0,0:0:0:70:Tom3.wav
64,192,183170,1,8,0:0:0:0:
192,192,183170,1,4,0:0:0:0:
320,192,183170,1,0,0:0:0:0:
448,192,183170,1,0,0:0:0:0:
64,192,183335,1,0,0:0:0:70:Tom1.wav
192,192,183335,1,0,0:0:0:0:
320,192,183417,1,0,0:0:0:70:Tom2.wav
64,192,183500,1,2,0:0:0:0:
448,192,183500,1,0,0:0:0:70:Tom3.wav
64,192,183665,1,8,0:0:0:0:
192,192,183665,1,4,0:0:0:0:
320,192,183665,1,0,0:0:0:0:
448,192,183665,1,0,0:0:0:0:
192,192,183829,1,0,0:0:0:0:
320,192,183994,1,2,0:0:0:0:
448,192,183994,1,0,0:0:0:0:
64,192,184159,1,8,0:0:0:0:
192,192,184159,1,0,0:0:0:0:
448,192,184159,1,0,0:0:0:0:
64,192,184324,1,8,0:0:0:0:
192,192,184324,1,0,0:0:0:0:
320,192,184324,1,0,0:0:0:0:
320,192,184489,1,8,0:0:0:0:
448,192,184489,1,0,0:0:0:0:
64,192,184571,1,8,0:0:0:0:
192,192,184571,1,0,0:0:0:0:
448,192,184654,1,8,0:0:0:0:
320,192,184736,1,2,0:0:0:0:
64,192,184818,1,2,0:0:0:0:
192,192,184818,1,0,0:0:0:0:
320,192,184901,1,2,0:0:0:0:
448,192,184901,1,0,0:0:0:0:
64,192,184983,1,8,0:0:0:0:
192,192,184983,1,0,0:0:0:0:
320,192,185066,1,8,0:0:0:0:
448,192,185066,1,0,0:0:0:0:
64,192,185148,1,8,0:0:0:0:
192,192,185148,1,0,0:0:0:0:
320,192,185230,1,8,0:0:0:0:
64,192,185313,1,2,0:0:0:0:
192,192,185313,1,4,0:0:0:0:
448,192,185313,128,0,185643:0:0:0:0:
320,192,185478,1,0,0:0:0:0:
64,192,185643,1,8,0:0:0:0:
192,192,185643,1,0,0:0:0:60:LR_Ride Med.wav
448,192,185807,128,2,186137:0:0:0:0:
192,192,185890,1,8,0:0:0:0:
64,192,185972,1,2,0:0:0:0:
320,192,185972,1,0,0:0:0:60:LR_Ride Med.wav
192,192,186137,1,2,0:0:0:0:
320,192,186137,1,0,0:0:0:0:
64,192,186302,1,8,0:0:0:0:
192,192,186302,1,0,0:0:0:60:LR_Ride Med.wav
448,192,186302,128,0,186632:0:0:0:0:
320,192,186467,1,2,0:0:0:0:
64,192,186549,1,8,0:0:0:0:
192,192,186632,1,2,0:0:0:0:
320,192,186632,1,0,0:0:0:60:LR_Ride Med.wav
64,192,186796,1,2,0:0:0:0:
448,192,186796,128,0,187126:0:0:0:0:
64,192,186961,1,8,0:0:0:0:
192,192,186961,1,0,0:0:0:60:LR_Ride Med.wav
320,192,187126,1,2,0:0:0:0:
64,192,187208,1,8,0:0:0:0:
192,192,187208,1,0,0:0:0:0:
320,192,187291,1,2,0:0:0:0:
448,192,187291,1,0,0:0:0:60:LR_Ride Med.wav
64,192,187456,1,2,0:0:0:0:
192,192,187456,128,0,187538:0:0:0:0:
192,192,187621,1,8,0:0:0:0:
320,192,187621,128,0,187703:0:0:0:60:LR_Ride Med.wav
448,192,187621,1,0,0:0:0:0:
64,192,187785,128,0,187868:0:0:0:0:
320,192,187950,1,2,0:0:0:0:
448,192,187950,128,0,188033:0:0:0:60:LR_Ride Med.wav
192,192,188115,128,0,188198:0:0:0:0:
64,192,188280,1,8,0:0:0:0:
320,192,188280,1,0,0:0:0:60:LR_Ride Med.wav
448,192,188280,128,0,188362:0:0:0:0:
192,192,188445,128,2,188610:0:0:0:0:
320,192,188527,1,8,0:0:0:0:
64,192,188610,1,2,0:0:0:0:
448,192,188610,1,0,0:0:0:60:LR_Ride Med.wav
192,192,188774,1,2,0:0:0:0:
320,192,188774,128,0,188857:0:0:0:0:
64,192,188939,128,8,189022:0:0:0:0:
192,192,188939,1,0,0:0:0:60:LR_Ride Med.wav
448,192,188939,1,0,0:0:0:0:
320,192,189104,1,2,0:0:0:0:
448,192,189104,128,0,189187:0:0:0:0:
64,192,189187,1,8,0:0:0:0:
192,192,189187,1,0,0:0:0:0:
320,192,189269,1,2,0:0:0:0:
448,192,189269,1,0,0:0:0:60:LR_Ride Med.wav
64,192,189434,1,2,0:0:0:0:
192,192,189434,128,0,189516:0:0:0:0:
64,192,189599,1,8,0:0:0:0:
320,192,189599,128,0,189681:0:0:0:60:LR_Ride Med.wav
448,192,189599,1,0,0:0:0:0:
192,192,189763,128,0,189928:0:0:0:0:
64,192,189928,1,8,0:0:0:0:
320,192,189928,1,4,0:0:0:0:
448,192,189928,1,0,0:0:0:0:
192,192,190011,1,0,0:0:0:70:Tom2.wav
320,192,190093,1,0,0:0:0:70:Tom2.wav
64,192,190176,1,0,0:0:0:70:Tom3.wav
320,192,190258,1,8,0:0:0:0:
448,192,190258,1,0,0:0:0:0:
64,192,190340,1,8,0:0:0:0:
192,192,190340,1,0,0:0:0:0:
320,192,190423,1,8,0:0:0:0:
448,192,190423,1,0,0:0:0:0:
192,192,190505,1,8,0:0:0:0:
64,192,190588,1,2,0:0:0:0:
320,192,190588,1,4,0:0:0:0:
448,192,190588,1,0,0:0:0:0:
192,192,190752,1,0,0:0:0:0:
320,192,190835,1,0,0:0:0:0:
64,192,190917,1,8,0:0:0:0:
192,192,190917,1,0,0:0:0:35:drum-hitfinish.wav
448,192,190917,1,0,0:0:0:0:
64,192,191082,1,2,0:0:0:0:
320,192,191082,1,0,0:0:0:0:
448,192,191165,1,0,0:0:0:0:
64,192,191247,1,8,0:0:0:0:
192,192,191247,1,0,0:0:0:35:drum-hitfinish.wav
320,192,191247,1,0,0:0:0:0:
192,192,191412,1,2,0:0:0:0:
448,192,191412,1,0,0:0:0:0:
64,192,191494,1,0,0:0:0:0:
192,192,191577,1,8,0:0:0:0:
320,192,191577,1,0,0:0:0:35:drum-hitfinish.wav
448,192,191577,1,0,0:0:0:0:
64,192,191741,1,2,0:0:0:0:
320,192,191741,1,0,0:0:0:0:
192,192,191824,1,2,0:0:0:0:
64,192,191906,1,8,0:0:0:0:
320,192,191906,1,0,0:0:0:35:drum-hitfinish.wav
448,192,191906,1,0,0:0:0:0:
192,192,192071,1,2,0:0:0:0:
448,192,192071,1,0,0:0:0:0:
64,192,192236,1,8,0:0:0:0:
192,192,192236,1,0,0:0:0:35:drum-hitfinish.wav
320,192,192236,1,0,0:0:0:0:
64,192,192401,1,2,0:0:0:0:
448,192,192401,1,0,0:0:0:0:
320,192,192483,1,0,0:0:0:0:
64,192,192566,1,8,0:0:0:0:
192,192,192566,1,0,0:0:0:35:drum-hitfinish.wav
448,192,192566,1,0,0:0:0:0:
320,192,192648,1,0,0:0:0:0:
192,192,192730,1,2,0:0:0:0:
320,192,192813,1,0,0:0:0:0:
64,192,192895,1,8,0:0:0:0:
192,192,192895,1,0,0:0:0:35:drum-hitfinish.wav
448,192,192895,1,0,0:0:0:0:
320,192,192978,1,0,0:0:0:0:
64,192,193060,1,2,0:0:0:0:
192,192,193060,1,0,0:0:0:0:
448,192,193143,1,0,0:0:0:0:
64,192,193225,1,8,0:0:0:0:
192,192,193225,1,4,0:0:0:0:
320,192,193225,1,0,0:0:0:35:drum-hitfinish.wav
320,192,193390,1,0,0:0:0:0:
64,192,193555,1,8,0:0:0:0:
192,192,193555,1,0,0:0:0:35:drum-hitfinish.wav
448,192,193555,1,0,0:0:0:0:
64,192,193719,1,2,0:0:0:0:
320,192,193719,1,0,0:0:0:0:
192,192,193884,1,8,0:0:0:0:
320,192,193884,1,0,0:0:0:35:drum-hitfinish.wav
448,192,193884,1,0,0:0:0:0:
64,192,194049,1,2,0:0:0:0:
192,192,194049,1,0,0:0:0:0:
64,192,194214,128,8,194544:0:0:0:0:
320,192,194214,1,0,0:0:0:35:drum-hitfinish.wav
448,192,194214,1,0,0:0:0:0:
192,192,194379,1,2,0:0:0:0:
192,192,194544,1,4,0:0:0:0:
320,192,194544,1,8,0:0:0:0:
448,192,194544,1,0,0:0:0:35:drum-hitfinish.wav
64,192,194708,1,0,0:0:0:0:
320,192,194708,1,0,0:0:0:0:
192,192,194791,1,0,0:0:0:0:
64,192,194873,1,8,0:0:0:0:
320,192,194873,1,4,0:0:0:0:
448,192,194873,128,0,195203:0:0:0:0:
64,192,195203,1,8,0:0:0:0:
192,192,195203,1,0,0:0:0:0:
320,192,195285,1,2,0:0:0:0:
448,192,195285,1,0,0:0:0:70:Tom1.wav
320,192,195450,1,2,0:0:0:0:
448,192,195450,1,0,0:0:0:0:
64,192,195533,1,8,0:0:0:0:
192,192,195533,1,0,0:0:0:0:
320,192,195615,1,0,0:0:0:0:
64,192,195698,1,8,0:0:0:0:
192,192,195698,1,0,0:0:0:0:
320,192,195780,1,8,0:0:0:0:
448,192,195780,1,0,0:0:0:0:
64,192,195862,1,2,0:0:0:0:
192,192,195945,1,2,0:0:0:0:
320,192,196027,1,8,0:0:0:0:
448,192,196027,1,0,0:0:0:0:
64,192,196110,1,8,0:0:0:0:
192,192,196110,1,0,0:0:0:0:
320,192,196192,1,8,0:0:0:0:
448,192,196192,1,0,0:0:0:0:
192,192,196274,1,0,0:0:0:0:
448,192,196357,1,2,0:0:0:0:
64,192,196439,1,2,0:0:0:0:
192,192,196439,1,0,0:0:0:0:
320,192,196522,1,8,0:0:0:0:
448,192,196522,1,0,0:0:0:0:
64,192,196604,1,8,0:0:0:0:
192,192,196604,1,0,0:0:0:0:
320,192,196687,1,8,0:0:0:0:
448,192,196687,1,0,0:0:0:0:
64,192,196769,1,0,0:0:0:0:
192,192,196851,1,2,0:0:0:0:
320,192,196851,1,0,0:0:0:70:Tom3.wav
448,192,196934,1,2,0:0:0:0:
64,192,197016,1,8,0:0:0:0:
192,192,197016,1,0,0:0:0:0:
320,192,197099,1,8,0:0:0:0:
448,192,197099,1,0,0:0:0:0:
64,192,197181,1,8,0:0:0:0:
192,192,197181,1,0,0:0:0:0:
320,192,197263,1,8,0:0:0:0:
448,192,197263,1,0,0:0:0:0:
64,192,197346,1,8,0:0:0:0:
192,192,197346,1,0,0:0:0:0:
320,192,197428,1,8,0:0:0:0:
448,192,197428,1,0,0:0:0:0:
64,192,197511,1,2,0:0:0:0:
192,192,197593,1,2,0:0:0:0:
448,192,197593,1,0,0:0:0:0:
64,192,197676,1,0,0:0:0:60:Tom1.wav
320,192,197758,1,0,0:0:0:60:Tom1.wav
448,192,197758,1,0,0:0:0:0:
64,192,197840,1,2,0:0:0:0:
192,192,197840,1,0,0:0:0:60:Tom1.wav
320,192,198005,1,2,0:0:0:0:
448,192,198005,1,0,0:0:0:60:Tom2.wav
192,192,198088,1,0,0:0:0:60:Tom2.wav
64,192,198170,1,2,0:0:0:0:
448,192,198170,1,0,0:0:0:60:Tom2.wav
320,192,198252,1,0,0:0:0:0:
64,192,198335,1,2,0:0:0:0:
192,192,198335,1,0,0:0:0:60:Tom3.wav
448,192,198417,1,0,0:0:0:60:Tom3.wav
64,192,198500,128,2,201137:0:0:0:0:
192,192,198500,1,4,0:0:0:0:
320,192,198500,1,0,0:0:0:60:Tom3.wav
448,192,199654,1,0,0:0:0:60:LR_Ride Med.wav
320,192,199736,1,0,0:0:0:60:LR_Ride Med.wav
448,192,199818,1,0,0:0:0:60:LR_Ride Med.wav
448,192,200148,1,0,0:0:0:60:LR_Ride Med.wav
448,192,200313,1,0,0:0:0:60:LR_Ride Med.wav
320,192,200643,1,0,0:0:0:60:LR_Ride Med.wav
320,192,200807,1,0,0:0:0:60:LR_Ride Med.wav
192,192,201137,1,2,0:0:0:0:
320,192,201137,1,4,0:0:0:0:
448,192,201137,1,0,0:0:0:0:
64,192,201302,1,0,0:0:0:0:
192,192,201467,1,0,0:0:0:0:
320,192,201632,1,2,0:0:0:0:
448,192,201632,1,0,0:0:0:0:
64,192,201796,1,8,0:0:0:0:
192,192,201796,1,0,0:0:0:0:
448,192,201961,1,0,0:0:0:0:
64,192,202291,1,8,0:0:0:0:
192,192,202291,1,0,0:0:0:0:
320,192,202621,1,0,0:0:0:30:soft-hitclap.wav
192,192,202785,1,2,0:0:0:0:
448,192,202785,1,0,0:0:0:0:
64,192,202950,1,0,0:0:0:0:
320,192,203115,1,8,0:0:0:0:
448,192,203115,1,0,0:0:0:0:
192,192,203445,1,0,0:0:0:0:
320,192,203610,1,0,0:0:0:30:soft-hitclap.wav
64,192,203774,1,2,0:0:0:0:
448,192,203774,1,0,0:0:0:0:
192,192,203939,1,8,0:0:0:0:
320,192,203939,1,0,0:0:0:0:
64,192,204104,1,0,0:0:0:0:
320,192,204269,1,2,0:0:0:0:
448,192,204269,1,0,0:0:0:0:
64,192,204434,1,8,0:0:0:0:
192,192,204434,1,0,0:0:0:0:
448,192,204763,1,0,0:0:0:0:
64,192,204928,1,0,0:0:0:30:soft-hitclap.wav
320,192,205093,1,0,0:0:0:0:
64,192,205258,1,0,0:0:0:30:soft-hitclap.wav
192,192,205423,1,2,0:0:0:0:
448,192,205423,1,0,0:0:0:0:
448,192,205752,1,0,0:0:0:60:LR_Drum Click.wav
192,192,205794,1,0,0:0:0:60:LR_Drum Click.wav
448,192,206000,1,0,0:0:0:40:LR_Drum Click.wav
192,192,206041,1,0,0:0:0:40:LR_Drum Click.wav
448,192,206247,1,0,0:0:0:25:LR_Drum Click.wav
192,192,206288,1,0,0:0:0:25:LR_Drum Click.wav
64,192,206412,1,2,0:0:0:0:
320,192,206412,1,4,0:0:0:0:
448,192,206412,1,0,0:0:0:0:
192,192,206577,1,0,0:0:0:30:soft-hitclap.wav
320,192,206741,1,0,0:0:0:0:
64,192,206906,1,2,0:0:0:0:
448,192,206906,1,0,0:0:0:0:
192,192,207071,1,8,0:0:0:0:
320,192,207071,1,0,0:0:0:0:
64,192,207401,1,0,0:0:0:0:
320,192,207566,1,8,0:0:0:0:
448,192,207566,1,0,0:0:0:0:
192,192,207730,1,0,0:0:0:0:
320,192,207895,1,8,0:0:0:0:
448,192,207895,1,0,0:0:0:0:
64,192,208060,1,2,0:0:0:0:
192,192,208060,1,0,0:0:0:0:
320,192,208390,1,8,0:0:0:0:
448,192,208390,1,0,0:0:0:0:
192,192,208719,1,0,0:0:0:0:
320,192,208884,1,0,0:0:0:30:soft-hitclap.wav
192,192,208967,1,0,0:0:0:30:soft-hitclap.wav
64,192,209049,1,2,0:0:0:0:
448,192,209049,1,0,0:0:0:0:
192,192,209214,1,8,0:0:0:0:
320,192,209214,1,0,0:0:0:0:
64,192,209379,1,2,0:0:0:0:
448,192,209379,1,0,0:0:0:0:
320,192,209544,1,0,0:0:0:0:
64,192,209708,1,8,0:0:0:0:
192,192,209708,1,0,0:0:0:0:
320,192,210038,1,0,0:0:0:0:
64,192,210203,1,8,0:0:0:0:
448,192,210203,1,0,0:0:0:0:
192,192,210368,1,2,0:0:0:0:
320,192,210368,1,0,0:0:0:0:
64,192,210533,1,8,0:0:0:0:
448,192,210533,1,0,0:0:0:0:
320,192,210698,1,0,0:0:0:0:
64,192,210862,1,2,0:0:0:0:
192,192,210862,1,0,0:0:0:0:
320,192,210945,1,2,0:0:0:0:
64,192,211027,1,8,0:0:0:0:
192,192,211027,1,4,0:0:0:0:
448,192,211027,128,0,211522:0:0:0:0:
64,192,211687,1,2,0:0:0:0:
192,192,211687,1,4,0:0:0:0:
448,192,211687,1,0,0:0:0:0:
64,192,211851,1,0,0:0:0:0:
192,192,212016,1,2,0:0:0:0:
320,192,212016,1,0,0:0:0:30:drum-hitfinish.wav
320,192,212181,1,0,0:0:0:0:
64,192,212346,1,2,0:0:0:0:
192,192,212346,1,0,0:0:0:30:drum-hitfinish.wav
192,192,212511,1,0,0:0:0:0:
64,192,212676,1,2,0:0:0:0:
448,192,212676,1,0,0:0:0:30:drum-hitfinish.wav
192,192,212840,1,8,0:0:0:0:
320,192,212840,1,0,0:0:0:0:
448,192,212840,1,0,0:0:0:0:
64,192,213005,1,2,0:0:0:0:
192,192,213005,1,0,0:0:0:30:drum-hitfinish.wav
64,192,213170,1,0,0:0:0:0:
320,192,213335,1,2,0:0:0:0:
448,192,213335,1,0,0:0:0:30:drum-hitfinish.wav
320,192,213500,1,0,0:0:0:0:
192,192,213665,1,2,0:0:0:0:
448,192,213665,1,0,0:0:0:30:drum-hitfinish.wav
64,192,213829,1,8,0:0:0:0:
192,192,213829,1,0,0:0:0:0:
320,192,213829,1,0,0:0:0:0:
320,192,213994,1,2,0:0:0:0:
64,192,214159,1,8,0:0:0:0:
192,192,214159,1,0,0:0:0:0:
448,192,214159,1,0,0:0:0:0:
192,192,214324,1,2,0:0:0:0:
320,192,214324,1,4,0:0:0:0:
448,192,214324,1,0,0:0:0:0:
320,192,214489,1,0,0:0:0:0:
64,192,214654,1,2,0:0:0:0:
192,192,214654,1,0,0:0:0:30:drum-hitfinish.wav
192,192,214818,1,0,0:0:0:0:
64,192,214983,1,2,0:0:0:0:
448,192,214983,1,0,0:0:0:30:drum-hitfinish.wav
448,192,215148,1,0,0:0:0:0:
64,192,215313,1,2,0:0:0:0:
192,192,215313,1,0,0:0:0:30:drum-hitfinish.wav
64,192,215478,1,8,0:0:0:0:
320,192,215478,1,0,0:0:0:0:
448,192,215478,1,0,0:0:0:0:
192,192,215643,1,2,0:0:0:0:
320,192,215643,1,0,0:0:0:30:drum-hitfinish.wav
64,192,215807,1,8,0:0:0:0:
192,192,215807,1,0,0:0:0:0:
448,192,215807,1,0,0:0:0:0:
320,192,215972,1,2,0:0:0:0:
448,192,215972,1,0,0:0:0:30:drum-hitfinish.wav
192,192,216137,1,2,0:0:0:0:
320,192,216219,1,2,0:0:0:0:
64,192,216302,1,8,0:0:0:0:
192,192,216302,1,0,0:0:0:0:
320,192,216412,1,8,0:0:0:0:
448,192,216412,1,0,0:0:0:0:
320,192,216522,1,8,0:0:0:0:
448,192,216522,1,0,0:0:0:0:
64,192,216632,1,2,0:0:0:0:
192,192,216632,1,0,0:0:0:60:Tom1.wav
320,192,216796,1,2,0:0:0:0:
192,192,216879,1,2,0:0:0:0:
64,192,216961,1,2,0:0:0:0:
320,192,216961,1,4,0:0:0:0:
448,192,216961,1,0,0:0:0:0:
192,192,217126,1,0,0:0:0:0:
320,192,217291,1,2,0:0:0:0:
448,192,217291,1,0,0:0:0:30:LR_CymbalG.wav
320,192,217456,1,0,0:0:0:0:
64,192,217621,1,8,0:0:0:0:
192,192,217621,1,0,0:0:0:30:LR_CymbalG.wav
448,192,217621,1,0,0:0:0:0:
64,192,217950,1,2,0:0:0:0:
192,192,217950,1,0,0:0:0:30:LR_CymbalG.wav
64,192,218115,1,8,0:0:0:0:
320,192,218115,1,0,0:0:0:0:
448,192,218115,1,0,0:0:0:0:
192,192,218280,1,2,0:0:0:0:
320,192,218280,1,0,0:0:0:30:LR_CymbalG.wav
64,192,218445,1,8,0:0:0:0:
192,192,218445,1,0,0:0:0:0:
448,192,218445,1,0,0:0:0:0:
448,192,218610,1,0,0:0:0:30:LR_CymbalG.wav
64,192,218774,1,2,0:0:0:0:
192,192,218774,1,0,0:0:0:0:
64,192,218939,1,8,0:0:0:0:
320,192,218939,1,0,0:0:0:30:LR_CymbalG.wav
448,192,218939,1,0,0:0:0:0:
192,192,219104,1,2,0:0:0:0:
320,192,219187,1,8,0:0:0:0:
448,192,219187,1,0,0:0:0:0:
64,192,219269,1,8,0:0:0:0:
192,192,219269,1,0,0:0:0:0:
320,192,219434,1,2,0:0:0:0:
448,192,219434,1,0,0:0:0:0:
192,192,219516,1,2,0:0:0:0:
64,192,219599,1,8,0:0:0:0:
320,192,219599,1,4,0:0:0:0:
448,192,219599,1,0,0:0:0:0:
192,192,219681,1,2,0:0:0:0:
448,192,219763,1,2,0:0:0:0:
64,192,219846,1,2,0:0:0:0:
192,192,219846,1,0,0:0:0:0:
320,192,219928,1,8,0:0:0:0:
448,192,219928,1,0,0:0:0:0:
192,192,220011,1,8,0:0:0:0:
64,192,220093,1,8,0:0:0:0:
320,192,220093,1,4,0:0:0:0:
448,192,220093,1,0,0:0:0:0:
64,192,220258,1,2,0:0:0:0:
192,192,220258,1,0,0:0:0:0:
320,192,220340,1,2,0:0:0:0:
64,192,220423,1,8,0:0:0:0:
448,192,220423,1,0,0:0:0:0:
192,192,220505,1,8,0:0:0:0:
64,192,220588,1,8,0:0:0:0:
320,192,220588,1,4,0:0:0:0:
448,192,220588,1,0,0:0:0:0:
192,192,220752,1,2,0:0:0:0:
448,192,220752,1,0,0:0:0:0:
64,192,220835,1,2,0:0:0:0:
320,192,220917,1,8,0:0:0:0:
448,192,220917,1,0,0:0:0:0:
192,192,221000,1,8,0:0:0:0:
64,192,221082,1,8,0:0:0:0:
320,192,221082,1,4,0:0:0:0:
448,192,221082,1,0,0:0:0:55:LR_Ride Med.wav
192,192,221165,1,8,0:0:0:0:
64,192,221247,1,8,0:0:0:0:
448,192,221247,1,0,0:0:0:0:
320,192,221329,1,8,0:0:0:0:
64,192,221412,1,8,0:0:0:0:
192,192,221412,1,0,0:0:0:0:
320,192,221494,1,8,0:0:0:0:
64,192,221577,1,2,0:0:0:0:
448,192,221577,1,0,0:0:0:70:Tom1.wav
192,192,221659,1,2,0:0:0:0:
320,192,221741,1,8,0:0:0:0:
448,192,221741,1,0,0:0:0:0:
64,192,221824,1,8,0:0:0:0:
192,192,221824,1,0,0:0:0:0:
320,192,221906,1,8,0:0:0:0:
448,192,221906,1,0,0:0:0:0:
64,192,221989,1,2,0:0:0:0:
192,192,222071,1,2,0:0:0:0:
448,192,222071,1,0,0:0:0:70:Tom2.wav
64,192,222236,1,8,0:0:0:0:
192,192,222236,1,4,0:0:0:0:
320,192,222236,1,0,0:0:0:0:
448,192,222236,1,0,0:0:0:0:
64,192,222566,1,8,0:0:0:0:
192,192,222566,1,0,0:0:0:0:
320,192,222566,1,0,0:0:0:0:
64,192,222730,1,2,0:0:0:0:
320,192,222730,1,0,0:0:0:0:
192,192,222895,1,8,0:0:0:0:
320,192,222895,1,0,0:0:0:0:
448,192,222895,1,0,0:0:0:0:
192,192,223060,1,2,0:0:0:0:
448,192,223060,1,0,0:0:0:0:
64,192,223225,1,8,0:0:0:0:
192,192,223225,1,0,0:0:0:0:
320,192,223225,1,0,0:0:0:0:
64,192,223390,1,2,0:0:0:0:
320,192,223390,1,0,0:0:0:0:
448,192,223472,1,2,0:0:0:0:
64,192,223555,1,8,0:0:0:0:
192,192,223555,1,0,0:0:0:0:
320,192,223555,1,0,0:0:0:0:
192,192,223719,1,2,0:0:0:0:
448,192,223719,1,0,0:0:0:0:
64,192,223884,1,8,0:0:0:0:
320,192,223884,1,0,0:0:0:0:
448,192,223884,1,0,0:0:0:0:
192,192,224049,1,2,0:0:0:0:
320,192,224049,1,0,0:0:0:0:
64,192,224214,1,8,0:0:0:0:
192,192,224214,1,0,0:0:0:0:
448,192,224214,1,0,0:0:0:0:
320,192,224379,1,2,0:0:0:0:
448,192,224379,1,0,0:0:0:0:
64,192,224544,1,8,0:0:0:0:
192,192,224544,1,4,0:0:0:0:
320,192,224544,1,0,0:0:0:0:
448,192,224544,1,0,0:0:0:0:
64,192,224708,1,2,0:0:0:0:
192,192,224708,1,0,0:0:0:0:
320,192,224791,1,2,0:0:0:0:
64,192,224873,128,8,224956:0:0:0:0:
192,192,224873,1,4,0:0:0:0:
448,192,224873,128,0,224956:0:0:0:0:
448,192,225038,1,8,0:0:0:0:
64,192,225203,1,8,0:0:0:0:
192,192,225203,1,2,0:0:0:0:
448,192,225203,1,0,0:0:0:0:
64,192,225368,1,8,0:0:0:0:
192,192,225368,128,0,225450:0:0:0:0:
448,192,225368,1,0,0:0:0:0:
64,192,225533,128,8,225615:0:0:0:0:
192,192,225533,1,2,0:0:0:0:
448,192,225533,1,0,0:0:0:0:
64,192,225698,1,8,0:0:0:0:
192,192,225698,1,0,0:0:0:0:
448,192,225698,1,0,0:0:0:0:
64,192,225862,1,8,0:0:0:0:
192,192,225862,1,2,0:0:0:0:
448,192,225862,1,0,0:0:0:0:
64,192,226027,1,8,0:0:0:0:
320,192,226027,128,0,226110:0:0:0:0:
448,192,226027,1,0,0:0:0:0:
64,192,226192,128,8,226274:0:0:0:0:
320,192,226192,1,2,0:0:0:0:
448,192,226192,1,0,0:0:0:0:
64,192,226357,1,8,0:0:0:0:
320,192,226357,1,0,0:0:0:0:
448,192,226357,1,0,0:0:0:0:
64,192,226522,1,8,0:0:0:0:
320,192,226522,1,2,0:0:0:0:
448,192,226522,128,0,226604:0:0:0:0:
64,192,226687,1,8,0:0:0:0:
320,192,226687,1,0,0:0:0:0:
448,192,226687,1,0,0:0:0:0:
64,192,226851,1,8,0:0:0:0:
192,192,226851,128,2,226934:0:0:0:0:
448,192,226851,1,0,0:0:0:0:
64,192,227016,1,8,0:0:0:0:
192,192,227016,1,0,0:0:0:0:
448,192,227016,1,0,0:0:0:0:
64,192,227181,128,8,227263:0:0:0:0:
192,192,227181,1,2,0:0:0:0:
448,192,227181,1,0,0:0:0:0:
192,192,227346,128,2,227511:0:0:0:0:
320,192,227346,128,0,227511:0:0:0:70:LR_CymbalG.wav
448,192,227346,128,0,227511:0:0:0:0:
320,192,232126,1,2,0:0:0:0:
448,192,232126,1,0,0:0:0:0:
64,192,232208,1,8,0:0:0:0:
192,192,232208,1,0,0:0:0:0:
320,192,232291,1,8,0:0:0:0:
448,192,232291,1,0,0:0:0:0:
64,192,232373,1,8,0:0:0:0:
192,192,232373,1,0,0:0:0:0:
320,192,232456,1,8,0:0:0:0:
448,192,232456,1,0,0:0:0:0:
64,192,232538,1,0,0:0:0:70:Tom2.wav
320,192,232621,1,0,0:0:0:70:Tom2.wav
192,192,232703,1,0,0:0:0:70:Tom3.wav
64,192,232785,1,2,0:0:0:0:
320,192,232785,1,4,0:0:0:0:
448,192,232785,1,0,0:0:0:0:
64,192,232950,1,8,0:0:0:0:
192,192,232950,1,0,0:0:0:0:
320,192,233033,1,8,0:0:0:0:
448,192,233033,1,0,0:0:0:0:
64,192,233115,1,8,0:0:0:0:
192,192,233115,1,0,0:0:0:0:
320,192,233198,1,8,0:0:0:0:
64,192,233280,1,8,0:0:0:0:
448,192,233280,1,4,0:0:0:0:
192,192,233362,1,2,0:0:0:0:
320,192,233445,1,8,0:0:0:0:
448,192,233445,1,0,0:0:0:0:
64,192,233527,1,8,0:0:0:0:
192,192,233527,1,0,0:0:0:0:
320,192,233610,1,8,0:0:0:0:
448,192,233610,1,0,0:0:0:0:
192,192,233692,1,8,0:0:0:0:
64,192,233774,1,2,0:0:0:0:
448,192,233774,1,4,0:0:0:0:
320,192,233857,1,2,0:0:0:0:
64,192,233939,1,8,0:0:0:0:
192,192,233939,1,0,0:0:0:0:
320,192,234022,1,8,0:0:0:0:
448,192,234022,1,0,0:0:0:0:
64,192,234104,1,8,0:0:0:0:
192,192,234104,1,0,0:0:0:0:
320,192,234187,1,8,0:0:0:0:
64,192,234269,1,2,0:0:0:0:
448,192,234269,1,4,0:0:0:0:
192,192,234351,1,2,0:0:0:0:
320,192,234434,1,8,0:0:0:0:
448,192,234434,1,0,0:0:0:0:
64,192,234516,1,8,0:0:0:0:
192,192,234516,1,0,0:0:0:0:
320,192,234599,1,8,0:0:0:0:
448,192,234599,1,0,0:0:0:0:
192,192,234681,1,8,0:0:0:0:
64,192,234763,1,2,0:0:0:0:
448,192,234763,1,4,0:0:0:0:
320,192,234846,1,2,0:0:0:0:
64,192,234928,1,8,0:0:0:0:
192,192,234928,1,0,0:0:0:0:
320,192,235011,1,8,0:0:0:0:
448,192,235011,1,0,0:0:0:0:
64,192,235093,1,8,0:0:0:0:
192,192,235093,1,0,0:0:0:0:
448,192,235176,1,0,0:0:0:70:Tom1.wav
192,192,235258,1,0,0:0:0:70:Tom2.wav
320,192,235258,1,0,0:0:0:0:
64,192,235340,1,0,0:0:0:70:Tom3.wav
192,192,235423,1,2,0:0:0:0:
320,192,235423,1,4,0:0:0:0:
448,192,235423,1,0,0:0:0:0:
64,192,235670,1,0,0:0:0:70:Tom2.wav
320,192,235752,1,0,0:0:0:70:Tom2.wav
448,192,235752,1,0,0:0:0:0:
192,192,235835,1,0,0:0:0:70:Tom3.wav
64,192,235917,1,2,0:0:0:0:
320,192,235917,1,4,0:0:0:0:
448,192,235917,1,0,0:0:0:0:
64,192,236082,1,8,0:0:0:0:
192,192,236082,1,0,0:0:0:0:
320,192,236165,1,8,0:0:0:0:
448,192,236165,1,0,0:0:0:0:
64,192,236247,1,8,0:0:0:0:
192,192,236247,1,0,0:0:0:0:
320,192,236329,1,8,0:0:0:0:
64,192,236412,1,2,0:0:0:0:
448,192,236412,1,4,0:0:0:0:
192,192,236494,1,2,0:0:0:0:
320,192,236577,1,0,0:0:0:70:Tom1.wav
448,192,236577,1,0,0:0:0:0:
64,192,236659,1,0,0:0:0:70:Tom1.wav
192,192,236659,1,0,0:0:0:0:
320,192,236741,1,0,0:0:0:70:Tom2.wav
448,192,236741,1,0,0:0:0:0:
192,192,236824,1,0,0:0:0:70:Tom2.wav
64,192,236906,1,2,0:0:0:0:
448,192,236906,1,4,0:0:0:0:
320,192,237071,1,0,0:0:0:70:Tom2.wav
192,192,237154,1,0,0:0:0:70:Tom2.wav
320,192,237236,1,0,0:0:0:70:Tom3.wav
192,192,237318,1,0,0:0:0:70:Tom3.wav
64,192,237401,1,2,0:0:0:0:
320,192,237401,1,4,0:0:0:0:
448,192,237401,1,0,0:0:0:0:
64,192,237566,1,8,0:0:0:0:
192,192,237566,1,0,0:0:0:0:
320,192,237648,1,2,0:0:0:0:
64,192,237730,1,8,0:0:0:0:
448,192,237730,1,0,0:0:0:0:
192,192,237813,1,2,0:0:0:0:
320,192,237895,1,8,0:0:0:0:
448,192,237895,1,0,0:0:0:0:
192,192,237978,1,8,0:0:0:0:
64,192,238060,1,2,0:0:0:0:
448,192,238060,1,4,0:0:0:0:
320,192,238143,1,2,0:0:0:0:
64,192,238225,1,8,0:0:0:0:
192,192,238225,1,0,0:0:0:0:
320,192,238307,1,8,0:0:0:0:
448,192,238307,1,0,0:0:0:0:
64,192,238390,1,2,0:0:0:0:
192,192,238390,1,0,0:0:0:65:LR_Ride Med.wav
320,192,238472,1,2,0:0:0:0:
64,192,238555,1,8,0:0:0:0:
448,192,238555,1,0,0:0:0:0:
192,192,238637,1,8,0:0:0:0:
320,192,238719,1,0,0:0:0:70:Tom2.wav
448,192,238719,1,0,0:0:0:0:
64,192,238802,1,0,0:0:0:70:Tom2.wav
192,192,238802,1,0,0:0:0:0:
320,192,238884,1,0,0:0:0:70:Tom3.wav
448,192,238884,1,0,0:0:0:0:
64,192,238967,1,0,0:0:0:70:Tom3.wav
192,192,238967,1,0,0:0:0:0:
320,192,239049,1,8,0:0:0:0:
448,192,239049,1,0,0:0:0:0:
64,192,239132,1,0,0:0:0:70:Tom2.wav
192,192,239132,1,0,0:0:0:0:
320,192,239214,1,0,0:0:0:70:Tom2.wav
448,192,239214,1,0,0:0:0:0:
192,192,239296,1,2,0:0:0:0:
64,192,239379,1,8,0:0:0:0:
320,192,239379,1,0,0:0:0:0:
448,192,239379,1,0,0:0:0:0:
64,192,239626,1,8,0:0:0:0:
192,192,239626,1,0,0:0:0:0:
448,192,239626,1,0,0:0:0:0:
64,192,239873,1,8,0:0:0:0:
192,192,239873,1,2,0:0:0:0:
320,192,239873,1,4,0:0:0:0:
448,192,239873,1,0,0:0:0:0:
320,192,240038,1,0,0:0:0:0:
64,192,240203,1,8,0:0:0:0:
320,192,240203,1,0,0:0:0:0:
64,192,240368,1,8,0:0:0:0:
192,192,240368,1,2,0:0:0:0:
448,192,240368,1,4,0:0:0:0:
320,192,240533,1,2,0:0:0:0:
320,192,240615,1,2,0:0:0:0:
64,192,240698,1,8,0:0:0:0:
192,192,240698,128,4,240862:0:0:0:0:
448,192,240698,1,0,0:0:0:0:
320,192,240862,1,0,0:0:0:0:
64,192,241027,1,8,0:0:0:0:
192,192,241027,1,0,0:0:0:35:drum-hitfinish.wav
448,192,241027,128,0,241192:0:0:0:0:
320,192,241192,128,2,241357:0:0:0:0:
64,192,241274,1,8,0:0:0:0:
192,192,241357,1,2,0:0:0:0:
448,192,241357,1,0,0:0:0:35:drum-hitfinish.wav
64,192,241522,128,2,241687:0:0:0:0:
192,192,241522,1,0,0:0:0:0:
320,192,241687,1,8,0:0:0:0:
448,192,241687,1,0,0:0:0:35:drum-hitfinish.wav
192,192,241851,128,0,242016:0:0:0:0:
64,192,242016,1,2,0:0:0:0:
448,192,242016,1,0,0:0:0:35:drum-hitfinish.wav
192,192,242181,1,2,0:0:0:0:
320,192,242181,1,0,0:0:0:0:
64,192,242346,1,8,0:0:0:0:
320,192,242346,1,0,0:0:0:35:drum-hitfinish.wav
448,192,242346,128,0,242511:0:0:0:0:
192,192,242511,1,2,0:0:0:0:
320,192,242593,1,8,0:0:0:0:
448,192,242593,1,0,0:0:0:0:
64,192,242676,128,2,242840:0:0:0:0:
192,192,242676,1,0,0:0:0:35:drum-hitfinish.wav
320,192,242840,1,2,0:0:0:0:
448,192,242840,1,0,0:0:0:0:
64,192,243005,128,8,243665:0:0:0:0:
320,192,243005,1,0,0:0:0:35:drum-hitfinish.wav
448,192,243005,1,0,0:0:0:0:
192,192,243170,1,0,0:0:0:0:
192,192,243335,1,2,0:0:0:0:
448,192,243335,1,0,0:0:0:35:drum-hitfinish.wav
320,192,243500,1,0,0:0:0:0:
192,192,243665,1,8,0:0:0:0:
320,192,243665,1,0,0:0:0:35:drum-hitfinish.wav
448,192,243665,1,0,0:0:0:0:
64,192,243829,1,2,0:0:0:0:
320,192,243912,1,8,0:0:0:0:
448,192,243912,1,0,0:0:0:0:
64,192,243994,1,2,0:0:0:0:
192,192,243994,1,0,0:0:0:35:drum-hitfinish.wav
320,192,244159,1,2,0:0:0:0:
448,192,244159,1,0,0:0:0:0:
64,192,244324,1,8,0:0:0:0:
192,192,244324,128,0,244489:0:0:0:35:drum-hitfinish.wav
448,192,244324,1,0,0:0:0:0:
320,192,244489,1,0,0:0:0:0:
64,192,244654,1,2,0:0:0:0:
448,192,244654,128,0,244818:0:0:0:35:drum-hitfinish.wav
192,192,244818,1,2,0:0:0:0:
320,192,244818,1,0,0:0:0:0:
64,192,244983,1,8,0:0:0:0:
320,192,244983,128,0,245148:0:0:0:35:drum-hitfinish.wav
448,192,244983,1,0,0:0:0:0:
192,192,245148,1,0,0:0:0:0:
64,192,245313,128,6,245478:0:0:0:0:
448,192,245313,1,0,0:0:0:35:drum-hitfinish.wav
192,192,245478,1,8,0:0:0:0:
320,192,245560,1,8,0:0:0:0:
64,192,245643,1,2,0:0:0:0:
448,192,245643,128,0,245807:0:0:0:0:
320,192,245725,1,8,0:0:0:0:
64,192,245807,1,8,0:0:0:0:
192,192,245890,1,8,0:0:0:0:
64,192,245972,1,4,0:0:0:0:
320,192,245972,128,2,246137:0:0:0:0:
448,192,245972,1,0,0:0:0:0:
192,192,246137,1,0,0:0:0:0:
64,192,246302,1,8,0:0:0:0:
320,192,246302,1,0,0:0:0:60:LR_Ride Med.wav
448,192,246302,128,0,246467:0:0:0:0:
192,192,246467,1,2,0:0:0:0:
64,192,246549,1,8,0:0:0:0:
448,192,246549,1,0,0:0:0:0:
192,192,246632,1,2,0:0:0:0:
320,192,246632,1,0,0:0:0:60:LR_Ride Med.wav
64,192,246796,1,2,0:0:0:0:
320,192,246796,1,0,0:0:0:0:
64,192,246961,1,8,0:0:0:0:
192,192,246961,1,0,0:0:0:60:LR_Ride Med.wav
448,192,246961,128,0,247126:0:0:0:0:
320,192,247126,128,0,247291:0:0:0:0:
64,192,247291,1,2,0:0:0:0:
192,192,247291,1,0,0:0:0:60:LR_Ride Med.wav
320,192,247456,1,2,0:0:0:0:
448,192,247456,1,0,0:0:0:0:
64,192,247621,1,8,0:0:0:0:
192,192,247621,128,0,247785:0:0:0:60:LR_Ride Med.wav
448,192,247621,1,0,0:0:0:0:
320,192,247785,1,2,0:0:0:0:
64,192,247868,1,8,0:0:0:0:
192,192,247868,1,0,0:0:0:0:
320,192,247950,1,2,0:0:0:0:
448,192,247950,128,0,248115:0:0:0:60:LR_Ride Med.wav
64,192,248115,1,8,0:0:0:0:
192,192,248115,1,0,0:0:0:0:
320,192,248198,1,8,0:0:0:0:
448,192,248198,1,0,0:0:0:0:
64,192,248280,1,2,0:0:0:0:
192,192,248280,1,0,0:0:0:0:
320,192,248362,1,8,0:0:0:0:
448,192,248362,1,0,0:0:0:0:
64,192,248445,1,8,0:0:0:0:
192,192,248445,1,0,0:0:0:0:
320,192,248527,1,8,0:0:0:0:
64,192,248610,1,4,0:0:0:0:
192,192,248610,1,2,0:0:0:0:
448,192,248610,1,0,0:0:0:0:
320,192,248774,1,2,0:0:0:0:
448,192,248774,1,0,0:0:0:0:
192,192,248857,1,2,0:0:0:0:
64,192,248939,1,8,0:0:0:0:
448,192,248939,1,0,0:0:0:0:
320,192,249022,1,8,0:0:0:0:
64,192,249104,1,4,0:0:0:0:
192,192,249104,1,8,0:0:0:0:
448,192,249104,1,0,0:0:0:0:
320,192,249187,1,2,0:0:0:0:
64,192,249269,1,2,0:0:0:0:
192,192,249269,1,0,0:0:0:0:
320,192,249351,1,2,0:0:0:0:
64,192,249434,1,8,0:0:0:0:
448,192,249434,1,0,0:0:0:0:
192,192,249516,1,8,0:0:0:0:
64,192,249599,1,4,0:0:0:0:
320,192,249599,1,8,0:0:0:0:
448,192,249599,1,0,0:0:0:0:
192,192,249681,1,2,0:0:0:0:
320,192,249763,1,2,0:0:0:0:
448,192,249763,1,0,0:0:0:0:
192,192,249846,1,2,0:0:0:0:
64,192,249928,1,8,0:0:0:0:
448,192,249928,1,0,0:0:0:0:
320,192,250011,1,8,0:0:0:0:
64,192,250093,1,4,0:0:0:0:
192,192,250093,1,8,0:0:0:0:
448,192,250093,1,0,0:0:0:0:
320,192,250176,1,2,0:0:0:0:
64,192,250258,1,8,0:0:0:0:
192,192,250258,1,0,0:0:0:0:
320,192,250340,1,8,0:0:0:0:
448,192,250340,1,0,0:0:0:0:
64,192,250423,1,8,0:0:0:0:
192,192,250423,1,0,0:0:0:0:
320,192,250505,1,8,0:0:0:0:
448,192,250505,1,0,0:0:0:0:
64,192,250588,1,2,0:0:0:0:
192,192,250588,1,0,0:0:0:0:
320,192,250752,1,0,0:0:0:70:Tom2.wav
448,192,250752,1,0,0:0:0:0:
64,192,250917,1,0,0:0:0:70:Tom3.wav
192,192,250917,1,0,0:0:0:0:
320,192,251082,1,2,0:0:0:0:
320,192,251165,1,2,0:0:0:0:
64,192,251247,128,4,251412:0:0:0:0:
192,192,251247,128,8,251412:0:0:0:0:
448,192,251247,1,0,0:0:0:0:
320,192,251577,128,0,251741:0:0:0:35:drum-hitfinish.wav
448,192,251577,128,0,251741:0:0:0:0:
64,192,251741,1,2,0:0:0:0:
192,192,251741,1,0,0:0:0:0:
64,192,251906,1,8,0:0:0:0:
320,192,251906,1,0,0:0:0:35:drum-hitfinish.wav
448,192,251906,1,0,0:0:0:0:
320,192,252071,1,0,0:0:0:0:
64,192,252236,128,2,252401:0:0:0:0:
192,192,252236,128,0,252401:0:0:0:35:drum-hitfinish.wav
320,192,252401,1,8,0:0:0:0:
448,192,252401,1,0,0:0:0:0:
64,192,252566,128,2,252730:0:0:0:0:
320,192,252566,128,0,252730:0:0:0:35:drum-hitfinish.wav
192,192,252730,1,8,0:0:0:0:
448,192,252730,1,0,0:0:0:0:
320,192,252895,128,2,253060:0:0:0:0:
448,192,252895,128,0,253060:0:0:0:35:drum-hitfinish.wav
64,192,253060,1,2,0:0:0:0:
192,192,253060,1,0,0:0:0:0:
64,192,253225,1,8,0:0:0:0:
320,192,253225,1,0,0:0:0:35:drum-hitfinish.wav
448,192,253225,1,0,0:0:0:0:
192,192,253390,1,2,0:0:0:0:
448,192,253390,1,0,0:0:0:0:
64,192,253555,128,8,253719:0:0:0:0:
192,192,253555,1,4,0:0:0:0:
320,192,253555,128,0,253719:0:0:0:0:
192,192,253884,1,2,0:0:0:0:
320,192,253884,128,4,254049:0:0:0:0:
448,192,253884,128,0,254049:0:0:0:0:
64,192,254214,128,0,254379:0:0:0:35:drum-hitfinish.wav
192,192,254214,128,0,254379:0:0:0:0:
320,192,254379,128,2,254544:0:0:0:0:
448,192,254379,128,0,254544:0:0:0:0:
64,192,254544,1,8,0:0:0:0:
192,192,254544,1,0,0:0:0:35:drum-hitfinish.wav
64,192,254708,128,8,254873:0:0:0:0:
320,192,254708,1,0,0:0:0:0:
448,192,254708,128,0,254873:0:0:0:0:
192,192,254873,1,2,0:0:0:0:
320,192,254873,1,0,0:0:0:35:drum-hitfinish.wav
64,192,255038,1,8,0:0:0:0:
192,192,255038,128,0,255203:0:0:0:0:
448,192,255038,128,0,255203:0:0:0:0:
64,192,255203,1,2,0:0:0:0:
320,192,255203,1,0,0:0:0:35:drum-hitfinish.wav
64,192,255368,128,8,255533:0:0:0:0:
320,192,255368,128,0,255533:0:0:0:0:
448,192,255368,1,0,0:0:0:0:
192,192,255533,1,2,0:0:0:0:
448,192,255533,1,4,0:0:0:0:
320,192,255698,128,0,255862:0:0:0:70:Tom1.wav
448,192,255698,128,0,255862:0:0:0:0:
64,192,255780,1,0,0:0:0:70:Tom1.wav
192,192,255862,1,0,0:0:0:70:Tom1.wav
320,192,256027,1,0,0:0:0:70:Tom2.wav
64,192,256192,128,0,256357:0:0:0:70:Tom2.wav
192,192,256192,128,0,256357:0:0:0:0:
448,192,256274,1,0,0:0:0:0:
320,192,256357,1,0,0:0:0:70:Tom3.wav
192,192,256439,1,0,0:0:0:0:
64,192,256522,128,2,256687:0:0:0:0:
320,192,256522,1,4,0:0:0:0:
448,192,256522,128,0,256687:0:0:0:0:
192,192,256687,1,0,0:0:0:0:
320,192,256851,128,0,257016:0:0:0:35:drum-hitfinish.wav
448,192,256851,128,0,257016:0:0:0:0:
64,192,257016,1,2,0:0:0:0:
192,192,257016,1,0,0:0:0:0:
64,192,257181,1,8,0:0:0:0:
192,192,257181,1,0,0:0:0:35:drum-hitfinish.wav
448,192,257181,1,0,0:0:0:0:
320,192,257346,1,0,0:0:0:0:
64,192,257511,128,2,257676:0:0:0:0:
192,192,257511,128,0,257676:0:0:0:35:drum-hitfinish.wav
320,192,257676,1,8,0:0:0:0:
448,192,257676,1,0,0:0:0:0:
192,192,257840,128,2,258005:0:0:0:0:
320,192,257840,128,0,258005:0:0:0:35:drum-hitfinish.wav
64,192,258005,1,8,0:0:0:0:
448,192,258005,1,0,0:0:0:0:
320,192,258170,128,0,258335:0:0:0:35:drum-hitfinish.wav
448,192,258170,128,0,258335:0:0:0:0:
64,192,258335,1,2,0:0:0:0:
192,192,258335,1,0,0:0:0:0:
64,192,258500,1,8,0:0:0:0:
320,192,258500,1,0,0:0:0:35:drum-hitfinish.wav
448,192,258500,1,0,0:0:0:0:
192,192,258665,1,2,0:0:0:0:
320,192,258665,1,0,0:0:0:0:
448,192,258829,128,0,258994:0:0:0:35:drum-hitfinish.wav
64,192,258994,128,0,259159:0:0:0:0:
192,192,259159,1,2,0:0:0:0:
320,192,259159,1,4,0:0:0:0:
448,192,259159,1,0,0:0:0:0:
64,192,259324,1,8,0:0:0:0:
192,192,259324,1,0,0:0:0:0:
320,192,259406,1,8,0:0:0:0:
448,192,259406,1,0,0:0:0:0:
320,192,259489,1,8,0:0:0:0:
448,192,259489,1,0,0:0:0:0:
192,192,259571,1,2,0:0:0:0:
64,192,259654,1,4,0:0:0:0:
320,192,259654,1,8,0:0:0:0:
448,192,259654,1,0,0:0:0:0:
64,192,259983,1,8,0:0:0:0:
192,192,259983,1,0,0:0:0:0:
64,192,260066,1,8,0:0:0:0:
192,192,260066,1,0,0:0:0:0:
320,192,260148,1,2,0:0:0:0:
448,192,260148,1,0,0:0:0:0:
192,192,260230,1,0,0:0:0:70:Tom2.wav
320,192,260313,1,0,0:0:0:70:Tom2.wav
64,192,260395,1,0,0:0:0:70:Tom3.wav
192,192,260478,1,2,0:0:0:0:
320,192,260478,1,4,0:0:0:0:
448,192,260478,128,0,261137:0:0:0:0:
320,192,261302,1,0,0:0:0:70:Tom2.wav
320,192,261384,1,0,0:0:0:70:Tom2.wav
192,192,261467,1,0,0:0:0:70:Tom3.wav
64,192,261796,1,8,0:0:0:0:
192,192,261796,1,4,0:0:0:0:
320,192,261796,1,0,0:0:0:0:
448,192,261796,1,0,0:0:0:0:
64,192,261961,1,2,0:0:0:0:
192,192,261961,1,0,0:0:0:0:
320,192,262126,1,2,0:0:0:0:
448,192,262126,1,0,0:0:0:0:
64,192,262291,1,8,0:0:0:0:
192,192,262291,1,4,0:0:0:0:
320,192,262291,1,0,0:0:0:0:
448,192,262291,1,0,0:0:0:0:
192,192,262456,1,2,0:0:0:0:
448,192,262456,1,0,0:0:0:0:
64,192,262621,1,2,0:0:0:0:
320,192,262621,1,0,0:0:0:0:
64,192,262785,1,4,0:0:0:0:
192,192,262785,1,8,0:0:0:0:
320,192,262785,1,0,0:0:0:0:
448,192,262785,1,0,0:0:0:0:
64,192,262950,1,2,0:0:0:0:
192,192,262950,1,0,0:0:0:0:
320,192,263115,1,2,0:0:0:0:
448,192,263115,1,0,0:0:0:0:
64,192,263280,1,8,0:0:0:0:
192,192,263280,1,4,0:0:0:0:
320,192,263280,1,0,0:0:0:0:
448,192,263280,1,0,0:0:0:0:
64,192,263445,1,2,0:0:0:0:
320,192,263445,1,0,0:0:0:0:
192,192,263610,1,2,0:0:0:0:
448,192,263610,1,0,0:0:0:0:
64,192,263774,1,4,0:0:0:0:
192,192,263774,1,8,0:0:0:0:
320,192,263774,1,0,0:0:0:0:
448,192,263774,1,0,0:0:0:0:
64,192,263939,1,2,0:0:0:0:
320,192,263939,1,0,0:0:0:0:
64,192,264104,1,4,0:0:0:0:
192,192,264104,1,8,0:0:0:0:
320,192,264104,1,0,0:0:0:0:
448,192,264104,1,0,0:0:0:0:
192,192,264269,1,2,0:0:0:0:
448,192,264269,1,0,0:0:0:0:
320,192,264351,1,2,0:0:0:0:
64,192,264434,1,4,0:0:0:0:
192,192,264434,1,8,0:0:0:0:
448,192,264434,1,0,0:0:0:0:
64,192,264599,1,2,0:0:0:0:
320,192,264599,1,0,0:0:0:0:
192,192,264763,1,2,0:0:0:0:
448,192,264763,1,0,0:0:0:0:
64,192,264928,1,4,0:0:0:0:
192,192,264928,1,8,0:0:0:0:
320,192,264928,1,0,0:0:0:0:
448,192,264928,1,0,0:0:0:0:
64,192,265093,1,2,0:0:0:0:
320,192,265093,1,0,0:0:0:0:
192,192,265258,1,2,0:0:0:0:
448,192,265258,1,0,0:0:0:0:
64,192,265423,1,8,0:0:0:0:
192,192,265423,1,4,0:0:0:0:
320,192,265423,1,0,0:0:0:0:
448,192,265423,1,0,0:0:0:0:
320,192,265588,1,2,0:0:0:0:
448,192,265588,1,0,0:0:0:0:
64,192,265752,1,2,0:0:0:0:
192,192,265752,1,0,0:0:0:0:
64,192,265917,1,4,0:0:0:0:
192,192,265917,1,8,0:0:0:0:
320,192,265917,1,0,0:0:0:0:
448,192,265917,1,0,0:0:0:0:
320,192,266082,1,2,0:0:0:0:
448,192,266082,1,0,0:0:0:0:
64,192,266247,1,2,0:0:0:0:
192,192,266247,1,0,0:0:0:0:
320,192,266412,1,0,0:0:0:70:Tom1.wav
448,192,266412,1,0,0:0:0:0:
192,192,266577,1,0,0:0:0:70:Tom2.wav
320,192,266577,1,0,0:0:0:0:
64,192,266741,1,0,0:0:0:70:Tom3.wav
192,192,266741,1,0,0:0:0:0:
320,192,266906,1,2,0:0:0:0:
448,192,266906,1,0,0:0:0:0:
192,192,266989,1,2,0:0:0:0:
64,192,267071,1,8,0:0:0:0:
320,192,267071,1,4,0:0:0:0:
448,192,267071,1,0,0:0:0:0:
64,192,267236,1,2,0:0:0:0:
192,192,267236,1,0,0:0:0:0:
320,192,267401,1,2,0:0:0:0:
448,192,267401,1,0,0:0:0:0:
64,192,267566,1,8,0:0:0:0:
192,192,267566,1,4,0:0:0:0:
320,192,267566,1,0,0:0:0:0:
448,192,267566,1,0,0:0:0:0:
192,192,267730,1,2,0:0:0:0:
448,192,267730,1,0,0:0:0:0:
64,192,267895,1,2,0:0:0:0:
320,192,267895,1,0,0:0:0:0:
64,192,268060,1,4,0:0:0:0:
192,192,268060,1,8,0:0:0:0:
320,192,268060,1,0,0:0:0:0:
448,192,268060,1,0,0:0:0:0:
64,192,268225,1,2,0:0:0:0:
192,192,268225,1,0,0:0:0:0:
320,192,268390,1,2,0:0:0:0:
448,192,268390,1,0,0:0:0:0:
64,192,268555,1,8,0:0:0:0:
192,192,268555,1,4,0:0:0:0:
320,192,268555,1,0,0:0:0:0:
448,192,268555,1,0,0:0:0:0:
64,192,268719,1,2,0:0:0:0:
192,192,268719,1,0,0:0:0:0:
320,192,268884,1,2,0:0:0:0:
448,192,268884,1,0,0:0:0:0:
64,192,269049,1,4,0:0:0:0:
192,192,269049,1,8,0:0:0:0:
320,192,269049,1,0,0:0:0:0:
448,192,269049,1,0,0:0:0:0:
192,192,269214,1,2,0:0:0:0:
320,192,269214,1,0,0:0:0:0:
64,192,269379,1,4,0:0:0:0:
192,192,269379,1,8,0:0:0:0:
320,192,269379,1,0,0:0:0:0:
448,192,269379,1,0,0:0:0:0:
64,192,269544,1,2,0:0:0:0:
192,192,269544,1,0,0:0:0:0:
320,192,269626,1,2,0:0:0:0:
64,192,269708,1,4,0:0:0:0:
192,192,269708,1,8,0:0:0:0:
448,192,269708,1,0,0:0:0:0:
320,192,269873,1,2,0:0:0:0:
448,192,269873,1,0,0:0:0:0:
64,192,270038,1,2,0:0:0:0:
192,192,270038,1,0,0:0:0:0:
64,192,270203,1,4,0:0:0:0:
192,192,270203,1,8,0:0:0:0:
320,192,270203,1,0,0:0:0:0:
448,192,270203,1,0,0:0:0:0:
320,192,270368,1,2,0:0:0:0:
448,192,270368,1,0,0:0:0:0:
64,192,270533,1,2,0:0:0:0:
192,192,270533,1,0,0:0:0:0:
64,192,270698,1,8,0:0:0:0:
320,192,270698,1,0,0:0:0:0:
448,192,270698,1,0,0:0:0:0:
192,192,270780,1,0,0:0:0:70:Tom2.wav
320,192,270862,1,0,0:0:0:70:Tom2.wav
448,192,270862,1,0,0:0:0:0:
192,192,270945,1,0,0:0:0:70:Tom3.wav
64,192,271027,1,8,0:0:0:0:
320,192,271027,1,2,0:0:0:0:
448,192,271027,1,0,0:0:0:0:
64,192,271274,1,8,0:0:0:0:
320,192,271274,1,2,0:0:0:0:
448,192,271274,1,0,0:0:0:0:
64,192,271522,1,8,0:0:0:0:
320,192,271522,1,2,0:0:0:0:
448,192,271522,1,0,0:0:0:0:
64,192,271687,1,2,0:0:0:0:
192,192,271687,1,8,0:0:0:0:
320,192,271687,1,0,0:0:0:0:
64,192,271934,1,8,0:0:0:0:
192,192,271934,1,2,0:0:0:0:
320,192,271934,1,0,0:0:0:0:
192,192,272181,1,8,0:0:0:0:
320,192,272181,1,2,0:0:0:0:
448,192,272181,1,0,0:0:0:70:LR_CymbalG.wav
64,192,272676,1,4,0:0:0:0:
320,192,272676,1,2,0:0:0:0:
448,192,272676,1,0,0:0:0:0:
192,192,272758,128,0,277621:0:0:0:0:
