osu file format v14

[General]
AudioFilename: audio.mp3
AudioLeadIn: 0
PreviewTime: 66549
Countdown: 0
SampleSet: Soft
StackLeniency: 0.7
Mode: 3
LetterboxInBreaks: 0
SpecialStyle: 0
WidescreenStoryboard: 1

[Editor]
DistanceSpacing: 0.4
BeatDivisor: 4
GridSize: 32
TimelineZoom: 1.8

[Metadata]
Title:GHOST
TitleUnicode:GHOST
Artist:Hoshimachi Suisei
ArtistUnicode:星街すいせい
Creator:Rivals_7
Version:Beginner
Source:
Tags:hololive ホロライブ hosimati hoshimati hosimachi suichan idol vtuber virtual youtuber singer jrock j-rock rock pop japanese jpop j-pop 佐藤厚仁 sato atsuhito Dream Monster カバー cover corp. ch ch. 森本練 Ren Morimoto 北村望 Kitamura Nozomi mokoppe 紋
BeatmapID:3012109
BeatmapSetID:1466713

[Difficulty]
HPDrainRate:6.5
CircleSize:4
OverallDifficulty:6.5
ApproachRate:5
SliderMultiplier:1.4
SliderTickRate:1

[Events]
//Background and Video events
0,0,"88638741_p0.jpg",0,0
//Break Periods
//Storyboard Layer 0 (Background)
//Storyboard Layer 1 (Fail)
//Storyboard Layer 2 (Pass)
//Storyboard Layer 3 (Foreground)
//Storyboard Layer 4 (Overlay)
//Storyboard Sound Samples
Sample,37621,0,"LR_CymbalSSD.wav",70
Sample,48170,0,"LR_CymbalSSD.wav",50
Sample,63665,0,"Tom1.wav",70
Sample,64324,0,"Tom2.wav",70
Sample,64654,0,"Tom2.wav",70
Sample,64983,0,"Tom2.wav",70
Sample,75533,0,"Tom1.wav",70
Sample,77840,0,"drum-hitfinish.wav",35
Sample,78500,0,"drum-hitfinish.wav",35
Sample,79159,0,"drum-hitfinish.wav",35
Sample,79818,0,"drum-hitfinish.wav",35
Sample,80478,0,"drum-hitfinish.wav",35
Sample,81137,0,"drum-hitfinish.wav",35
Sample,81796,0,"drum-hitfinish.wav",35
Sample,83115,0,"LR_Ride Med.wav",60
Sample,83774,0,"LR_Ride Med.wav",60
Sample,84434,0,"LR_Ride Med.wav",60
Sample,87071,0,"Tom2.wav",70
Sample,88060,0,"drum-hitfinish.wav",35
Sample,88390,0,"drum-hitfinish.wav",35
Sample,88719,0,"drum-hitfinish.wav",35
Sample,89049,0,"drum-hitfinish.wav",35
Sample,89379,0,"drum-hitfinish.wav",35
Sample,89708,0,"drum-hitfinish.wav",35
Sample,90698,0,"drum-hitfinish.wav",35
Sample,91027,0,"drum-hitfinish.wav",35
Sample,91357,0,"drum-hitfinish.wav",35
Sample,92016,0,"drum-hitfinish.wav",35
Sample,92181,0,"drum-hitfinish.wav",35
Sample,92346,0,"drum-hitfinish.wav",35
Sample,92676,0,"drum-hitfinish.wav",35
Sample,121357,0,"Tom1.wav",70
Sample,121604,0,"Tom2.wav",70
Sample,121851,0,"Tom3.wav",70
Sample,124983,0,"drum-hitfinish.wav",35
Sample,125313,0,"drum-hitfinish.wav",35
Sample,125643,0,"drum-hitfinish.wav",35
Sample,125972,0,"drum-hitfinish.wav",35
Sample,126302,0,"drum-hitfinish.wav",35
Sample,126632,0,"drum-hitfinish.wav",35
Sample,126961,0,"drum-hitfinish.wav",35
Sample,127621,0,"drum-hitfinish.wav",35
Sample,127950,0,"drum-hitfinish.wav",35
Sample,128280,0,"drum-hitfinish.wav",35
Sample,128610,0,"drum-hitfinish.wav",35
Sample,134873,0,"Tom2.wav",60
Sample,140807,0,"Tom2.wav",70
Sample,141137,0,"Tom2.wav",70
Sample,141467,0,"Tom2.wav",70
Sample,148719,0,"LR_CymbalG.wav",35
Sample,149049,0,"LR_CymbalG.wav",35
Sample,150038,0,"LR_CymbalG.wav",35
Sample,150368,0,"LR_CymbalG.wav",35
Sample,150698,0,"LR_CymbalG.wav",35
Sample,151027,0,"LR_CymbalG.wav",35
Sample,151357,0,"LR_CymbalG.wav",35
Sample,154324,0,"drum-hitfinish.wav",35
Sample,154983,0,"drum-hitfinish.wav",35
Sample,155643,0,"drum-hitfinish.wav",35
Sample,156302,0,"drum-hitfinish.wav",35
Sample,156961,0,"drum-hitfinish.wav",35
Sample,157621,0,"drum-hitfinish.wav",35
Sample,158280,0,"drum-hitfinish.wav",35
Sample,159599,0,"LR_Ride Med.wav",60
Sample,160258,0,"LR_Ride Med.wav",60
Sample,160917,0,"LR_Ride Med.wav",60
Sample,163555,0,"LR_Ride Med.wav",70
Sample,164544,0,"drum-hitfinish.wav",35
Sample,164873,0,"drum-hitfinish.wav",35
Sample,165203,0,"drum-hitfinish.wav",35
Sample,165533,0,"drum-hitfinish.wav",35
Sample,165862,0,"drum-hitfinish.wav",35
Sample,166192,0,"drum-hitfinish.wav",35
Sample,166522,0,"drum-hitfinish.wav",35
Sample,167181,0,"drum-hitfinish.wav",35
Sample,167511,0,"drum-hitfinish.wav",35
Sample,167840,0,"drum-hitfinish.wav",35
Sample,168170,0,"drum-hitfinish.wav",35
Sample,168500,0,"drum-hitfinish.wav",35
Sample,168665,0,"drum-hitfinish.wav",35
Sample,168829,0,"drum-hitfinish.wav",35
Sample,183005,0,"Tom3.wav",70
Sample,183500,0,"Tom3.wav",70
Sample,185643,0,"LR_Ride Med.wav",60
Sample,185972,0,"LR_Ride Med.wav",60
Sample,186302,0,"LR_Ride Med.wav",60
Sample,186632,0,"LR_Ride Med.wav",60
Sample,186961,0,"LR_Ride Med.wav",60
Sample,187291,0,"LR_Ride Med.wav",60
Sample,187621,0,"LR_Ride Med.wav",60
Sample,187950,0,"LR_Ride Med.wav",60
Sample,188280,0,"LR_Ride Med.wav",60
Sample,188939,0,"LR_Ride Med.wav",60
Sample,189599,0,"LR_Ride Med.wav",60
Sample,190917,0,"drum-hitfinish.wav",35
Sample,191247,0,"drum-hitfinish.wav",35
Sample,191577,0,"drum-hitfinish.wav",35
Sample,191906,0,"drum-hitfinish.wav",35
Sample,192236,0,"drum-hitfinish.wav",35
Sample,192566,0,"drum-hitfinish.wav",35
Sample,192895,0,"drum-hitfinish.wav",35
Sample,193555,0,"drum-hitfinish.wav",35
Sample,193884,0,"drum-hitfinish.wav",35
Sample,194214,0,"drum-hitfinish.wav",35
Sample,194544,0,"drum-hitfinish.wav",35
Sample,195862,0,"Tom2.wav",70
Sample,196357,0,"Tom2.wav",70
Sample,196851,0,"Tom3.wav",70
Sample,197840,0,"Tom1.wav",60
Sample,198170,0,"Tom2.wav",60
Sample,212016,0,"drum-hitfinish.wav",30
Sample,212346,0,"drum-hitfinish.wav",30
Sample,212676,0,"drum-hitfinish.wav",30
Sample,213005,0,"drum-hitfinish.wav",30
Sample,213335,0,"drum-hitfinish.wav",30
Sample,213665,0,"drum-hitfinish.wav",30
Sample,214654,0,"drum-hitfinish.wav",30
Sample,214983,0,"drum-hitfinish.wav",30
Sample,215313,0,"drum-hitfinish.wav",30
Sample,215643,0,"drum-hitfinish.wav",30
Sample,215972,0,"drum-hitfinish.wav",30
Sample,216632,0,"Tom1.wav",60
Sample,217291,0,"LR_CymbalG.wav",30
Sample,217621,0,"LR_CymbalG.wav",30
Sample,217950,0,"LR_CymbalG.wav",30
Sample,218280,0,"LR_CymbalG.wav",30
Sample,218939,0,"LR_CymbalG.wav",30
Sample,221577,0,"Tom1.wav",70
Sample,222071,0,"Tom2.wav",70
Sample,238390,0,"LR_Ride Med.wav",65
Sample,241357,0,"drum-hitfinish.wav",35
Sample,242016,0,"drum-hitfinish.wav",35
Sample,242676,0,"drum-hitfinish.wav",35
Sample,243335,0,"drum-hitfinish.wav",35
Sample,243994,0,"drum-hitfinish.wav",35
Sample,244654,0,"drum-hitfinish.wav",35
Sample,245313,0,"drum-hitfinish.wav",35
Sample,246632,0,"LR_Ride Med.wav",60
Sample,247291,0,"LR_Ride Med.wav",60
Sample,247950,0,"LR_Ride Med.wav",60
Sample,251906,0,"drum-hitfinish.wav",35
Sample,252236,0,"drum-hitfinish.wav",35
Sample,252566,0,"drum-hitfinish.wav",35
Sample,252895,0,"drum-hitfinish.wav",35
Sample,253225,0,"drum-hitfinish.wav",35
Sample,254544,0,"drum-hitfinish.wav",35
Sample,254873,0,"drum-hitfinish.wav",35
Sample,257181,0,"drum-hitfinish.wav",35
Sample,257511,0,"drum-hitfinish.wav",35
Sample,257840,0,"drum-hitfinish.wav",35
Sample,258500,0,"drum-hitfinish.wav",35
Sample,272181,0,"LR_CymbalG.wav",70

[TimingPoints]
698,329.67032967033,4,2,1,60,1,0
21796,-100,4,2,1,60,0,1
31851,-100,4,2,1,60,0,0
66632,-100,4,2,1,60,0,1
75862,-100,4,2,1,60,0,0
77181,-100,4,2,1,60,0,1
97621,-100,4,2,1,60,0,0
98280,-100,4,2,1,60,0,1
107511,-100,4,2,1,60,0,0
143115,-100,4,2,1,60,0,1
147895,-100,4,2,1,60,0,0
148390,-100,4,2,1,60,0,1
152346,-100,4,2,1,60,0,0
153665,-100,4,2,1,60,0,1
173939,-100,4,2,1,60,0,0
174763,-100,4,2,1,60,0,1
185313,-100,4,2,1,60,0,0
232785,-100,4,2,1,60,0,1
239379,-100,4,2,1,60,0,0
240698,-100,4,2,1,60,0,1
261137,-100,4,2,1,60,0,0
261796,-100,4,2,1,60,0,1
271027,-100,4,2,1,60,0,0

[HitObjects]
64,192,698,1,0,0:0:0:0:
320,192,1192,1,0,0:0:0:0:
192,192,1687,1,0,0:0:0:0:
448,192,2181,1,0,0:0:0:0:
320,192,2676,1,0,0:0:0:0:
192,192,3335,1,0,0:0:0:0:
320,192,3829,1,0,0:0:0:0:
64,192,4324,1,0,0:0:0:0:
448,192,4818,1,0,0:0:0:0:
192,192,5313,1,0,0:0:0:0:
320,192,5972,1,0,0:0:0:0:
192,192,6467,1,0,0:0:0:0:
448,192,6961,1,0,0:0:0:0:
64,192,7456,1,0,0:0:0:0:
320,192,7950,1,0,0:0:0:0:
192,192,8610,1,0,0:0:0:0:
320,192,9104,1,0,0:0:0:0:
448,192,9599,1,0,0:0:0:0:
64,192,10093,1,0,0:0:0:0:
320,192,10588,1,0,0:0:0:0:
192,192,11247,1,0,0:0:0:0:
320,192,11412,1,0,0:0:0:0:
64,192,11741,1,0,0:0:0:0:
448,192,12071,1,0,0:0:0:0:
192,192,12401,128,0,13225:0:0:0:0:
448,192,13225,1,0,0:0:0:0:
320,192,13884,1,0,0:0:0:0:
192,192,14049,1,0,0:0:0:0:
64,192,14214,1,0,0:0:0:0:
320,192,14379,1,0,0:0:0:0:
448,192,14708,1,0,0:0:0:0:
64,192,15038,128,0,16522:0:0:0:0:
448,192,16522,1,0,0:0:0:0:
192,192,16687,1,0,0:0:0:0:
320,192,16851,1,0,0:0:0:0:
448,192,17016,1,0,0:0:0:0:
64,192,17346,1,0,0:0:0:0:
320,192,17676,128,0,19159:0:0:0:0:
192,192,19159,1,0,0:0:0:0:
448,192,19324,1,0,0:0:0:0:
64,192,19489,1,0,0:0:0:0:
192,192,19654,1,0,0:0:0:0:
320,192,19983,1,0,0:0:0:0:
192,192,20148,1,0,0:0:0:0:
448,192,20478,1,0,0:0:0:0:
64,192,20643,1,0,0:0:0:0:
320,192,20972,1,0,0:0:0:0:
192,192,21137,1,0,0:0:0:0:
448,192,21302,1,2,0:0:0:0:
64,192,21467,1,8,0:0:0:0:
320,192,21467,1,4,0:0:0:0:
192,192,21796,1,8,0:0:0:0:
448,192,21796,1,4,0:0:0:0:
320,192,22126,1,2,0:0:0:0:
64,192,22291,1,8,0:0:0:0:
192,192,22291,1,4,0:0:0:0:
320,192,22621,1,2,0:0:0:0:
64,192,22785,1,4,0:0:0:0:
448,192,22785,1,8,0:0:0:0:
192,192,23115,1,2,0:0:0:0:
320,192,23280,1,8,0:0:0:0:
448,192,23280,1,4,0:0:0:0:
64,192,23610,1,2,0:0:0:0:
192,192,23774,1,4,0:0:0:0:
320,192,23774,1,8,0:0:0:0:
64,192,24104,1,4,0:0:0:0:
448,192,24104,1,8,0:0:0:0:
192,192,24434,1,4,0:0:0:0:
320,192,24434,1,8,0:0:0:0:
448,192,24763,1,2,0:0:0:0:
64,192,24928,1,4,0:0:0:0:
192,192,24928,1,8,0:0:0:0:
320,192,25258,1,2,0:0:0:0:
64,192,25423,1,8,0:0:0:0:
448,192,25423,1,4,0:0:0:0:
192,192,25752,1,2,0:0:0:0:
320,192,25917,1,4,0:0:0:0:
448,192,25917,1,8,0:0:0:0:
64,192,26247,1,2,0:0:0:0:
192,192,26412,1,0,0:0:0:70:Tom1.wav
320,192,26577,1,0,0:0:0:70:Tom2.wav
448,192,26741,1,0,0:0:0:70:Tom3.wav
64,192,26906,1,2,0:0:0:0:
320,192,27071,1,8,0:0:0:0:
448,192,27071,1,4,0:0:0:0:
192,192,27401,1,2,0:0:0:0:
64,192,27566,1,8,0:0:0:0:
448,192,27566,1,4,0:0:0:0:
320,192,27895,1,2,0:0:0:0:
64,192,28060,1,4,0:0:0:0:
192,192,28060,1,8,0:0:0:0:
320,192,28390,1,2,0:0:0:0:
64,192,28555,1,8,0:0:0:0:
448,192,28555,1,4,0:0:0:0:
192,192,28884,1,2,0:0:0:0:
320,192,29049,1,4,0:0:0:0:
448,192,29049,1,8,0:0:0:0:
64,192,29379,1,4,0:0:0:0:
192,192,29379,1,8,0:0:0:0:
320,192,29708,1,4,0:0:0:0:
448,192,29708,1,8,0:0:0:0:
192,192,30038,1,2,0:0:0:0:
64,192,30203,1,4,0:0:0:0:
448,192,30203,1,8,0:0:0:0:
320,192,30533,1,2,0:0:0:0:
64,192,30698,1,8,0:0:0:0:
448,192,30698,1,4,0:0:0:0:
192,192,31027,1,2,0:0:0:0:
320,192,31192,1,12,0:0:0:0:
448,192,31192,1,0,0:0:0:60:Tom3.wav
64,192,31687,1,8,0:0:0:0:
192,192,31687,1,0,0:0:0:60:Tom3.wav
320,192,31851,1,2,0:0:0:0:
448,192,31851,1,0,0:0:0:70:LR_CymbalSSD.wav
64,192,32346,1,4,0:0:0:0:
192,192,32346,1,2,0:0:0:0:
320,192,32676,1,2,0:0:0:0:
448,192,33005,1,2,0:0:0:0:
192,192,33335,1,2,0:0:0:0:
320,192,33500,1,0,0:0:0:0:
448,192,33665,1,2,0:0:0:0:
64,192,33994,1,2,0:0:0:0:
320,192,34324,1,2,0:0:0:0:
192,192,34654,1,2,0:0:0:0:
448,192,34983,1,2,0:0:0:0:
64,192,35313,1,2,0:0:0:0:
192,192,35478,1,0,0:0:0:0:
320,192,35643,1,2,0:0:0:0:
448,192,35972,1,2,0:0:0:0:
320,192,36302,1,2,0:0:0:0:
64,192,36632,1,2,0:0:0:0:
192,192,36961,1,2,0:0:0:0:
320,192,37291,1,2,0:0:0:0:
192,192,37456,1,0,0:0:0:0:
448,192,37621,1,2,0:0:0:0:
320,192,37950,1,2,0:0:0:0:
64,192,38115,1,0,0:0:0:0:
448,192,38445,1,0,0:0:0:0:
320,192,38610,1,2,0:0:0:0:
192,192,38774,1,0,0:0:0:0:
64,192,38939,1,2,0:0:0:0:
320,192,39269,1,2,0:0:0:0:
192,192,39599,1,2,0:0:0:0:
320,192,39928,1,2,0:0:0:0:
448,192,40093,1,0,0:0:0:0:
64,192,40258,1,2,0:0:0:0:
192,192,40588,1,2,0:0:0:0:
320,192,40917,1,2,0:0:0:0:
448,192,41247,1,2,0:0:0:0:
64,192,41577,1,2,0:0:0:0:
320,192,41906,1,2,0:0:0:0:
448,192,41906,1,0,0:0:0:45:LR_CymbalG.wav
192,192,42236,128,8,42566:0:0:0:0:
448,192,42566,1,8,0:0:0:0:
320,192,42730,1,8,0:0:0:0:
64,192,42895,1,2,0:0:0:0:
192,192,42895,1,4,0:0:0:0:
448,192,43225,1,8,0:0:0:0:
192,192,43555,1,2,0:0:0:0:
320,192,43719,1,2,0:0:0:0:
64,192,44049,1,8,0:0:0:0:
448,192,44379,1,2,0:0:0:0:
192,192,44544,1,8,0:0:0:0:
320,192,44873,1,2,0:0:0:0:
192,192,45038,1,2,0:0:0:0:
64,192,45203,1,8,0:0:0:0:
448,192,45533,1,2,0:0:0:0:
192,192,45862,1,8,0:0:0:0:
320,192,46192,1,2,0:0:0:0:
64,192,46357,1,2,0:0:0:0:
320,192,46687,1,8,0:0:0:0:
192,192,47016,1,2,0:0:0:0:
448,192,47181,1,8,0:0:0:0:
64,192,47511,1,2,0:0:0:0:
192,192,47676,1,2,0:0:0:0:
320,192,47840,1,8,0:0:0:0:
64,192,48005,1,8,0:0:0:0:
448,192,48170,1,2,0:0:0:0:
192,192,48500,1,8,0:0:0:0:
320,192,48829,1,2,0:0:0:0:
64,192,48994,1,2,0:0:0:0:
448,192,49324,1,8,0:0:0:0:
192,192,49654,1,2,0:0:0:0:
448,192,49818,1,8,0:0:0:0:
64,192,50148,1,2,0:0:0:0:
192,192,50313,1,2,0:0:0:0:
320,192,50478,1,8,0:0:0:0:
64,192,50643,1,8,0:0:0:0:
448,192,50807,1,2,0:0:0:0:
320,192,51137,1,8,0:0:0:0:
192,192,51467,1,2,0:0:0:0:
320,192,51632,1,2,0:0:0:0:
64,192,51961,1,8,0:0:0:0:
320,192,52291,1,2,0:0:0:0:
192,192,52456,1,8,0:0:0:0:
448,192,52621,1,0,0:0:0:70:Tom1.wav
64,192,52785,128,0,53115:0:0:0:70:Tom1.wav
320,192,53115,128,0,53445:0:0:0:70:Tom2.wav
64,192,53445,1,2,0:0:0:0:
448,192,53445,1,4,0:0:0:0:
192,192,53774,1,8,0:0:0:0:
320,192,54104,1,2,0:0:0:0:
192,192,54269,1,2,0:0:0:0:
64,192,54434,1,8,0:0:0:0:
320,192,54763,1,2,0:0:0:0:
448,192,54928,1,2,0:0:0:0:
192,192,55093,1,8,0:0:0:0:
320,192,55423,1,2,0:0:0:0:
192,192,55588,1,2,0:0:0:0:
448,192,55752,1,8,0:0:0:0:
64,192,56082,1,2,0:0:0:0:
192,192,56082,1,4,0:0:0:0:
448,192,56412,1,8,0:0:0:0:
64,192,56741,1,2,0:0:0:0:
192,192,56906,1,2,0:0:0:0:
320,192,57071,1,8,0:0:0:0:
192,192,57401,1,2,0:0:0:0:
320,192,57566,1,2,0:0:0:0:
448,192,57730,1,12,0:0:0:0:
192,192,58060,128,8,58390:0:0:0:0:
448,192,58390,128,0,58719:0:0:0:70:Tom1.wav
64,192,58719,1,2,0:0:0:0:
320,192,58719,1,4,0:0:0:0:
192,192,59214,1,0,0:0:0:0:
192,192,59708,1,0,0:0:0:0:
192,192,60203,1,0,0:0:0:0:
192,192,60698,1,0,0:0:0:0:
448,192,61027,1,2,0:0:0:0:
64,192,61357,1,8,0:0:0:0:
320,192,61357,1,4,0:0:0:0:
192,192,61687,1,10,0:0:0:0:
448,192,61851,1,8,0:0:0:0:
320,192,62016,1,10,0:0:0:0:
192,192,62346,1,10,0:0:0:0:
320,192,62511,1,8,0:0:0:0:
448,192,62676,1,10,0:0:0:0:
64,192,63005,1,10,0:0:0:0:
192,192,63170,1,8,0:0:0:0:
320,192,63335,1,14,0:0:0:0:
64,192,63665,128,8,63994:0:0:0:0:
320,192,63994,1,2,0:0:0:0:
448,192,63994,1,4,0:0:0:0:
192,192,64324,1,2,0:0:0:0:
320,192,64654,1,2,0:0:0:0:
64,192,64983,1,2,0:0:0:0:
320,192,65313,1,2,0:0:0:0:
448,192,65313,1,4,0:0:0:0:
192,192,65972,1,0,0:0:0:0:
64,192,66632,1,8,0:0:0:0:
448,192,66632,1,4,0:0:0:0:
320,192,66796,1,2,0:0:0:0:
192,192,66961,1,2,0:0:0:0:
448,192,67126,1,8,0:0:0:0:
320,192,67291,1,2,0:0:0:0:
64,192,67456,1,2,0:0:0:0:
192,192,67621,1,8,0:0:0:0:
320,192,67950,1,2,0:0:0:0:
64,192,68115,1,8,0:0:0:0:
448,192,68445,1,2,0:0:0:0:
320,192,68610,1,8,0:0:0:0:
192,192,68774,1,2,0:0:0:0:
64,192,68939,1,8,0:0:0:0:
320,192,69104,1,8,0:0:0:0:
448,192,69269,1,12,0:0:0:0:
192,192,69434,1,2,0:0:0:0:
64,192,69763,1,8,0:0:0:0:
320,192,69928,1,2,0:0:0:0:
448,192,70093,1,2,0:0:0:0:
192,192,70258,1,8,0:0:0:0:
320,192,70588,1,2,0:0:0:0:
64,192,70752,1,8,0:0:0:0:
448,192,71082,1,2,0:0:0:0:
320,192,71247,1,8,0:0:0:0:
64,192,71412,1,2,0:0:0:0:
192,192,71577,1,8,0:0:0:0:
320,192,71741,1,2,0:0:0:0:
448,192,71906,1,12,0:0:0:0:
64,192,72071,1,2,0:0:0:0:
320,192,72401,1,8,0:0:0:0:
64,192,72566,1,2,0:0:0:0:
192,192,72730,1,2,0:0:0:0:
448,192,72895,1,8,0:0:0:0:
64,192,73225,1,2,0:0:0:0:
320,192,73390,1,8,0:0:0:0:
192,192,73719,1,2,0:0:0:0:
320,192,73884,1,8,0:0:0:0:
448,192,74049,1,2,0:0:0:0:
192,192,74214,1,8,0:0:0:0:
320,192,74379,1,8,0:0:0:0:
64,192,74544,1,12,0:0:0:0:
448,192,74708,1,2,0:0:0:0:
192,192,75038,1,0,0:0:0:70:Tom2.wav
64,192,75203,1,0,0:0:0:70:Tom2.wav
448,192,75368,1,8,0:0:0:0:
320,192,75533,1,2,0:0:0:0:
192,192,75698,1,0,0:0:0:70:Tom2.wav
64,192,75862,1,8,0:0:0:0:
448,192,76110,1,8,0:0:0:0:
64,192,76357,1,10,0:0:0:0:
192,192,76357,1,4,0:0:0:0:
320,192,76687,1,8,0:0:0:0:
64,192,76851,1,12,0:0:0:0:
448,192,76851,1,2,0:0:0:0:
192,192,77181,1,4,0:0:0:0:
320,192,77181,1,2,0:0:0:0:
64,192,77511,1,8,0:0:0:0:
448,192,77511,1,0,0:0:0:35:drum-hitfinish.wav
192,192,77840,1,2,0:0:0:0:
320,192,78170,1,8,0:0:0:0:
448,192,78170,1,0,0:0:0:35:drum-hitfinish.wav
192,192,78500,1,2,0:0:0:0:
64,192,78829,1,8,0:0:0:0:
448,192,78829,1,0,0:0:0:35:drum-hitfinish.wav
320,192,79159,1,2,0:0:0:0:
64,192,79489,1,8,0:0:0:0:
192,192,79489,1,0,0:0:0:35:drum-hitfinish.wav
320,192,79818,1,2,0:0:0:0:
192,192,80148,1,8,0:0:0:0:
448,192,80148,1,0,0:0:0:35:drum-hitfinish.wav
64,192,80478,1,2,0:0:0:0:
320,192,80807,1,8,0:0:0:0:
448,192,80807,1,0,0:0:0:35:drum-hitfinish.wav
192,192,81137,1,2,0:0:0:0:
64,192,81467,1,8,0:0:0:0:
448,192,81467,1,0,0:0:0:35:drum-hitfinish.wav
320,192,81796,1,2,0:0:0:0:
192,192,82126,128,2,82456:0:0:0:0:
64,192,82456,1,2,0:0:0:0:
448,192,82456,1,4,0:0:0:0:
192,192,82785,1,8,0:0:0:0:
320,192,82785,1,0,0:0:0:60:LR_Ride Med.wav
64,192,83115,1,2,0:0:0:0:
320,192,83445,1,8,0:0:0:0:
448,192,83445,1,0,0:0:0:60:LR_Ride Med.wav
64,192,83774,1,2,0:0:0:0:
192,192,84104,1,8,0:0:0:0:
320,192,84104,1,0,0:0:0:60:LR_Ride Med.wav
448,192,84434,128,8,84763:0:0:0:0:
192,192,84763,128,8,85093:0:0:0:0:
64,192,85093,1,2,0:0:0:0:
320,192,85093,1,4,0:0:0:0:
192,192,85423,1,8,0:0:0:0:
320,192,85588,1,8,0:0:0:0:
448,192,85588,1,4,0:0:0:0:
64,192,85917,1,8,0:0:0:0:
192,192,86082,1,8,0:0:0:0:
448,192,86082,1,4,0:0:0:0:
320,192,86412,1,8,0:0:0:0:
64,192,86577,1,8,0:0:0:0:
192,192,86577,1,4,0:0:0:0:
448,192,87071,1,2,0:0:0:0:
320,192,87236,1,8,0:0:0:0:
64,192,87401,1,8,0:0:0:0:
192,192,87566,1,0,0:0:0:70:Tom3.wav
320,192,87730,1,8,0:0:0:0:
448,192,87730,1,4,0:0:0:0:
64,192,88060,1,8,0:0:0:0:
320,192,88225,1,2,0:0:0:0:
448,192,88390,1,8,0:0:0:0:
192,192,88555,1,2,0:0:0:0:
320,192,88719,1,8,0:0:0:0:
64,192,88884,1,2,0:0:0:0:
448,192,89049,1,8,0:0:0:0:
192,192,89379,1,8,0:0:0:0:
64,192,89544,1,2,0:0:0:0:
320,192,89708,1,8,0:0:0:0:
192,192,89873,1,2,0:0:0:0:
64,192,90038,1,8,0:0:0:0:
448,192,90038,1,4,0:0:0:0:
192,192,90368,1,4,0:0:0:0:
320,192,90368,1,8,0:0:0:0:
448,192,90698,1,8,0:0:0:0:
192,192,90862,1,2,0:0:0:0:
320,192,91027,1,8,0:0:0:0:
64,192,91192,1,2,0:0:0:0:
192,192,91357,1,8,0:0:0:0:
320,192,91522,1,2,0:0:0:0:
64,192,91687,1,8,0:0:0:0:
448,192,91687,1,4,0:0:0:0:
320,192,92016,1,8,0:0:0:0:
192,192,92181,1,2,0:0:0:0:
448,192,92346,1,8,0:0:0:0:
320,192,92511,1,2,0:0:0:0:
192,192,92676,1,8,0:0:0:0:
64,192,93005,1,2,0:0:0:0:
448,192,93005,1,4,0:0:0:0:
320,192,93335,1,8,0:0:0:0:
64,192,93500,1,2,0:0:0:0:
192,192,93500,1,4,0:0:0:0:
320,192,93829,1,8,0:0:0:0:
192,192,93994,1,2,0:0:0:0:
448,192,93994,1,4,0:0:0:0:
64,192,94324,1,8,0:0:0:0:
320,192,94489,1,2,0:0:0:0:
448,192,94489,1,4,0:0:0:0:
192,192,94818,1,8,0:0:0:0:
64,192,94983,1,2,0:0:0:0:
448,192,94983,1,4,0:0:0:0:
320,192,95313,128,0,95643:0:0:0:70:Tom2.wav
64,192,95643,1,2,0:0:0:0:
192,192,95643,1,4,0:0:0:0:
448,192,95972,1,8,0:0:0:0:
320,192,96137,1,8,0:0:0:0:
192,192,96302,1,8,0:0:0:0:
64,192,96467,1,8,0:0:0:0:
320,192,96632,1,8,0:0:0:0:
192,192,96796,1,0,0:0:0:70:Tom2.wav
64,192,96961,1,2,0:0:0:0:
448,192,96961,128,4,97621:0:0:0:0:
320,192,97950,1,8,0:0:0:0:
192,192,98115,1,0,0:0:0:70:Tom2.wav
64,192,98280,1,8,0:0:0:0:
448,192,98280,1,4,0:0:0:0:
192,192,98610,1,2,0:0:0:0:
320,192,98774,1,8,0:0:0:0:
448,192,98774,1,4,0:0:0:0:
192,192,99104,1,2,0:0:0:0:
64,192,99269,1,4,0:0:0:0:
448,192,99269,1,8,0:0:0:0:
320,192,99599,1,2,0:0:0:0:
64,192,99763,1,8,0:0:0:0:
192,192,99763,1,4,0:0:0:0:
448,192,100093,1,2,0:0:0:0:
192,192,100258,1,4,0:0:0:0:
320,192,100258,1,8,0:0:0:0:
64,192,100588,1,4,0:0:0:0:
448,192,100588,1,8,0:0:0:0:
192,192,100917,1,4,0:0:0:0:
320,192,100917,1,8,0:0:0:0:
64,192,101247,1,2,0:0:0:0:
320,192,101412,1,4,0:0:0:0:
448,192,101412,1,8,0:0:0:0:
192,192,101741,1,2,0:0:0:0:
64,192,101906,1,8,0:0:0:0:
448,192,101906,1,4,0:0:0:0:
320,192,102236,1,2,0:0:0:0:
64,192,102401,1,4,0:0:0:0:
192,192,102401,1,8,0:0:0:0:
448,192,102730,1,2,0:0:0:0:
320,192,102895,1,0,0:0:0:70:Tom1.wav
192,192,103060,1,0,0:0:0:70:Tom2.wav
64,192,103225,1,0,0:0:0:70:Tom3.wav
448,192,103390,1,2,0:0:0:0:
64,192,103555,1,8,0:0:0:0:
192,192,103555,1,4,0:0:0:0:
320,192,103884,1,2,0:0:0:0:
64,192,104049,1,8,0:0:0:0:
448,192,104049,1,4,0:0:0:0:
192,192,104379,1,2,0:0:0:0:
320,192,104544,1,4,0:0:0:0:
448,192,104544,1,8,0:0:0:0:
192,192,104873,1,2,0:0:0:0:
64,192,105038,1,8,0:0:0:0:
448,192,105038,1,4,0:0:0:0:
320,192,105368,1,2,0:0:0:0:
64,192,105533,1,4,0:0:0:0:
192,192,105533,1,8,0:0:0:0:
320,192,105862,1,4,0:0:0:0:
448,192,105862,1,8,0:0:0:0:
64,192,106192,1,4,0:0:0:0:
192,192,106192,1,8,0:0:0:0:
320,192,106522,1,2,0:0:0:0:
64,192,106687,1,8,0:0:0:0:
448,192,106687,1,4,0:0:0:0:
320,192,107181,1,0,0:0:0:70:Tom1.wav
64,192,107511,128,2,108005:0:0:0:0:
448,192,107511,1,4,0:0:0:0:
320,192,108005,128,0,108500:0:0:0:0:
448,192,108500,128,0,108829:0:0:0:0:
192,192,108829,1,0,0:0:0:0:
320,192,109159,1,0,0:0:0:0:
64,192,109489,1,0,0:0:0:0:
448,192,109818,1,0,0:0:0:0:
320,192,109983,1,0,0:0:0:0:
192,192,110148,1,0,0:0:0:0:
448,192,110807,128,0,111137:0:0:0:0:
64,192,111137,128,0,111467:0:0:0:0:
320,192,111467,1,2,0:0:0:0:
192,192,111796,1,0,0:0:0:70:LR_Drum Click.wav
448,192,112126,1,2,0:0:0:0:
320,192,112291,1,2,0:0:0:0:
64,192,112621,1,0,0:0:0:70:LR_Drum Click.wav
320,192,112950,1,2,0:0:0:0:
192,192,113115,1,0,0:0:0:70:LR_Drum Click.wav
448,192,113445,1,2,0:0:0:0:
320,192,113610,1,2,0:0:0:0:
64,192,113774,1,0,0:0:0:70:LR_Drum Click.wav
192,192,114104,1,2,0:0:0:0:
320,192,114434,1,0,0:0:0:70:LR_Drum Click.wav
64,192,114763,1,2,0:0:0:0:
192,192,114928,1,2,0:0:0:0:
448,192,115258,1,0,0:0:0:70:LR_Drum Click.wav
192,192,115588,1,2,0:0:0:0:
448,192,115752,1,0,0:0:0:70:LR_Drum Click.wav
64,192,116082,1,2,0:0:0:0:
192,192,116247,1,2,0:0:0:0:
320,192,116412,1,0,0:0:0:70:LR_Drum Click.wav
64,192,116741,1,2,0:0:0:0:
448,192,117071,1,0,0:0:0:70:LR_Drum Click.wav
192,192,117401,1,2,0:0:0:0:
320,192,117566,1,2,0:0:0:0:
64,192,117895,1,0,0:0:0:70:LR_Drum Click.wav
320,192,118225,1,2,0:0:0:0:
192,192,118390,1,0,0:0:0:70:LR_Drum Click.wav
448,192,118719,1,2,0:0:0:0:
64,192,118884,1,8,0:0:0:0:
320,192,119049,1,8,0:0:0:0:
64,192,119379,1,2,0:0:0:0:
192,192,119379,1,4,0:0:0:0:
448,192,119708,1,8,0:0:0:0:
192,192,120038,1,2,0:0:0:0:
320,192,120203,1,2,0:0:0:0:
64,192,120533,1,8,0:0:0:0:
320,192,120862,1,2,0:0:0:0:
192,192,121027,1,8,0:0:0:0:
448,192,121357,1,8,0:0:0:0:
320,192,121604,1,8,0:0:0:0:
192,192,121851,1,8,0:0:0:0:
64,192,122016,1,4,0:0:0:0:
448,192,122016,1,2,0:0:0:0:
320,192,122346,1,8,0:0:0:0:
192,192,122676,1,2,0:0:0:0:
320,192,122840,1,2,0:0:0:0:
64,192,123170,1,8,0:0:0:0:
320,192,123500,1,2,0:0:0:0:
192,192,123665,1,8,0:0:0:0:
448,192,123829,1,2,0:0:0:0:
64,192,123994,1,6,0:0:0:0:
320,192,124159,1,8,0:0:0:0:
192,192,124324,128,8,124654:0:0:0:0:
64,192,124654,1,2,0:0:0:0:
448,192,124654,1,4,0:0:0:0:
320,192,124983,1,8,0:0:0:0:
192,192,125313,1,2,0:0:0:0:
320,192,125478,1,2,0:0:0:0:
64,192,125643,1,8,0:0:0:0:
448,192,125972,1,2,0:0:0:0:
192,192,126302,1,8,0:0:0:0:
320,192,126632,1,2,0:0:0:0:
448,192,126796,1,2,0:0:0:0:
192,192,126961,1,8,0:0:0:0:
64,192,127291,1,6,0:0:0:0:
448,192,127291,1,0,0:0:0:35:drum-hitfinish.wav
320,192,127621,1,8,0:0:0:0:
192,192,127950,1,2,0:0:0:0:
64,192,128115,1,2,0:0:0:0:
448,192,128280,1,8,0:0:0:0:
192,192,128610,1,2,0:0:0:0:
448,192,128774,1,2,0:0:0:0:
64,192,128939,1,8,0:0:0:0:
320,192,128939,1,4,0:0:0:0:
192,192,129269,1,8,0:0:0:0:
448,192,129434,1,0,0:0:0:70:Tom2.wav
192,192,129599,1,0,0:0:0:70:Tom3.wav
64,192,129928,1,2,0:0:0:0:
448,192,129928,1,4,0:0:0:0:
320,192,130258,1,2,0:0:0:0:
192,192,130588,1,8,0:0:0:0:
448,192,130752,1,2,0:0:0:0:
64,192,131082,1,2,0:0:0:0:
320,192,131412,1,2,0:0:0:0:
192,192,131577,1,2,0:0:0:0:
448,192,131906,1,8,0:0:0:0:
64,192,132071,1,8,0:0:0:0:
320,192,132236,1,2,0:0:0:0:
192,192,132401,1,8,0:0:0:0:
448,192,132566,1,6,0:0:0:0:
320,192,132730,1,2,0:0:0:0:
64,192,133060,1,2,0:0:0:0:
192,192,133225,1,8,0:0:0:0:
320,192,133555,1,2,0:0:0:0:
64,192,133719,1,2,0:0:0:0:
448,192,134049,1,8,0:0:0:0:
320,192,134544,1,8,0:0:0:0:
192,192,134708,1,8,0:0:0:0:
64,192,134873,128,2,135203:0:0:0:0:
320,192,135203,1,4,0:0:0:0:
448,192,135203,1,2,0:0:0:0:
448,192,135698,1,0,0:0:0:0:
448,192,136192,1,0,0:0:0:0:
448,192,136687,1,0,0:0:0:0:
448,192,137181,1,0,0:0:0:0:
64,192,137511,1,2,0:0:0:0:
320,192,137840,1,4,0:0:0:0:
448,192,137840,1,8,0:0:0:0:
192,192,138170,1,10,0:0:0:0:
320,192,138335,1,8,0:0:0:0:
448,192,138500,1,10,0:0:0:0:
64,192,138829,1,10,0:0:0:0:
192,192,138994,1,8,0:0:0:0:
320,192,139159,1,10,0:0:0:0:
192,192,139489,1,10,0:0:0:0:
320,192,139654,1,8,0:0:0:0:
448,192,139818,1,14,0:0:0:0:
64,192,140148,1,8,0:0:0:0:
320,192,140313,1,0,0:0:0:70:Tom2.wav
192,192,140478,1,2,0:0:0:0:
448,192,140478,1,4,0:0:0:0:
64,192,140807,1,2,0:0:0:0:
320,192,141137,1,2,0:0:0:0:
192,192,141467,1,2,0:0:0:0:
64,192,141796,1,2,0:0:0:0:
448,192,141796,128,4,142456:0:0:0:0:
192,192,142456,1,2,0:0:0:0:
320,192,142621,1,8,0:0:0:0:
64,192,142785,1,8,0:0:0:0:
320,192,143115,1,4,0:0:0:0:
448,192,143115,1,8,0:0:0:0:
192,192,143445,1,2,0:0:0:0:
64,192,143610,1,4,0:0:0:0:
448,192,143610,1,8,0:0:0:0:
320,192,143939,1,2,0:0:0:0:
64,192,144104,1,8,0:0:0:0:
192,192,144104,1,4,0:0:0:0:
320,192,144434,1,2,0:0:0:0:
64,192,144599,1,4,0:0:0:0:
448,192,144599,1,8,0:0:0:0:
192,192,144928,1,2,0:0:0:0:
320,192,145093,1,8,0:0:0:0:
448,192,145093,1,4,0:0:0:0:
64,192,145423,1,8,0:0:0:0:
192,192,145423,1,4,0:0:0:0:
320,192,145752,1,8,0:0:0:0:
448,192,145752,1,4,0:0:0:0:
192,192,146082,1,2,0:0:0:0:
64,192,146247,1,8,0:0:0:0:
320,192,146247,1,4,0:0:0:0:
448,192,146577,1,2,0:0:0:0:
192,192,146741,1,8,0:0:0:0:
320,192,147071,1,2,0:0:0:0:
448,192,147236,1,8,0:0:0:0:
192,192,147401,1,8,0:0:0:0:
320,192,147566,1,0,0:0:0:70:Tom2.wav
64,192,147730,1,8,0:0:0:0:
448,192,147895,1,8,0:0:0:0:
64,192,148390,1,2,0:0:0:0:
192,192,148390,1,4,0:0:0:0:
448,192,148719,1,8,0:0:0:0:
192,192,149049,1,2,0:0:0:0:
320,192,149214,1,2,0:0:0:0:
64,192,149379,1,8,0:0:0:0:
448,192,149379,128,4,149708:0:0:0:0:
192,192,149708,1,2,0:0:0:0:
320,192,149873,1,2,0:0:0:0:
64,192,150038,1,8,0:0:0:0:
320,192,150368,1,2,0:0:0:0:
192,192,150533,1,2,0:0:0:0:
448,192,150698,1,8,0:0:0:0:
64,192,151027,1,2,0:0:0:0:
320,192,151192,1,2,0:0:0:0:
192,192,151357,1,8,0:0:0:0:
320,192,151522,1,8,0:0:0:0:
448,192,151522,128,4,151851:0:0:0:0:
64,192,151851,1,8,0:0:0:0:
192,192,152016,1,8,0:0:0:0:
320,192,152346,1,8,0:0:0:0:
192,192,152593,1,8,0:0:0:0:
64,192,152840,1,12,0:0:0:0:
448,192,152840,1,2,0:0:0:0:
320,192,153170,1,8,0:0:0:0:
64,192,153335,1,10,0:0:0:0:
448,192,153335,1,4,0:0:0:0:
192,192,153665,1,2,0:0:0:0:
320,192,153665,1,4,0:0:0:0:
64,192,153994,1,8,0:0:0:0:
448,192,153994,1,0,0:0:0:35:drum-hitfinish.wav
320,192,154324,1,2,0:0:0:0:
64,192,154654,1,8,0:0:0:0:
192,192,154654,1,0,0:0:0:35:drum-hitfinish.wav
320,192,154983,1,2,0:0:0:0:
64,192,155313,1,8,0:0:0:0:
448,192,155313,1,0,0:0:0:35:drum-hitfinish.wav
192,192,155643,1,2,0:0:0:0:
320,192,155972,1,8,0:0:0:0:
448,192,155972,1,0,0:0:0:35:drum-hitfinish.wav
192,192,156302,1,2,0:0:0:0:
64,192,156632,1,8,0:0:0:0:
320,192,156632,1,0,0:0:0:35:drum-hitfinish.wav
448,192,156961,1,2,0:0:0:0:
64,192,157291,1,8,0:0:0:0:
192,192,157291,1,0,0:0:0:35:drum-hitfinish.wav
320,192,157621,1,2,0:0:0:0:
64,192,157950,1,8,0:0:0:0:
448,192,157950,1,0,0:0:0:35:drum-hitfinish.wav
192,192,158280,1,2,0:0:0:0:
448,192,158610,128,2,158939:0:0:0:0:
64,192,158939,1,2,0:0:0:0:
320,192,158939,1,4,0:0:0:0:
192,192,159269,1,8,0:0:0:0:
448,192,159269,1,0,0:0:0:60:LR_Ride Med.wav
320,192,159599,1,2,0:0:0:0:
64,192,159928,1,8,0:0:0:0:
192,192,159928,1,0,0:0:0:60:LR_Ride Med.wav
448,192,160258,1,2,0:0:0:0:
192,192,160588,1,8,0:0:0:0:
320,192,160588,1,0,0:0:0:60:LR_Ride Med.wav
64,192,160917,128,8,161247:0:0:0:0:
320,192,161247,128,8,161577:0:0:0:0:
192,192,161577,1,2,0:0:0:0:
448,192,161577,1,4,0:0:0:0:
320,192,161906,1,8,0:0:0:0:
64,192,162071,1,8,0:0:0:0:
192,192,162071,1,4,0:0:0:0:
448,192,162401,1,8,0:0:0:0:
64,192,162566,1,8,0:0:0:0:
320,192,162566,1,4,0:0:0:0:
192,192,162895,1,8,0:0:0:0:
320,192,163060,1,8,0:0:0:0:
448,192,163060,1,4,0:0:0:0:
64,192,163555,1,2,0:0:0:0:
192,192,163719,1,8,0:0:0:0:
448,192,163884,1,8,0:0:0:0:
320,192,164049,1,0,0:0:0:70:Tom3.wav
64,192,164214,1,8,0:0:0:0:
192,192,164214,1,4,0:0:0:0:
448,192,164544,1,8,0:0:0:0:
192,192,164708,1,2,0:0:0:0:
64,192,164873,1,8,0:0:0:0:
320,192,165038,1,2,0:0:0:0:
192,192,165203,1,8,0:0:0:0:
448,192,165368,1,2,0:0:0:0:
64,192,165533,1,8,0:0:0:0:
320,192,165862,1,8,0:0:0:0:
448,192,166027,1,2,0:0:0:0:
192,192,166192,1,8,0:0:0:0:
320,192,166357,1,2,0:0:0:0:
64,192,166522,1,8,0:0:0:0:
192,192,166687,1,2,0:0:0:0:
320,192,166851,1,4,0:0:0:0:
448,192,166851,1,8,0:0:0:0:
64,192,167181,1,8,0:0:0:0:
320,192,167346,1,2,0:0:0:0:
192,192,167511,1,8,0:0:0:0:
448,192,167676,1,2,0:0:0:0:
320,192,167840,1,8,0:0:0:0:
192,192,168005,1,2,0:0:0:0:
64,192,168170,1,8,0:0:0:0:
448,192,168500,1,8,0:0:0:0:
320,192,168665,1,2,0:0:0:0:
64,192,168829,1,8,0:0:0:0:
192,192,168994,1,2,0:0:0:0:
320,192,169159,1,8,0:0:0:0:
64,192,169489,1,2,0:0:0:0:
448,192,169489,1,4,0:0:0:0:
192,192,169818,1,8,0:0:0:0:
320,192,169983,1,2,0:0:0:0:
448,192,169983,1,4,0:0:0:0:
192,192,170313,1,8,0:0:0:0:
64,192,170478,1,2,0:0:0:0:
320,192,170478,1,4,0:0:0:0:
448,192,170807,1,8,0:0:0:0:
64,192,170972,1,2,0:0:0:0:
192,192,170972,1,4,0:0:0:0:
320,192,171302,1,8,0:0:0:0:
64,192,171467,1,2,0:0:0:0:
448,192,171467,1,4,0:0:0:0:
192,192,171796,128,8,172126:0:0:0:0:
320,192,172126,1,2,0:0:0:0:
448,192,172126,1,4,0:0:0:0:
64,192,172456,1,8,0:0:0:0:
192,192,172621,1,8,0:0:0:0:
320,192,172785,1,8,0:0:0:0:
448,192,172950,1,8,0:0:0:0:
192,192,173115,1,8,0:0:0:0:
320,192,173280,1,2,0:0:0:0:
64,192,173445,128,2,173939:0:0:0:0:
448,192,173445,1,4,0:0:0:0:
320,192,174104,1,8,0:0:0:0:
192,192,174269,1,8,0:0:0:0:
64,192,174434,1,8,0:0:0:0:
192,192,174763,1,8,0:0:0:0:
448,192,174763,1,4,0:0:0:0:
320,192,175093,1,2,0:0:0:0:
64,192,175258,1,8,0:0:0:0:
192,192,175258,1,4,0:0:0:0:
320,192,175588,1,2,0:0:0:0:
64,192,175752,1,4,0:0:0:0:
448,192,175752,1,8,0:0:0:0:
192,192,176082,1,2,0:0:0:0:
320,192,176247,1,8,0:0:0:0:
448,192,176247,1,4,0:0:0:0:
64,192,176577,1,2,0:0:0:0:
192,192,176741,1,4,0:0:0:0:
320,192,176741,1,8,0:0:0:0:
64,192,177071,1,4,0:0:0:0:
448,192,177071,1,8,0:0:0:0:
192,192,177401,1,4,0:0:0:0:
320,192,177401,1,8,0:0:0:0:
448,192,177730,1,2,0:0:0:0:
64,192,177895,1,4,0:0:0:0:
192,192,177895,1,8,0:0:0:0:
320,192,178225,1,2,0:0:0:0:
64,192,178390,1,8,0:0:0:0:
448,192,178390,1,4,0:0:0:0:
192,192,178719,1,2,0:0:0:0:
320,192,178884,1,4,0:0:0:0:
448,192,178884,1,8,0:0:0:0:
64,192,179214,1,2,0:0:0:0:
192,192,179379,1,8,0:0:0:0:
320,192,179379,1,4,0:0:0:0:
64,192,179708,1,8,0:0:0:0:
448,192,179708,1,4,0:0:0:0:
192,192,180038,1,8,0:0:0:0:
320,192,180038,1,4,0:0:0:0:
448,192,180368,1,8,0:0:0:0:
64,192,180533,1,8,0:0:0:0:
320,192,180533,1,4,0:0:0:0:
192,192,180862,1,8,0:0:0:0:
320,192,181027,1,8,0:0:0:0:
448,192,181027,1,4,0:0:0:0:
192,192,181357,1,8,0:0:0:0:
64,192,181522,1,8,0:0:0:0:
448,192,181522,1,4,0:0:0:0:
192,192,181851,1,8,0:0:0:0:
320,192,182016,1,8,0:0:0:0:
448,192,182016,1,4,0:0:0:0:
64,192,182346,1,8,0:0:0:0:
192,192,182346,1,0,0:0:0:0:
320,192,182676,1,8,0:0:0:0:
448,192,182676,1,4,0:0:0:0:
192,192,183005,1,2,0:0:0:0:
64,192,183170,1,8,0:0:0:0:
448,192,183170,1,4,0:0:0:0:
320,192,183500,1,2,0:0:0:0:
64,192,183665,1,8,0:0:0:0:
192,192,183665,1,4,0:0:0:0:
320,192,183994,1,2,0:0:0:0:
64,192,184159,1,8,0:0:0:0:
448,192,184324,1,8,0:0:0:0:
192,192,184489,1,8,0:0:0:0:
320,192,184654,1,8,0:0:0:0:
64,192,184818,1,2,0:0:0:0:
448,192,184983,128,8,185313:0:0:0:0:
64,192,185313,1,2,0:0:0:0:
192,192,185313,1,4,0:0:0:0:
320,192,185643,1,8,0:0:0:0:
448,192,185807,1,2,0:0:0:0:
192,192,185972,1,2,0:0:0:0:
64,192,186137,1,2,0:0:0:0:
448,192,186302,1,8,0:0:0:0:
192,192,186632,1,2,0:0:0:0:
320,192,186796,1,2,0:0:0:0:
64,192,186961,1,8,0:0:0:0:
320,192,187291,1,2,0:0:0:0:
192,192,187456,1,2,0:0:0:0:
448,192,187621,1,8,0:0:0:0:
320,192,187785,1,0,0:0:0:0:
192,192,187950,1,2,0:0:0:0:
448,192,188115,1,0,0:0:0:0:
64,192,188280,1,8,0:0:0:0:
192,192,188445,1,2,0:0:0:0:
320,192,188774,1,2,0:0:0:0:
448,192,188939,1,8,0:0:0:0:
192,192,189104,1,2,0:0:0:0:
320,192,189434,1,2,0:0:0:0:
192,192,189599,1,8,0:0:0:0:
64,192,189763,1,0,0:0:0:0:
320,192,190093,1,0,0:0:0:70:Tom2.wav
192,192,190258,1,8,0:0:0:0:
64,192,190423,1,8,0:0:0:0:
320,192,190588,1,2,0:0:0:0:
448,192,190588,1,4,0:0:0:0:
192,192,190917,1,8,0:0:0:0:
448,192,191082,1,2,0:0:0:0:
64,192,191247,1,8,0:0:0:0:
320,192,191412,1,2,0:0:0:0:
192,192,191577,1,8,0:0:0:0:
448,192,191741,1,2,0:0:0:0:
320,192,191906,1,8,0:0:0:0:
64,192,192236,1,8,0:0:0:0:
192,192,192401,1,2,0:0:0:0:
320,192,192566,1,8,0:0:0:0:
64,192,192895,1,8,0:0:0:0:
320,192,193225,1,12,0:0:0:0:
448,192,193225,1,0,0:0:0:35:drum-hitfinish.wav
64,192,193555,1,8,0:0:0:0:
320,192,193719,1,2,0:0:0:0:
192,192,193884,1,8,0:0:0:0:
448,192,194049,1,2,0:0:0:0:
64,192,194214,1,8,0:0:0:0:
192,192,194379,1,2,0:0:0:0:
448,192,194544,1,12,0:0:0:0:
64,192,194873,1,12,0:0:0:0:
320,192,195203,1,8,0:0:0:0:
192,192,195368,1,0,0:0:0:0:
448,192,195533,1,8,0:0:0:0:
192,192,195862,1,2,0:0:0:0:
320,192,196027,1,8,0:0:0:0:
448,192,196192,1,8,0:0:0:0:
64,192,196357,1,2,0:0:0:0:
448,192,196687,1,8,0:0:0:0:
192,192,196851,1,2,0:0:0:0:
320,192,197016,1,8,0:0:0:0:
64,192,197181,1,8,0:0:0:0:
448,192,197346,1,8,0:0:0:0:
320,192,197676,1,0,0:0:0:60:Tom1.wav
64,192,197840,1,2,0:0:0:0:
192,192,198170,1,2,0:0:0:0:
320,192,198500,1,6,0:0:0:0:
448,192,198500,128,0,201137:0:0:0:60:Tom3.wav
64,192,201137,1,2,0:0:0:0:
192,192,201137,1,4,0:0:0:0:
320,192,201632,1,2,0:0:0:0:
192,192,201796,1,8,0:0:0:0:
448,192,202291,1,8,0:0:0:0:
64,192,202621,1,0,0:0:0:30:soft-hitclap.wav
192,192,202785,1,2,0:0:0:0:
320,192,203115,1,8,0:0:0:0:
192,192,203774,1,2,0:0:0:0:
448,192,203939,1,8,0:0:0:0:
320,192,204269,1,2,0:0:0:0:
64,192,204434,1,8,0:0:0:0:
192,192,204928,1,0,0:0:0:30:soft-hitclap.wav
320,192,205258,1,0,0:0:0:30:soft-hitclap.wav
64,192,205423,1,2,0:0:0:0:
448,192,205752,128,0,206082:0:0:0:60:LR_Drum Click.wav
192,192,206082,128,0,206412:0:0:0:40:LR_Drum Click.wav
320,192,206412,1,2,0:0:0:0:
448,192,206412,1,4,0:0:0:0:
64,192,206577,1,0,0:0:0:30:soft-hitclap.wav
192,192,206906,1,2,0:0:0:0:
448,192,207071,1,8,0:0:0:0:
320,192,207566,1,8,0:0:0:0:
192,192,207895,1,8,0:0:0:0:
448,192,208060,1,2,0:0:0:0:
64,192,208390,1,8,0:0:0:0:
320,192,208884,1,0,0:0:0:30:soft-hitclap.wav
192,192,209049,1,2,0:0:0:0:
448,192,209214,1,8,0:0:0:0:
64,192,209379,1,2,0:0:0:0:
320,192,209708,1,8,0:0:0:0:
192,192,210203,1,8,0:0:0:0:
64,192,210368,1,2,0:0:0:0:
320,192,210533,1,8,0:0:0:0:
192,192,210862,1,2,0:0:0:0:
320,192,211027,1,8,0:0:0:0:
448,192,211027,128,4,211522:0:0:0:0:
64,192,211687,1,2,0:0:0:0:
192,192,211687,1,4,0:0:0:0:
320,192,212016,1,2,0:0:0:0:
448,192,212346,1,2,0:0:0:0:
192,192,212676,1,2,0:0:0:0:
320,192,212840,1,8,0:0:0:0:
64,192,213005,1,2,0:0:0:0:
192,192,213335,1,2,0:0:0:0:
320,192,213665,1,2,0:0:0:0:
64,192,213829,1,8,0:0:0:0:
192,192,213994,1,2,0:0:0:0:
448,192,214159,1,8,0:0:0:0:
320,192,214324,1,6,0:0:0:0:
192,192,214654,1,2,0:0:0:0:
448,192,214983,1,2,0:0:0:0:
320,192,215313,1,2,0:0:0:0:
64,192,215478,1,8,0:0:0:0:
448,192,215643,1,2,0:0:0:0:
192,192,215807,1,8,0:0:0:0:
320,192,215972,1,2,0:0:0:0:
64,192,216302,128,8,216632:0:0:0:0:
448,192,216632,128,2,216961:0:0:0:0:
64,192,216961,1,2,0:0:0:0:
192,192,216961,1,4,0:0:0:0:
320,192,217291,1,2,0:0:0:0:
64,192,217621,1,8,0:0:0:0:
320,192,217950,1,2,0:0:0:0:
192,192,218115,1,8,0:0:0:0:
448,192,218280,1,2,0:0:0:0:
64,192,218445,1,8,0:0:0:0:
320,192,218774,1,2,0:0:0:0:
192,192,218939,1,8,0:0:0:0:
448,192,219269,1,8,0:0:0:0:
320,192,219434,1,2,0:0:0:0:
64,192,219599,1,8,0:0:0:0:
192,192,219599,1,4,0:0:0:0:
320,192,219928,1,8,0:0:0:0:
64,192,220093,1,8,0:0:0:0:
448,192,220093,1,4,0:0:0:0:
192,192,220423,1,8,0:0:0:0:
320,192,220588,1,8,0:0:0:0:
448,192,220588,1,4,0:0:0:0:
64,192,220917,1,8,0:0:0:0:
192,192,221082,1,12,0:0:0:0:
448,192,221082,1,0,0:0:0:55:LR_Ride Med.wav
320,192,221412,1,8,0:0:0:0:
192,192,221577,1,2,0:0:0:0:
448,192,221906,1,8,0:0:0:0:
320,192,222071,1,2,0:0:0:0:
64,192,222236,1,8,0:0:0:0:
192,192,222236,1,4,0:0:0:0:
448,192,222566,1,8,0:0:0:0:
320,192,222730,1,2,0:0:0:0:
64,192,222895,1,8,0:0:0:0:
192,192,223060,1,2,0:0:0:0:
320,192,223225,1,8,0:0:0:0:
448,192,223390,1,2,0:0:0:0:
64,192,223555,1,8,0:0:0:0:
320,192,223884,1,8,0:0:0:0:
192,192,224049,1,2,0:0:0:0:
448,192,224214,1,8,0:0:0:0:
320,192,224379,1,2,0:0:0:0:
192,192,224544,1,12,0:0:0:0:
64,192,224708,1,2,0:0:0:0:
320,192,224873,1,8,0:0:0:0:
448,192,224873,1,4,0:0:0:0:
192,192,225203,1,10,0:0:0:0:
320,192,225368,1,8,0:0:0:0:
64,192,225533,1,10,0:0:0:0:
192,192,225698,1,8,0:0:0:0:
448,192,225862,1,10,0:0:0:0:
320,192,226027,1,8,0:0:0:0:
192,192,226192,1,10,0:0:0:0:
64,192,226357,1,8,0:0:0:0:
320,192,226522,1,10,0:0:0:0:
448,192,226687,1,8,0:0:0:0:
192,192,226851,1,10,0:0:0:0:
64,192,227016,1,8,0:0:0:0:
320,192,227181,1,10,0:0:0:0:
192,192,227346,1,2,0:0:0:0:
448,192,227346,1,0,0:0:0:70:LR_CymbalG.wav
192,192,232126,1,2,0:0:0:0:
320,192,232291,1,8,0:0:0:0:
448,192,232456,1,8,0:0:0:0:
64,192,232785,1,2,0:0:0:0:
192,192,232785,1,4,0:0:0:0:
320,192,232950,1,8,0:0:0:0:
192,192,233115,1,8,0:0:0:0:
320,192,233280,1,8,0:0:0:0:
448,192,233280,1,4,0:0:0:0:
64,192,233610,1,8,0:0:0:0:
192,192,233774,1,2,0:0:0:0:
448,192,233774,1,4,0:0:0:0:
320,192,234104,1,8,0:0:0:0:
64,192,234269,1,2,0:0:0:0:
192,192,234269,1,4,0:0:0:0:
320,192,234599,1,8,0:0:0:0:
192,192,234763,1,6,0:0:0:0:
448,192,234928,1,8,0:0:0:0:
320,192,235093,1,8,0:0:0:0:
64,192,235258,1,0,0:0:0:70:Tom2.wav
192,192,235423,1,2,0:0:0:0:
448,192,235423,1,4,0:0:0:0:
320,192,235752,1,0,0:0:0:70:Tom2.wav
64,192,235917,1,2,0:0:0:0:
192,192,235917,1,4,0:0:0:0:
320,192,236247,1,8,0:0:0:0:
64,192,236412,1,2,0:0:0:0:
448,192,236412,1,4,0:0:0:0:
192,192,236741,1,0,0:0:0:70:Tom2.wav
320,192,236906,1,2,0:0:0:0:
448,192,236906,1,4,0:0:0:0:
64,192,237236,1,0,0:0:0:70:Tom3.wav
192,192,237401,1,2,0:0:0:0:
448,192,237401,1,4,0:0:0:0:
320,192,237730,1,8,0:0:0:0:
192,192,237895,1,8,0:0:0:0:
64,192,238060,1,6,0:0:0:0:
320,192,238225,1,8,0:0:0:0:
192,192,238390,1,2,0:0:0:0:
448,192,238555,1,8,0:0:0:0:
192,192,238884,1,0,0:0:0:70:Tom3.wav
320,192,239049,1,8,0:0:0:0:
64,192,239379,1,8,0:0:0:0:
448,192,239626,1,8,0:0:0:0:
64,192,239873,1,10,0:0:0:0:
192,192,239873,1,4,0:0:0:0:
320,192,240203,1,8,0:0:0:0:
64,192,240368,1,10,0:0:0:0:
448,192,240368,1,4,0:0:0:0:
192,192,240698,1,8,0:0:0:0:
320,192,240698,1,4,0:0:0:0:
64,192,241027,1,8,0:0:0:0:
448,192,241027,1,0,0:0:0:35:drum-hitfinish.wav
192,192,241357,1,2,0:0:0:0:
320,192,241687,1,8,0:0:0:0:
448,192,241687,1,0,0:0:0:35:drum-hitfinish.wav
192,192,242016,1,2,0:0:0:0:
64,192,242346,1,8,0:0:0:0:
448,192,242346,1,0,0:0:0:35:drum-hitfinish.wav
320,192,242676,1,2,0:0:0:0:
64,192,243005,1,8,0:0:0:0:
192,192,243005,1,0,0:0:0:35:drum-hitfinish.wav
320,192,243335,1,2,0:0:0:0:
192,192,243665,1,8,0:0:0:0:
448,192,243665,1,0,0:0:0:35:drum-hitfinish.wav
64,192,243994,1,2,0:0:0:0:
320,192,244324,1,8,0:0:0:0:
448,192,244324,1,0,0:0:0:35:drum-hitfinish.wav
192,192,244654,1,2,0:0:0:0:
64,192,244983,1,8,0:0:0:0:
448,192,244983,1,0,0:0:0:35:drum-hitfinish.wav
320,192,245313,1,6,0:0:0:0:
64,192,245643,128,2,245972:0:0:0:0:
192,192,245972,1,4,0:0:0:0:
448,192,245972,1,2,0:0:0:0:
64,192,246302,1,8,0:0:0:0:
320,192,246302,1,0,0:0:0:60:LR_Ride Med.wav
192,192,246632,1,2,0:0:0:0:
320,192,246961,1,8,0:0:0:0:
448,192,246961,1,0,0:0:0:60:LR_Ride Med.wav
64,192,247291,1,2,0:0:0:0:
192,192,247621,1,8,0:0:0:0:
320,192,247621,1,0,0:0:0:60:LR_Ride Med.wav
448,192,247950,128,2,248280:0:0:0:0:
192,192,248280,128,2,248610:0:0:0:0:
64,192,248610,1,4,0:0:0:0:
320,192,248610,1,2,0:0:0:0:
192,192,248939,1,8,0:0:0:0:
320,192,249104,1,4,0:0:0:0:
448,192,249104,1,8,0:0:0:0:
64,192,249434,1,8,0:0:0:0:
192,192,249599,1,4,0:0:0:0:
448,192,249599,1,8,0:0:0:0:
320,192,249928,1,8,0:0:0:0:
64,192,250093,1,4,0:0:0:0:
192,192,250093,1,8,0:0:0:0:
448,192,250588,1,2,0:0:0:0:
320,192,250752,1,0,0:0:0:70:Tom2.wav
64,192,250917,1,0,0:0:0:70:Tom3.wav
192,192,251082,1,2,0:0:0:0:
320,192,251247,1,4,0:0:0:0:
448,192,251247,1,8,0:0:0:0:
64,192,251577,1,0,0:0:0:35:drum-hitfinish.wav
192,192,251741,1,2,0:0:0:0:
448,192,251906,1,8,0:0:0:0:
64,192,252236,1,2,0:0:0:0:
320,192,252401,1,8,0:0:0:0:
192,192,252566,1,2,0:0:0:0:
448,192,252730,1,8,0:0:0:0:
320,192,252895,1,2,0:0:0:0:
64,192,253060,1,2,0:0:0:0:
192,192,253225,1,8,0:0:0:0:
64,192,253555,1,8,0:0:0:0:
448,192,253555,1,4,0:0:0:0:
192,192,253884,1,2,0:0:0:0:
320,192,253884,1,4,0:0:0:0:
64,192,254214,1,0,0:0:0:35:drum-hitfinish.wav
448,192,254379,1,2,0:0:0:0:
64,192,254544,1,8,0:0:0:0:
320,192,254708,1,8,0:0:0:0:
192,192,254873,1,2,0:0:0:0:
448,192,255038,1,8,0:0:0:0:
64,192,255368,1,8,0:0:0:0:
192,192,255533,1,2,0:0:0:0:
448,192,255533,1,4,0:0:0:0:
448,192,255862,1,0,0:0:0:70:Tom1.wav
320,192,256027,1,0,0:0:0:70:Tom2.wav
192,192,256192,1,0,0:0:0:70:Tom2.wav
64,192,256357,1,0,0:0:0:70:Tom3.wav
320,192,256522,1,2,0:0:0:0:
448,192,256522,1,4,0:0:0:0:
192,192,257016,1,2,0:0:0:0:
448,192,257181,1,8,0:0:0:0:
64,192,257511,1,2,0:0:0:0:
320,192,257676,1,8,0:0:0:0:
192,192,257840,1,2,0:0:0:0:
448,192,258005,1,8,0:0:0:0:
64,192,258335,1,2,0:0:0:0:
320,192,258500,1,8,0:0:0:0:
192,192,258665,1,2,0:0:0:0:
448,192,258829,128,0,259159:0:0:0:35:drum-hitfinish.wav
64,192,259159,1,2,0:0:0:0:
192,192,259159,1,4,0:0:0:0:
320,192,259489,1,8,0:0:0:0:
64,192,259654,1,4,0:0:0:0:
448,192,259654,1,8,0:0:0:0:
192,192,259983,1,8,0:0:0:0:
320,192,260148,1,2,0:0:0:0:
64,192,260478,128,2,261137:0:0:0:0:
192,192,260478,1,4,0:0:0:0:
448,192,261302,1,0,0:0:0:70:Tom2.wav
192,192,261467,1,0,0:0:0:70:Tom3.wav
64,192,261796,1,8,0:0:0:0:
320,192,261796,1,4,0:0:0:0:
192,192,262126,1,2,0:0:0:0:
320,192,262291,1,8,0:0:0:0:
448,192,262291,1,4,0:0:0:0:
192,192,262621,1,2,0:0:0:0:
64,192,262785,1,4,0:0:0:0:
448,192,262785,1,8,0:0:0:0:
320,192,263115,1,2,0:0:0:0:
64,192,263280,1,8,0:0:0:0:
192,192,263280,1,4,0:0:0:0:
448,192,263610,1,2,0:0:0:0:
192,192,263774,1,4,0:0:0:0:
320,192,263774,1,8,0:0:0:0:
64,192,264104,1,4,0:0:0:0:
448,192,264104,1,8,0:0:0:0:
192,192,264434,1,4,0:0:0:0:
320,192,264434,1,8,0:0:0:0:
64,192,264763,1,2,0:0:0:0:
320,192,264928,1,4,0:0:0:0:
448,192,264928,1,8,0:0:0:0:
192,192,265258,1,2,0:0:0:0:
64,192,265423,1,8,0:0:0:0:
448,192,265423,1,4,0:0:0:0:
320,192,265752,1,2,0:0:0:0:
64,192,265917,1,4,0:0:0:0:
192,192,265917,1,8,0:0:0:0:
448,192,266247,1,2,0:0:0:0:
320,192,266412,1,0,0:0:0:70:Tom1.wav
192,192,266577,1,0,0:0:0:70:Tom2.wav
64,192,266741,1,0,0:0:0:70:Tom3.wav
448,192,266906,1,2,0:0:0:0:
64,192,267071,1,8,0:0:0:0:
192,192,267071,1,4,0:0:0:0:
320,192,267401,1,2,0:0:0:0:
64,192,267566,1,8,0:0:0:0:
448,192,267566,1,4,0:0:0:0:
192,192,267895,1,2,0:0:0:0:
320,192,268060,1,4,0:0:0:0:
448,192,268060,1,8,0:0:0:0:
192,192,268390,1,2,0:0:0:0:
64,192,268555,1,8,0:0:0:0:
448,192,268555,1,4,0:0:0:0:
320,192,268884,1,2,0:0:0:0:
64,192,269049,1,4,0:0:0:0:
192,192,269049,1,8,0:0:0:0:
320,192,269379,1,4,0:0:0:0:
448,192,269379,1,8,0:0:0:0:
64,192,269708,1,4,0:0:0:0:
192,192,269708,1,8,0:0:0:0:
320,192,270038,1,2,0:0:0:0:
64,192,270203,1,4,0:0:0:0:
448,192,270203,1,8,0:0:0:0:
192,192,270533,1,2,0:0:0:0:
320,192,270698,128,8,271027:0:0:0:0:
64,192,271027,1,10,0:0:0:0:
448,192,271274,1,10,0:0:0:0:
192,192,271522,1,10,0:0:0:0:
320,192,271687,1,10,0:0:0:0:
64,192,271934,1,10,0:0:0:0:
448,192,272181,1,10,0:0:0:0:
64,192,272676,128,4,277621:0:0:0:0:
192,192,272676,1,2,0:0:0:0:
