osu file format v14

[General]
AudioFilename: audio.mp3
AudioLeadIn: 0
PreviewTime: 66570
Countdown: 0
SampleSet: Soft
StackLeniency: 0.4
Mode: 0
LetterboxInBreaks: 0
WidescreenStoryboard: 1

[Editor]
Bookmarks: 698,32346,53445,66632,98280,119379,143115,174763,201137,211687,230148,261796,279599
DistanceSpacing: 1.1
BeatDivisor: 4
GridSize: 32
TimelineZoom: 1.2

[Metadata]
Title:GHOST
TitleUnicode:GHOST
Artist:Hoshimachi Suisei
ArtistUnicode:星街すいせい
Creator:Amateurre
Version:Mayu's Extreme
Source:
Tags:hololive ホロライブ hosimati hoshimati hosimachi suichan idol vtuber virtual youtuber singer jrock j-rock rock pop japanese jpop j-pop 佐藤厚仁 sato atsuhito Dream Monster カバー cover corp. ch ch. kalibe captin1 hinsvar asagi shizuku- kazato asa shikibe mayu rosiie nagaraia bongo wanpachi cycopton
BeatmapID:2962189
BeatmapSetID:1432314

[Difficulty]
HPDrainRate:5
CircleSize:4.2
OverallDifficulty:9
ApproachRate:9.4
SliderMultiplier:1.8
SliderTickRate:1

[Events]
//Background and Video events
0,0,"68ace3458a2231049cab5c32c3a35489302d32d9_s2_n1.jpg",0,0
Video,-617,"Dancer in The Dark.mp4"
//Break Periods
2,58919,60487
2,109029,110927
2,201337,210982
2,230148,231586
//Storyboard Layer 0 (Background)
//Storyboard Layer 1 (Fail)
//Storyboard Layer 2 (Pass)
//Storyboard Layer 3 (Foreground)
//Storyboard Layer 4 (Overlay)
//Storyboard Sound Samples

[TimingPoints]
698,329.67032967033,4,2,2,35,1,0
698,-333.333333333333,4,2,2,35,0,0
9928,-333.333333333333,4,2,2,40,0,0
10588,-333.333333333333,4,2,2,50,0,0
11247,-200,4,2,2,40,0,0
13884,-250,4,2,2,40,0,0
19159,-250,4,2,2,45,0,0
20148,-250,4,2,2,50,0,0
20972,-250,4,2,2,55,0,0
21302,-250,4,2,2,60,0,0
21467,-50,4,2,2,65,0,0
21796,-100,4,2,3,75,0,0
22291,-100,4,2,4,75,0,0
22785,-100,4,2,3,75,0,0
23280,-100,4,2,4,75,0,0
23774,-76.9230769230769,4,2,2,75,0,0
24104,-90.9090909090909,4,2,2,75,0,0
24434,-90.9090909090909,4,2,3,75,0,0
24928,-83.3333333333333,4,2,4,75,0,0
25423,-83.3333333333333,4,2,3,75,0,0
25917,-83.3333333333333,4,2,4,75,0,0
26412,-83.3333333333333,4,2,2,70,0,0
26741,-83.3333333333333,4,2,2,65,0,0
27071,-83.3333333333333,4,2,3,75,0,0
27566,-83.3333333333333,4,2,4,75,0,0
28060,-83.3333333333333,4,2,3,75,0,0
28555,-83.3333333333333,4,2,4,75,0,0
29049,-83.3333333333333,4,2,2,75,0,0
29708,-83.3333333333333,4,2,3,75,0,0
30203,-83.3333333333333,4,2,4,75,0,0
30698,-83.3333333333333,4,2,3,75,0,0
31192,-83.3333333333333,4,2,2,70,0,0
31522,-83.3333333333333,4,2,2,65,0,0
31687,-83.3333333333333,4,2,2,75,0,0
32346,-100,4,2,2,55,0,0
33005,-250,4,2,2,55,0,0
33665,-117.647058823529,4,2,2,55,0,0
34324,-100,4,2,2,55,0,0
34983,-117.647058823529,4,2,2,55,0,0
35643,-133.333333333333,4,2,2,55,0,0
35972,-153.846153846153,4,2,2,55,0,0
37621,-100,4,2,2,55,0,0
38115,-166.666666666667,4,2,2,55,0,0
38527,-76.9230769230769,4,2,2,55,0,0
38939,-100,4,2,2,55,0,0
40258,-125,4,2,2,55,0,0
41577,-111.111111111111,4,2,2,55,0,0
42895,-100,4,2,3,60,0,0
45533,-100,4,2,2,60,0,0
48500,-83.3333333333333,4,2,2,60,0,0
49159,-100,4,2,2,60,0,0
50478,-90.9090909090909,4,2,2,60,0,0
50972,-125,4,2,2,60,0,0
51137,-90.9090909090909,4,2,2,60,0,0
52456,-90.9090909090909,4,2,4,60,0,0
52621,-90.9090909090909,4,2,2,55,0,0
52785,-90.9090909090909,4,2,2,50,0,0
52950,-90.9090909090909,4,2,2,45,0,0
53115,-90.9090909090909,4,2,2,40,0,0
53445,-100,4,2,3,60,0,0
53939,-100,4,2,2,60,0,0
56082,-100,4,2,3,60,0,0
56577,-100,4,2,2,60,0,0
57730,-100,4,2,3,60,0,0
57895,-100,4,2,3,55,0,0
58060,-100,4,2,3,50,0,0
58390,-100,4,2,2,55,0,0
58610,-100,4,2,2,50,0,0
58719,-200,4,2,3,60,0,0
59214,-200,4,2,3,40,0,0
61027,-76.9230769230769,4,2,2,50,0,0
61357,-76.9230769230769,4,2,3,35,0,0
61687,-76.9230769230769,4,2,3,40,0,0
62016,-76.9230769230769,4,2,3,45,0,0
62346,-76.9230769230769,4,2,3,50,0,0
62676,-76.9230769230769,4,2,3,55,0,0
63005,-76.9230769230769,4,2,3,60,0,0
63335,-76.9230769230769,4,2,3,65,0,0
63665,-76.9230769230769,4,2,3,70,0,0
63747,-76.9230769230769,4,2,2,70,0,0
63994,-76.9230769230769,4,2,3,60,0,0
64324,-200,4,2,2,60,0,0
64654,-200,4,2,2,70,0,0
64983,-200,4,2,2,80,0,0
65313,-250,4,2,3,65,0,0
65972,-250,4,2,3,45,0,0
66632,-66.6666666666667,4,2,3,70,0,1
67126,-66.6666666666667,4,2,4,70,0,1
67621,-66.6666666666667,4,2,2,70,0,1
67785,-83.3333333333333,4,2,2,70,0,1
68280,-133.333333333333,4,2,2,70,0,1
68610,-100,4,2,3,70,0,1
68939,-83.3333333333333,4,2,4,70,0,1
69269,-66.6666666666667,4,2,3,70,0,1
69434,-83.3333333333333,4,2,3,70,0,1
69763,-83.3333333333333,4,2,4,70,0,1
70258,-83.3333333333333,4,2,2,70,0,1
71247,-83.3333333333333,4,2,3,70,0,1
71577,-83.3333333333333,4,2,4,70,0,1
71906,-83.3333333333333,4,2,3,70,0,1
72401,-83.3333333333333,4,2,4,70,0,1
72895,-83.3333333333333,4,2,2,70,0,1
73884,-83.3333333333333,4,2,3,70,0,1
74214,-83.3333333333333,4,2,4,70,0,1
74544,-83.3333333333333,4,2,3,70,0,1
75038,-83.3333333333333,4,2,2,70,0,1
75533,-100,4,2,2,70,0,1
75615,-100,4,2,2,65,0,1
75780,-100,4,2,2,60,0,1
75862,-55.5555555555556,4,2,2,80,0,1
76687,-83.3333333333333,4,2,2,80,0,0
76851,-83.3333333333333,4,2,4,70,0,0
77181,-83.3333333333333,4,2,3,75,0,1
77511,-83.3333333333333,4,2,2,75,0,1
77758,-100,4,2,2,75,0,1
78829,-125,4,2,2,75,0,1
78994,-83.3333333333333,4,2,2,75,0,1
79818,-125,4,2,2,75,0,1
80807,-100,4,2,2,75,0,1
81467,-111.111111111111,4,2,2,75,0,1
81632,-133.333333333333,4,2,2,75,0,1
82456,-66.6666666666667,4,2,3,75,0,1
82785,-100,4,2,3,75,0,1
84846,-100,4,2,2,70,0,1
84928,-100,4,2,2,65,0,1
85011,-100,4,2,2,60,0,1
85093,-83.3333333333333,4,2,3,75,0,1
85588,-83.3333333333333,4,2,4,75,0,1
86082,-83.3333333333333,4,2,3,75,0,1
86577,-83.3333333333333,4,2,4,75,0,1
87071,-83.3333333333333,4,2,2,70,0,1
87236,-83.3333333333333,4,2,2,65,0,1
87401,-83.3333333333333,4,2,2,60,0,1
87566,-83.3333333333333,4,2,2,55,0,1
87730,-83.3333333333333,4,2,3,80,0,1
88060,-83.3333333333333,4,2,2,80,0,1
90038,-83.3333333333333,4,2,3,80,0,1
90368,-83.3333333333333,4,2,4,80,0,1
90698,-83.3333333333333,4,2,2,80,0,1
91687,-83.3333333333333,4,2,3,80,0,1
92016,-83.3333333333333,4,2,2,80,0,1
93005,-83.3333333333333,4,2,3,75,0,1
93500,-83.3333333333333,4,2,4,75,0,1
93994,-83.3333333333333,4,2,3,75,0,1
94489,-83.3333333333333,4,2,4,75,0,1
94983,-181.818181818181,4,2,3,75,0,1
95148,-133.333333333333,4,2,2,70,0,1
95313,-133.333333333333,4,2,2,65,0,1
95478,-133.333333333333,4,2,2,60,0,1
95643,-83.3333333333333,4,2,3,60,0,1
95972,-83.3333333333333,4,2,3,65,0,1
96302,-83.3333333333333,4,2,3,70,0,1
96632,-83.3333333333333,4,2,3,75,0,1
96961,-100,4,2,3,80,0,0
97456,-100,4,2,3,45,0,0
97950,-100,4,2,3,75,0,0
98033,-100,4,2,2,70,0,0
98115,-100,4,2,2,65,0,0
98198,-100,4,2,2,60,0,0
98280,-83.3333333333333,4,2,3,75,0,0
98774,-83.3333333333333,4,2,4,75,0,0
99269,-83.3333333333333,4,2,3,75,0,0
99763,-83.3333333333333,4,2,4,75,0,0
100258,-83.3333333333333,4,2,2,75,0,0
100917,-83.3333333333333,4,2,3,75,0,0
101412,-83.3333333333333,4,2,4,75,0,0
101906,-83.3333333333333,4,2,3,75,0,0
102401,-83.3333333333333,4,2,4,75,0,0
102895,-83.3333333333333,4,2,2,70,0,0
103225,-83.3333333333333,4,2,2,65,0,0
103555,-83.3333333333333,4,2,3,75,0,0
104049,-83.3333333333333,4,2,4,75,0,0
104544,-83.3333333333333,4,2,3,75,0,0
105038,-83.3333333333333,4,2,4,75,0,0
105533,-83.3333333333333,4,2,2,75,0,0
106192,-83.3333333333333,4,2,3,75,0,0
106687,-83.3333333333333,4,2,4,75,0,0
107181,-83.3333333333333,4,2,3,75,0,0
107511,-83.3333333333333,4,2,2,55,0,0
108005,-83.3333333333333,4,2,2,45,0,0
108829,-83.3333333333333,4,2,2,40,0,0
110148,-83.3333333333333,4,2,2,45,0,0
110807,-83.3333333333333,4,2,2,50,0,0
111467,-125,4,2,2,55,0,0
118884,-90.9090909090909,4,2,2,75,0,0
119379,-100,4,2,3,65,0,0
121357,-76.9230769230769,4,2,2,70,0,0
122016,-100,4,2,3,65,0,0
124159,-100,4,2,3,50,0,0
124324,-100,4,2,3,60,0,0
124489,-100,4,2,3,70,0,0
124654,-100,4,2,3,65,0,0
127291,-90.9090909090909,4,2,3,65,0,0
129269,-90.9090909090909,4,2,2,60,0,0
129434,-90.9090909090909,4,2,2,55,0,0
129599,-71.4285714285714,4,2,2,50,0,0
129928,-125,4,2,3,65,0,0
134708,-125,4,2,2,60,0,0
134873,-83.3333333333333,4,2,2,55,0,0
135203,-90.9090909090909,4,2,3,60,0,0
137511,-90.9090909090909,4,2,2,50,0,0
137840,-90.9090909090909,4,2,3,35,0,0
138170,-90.9090909090909,4,2,3,40,0,0
138500,-90.9090909090909,4,2,3,45,0,0
138829,-90.9090909090909,4,2,3,50,0,0
139159,-90.9090909090909,4,2,3,55,0,0
139489,-90.9090909090909,4,2,3,60,0,0
139818,-90.9090909090909,4,2,3,65,0,0
140148,-90.9090909090909,4,2,3,70,0,0
140230,-90.9090909090909,4,2,2,70,0,0
140478,-90.9090909090909,4,2,3,60,0,0
140807,-90.9090909090909,4,2,2,60,0,0
141137,-90.9090909090909,4,2,2,70,0,0
141467,-90.9090909090909,4,2,2,80,0,0
141796,-166.666666666667,4,2,3,65,0,0
142456,-100,4,2,3,70,0,0
142785,-100,4,2,2,65,0,0
142950,-100,4,2,2,60,0,0
143115,-90.909090909091,4,2,3,80,0,1
143610,-90.909090909091,4,2,4,80,0,1
144104,-90.909090909091,4,2,2,80,0,1
145093,-90.909090909091,4,2,3,80,0,1
145423,-90.909090909091,4,2,4,80,0,1
145752,-90.909090909091,4,2,3,80,0,1
146247,-90.909090909091,4,2,4,80,0,1
146741,-90.909090909091,4,2,2,80,0,1
147401,-90.909090909091,4,2,2,75,0,1
147566,-90.909090909091,4,2,2,70,0,1
147730,-55.5555555555556,4,2,2,85,0,1
147895,-55.5555555555556,4,2,2,85,0,0
148390,-83.3333333333333,4,2,3,80,0,1
148719,-83.3333333333333,4,2,2,80,0,1
149379,-71.4285714285714,4,2,4,85,0,1
149708,-71.4285714285714,4,2,2,80,0,1
149873,-83.3333333333333,4,2,2,80,0,1
151027,-83.3333333333333,4,2,3,80,0,1
151522,-83.3333333333333,4,2,4,80,0,1
152016,-83.3333333333333,4,2,2,75,0,1
152181,-83.3333333333333,4,2,2,70,0,1
152346,-55.5555555555556,4,2,2,80,0,1
152840,-62.5,4,2,2,80,0,1
153170,-71.4285714285714,4,2,2,80,0,0
153335,-71.4285714285714,4,2,4,70,0,0
153665,-83.3333333333333,4,2,3,75,0,1
153994,-83.3333333333333,4,2,2,75,0,1
157291,-83.3333333333333,4,2,2,75,0,1
158939,-83.3333333333333,4,2,3,75,0,1
160588,-111.111111111111,4,2,3,75,0,1
160835,-83.3333333333333,4,2,3,75,0,1
161329,-83.3333333333333,4,2,2,70,0,1
161412,-83.3333333333333,4,2,2,65,0,1
161494,-83.3333333333333,4,2,2,60,0,1
161577,-66.6666666666667,4,2,3,75,0,1
162071,-66.6666666666667,4,2,4,75,0,1
162566,-66.6666666666667,4,2,3,75,0,1
163060,-66.6666666666667,4,2,4,75,0,1
163884,-66.6666666666667,4,2,2,60,0,1
164049,-66.6666666666667,4,2,2,55,0,1
164214,-83.3333333333333,4,2,3,80,0,1
164544,-83.3333333333333,4,2,2,80,0,1
165203,-111.111111111111,4,2,2,80,0,1
165533,-83.3333333333333,4,2,2,80,0,1
166851,-83.3333333333333,4,2,4,80,0,1
167181,-83.3333333333333,4,2,2,80,0,1
168170,-83.3333333333333,4,2,3,80,0,1
168500,-83.3333333333333,4,2,2,80,0,1
169159,-83.3333333333333,4,2,2,70,0,1
169324,-83.3333333333333,4,2,2,60,0,1
169489,-83.3333333333333,4,2,3,75,0,1
169983,-83.3333333333333,4,2,4,75,0,1
170478,-83.3333333333333,4,2,3,75,0,1
170972,-83.3333333333333,4,2,4,75,0,1
171467,-111.111111111111,4,2,3,75,0,1
171632,-111.111111111111,4,2,3,70,0,1
171796,-111.111111111111,4,2,2,65,0,1
171961,-111.111111111111,4,2,2,60,0,1
172126,-111.111111111111,4,2,3,60,0,1
172456,-111.111111111111,4,2,3,65,0,1
172785,-111.111111111111,4,2,3,70,0,1
173115,-111.111111111111,4,2,3,75,0,1
173445,-111.111111111111,4,2,3,80,0,1
173939,-111.111111111111,4,2,3,45,0,1
174104,-111.111111111111,4,2,3,70,0,1
174434,-111.111111111111,4,2,2,65,0,1
174516,-111.111111111111,4,2,2,60,0,1
174599,-111.111111111111,4,2,2,55,0,1
174681,-111.111111111111,4,2,2,50,0,1
174763,-83.3333333333333,4,2,3,75,0,0
175258,-83.3333333333333,4,2,4,75,0,0
175752,-83.3333333333333,4,2,3,75,0,0
176247,-83.3333333333333,4,2,4,75,0,0
176741,-83.3333333333333,4,2,2,75,0,0
177236,-133.333333333333,4,2,2,75,0,0
177401,-66.6666666666667,4,2,3,75,0,0
177730,-76.9230769230769,4,2,3,75,0,0
177895,-76.9230769230769,4,2,4,75,0,0
178390,-76.9230769230769,4,2,3,75,0,0
178884,-76.9230769230769,4,2,4,75,0,0
179379,-76.9230769230769,4,2,2,75,0,0
180038,-76.9230769230769,4,2,3,75,0,0
180121,-76.9230769230769,4,2,3,60,0,0
180368,-100,4,2,3,75,0,0
180450,-100,4,2,3,60,0,0
180533,-100,4,2,3,75,0,0
180615,-100,4,2,3,60,0,0
180862,-100,4,2,3,75,0,0
180945,-100,4,2,3,60,0,0
181027,-100,4,2,4,75,0,0
181110,-100,4,2,4,60,0,0
181357,-76.9230769230769,4,2,4,60,0,0
181522,-76.9230769230769,4,2,3,75,0,0
181604,-76.9230769230769,4,2,3,60,0,0
182016,-76.9230769230769,4,2,4,70,0,0
182346,-76.9230769230769,4,2,2,65,0,0
182511,-76.9230769230769,4,2,2,60,0,0
182676,-76.9230769230769,4,2,3,75,0,0
182840,-76.9230769230769,4,2,2,70,0,0
182923,-76.9230769230769,4,2,2,65,0,0
183005,-76.9230769230769,4,2,2,60,0,0
183170,-76.9230769230769,4,2,4,75,0,0
183335,-76.9230769230769,4,2,2,70,0,0
183417,-76.9230769230769,4,2,2,65,0,0
183500,-76.9230769230769,4,2,2,60,0,0
183665,-76.9230769230769,4,2,3,75,0,0
183829,-76.9230769230769,4,2,2,70,0,0
183912,-76.9230769230769,4,2,2,65,0,0
183994,-76.9230769230769,4,2,2,60,0,0
184159,-76.9230769230769,4,2,4,75,0,0
184654,-76.9230769230769,4,2,2,70,0,0
184818,-76.9230769230769,4,2,2,65,0,0
184983,-76.9230769230769,4,2,2,80,0,0
185313,-111.111111111111,4,2,3,75,0,0
190011,-111.111111111111,4,2,2,70,0,0
190176,-111.111111111111,4,2,2,65,0,0
190258,-111.111111111111,4,2,2,75,0,0
190588,-111.111111111111,4,2,3,75,0,0
190917,-111.111111111111,4,2,2,80,0,0
193225,-111.111111111111,4,2,3,80,0,0
193555,-111.111111111111,4,2,2,80,0,0
194544,-111.111111111111,4,2,3,80,0,0
194873,-111.111111111111,4,2,4,80,0,0
195285,-111.111111111111,4,2,2,70,0,0
195368,-111.111111111111,4,2,2,65,0,0
195533,-111.111111111111,4,2,2,80,0,0
195698,-181.818181818181,4,2,2,80,0,0
195862,-181.818181818181,4,2,2,75,0,0
195945,-181.818181818181,4,2,2,50,0,0
196357,-181.818181818181,4,2,2,75,0,0
196439,-181.818181818181,4,2,2,50,0,0
196522,-133.333333333333,4,2,2,50,0,0
196851,-105.263157894737,4,2,2,75,0,0
196934,-105.263157894737,4,2,2,50,0,0
197511,-105.263157894737,4,2,2,70,0,0
197840,-62.5,4,2,2,65,0,0
198170,-62.5,4,2,2,60,0,0
198335,-62.5,4,2,2,55,0,0
198500,-166.666666666667,4,2,3,80,0,0
198829,-166.666666666667,4,2,3,75,0,0
199159,-166.666666666667,4,2,3,65,0,0
199489,-166.666666666667,4,2,3,55,0,0
199818,-166.666666666667,4,2,3,45,0,0
200148,-166.666666666667,4,2,3,35,0,0
200478,-166.666666666667,4,2,3,25,0,0
200807,-166.666666666667,4,2,3,15,0,0
201137,-166.666666666667,4,2,3,60,0,0
201632,-166.666666666667,4,2,3,50,0,0
205752,-166.666666666667,4,2,2,50,0,0
206000,-166.666666666667,4,2,2,40,0,0
206247,-166.666666666667,4,2,2,30,0,0
206412,-166.666666666667,4,2,3,50,0,0
210862,-166.666666666667,4,2,3,70,0,0
211522,-100,4,2,3,70,0,0
211687,-100,4,2,3,50,0,0
212016,-125,4,2,3,50,0,0
213005,-125,4,2,3,55,0,0
214324,-125,4,2,2,60,0,0
215643,-125,4,2,2,65,0,0
216302,-66.6666666666667,4,2,2,65,0,0
216961,-125,4,2,3,65,0,0
217291,-125,4,2,2,65,0,0
218939,-100,4,2,2,65,0,0
219599,-66.6666666666667,4,2,3,70,0,0
220093,-66.6666666666667,4,2,4,70,0,0
220588,-66.6666666666667,4,2,3,70,0,0
221082,-66.6666666666667,4,2,4,70,0,0
221577,-66.6666666666667,4,2,2,70,0,0
221906,-66.6666666666667,4,2,2,65,0,0
222071,-66.6666666666667,4,2,2,60,0,0
222236,-83.3333333333333,4,2,3,70,0,0
222566,-83.3333333333333,4,2,2,75,0,0
224873,-83.3333333333333,4,2,3,80,0,0
225203,-83.3333333333333,4,2,2,60,0,0
225533,-83.3333333333333,4,2,2,65,0,0
225862,-83.3333333333333,4,2,2,70,0,0
226192,-83.3333333333333,4,2,2,75,0,0
226522,-83.3333333333333,4,2,2,80,0,0
226851,-83.3333333333333,4,2,2,85,0,0
227346,-83.3333333333333,4,2,2,75,0,0
230148,-83.3333333333333,4,2,2,35,0,0
232126,-83.3333333333333,4,2,2,75,0,0
232456,-83.3333333333333,4,2,2,70,0,0
232621,-83.3333333333333,4,2,2,65,0,0
232785,-100,4,2,3,85,0,1
233280,-83.3333333333333,4,2,4,85,0,1
233774,-100,4,2,3,85,0,1
234104,-76.9230769230769,4,2,3,85,0,1
234269,-76.9230769230769,4,2,4,85,0,1
234434,-62.5,4,2,4,85,0,1
234763,-83.3333333333333,4,2,3,85,0,1
235093,-83.3333333333333,4,2,2,70,0,1
235258,-83.3333333333333,4,2,2,65,0,1
235423,-83.3333333333333,4,2,3,85,0,1
235588,-83.3333333333333,4,2,2,70,0,1
235752,-83.3333333333333,4,2,2,60,0,1
235917,-83.3333333333333,4,2,4,85,0,1
236412,-66.6666666666667,4,2,3,85,0,1
236577,-66.6666666666667,4,2,2,70,0,1
236906,-66.6666666666667,4,2,2,65,0,1
237236,-66.6666666666667,4,2,2,60,0,1
237401,-66.6666666666667,4,2,3,85,0,1
237730,-90.9090909090909,4,2,4,85,0,1
238060,-90.9090909090909,4,2,3,85,0,1
238555,-90.9090909090909,4,2,4,85,0,1
238719,-90.9090909090909,4,2,2,70,0,1
238802,-90.9090909090909,4,2,2,65,0,1
238967,-90.9090909090909,4,2,2,85,0,1
239132,-90.9090909090909,4,2,2,70,0,1
239214,-90.9090909090909,4,2,2,65,0,1
239379,-66.6666666666667,4,2,2,80,0,1
239626,-55.5555555555556,4,2,2,80,0,1
240203,-55.5555555555556,4,2,2,80,0,0
240368,-55.5555555555556,4,2,4,70,0,0
240698,-71.4285714285714,4,2,3,75,0,1
241027,-71.4285714285714,4,2,2,75,0,1
243005,-100,4,2,2,75,0,1
245478,-100,4,2,2,70,0,1
245643,-100,4,2,2,65,0,1
245807,-100,4,2,2,60,0,1
245972,-100,4,2,3,75,0,1
248362,-100,4,2,2,70,0,1
248445,-100,4,2,2,65,0,1
248527,-100,4,2,2,60,0,1
248610,-83.3333333333333,4,2,3,75,0,1
249104,-83.3333333333333,4,2,4,75,0,1
249599,-66.6666666666667,4,2,3,75,0,1
250093,-66.6666666666667,4,2,4,75,0,1
250588,-125,4,2,2,70,0,1
250752,-125,4,2,2,65,0,1
250917,-125,4,2,2,60,0,1
251082,-125,4,2,2,55,0,1
251247,-125,4,2,3,80,0,0
251577,-125,4,2,3,70,0,0
253884,-125,4,2,4,70,0,0
255533,-125,4,2,3,70,0,0
255698,-125,4,2,2,65,0,0
255862,-125,4,2,2,60,0,0
256027,-125,4,2,2,55,0,0
256192,-125,4,2,2,50,0,0
256357,-125,4,2,2,45,0,0
256522,-100,4,2,3,70,0,0
259159,-66.6666666666667,4,2,3,80,0,1
259654,-66.6666666666667,4,2,4,80,0,1
260148,-66.6666666666667,4,2,2,70,0,1
260313,-66.6666666666667,4,2,2,60,0,1
260478,-100,4,2,3,80,0,0
260972,-100,4,2,3,70,0,0
261302,-166.666666666667,4,2,2,65,0,0
261384,-166.666666666667,4,2,2,60,0,0
261467,-166.666666666667,4,2,2,65,0,0
261796,-90.909090909091,4,2,3,75,0,0
262291,-83.3333333333333,4,2,4,75,0,0
262785,-83.3333333333333,4,2,3,75,0,0
263280,-83.3333333333333,4,2,4,75,0,0
263774,-83.3333333333333,4,2,2,75,0,0
264434,-83.3333333333333,4,2,3,75,0,0
264928,-83.3333333333333,4,2,4,75,0,0
265423,-83.3333333333333,4,2,3,75,0,0
265917,-83.3333333333333,4,2,4,75,0,0
266412,-83.3333333333333,4,2,2,75,0,0
267071,-83.3333333333333,4,2,3,80,0,0
267566,-83.3333333333333,4,2,4,80,0,0
268060,-83.3333333333333,4,2,3,80,0,0
268555,-83.3333333333333,4,2,4,80,0,0
269049,-83.3333333333333,4,2,2,80,0,0
269708,-83.3333333333333,4,2,3,80,0,0
270203,-83.3333333333333,4,2,4,80,0,0
270698,-83.3333333333333,4,2,3,80,0,0
270780,-83.3333333333333,4,2,2,70,0,0
270945,-83.3333333333333,4,2,2,65,0,0
271027,-55.5555555555556,4,2,3,80,0,0
272676,-100,4,2,3,75,0,0
273665,-100,4,2,3,70,0,0
274983,-100,4,2,3,65,0,0
275643,-100,4,2,3,60,0,0
276302,-100,4,2,3,55,0,0
276632,-100,4,2,3,50,0,0
276961,-100,4,2,3,45,0,0
277291,-100,4,2,3,40,0,0
277621,-100,4,2,3,35,0,0
277950,-100,4,2,3,30,0,0
278280,-100,4,2,3,25,0,0
278610,-100,4,2,3,20,0,0
278939,-100,4,2,3,15,0,0
279269,-100,4,2,3,10,0,0
279599,-100,4,2,3,5,0,0

[Colours]
Combo1 : 248,86,126
Combo2 : 143,226,250
Combo3 : 145,186,249
Combo4 : 200,133,254
Combo5 : 92,248,217

[HitObjects]
257,231,698,6,0,B|275:282|275:282|249:362|249:362|326:328|326:328|387:387|387:387|399:291|399:291|474:245|474:245|392:214|392:214|365:118|365:118|301:201|301:201|233:36|65:12|65:12|91:47|86:85|86:85|54:92|13:113|13:113|148:144|218:251,1,1511.99995385742,2|2,2:0|2:0,0:0:0:0:
217,250,10588,1,2,2:0:0:0:
388,303,11247,6,0,B|426:243|500:249|500:249|432:279|309:226|322:80|432:13|513:62|510:146|484:157|459:167,1,540,2|2,2:0|2:0,0:0:0:0:
455,172,13884,6,0,B|206:139|352:348|77:309,1,432,2|2,2:0|2:0,0:0:0:0:
77,309,16522,6,0,B|25:153|72:73|72:73|119:71|160:58|160:58|133:101|137:153,1,432,2|2,2:0|2:0,0:0:0:0:
256,192,19159,12,0,21384,0:0:0:0:
478,309,21467,22,0,B|353:234|292:320|310:356|416:337|397:249,1,270,4|0,1:2|0:0,0:0:0:0:
358,200,21796,5,6,1:2:0:0:
241,276,21961,1,0,3:2:0:0:
155,152,22126,1,2,3:2:0:0:
37,267,22291,6,0,P|101:253|159:242,1,90,6|0,1:2|3:2,0:0:0:0:
294,121,22621,5,0,3:2:0:0:
338,356,22785,2,0,P|259:363|223:300,1,135,6|0,1:2|0:0,0:0:0:0:
227,324,23115,1,2,3:2:0:0:
279,249,23280,2,0,B|272:227|272:227|290:176|290:176|277:135,1,90,6|0,1:2|3:2,0:0:0:0:
354,16,23610,21,2,3:2:0:0:
460,100,23774,2,0,B|514:131|514:131|374:104,1,175.499991966248,6|0,1:2|0:0,0:0:0:0:
348,181,24104,6,0,P|316:149|331:85,1,99.0000030212403,6|0,1:2|3:2,0:0:0:0:
258,33,24351,1,0,3:2:0:0:
237,27,24434,2,0,B|219:23|219:23|161:41|161:41|122:36,1,99.0000030212403,6|0,1:2|3:2,0:0:0:0:
199,187,24763,1,0,3:2:0:0:
13,165,24928,6,0,B|48:163|103:125|103:125|65:180|96:261,1,215.999993408203,6|2,1:2|3:2,0:0:0:0:
183,382,25423,6,0,P|150:337|82:350,1,107.999996704102,6|0,1:2|3:2,0:0:0:0:
317,228,25752,1,0,3:2:0:0:
108,343,25917,22,0,B|129:347|129:347|221:308|221:308|274:328,1,161.999995056153,4|0,1:2|0:0,0:0:0:0:
369,323,26247,2,0,B|383:338|374:362|374:362|363:341|359:339,1,53.9999983520508,2|2,3:2|3:2,0:0:0:0:
317,228,26412,5,8,3:0:0:0:
328,117,26577,1,8,3:0:0:0:
437,148,26741,6,0,B|498:162|498:162|378:182,1,161.999995056153,4|4,3:0|3:0,0:0:0:0:
328,117,27071,5,6,1:2:0:0:
369,323,27236,2,0,B|400:350|400:350|378:259,1,107.999996704102,0|2,3:2|3:2,0:0:0:0:
225,73,27566,22,0,B|144:66|108:13|108:13|134:62|128:119,1,215.999993408203,6|2,1:2|3:2,0:0:0:0:
55,323,28060,1,6,1:2:0:0:
192,263,28225,1,0,3:2:0:0:
78,185,28390,1,2,3:2:0:0:
184,361,28555,5,6,1:2:0:0:
17,251,28719,1,0,3:2:0:0:
228,184,28884,1,2,3:2:0:0:
139,268,29049,6,0,B|162:172|126:220|161:85,1,161.999995056153,6|0,1:2|0:0,0:0:0:0:
167,98,29379,1,6,1:2:0:0:
380,217,29544,1,0,3:2:0:0:
400,228,29626,1,0,3:2:0:0:
415,206,29708,1,6,1:2:0:0:
365,377,29873,1,0,3:2:0:0:
240,231,30038,1,2,3:2:0:0:
126,384,30203,5,6,1:2:0:0:
169,179,30368,1,0,3:2:0:0:
347,312,30533,1,0,3:2:0:0:
504,191,30698,22,0,P|481:186|437:180,1,53.9999983520508,6|0,1:2|0:0,0:0:0:0:
401,303,30862,2,0,P|378:308|334:314,1,53.9999983520508,0|0,3:2|0:0,0:0:0:0:
226,183,31027,5,8,0:3:0:0:
169,179,31110,1,8,0:3:0:0:
130,213,31192,1,8,0:3:0:0:
124,268,31274,1,8,0:3:0:0:
92,306,31357,1,4,0:3:0:0:
44,312,31439,1,4,0:3:0:0:
8,289,31522,1,4,0:3:0:0:
0,260,31604,1,4,0:3:0:0:
8,243,31687,6,0,P|57:252|85:266,1,53.9999983520508,2|0,1:2|0:0,0:0:0:0:
224,370,31851,2,0,P|273:361|301:347,1,53.9999983520508,2|0,3:0|0:0,0:0:0:0:
503,197,32346,6,0,B|490:168|479:128|479:128|444:140|406:147,1,135,6|0,3:2|0:0,0:0:0:0:
409,153,32676,2,0,P|343:137|312:130,1,90,2|0,3:2|0:0,0:0:0:0:
191,74,33005,2,0,P|181:38|205:10,1,72,2|2,3:2|3:2,0:0:0:0:
191,74,33500,1,0,0:0:0:0:
90,231,33665,22,0,B|77:182|6:174|6:174|6:215|41:222,1,153.000002918243,2|0,3:2|3:2,0:0:0:0:
116,115,34159,1,0,0:0:0:0:
94,242,34324,2,0,B|154:253|154:253|136:217,1,90,2|0,3:2|0:0,0:0:0:0:
291,153,34654,2,0,B|351:142|351:142|333:178,1,90,2|0,3:2|0:0,0:0:0:0:
338,167,34901,1,0,0:0:0:0:
338,167,34983,6,0,B|350:108|350:108|385:91|385:91|403:6,1,153.000002918243,2|0,3:2|3:2,0:0:0:0:
301,46,35478,1,0,0:0:0:0:
427,177,35643,6,0,B|414:239|471:252|446:329,1,135.000005149842,2|2,3:2|3:2,0:0:0:0:
508,204,36137,1,0,0:0:0:0:
482,382,36302,6,0,B|427:324|353:360|353:360,1,116.999994644165,2|0,3:2|3:2,0:0:0:0:
250,322,36796,2,0,P|225:327|177:342,1,58.4999973220826,2|0,2:0|3:2,0:0:0:0:
263,331,37126,1,0,0:0:0:0:
124,286,37291,22,0,P|74:275|20:260,1,87.749995983124,2|0,3:2|3:2,0:0:0:0:
38,265,37621,6,0,B|25:220|12:176|12:176|55:188|104:198,1,180,6|2,3:2|3:2,0:0:0:0:
193,144,38115,2,0,L|203:90,1,53.9999983520508,0|0,0:0|3:2,0:0:0:0:
101,26,38445,1,0,3:2:0:0:
93,46,38610,1,2,3:2:0:0:
110,67,38774,1,0,0:0:0:0:
305,146,38939,6,0,P|383:130|458:117,1,135,2|0,3:2|0:0,0:0:0:0:
437,120,39269,2,0,B|436:78|436:78|371:109,1,90,2|0,3:2|0:0,0:0:0:0:
485,206,39599,2,0,B|475:245|475:245|379:272|379:272|369:324,1,180,2|2,3:2|3:2,0:0:0:0:
327,203,40093,1,0,0:0:0:0:
405,384,40258,6,0,B|317:366|366:325|257:307,2,144,2|0|0,3:2|3:2|3:2,0:0:0:0:
394,260,41082,1,0,0:0:0:0:
214,338,41247,22,0,B|145:348|181:360|90:375,1,108,2|0,3:2|0:0,0:0:0:0:
111,370,41577,2,0,P|109:336|93:268,1,80.9999975280763,2|0,3:2|0:0,0:0:0:0:
245,190,41906,2,0,P|246:223|262:291,1,80.9999975280763,2|0,3:2|0:0,0:0:0:0:
37,219,42236,5,2,1:2:0:0:
19,180,42318,1,0,1:2:0:0:
36,149,42401,1,0,1:2:0:0:
64,136,42483,1,0,1:2:0:0:
88,108,42566,1,2,1:2:0:0:
88,56,42648,1,0,1:2:0:0:
39,37,42730,1,0,1:2:0:0:
9,53,42813,1,0,1:2:0:0:
50,71,42895,6,0,P|162:48|222:37,1,135,6|0,3:2|0:0,0:0:0:0:
253,86,43225,2,0,B|209:68|209:68|225:125,1,90,2|0,1:2|1:2,0:0:0:0:
246,176,43472,1,0,1:2:0:0:
252,191,43555,1,2,3:2:0:0:
366,108,43719,2,0,B|386:103|386:103|422:120|422:120|463:111,1,90,0|2,3:2|2:0,0:0:0:0:
471,106,44049,6,0,P|400:107|414:204,1,180,2|0,1:2|3:2,0:0:0:0:
484,320,44544,21,0,1:2:0:0:
469,337,44626,2,0,B|441:329|441:329|422:307|422:307|377:300,1,90,0|0,3:0|1:2,0:0:0:0:
376,304,44873,2,0,B|317:317|317:317|374:331,1,90,2|0,3:2|3:2,0:0:0:0:
195,359,45203,2,0,B|153:352|153:352|149:355|149:355|86:347,1,90,2|0,1:2|1:2,0:0:0:0:
19,354,45450,5,0,1:2:0:0:
25,361,45533,2,0,B|126:330|80:304|183:276,1,180,6|0,3:2|1:2,0:0:0:0:
214,148,46110,5,0,1:2:0:0:
220,133,46192,1,2,3:2:0:0:
150,28,46357,2,0,P|129:49|149:116,1,90,2|0,3:2|0:0,0:0:0:0:
280,239,46687,6,0,B|312:176|386:189|386:189|346:197|325:224,1,180,2|2,1:2|3:2,0:0:0:0:
433,116,47181,21,2,1:2:0:0:
483,336,47346,1,2,3:2:0:0:
487,355,47428,1,0,3:2:0:0:
474,366,47511,2,0,B|451:360|451:360|434:326|434:326|393:312,1,90,2|2,3:2|3:2,0:0:0:0:
208,277,47840,2,0,B|185:283|185:283|168:317|168:317|127:331,1,90,2|2,1:2|1:2,0:0:0:0:
64,347,48088,1,0,1:2:0:0:
47,353,48170,1,4,3:2:0:0:
13,233,48335,6,0,P|64:237|91:294,1,90,2|0,3:2|1:2,0:0:0:0:
242,351,48665,5,2,1:2:0:0:
255,356,48747,2,0,L|316:340,1,53.9999983520508,0|0,1:2|3:2,0:0:0:0:
441,270,48994,2,0,B|481:293|481:293|408:276,1,107.999996704102,2|0,3:2|0:0,0:0:0:0:
316,189,49324,6,0,B|262:161|221:195|221:195|205:245|141:241,1,180,2|0,1:2|3:2,0:0:0:0:
16,168,49818,1,0,1:2:0:0:
35,160,49901,2,0,B|102:175|102:175|61:224,1,90,2|0,3:2|0:0,0:0:0:0:
37,254,50148,2,0,L|59:357,1,90,2|0,3:2|3:2,0:0:0:0:
55,342,50395,1,0,0:0:0:0:
55,342,50478,1,2,1:2:0:0:
189,366,50643,21,2,1:2:0:0:
210,375,50725,1,0,1:2:0:0:
212,356,50807,1,4,3:2:0:0:
226,249,50972,2,0,B|193:254|193:254|183:261|183:261|134:271,1,72,2|2,3:2|1:2,0:0:0:0:
310,138,51302,6,0,B|403:153|352:183|457:201,1,148.50000453186
442,198,51632,2,0,P|454:136|468:84,1,99.0000030212403,2|0,3:2|0:0,0:0:0:0:
195,125,51961,6,0,B|207:45|153:14|118:22|70:52|118:80|164:55,1,198.000006042481,2|2,1:2|3:2,0:0:0:0:
273,155,52456,6,0,P|246:193|139:186,1,148.50000453186,6|8,1:2|3:0,0:0:0:0:
151,196,52785,21,4,3:0:0:0:
74,296,52950,2,0,B|92:300|92:300|110:315|110:315|138:321,1,49.5000015106202,8|8,3:0|3:0,0:0:0:0:
202,341,53115,5,8,3:0:0:0:
240,317,53225,5,4,3:0:0:0:
290,332,53335,5,8,3:0:0:0:
248,361,53445,54,0,B|256:282|296:322|305:213,1,135,6|0,3:2|0:0,0:0:0:0:
375,300,53774,2,0,P|437:284|482:273,1,90,0|8,1:2|3:0,0:0:0:0:
462,277,54022,1,4,3:0:0:0:
462,277,54104,1,2,3:2:0:0:
366,268,54269,1,0,3:2:0:0:
290,329,54434,1,0,1:2:0:0:
181,342,54599,5,8,3:0:0:0:
181,342,54681,1,4,3:0:0:0:
181,342,54763,2,0,B|155:266|201:291|169:197,1,135,2|0,3:2|0:0,0:0:0:0:
163,193,55093,1,0,1:2:0:0:
85,252,55258,22,0,B|41:233|41:233|79:296,1,90,8|0,3:0|3:2,0:0:0:0:
62,269,55505,1,0,0:0:0:0:
62,269,55588,1,2,3:2:0:0:
256,300,55752,2,0,P|303:281|349:266,1,90,0|8,1:2|3:0,0:0:0:0:
420,313,56000,1,4,3:0:0:0:
405,328,56082,6,0,B|451:339|492:354|492:354|551:324|494:251,1,180,4|0,3:2|1:2,0:0:0:0:
366,108,56659,5,4,3:0:0:0:
378,126,56741,2,0,P|421:112|469:101,1,90,0|0,3:2|3:2,0:0:0:0:
406,35,57071,1,0,1:2:0:0:
290,170,57236,6,0,B|180:139|251:94|139:67,1,180,0|0,0:0|3:2,0:0:0:0:
59,122,57730,2,0,P|69:165|76:210,1,90,4|0,1:2|1:2,0:0:0:0:
106,229,57978,1,0,1:2:0:0:
88,261,58060,2,0,P|47:253|0:252,1,60,0|0,1:2|1:2,0:0:0:0:
151,342,58280,21,0,1:2:0:0:
228,369,58390,2,0,P|269:361|316:360,1,60,8|8,3:0|3:0,0:0:0:0:
392,384,58610,5,4,3:0:0:0:
458,331,58719,1,6,3:2:0:0:
503,25,61027,6,0,B|467:33|467:33|454:61|454:61|400:76,1,116.999994644165,8|0,3:0|0:0,0:0:0:0:
337,38,61274,1,0,0:0:0:0:
341,20,61357,5,6,1:2:0:0:
455,137,61522,1,2,1:2:0:0:
296,199,61687,1,2,1:2:0:0:
186,85,61851,1,2,1:2:0:0:
50,225,62016,21,2,1:2:0:0:
263,133,62181,1,2,1:2:0:0:
94,18,62346,1,2,1:2:0:0:
166,204,62511,1,2,1:2:0:0:
365,130,62676,5,2,1:2:0:0:
186,85,62840,1,2,1:2:0:0:
300,341,63005,5,2,1:2:0:0:
479,296,63169,1,2,1:2:0:0:
258,184,63335,2,0,P|224:194|176:210,1,58.4999973220826,2|0,1:2|0:0,0:0:0:0:
114,373,63500,2,0,P|80:363|32:347,1,58.4999973220826,2|0,1:2|1:2,0:0:0:0:
51,231,63665,6,0,B|154:238|110:289|225:304,1,175.499991966248,2|4,1:2|3:0,0:0:0:0:
207,301,63994,21,4,3:2:0:0:
294,270,64324,1,8,3:0:0:0:
374,300,64654,1,8,3:0:0:0:
401,375,64983,1,8,3:0:0:0:
496,226,65313,6,0,L|476:83,1,144,4|2,3:2|2:0,0:0:0:0:
476,83,66632,6,0,P|440:76|407:73,1,67.5000025749208,6|0,1:2|3:2,0:0:0:0:
276,23,66796,5,0,3:2:0:0:
241,47,66879,1,0,3:2:0:0:
218,89,66961,1,2,3:2:0:0:
236,131,67044,1,0,3:2:0:0:
263,159,67126,2,0,P|299:152|332:149,1,67.5000025749208,6|0,1:2|3:2,0:0:0:0:
472,247,67291,21,0,3:2:0:0:
491,291,67373,1,0,3:2:0:0:
475,344,67456,1,0,3:2:0:0:
418,366,67538,1,0,3:2:0:0:
368,348,67621,2,0,P|374:303|377:262,1,67.5000025749208,6|0,1:2|3:2,0:0:0:0:
311,171,67785,5,2,3:2:0:0:
263,159,67868,1,0,3:2:0:0:
228,190,67950,2,0,P|239:233|252:274,1,53.9999983520508,0|0,3:2|3:2,0:0:0:0:
226,357,68115,5,4,1:2:0:0:
182,376,68198,1,0,3:2:0:0:
131,358,68280,1,2,3:2:0:0:
123,330,68362,1,0,3:2:0:0:
102,298,68445,1,0,3:2:0:0:
65,285,68527,1,0,3:2:0:0:
28,305,68610,5,6,1:2:0:0:
78,322,68692,1,0,3:2:0:0:
129,291,68775,1,0,3:2:0:0:
144,246,68857,1,0,3:2:0:0:
121,198,68939,21,6,1:2:0:0:
121,151,69022,1,0,3:2:0:0:
153,116,69104,1,0,3:2:0:0:
197,111,69187,1,0,3:2:0:0:
228,134,69269,6,0,P|261:125|292:112,1,67.5000025749208,4|0,1:2|3:2,0:0:0:0:
438,223,69434,5,0,3:2:0:0:
445,243,69516,1,0,3:2:0:0:
435,270,69599,1,0,3:2:0:0:
413,286,69681,1,0,3:2:0:0:
373,276,69763,2,0,P|366:231|355:198,1,53.9999983520508,4|0,1:2|3:2,0:0:0:0:
435,88,69928,5,0,3:2:0:0:
451,46,70011,1,0,3:2:0:0:
418,5,70093,1,0,3:2:0:0:
365,6,70176,1,0,3:2:0:0:
341,41,70258,2,0,P|341:78|330:116,1,53.9999983520508,6|0,1:2|3:2,0:0:0:0:
249,224,70423,21,0,3:2:0:0:
230,246,70505,1,0,3:2:0:0:
207,258,70588,1,2,3:2:0:0:
175,253,70670,1,0,3:2:0:0:
158,233,70752,5,4,1:2:0:0:
199,223,70835,1,0,3:2:0:0:
251,239,70917,1,2,3:2:0:0:
292,278,71000,1,0,3:2:0:0:
342,291,71082,1,0,3:2:0:0:
387,276,71165,1,0,3:2:0:0:
423,264,71247,6,0,P|431:238|436:211,1,53.9999983520508,4|0,1:2|3:2,0:0:0:0:
334,106,71412,5,0,3:2:0:0:
340,120,71494,1,0,3:2:0:0:
345,134,71577,2,0,P|347:161|351:188,1,53.9999983520508,6|0,1:2|3:2,0:0:0:0:
460,111,71741,2,0,P|457:84|453:57,1,53.9999983520508,2|0,3:2|3:2,0:0:0:0:
330,16,71906,22,0,P|303:13|276:9,1,53.9999983520508,6|0,1:2|3:2,0:0:0:0:
160,157,72071,1,0,3:2:0:0:
116,184,72154,1,0,3:2:0:0:
56,188,72236,1,2,3:2:0:0:
25,133,72318,1,0,3:2:0:0:
38,83,72401,6,0,B|74:78|74:78|113:54|113:54|162:48,1,107.999996704102,6|0,1:2|3:2,0:0:0:0:
224,66,72648,5,0,3:2:0:0:
218,77,72730,2,0,L|230:135,1,53.9999983520508,2|0,3:2|3:2,0:0:0:0:
317,175,72895,5,6,1:2:0:0:
343,215,72978,1,0,3:2:0:0:
329,258,73060,1,0,3:2:0:0:
288,275,73143,1,0,3:2:0:0:
254,315,73225,1,0,3:2:0:0:
272,365,73307,1,0,3:2:0:0:
323,384,73390,2,0,P|348:375|374:368,1,53.9999983520508,4|0,1:2|3:2,0:0:0:0:
435,297,73555,2,0,P|460:305|486:312,3,53.9999983520508,2|0|0|0,3:2|3:2|3:2|3:2,0:0:0:0:
288,275,73884,21,6,1:2:0:0:
246,268,73967,1,0,3:2:0:0:
204,280,74049,1,0,3:2:0:0:
171,312,74132,1,0,3:2:0:0:
166,346,74214,5,6,1:2:0:0:
123,372,74296,1,0,3:2:0:0:
70,376,74379,1,0,3:2:0:0:
25,349,74461,1,0,3:2:0:0:
0,305,74544,6,0,P|25:295|50:286,1,53.9999983520508,4|0,1:2|3:2,0:0:0:0:
133,192,74708,1,0,3:2:0:0:
126,163,74791,1,0,3:2:0:0:
103,140,74873,1,0,3:2:0:0:
65,137,74956,1,0,3:2:0:0:
38,155,75038,5,8,3:0:0:0:
73,178,75121,1,0,3:2:0:0:
125,178,75203,1,0,3:2:0:0:
166,151,75285,1,0,3:2:0:0:
209,135,75368,1,0,3:2:0:0:
263,154,75450,1,0,3:2:0:0:
291,202,75533,2,0,P|313:194|335:189,1,45,6|8,1:2|3:0,0:0:0:0:
512,120,75698,21,8,3:0:0:0:
465,81,75780,1,4,3:0:0:0:
416,101,75862,2,0,P|392:151|448:246,1,161.999995056153,2|0,1:2|0:0,0:0:0:0:
418,345,76110,6,0,B|475:335|507:367|507:367|485:329|432:334,1,161.999995056153,2|0,1:2|0:0,0:0:0:0:
339,382,76357,6,0,B|308:300|209:299|133:339|221:388|244:315,1,242.999992584229,6|0,1:2|0:0,0:0:0:0:
236,297,76687,2,0,L|243:243,2,53.9999983520508,2|2|6,1:2|1:2|1:2,0:0:0:0:
108,373,77016,5,0,1:2:0:0:
70,342,77099,1,0,1:2:0:0:
83,291,77181,2,0,B|47:198|92:232|54:115,1,161.999995056153,6|0,3:2|0:0,0:0:0:0:
48,109,77511,1,2,1:3:0:0:
201,1,77758,1,0,1:2:0:0:
212,2,77840,2,0,P|240:49|220:103,1,90,2|0,3:0|3:2,0:0:0:0:
161,169,78170,1,2,1:3:0:0:
394,287,78335,22,0,B|407:311|443:307|443:307|421:244|452:172,1,180,2|0,3:2|3:2,0:0:0:0:
317,123,78829,2,0,B|311:107|311:107|321:68|321:68|308:27,1,72,2|0,1:3|3:2,0:0:0:0:
310,32,79077,1,0,1:2:0:0:
305,16,79159,1,2,3:0:0:0:
405,119,79324,1,0,3:2:0:0:
277,217,79489,2,0,B|183:195|229:168|120:151,1,161.999995056153,2|0,1:3|0:0,0:0:0:0:
130,152,79818,6,0,P|118:109|103:62,1,72,2|0,3:0|0:0,0:0:0:0:
189,293,80148,2,0,P|177:336|162:383,1,72,2|0,1:3|3:2,0:0:0:0:
172,366,80395,1,0,1:2:0:0:
176,370,80478,2,0,P|130:376|78:393,1,72,2|0,3:0|3:2,0:0:0:0:
305,240,80807,2,0,B|375:255|335:288|416:313,1,135,2|0,1:3|0:0,0:0:0:0:
414,312,81137,53,2,3:0:0:0:
317,365,81302,1,0,3:2:0:0:
215,278,81467,2,0,B|222:259|222:259|211:223|211:223|218:201,1,80.9999975280763,2|0,1:3|3:2,0:0:0:0:
226,186,81714,1,0,3:2:0:0:
233,171,81796,1,2,3:0:0:0:
124,25,81961,5,0,1:2:0:0:
88,12,82044,1,0,1:2:0:0:
51,17,82126,1,0,1:2:0:0:
24,48,82208,1,0,1:2:0:0:
18,84,82291,1,0,1:2:0:0:
32,117,82373,1,0,1:2:0:0:
70,137,82456,6,0,B|186:153|143:71|282:94,1,202.500007724762,4|0,3:2|0:0,0:0:0:0:
344,132,82785,2,0,P|367:102|362:44,1,90,2|0,1:3|3:2,0:0:0:0:
334,22,83033,1,0,1:2:0:0:
320,19,83115,1,2,3:0:0:0:
441,101,83280,1,0,3:2:0:0:
267,184,83445,5,2,1:3:0:0:
246,317,83610,2,0,B|149:298|185:365|71:341,1,180,2|0,3:2|3:2,0:0:0:0:
42,237,84104,6,0,P|89:231|120:281,1,90,2|0,1:3|3:2,0:0:0:0:
116,259,84351,1,0,3:2:0:0:
116,259,84434,1,2,1:3:0:0:
210,170,84599,1,0,1:2:0:0:
323,242,84763,6,0,L|415:222,1,90,0|8,1:2|3:0,0:0:0:0:
485,209,85011,1,4,3:0:0:0:
493,215,85093,5,4,1:2:0:0:
512,178,85176,1,0,3:2:0:0:
507,135,85258,1,2,3:2:0:0:
472,106,85340,1,0,3:2:0:0:
425,110,85423,2,0,P|401:124|377:136,1,53.9999983520508,2|0,3:2|3:2,0:0:0:0:
207,108,85588,5,4,1:2:0:0:
174,142,85670,1,0,3:2:0:0:
175,188,85752,1,0,3:2:0:0:
210,221,85835,1,0,3:2:0:0:
259,250,85917,1,0,3:2:0:0:
270,305,86000,1,0,3:2:0:0:
236,340,86082,2,0,P|210:331|183:326,1,53.9999983520508,6|0,1:2|3:2,0:0:0:0:
47,268,86247,5,2,3:2:0:0:
53,271,86329,1,0,3:2:0:0:
59,275,86412,2,0,P|84:266|111:261,1,53.9999983520508,0|0,3:2|3:2,0:0:0:0:
259,250,86577,5,4,1:2:0:0:
302,277,86659,1,0,3:2:0:0:
348,270,86741,1,0,3:2:0:0:
382,231,86824,1,0,3:2:0:0:
414,192,86906,1,0,3:2:0:0:
462,186,86989,1,0,3:2:0:0:
489,206,87071,5,8,3:0:0:0:
465,224,87154,1,8,3:0:0:0:
416,221,87236,1,4,3:0:0:0:
389,178,87318,1,4,3:0:0:0:
407,121,87401,1,8,3:0:0:0:
190,39,87566,5,4,3:0:0:0:
190,39,87648,1,4,3:0:0:0:
190,39,87730,2,0,P|137:51|85:65,1,107.999996704102,6|0,3:2|0:0,0:0:0:0:
17,207,88060,53,2,1:3:0:0:
166,253,88225,1,0,3:2:0:0:
280,101,88390,5,2,1:3:0:0:
429,55,88555,1,0,3:2:0:0:
496,254,88719,6,0,P|444:237|390:235,1,107.999996704102,2|0,1:3|3:2,0:0:0:0:
398,242,88966,1,0,3:2:0:0:
398,242,89049,2,0,B|387:213|387:213|395:166|395:166|383:138,1,107.999996704102,2|0,1:3|3:2,0:0:0:0:
171,112,89379,2,0,B|183:84|183:84|175:37|175:37|186:8,1,107.999996704102,2|0,1:3|3:2,0:0:0:0:
45,218,89708,5,2,1:3:0:0:
217,286,89873,1,0,3:2:0:0:
82,353,90038,2,0,B|-9:313|-9:313|23:335|22:382,1,161.999995056153,6|0,1:2|3:2,0:0:0:0:
26,376,90368,22,0,B|157:355|90:307|217:286,1,215.999993408203,6|2,1:2|1:3,0:0:0:0:
287,345,90862,2,0,B|315:343|336:362|336:362|342:335|378:305,1,107.999996704102,0|2,3:2|1:3,0:0:0:0:
409,70,91192,2,0,B|437:72|458:53|458:53|464:80|500:110,1,107.999996704102,0|2,3:2|1:3,0:0:0:0:
495,259,91522,5,0,3:2:0:0:
472,267,91604,1,0,3:2:0:0:
444,249,91687,1,4,1:2:0:0:
343,119,91851,2,0,B|311:127|311:127|289:149|289:149|233:167,1,107.999996704102,0|2,3:2|1:3,0:0:0:0:
342,235,92181,5,0,3:2:0:0:
158,193,92346,2,0,B|126:185|126:185|104:163|104:163|48:145,1,107.999996704102,2|0,1:3|3:2,0:0:0:0:
46,312,92676,2,0,B|1:343|1:343|141:315,1,161.999995056153,2|0,1:3|0:0,0:0:0:0:
153,384,93005,6,0,P|184:356|169:285,1,107.999996704102,6|0,3:2|0:0,0:0:0:0:
250,167,93335,1,2,1:2:0:0:
106,321,93500,2,0,B|195:311|161:362|276:341,1,161.999995056153,4|0,3:2|0:0,0:0:0:0:
389,318,93829,2,0,B|420:315|420:315|400:353,1,53.9999983520508,0|0,1:2|0:0,0:0:0:0:
333,384,93994,22,0,B|340:275|415:323|421:184,1,215.999993408203,6|2,3:2|1:2,0:0:0:0:
213,11,94489,2,0,B|206:120|131:72|125:211,1,215.999993408203,4|0,3:2|1:2,0:0:0:0:
191,280,94983,5,4,3:2:0:0:
168,286,95066,1,0,3:2:0:0:
130,295,95148,5,8,3:0:0:0:
107,301,95231,1,8,3:0:0:0:
69,310,95313,5,8,3:0:0:0:
252,366,95478,1,4,3:0:0:0:
310,162,95643,2,0,P|361:149|435:130,1,107.999996704102,6|2,3:2|1:2,0:0:0:0:
512,231,95972,21,2,3:2:0:0:
393,267,96137,1,2,1:2:0:0:
351,58,96302,5,2,3:2:0:0:
171,19,96467,2,0,L|223:7,1,53.9999983520508,2|2,1:2|1:2,0:0:0:0:
310,162,96632,5,2,1:2:0:0:
160,186,96796,2,0,L|212:197,1,53.9999983520508,2|0,1:2|0:0,0:0:0:0:
400,288,96961,6,0,B|321:247|229:300|300:328|204:382|117:338,1,270,6|2,3:2|2:0,0:0:0:0:
10,232,97950,21,0,1:2:0:0:
16,206,98033,1,8,3:0:0:0:
24,169,98115,5,4,3:0:0:0:
31,142,98198,1,8,3:0:0:0:
34,115,98280,6,0,B|86:102|86:102|92:106|92:106|171:90,1,107.999996704102,6|0,1:2|3:2,0:0:0:0:
209,16,98610,1,2,3:2:0:0:
310,162,98774,2,0,B|268:284|268:284|261:237|231:206,1,215.999993408203,6|0,1:2|3:2,0:0:0:0:
382,301,99269,6,0,B|409:292|409:292|463:313|463:313|503:306,1,107.999996704102,6|0,1:2|3:2,0:0:0:0:
428,166,99599,1,2,3:2:0:0:
494,307,99763,22,0,B|383:266|408:376|267:348,1,215.999993408203,6|2,1:2|3:2,0:0:0:0:
163,297,100258,5,6,1:2:0:0:
15,335,100423,1,0,3:2:0:0:
0,189,100588,5,6,1:2:0:0:
211,224,100752,1,0,3:2:0:0:
227,218,100835,1,0,3:2:0:0:
244,212,100917,2,0,B|261:163|261:163|241:89,1,107.999996704102,6|0,1:2|3:2,0:0:0:0:
370,191,101247,1,0,3:2:0:0:
153,110,101412,6,0,B|246:87|208:38|308:25,1,161.999995056153,6|0,1:2|0:0,0:0:0:0:
314,40,101741,1,2,3:2:0:0:
85,171,101906,22,0,P|62:123|72:71,1,107.999996704102,6|0,1:2|3:2,0:0:0:0:
212,203,102236,1,0,3:2:0:0:
46,289,102401,5,4,1:2:0:0:
124,346,102566,1,0,3:2:0:0:
217,312,102730,1,2,3:2:0:0:
357,128,102895,5,8,3:0:0:0:
244,92,103060,1,8,3:0:0:0:
414,9,103225,6,0,P|452:59|432:115,1,107.999996704102,4|4,3:0|3:0,0:0:0:0:
492,169,103472,1,4,3:0:0:0:
486,187,103555,2,0,L|372:209,1,107.999996704102,6|0,1:2|3:2,0:0:0:0:
297,134,103884,1,2,3:2:0:0:
399,368,104049,22,0,B|322:357|322:357|292:314|292:314|183:298,1,215.999993408203,6|2,1:2|3:2,0:0:0:0:
107,167,104544,6,0,B|96:103|43:95|43:95|70:117|72:143,1,161.999995056153,6|0,1:2|0:0,0:0:0:0:
72,143,104873,1,2,3:2:0:0:
48,333,105038,2,0,B|113:319|113:319|117:316|117:316|216:299,1,161.999995056153,6|0,1:2|0:0,0:0:0:0:
223,308,105368,1,2,3:2:0:0:
400,304,105533,6,0,B|432:333|432:333|410:252,1,107.999996704102,6|0,1:2|3:2,0:0:0:0:
448,115,105862,2,0,B|486:92|454:40|391:88|397:141|452:174,1,161.999995056153,6|0,1:2|3:2,0:0:0:0:
512,201,106192,6,0,B|384:170|441:236|299:201,1,215.999993408203,6|2,1:2|3:2,0:0:0:0:
159,113,106687,2,0,B|98:93|98:93|133:143,1,107.999996704102,6|0,1:2|3:2,0:0:0:0:
249,73,107016,1,0,3:2:0:0:
128,245,107181,2,0,B|95:237|95:237|77:201|77:201|27:187,1,107.999996704102,6|0,1:2|3:2,0:0:0:0:
44,191,107428,1,0,3:2:0:0:
44,191,107511,1,6,3:2:0:0:
256,192,107593,12,2,108829,2:0:0:0:
63,113,111467,22,0,B|141:95|104:135|228:113,1,144,2|8,3:2|2:0,0:0:0:0:
309,143,111961,1,2,3:2:0:0:
309,143,112044,1,8,2:0:0:0:
309,143,112126,2,0,P|315:105|325:58,2,72,2|0|0,3:2|3:2|0:0,0:0:0:0:
265,233,112621,6,0,P|315:197|405:199,1,144,8|2,2:0|3:2,0:0:0:0:
418,293,113115,2,0,P|378:285|332:279,1,72,8|0,2:0|3:2,0:0:0:0:
347,280,113362,1,8,2:0:0:0:
347,280,113445,1,0,3:2:0:0:
180,354,113774,2,0,P|140:362|94:368,1,72,2|2,2:0|2:0,0:0:0:0:
116,374,114022,1,0,0:0:0:0:
116,374,114104,6,0,B|86:280|135:324|92:215,1,144,2|10,3:2|2:0,0:0:0:0:
145,158,114599,1,2,3:2:0:0:
145,158,114681,1,8,2:0:0:0:
145,158,114763,2,0,P|109:151|74:144,1,72,0|2,3:2|3:2,0:0:0:0:
195,82,115093,1,2,2:0:0:0:
234,201,115258,6,0,P|301:192|315:126,1,144,10|0,2:0|3:2,0:0:0:0:
396,73,115752,2,0,B|421:67|421:67|451:78|451:78|475:75,1,72,10|0,2:0|3:2,0:0:0:0:
465,76,116000,1,8,2:0:0:0:
465,76,116082,1,2,3:2:0:0:
394,328,116412,2,0,B|419:322|419:322|449:333|449:333|473:330,1,72,10|2,2:0|3:2,0:0:0:0:
470,339,116659,1,8,2:0:0:0:
470,339,116741,22,0,B|382:327|409:375|298:363,1,144,0|8,3:2|2:0,0:0:0:0:
199,305,117318,5,8,2:0:0:0:
187,296,117401,2,0,P|172:319|180:383,1,72,0|0,3:2|3:2,0:0:0:0:
279,277,117730,1,0,0:0:0:0:
84,294,117895,6,0,B|62:228|89:258|61:164,1,108,8|0,2:0|0:0,0:0:0:0:
58,172,118225,2,0,P|92:162|140:150,1,72,2|8,3:2|2:0,0:0:0:0:
191,192,118472,2,0,P|213:147|198:108,1,72,2|0,2:0|0:0,0:0:0:0:
200,112,118719,1,0,3:2:0:0:
247,294,118884,2,0,L|187:307,1,49.5000015106202,2|0,1:2|0:0,0:0:0:0:
184,309,119049,6,0,B|239:319|239:319|260:350|260:350|328:361,1,148.50000453186,2|0,1:2|0:0,0:0:0:0:
392,377,119379,22,0,P|424:341|419:282,1,90,6|0,3:2|0:0,0:0:0:0:
492,109,119708,2,0,P|460:145|465:204,1,90,2|0,1:2|3:2,0:0:0:0:
477,219,119956,1,0,3:2:0:0:
486,225,120038,1,2,3:2:0:0:
353,261,120203,2,0,L|251:237,1,90,0|2,3:2|2:0,0:0:0:0:
126,39,120533,6,0,B|81:54|37:58|37:58|51:94|56:153,1,180,2|0,1:2|3:2,0:0:0:0:
63,360,121027,2,0,P|33:319|45:261,1,90,0|0,1:2|3:2,0:0:0:0:
95,231,121274,1,0,3:2:0:0:
106,228,121357,2,0,P|157:240|222:253,1,116.999994644165,8|0,1:3|0:0,0:0:0:0:
353,303,121604,6,0,B|315:345|315:345|250:325,1,116.999994644165,4|0,1:3|0:0,0:0:0:0:
252,337,121851,2,0,L|311:353,1,58.4999973220826,4|0,1:3|0:0,0:0:0:0:
464,380,122016,6,0,B|425:269|498:325|449:197,1,180,6|0,3:2|1:2,0:0:0:0:
430,65,122511,1,2,3:2:0:0:
413,48,122593,1,2,1:2:0:0:
433,40,122676,1,2,3:2:0:0:
346,154,122840,2,0,B|321:151|321:151|294:127|294:127|265:122,1,90,2|0,3:2|0:0,0:0:0:0:
107,105,123170,22,0,B|83:46|135:18|135:18|102:53|126:121,1,180,2|2,1:2|3:2,0:0:0:0:
34,175,123665,2,0,L|54:269,1,90,2|2,1:2|3:2,0:0:0:0:
65,303,123912,1,0,1:2:0:0:
70,318,123994,1,2,3:2:0:0:
194,366,124159,5,0,1:2:0:0:
236,352,124241,1,0,1:2:0:0:
249,315,124324,1,2,1:2:0:0:
224,279,124406,1,0,1:2:0:0:
190,267,124489,1,2,1:2:0:0:
168,227,124571,1,0,1:2:0:0:
198,192,124654,2,0,L|258:178,1,45,4|0,3:2|0:0,0:0:0:0:
264,184,124818,1,2,2:0:0:0:
360,273,124983,5,0,1:2:0:0:
482,223,125148,5,2,3:2:0:0:
482,223,125230,1,0,1:2:0:0:
482,223,125313,1,0,3:2:0:0:
364,187,125478,1,2,3:2:0:0:
262,321,125643,1,2,1:2:0:0:
129,291,125807,22,0,B|98:184|155:230|122:110,1,180,2|0,2:0|0:0,0:0:0:0:
215,221,126302,1,0,1:2:0:0:
117,107,126467,5,2,3:2:0:0:
100,115,126549,1,2,1:2:0:0:
84,122,126632,2,0,P|34:118|15:63,1,90,2|2,3:2|3:2,0:0:0:0:
195,17,126961,1,2,1:2:0:0:
245,86,127126,2,0,L|236:137,2,45,2|0|4,2:0|0:0|3:2,0:0:0:0:
341,64,127456,6,0,B|370:60|370:60|393:29|393:29|427:23,1,99.0000030212403,2|2,2:0|1:2,0:0:0:0:
312,226,127785,5,0,3:2:0:0:
295,232,127868,1,0,1:2:0:0:
275,242,127950,2,0,B|188:224|232:197|133:184,1,148.50000453186,2|0,3:2|0:0,0:0:0:0:
132,198,128280,1,0,1:2:0:0:
29,127,128445,22,0,B|48:83|44:28|44:28|93:50|137:52,1,198.000006042481,2|2,2:0|3:2,0:0:0:0:
242,166,128939,1,6,1:2:0:0:
398,95,129104,5,0,3:2:0:0:
404,69,129187,1,0,1:2:0:0:
387,38,129269,1,8,3:0:0:0:
334,152,129434,1,4,3:0:0:0:
456,247,129599,6,0,B|494:285|456:347|456:347|448:305|384:283,1,188.999994232178,4|0,3:0|0:0,0:0:0:0:
403,290,129928,6,0,B|315:301|359:341|250:362,1,144,6|0,3:2|3:2,0:0:0:0:
159,263,130423,1,2,2:0:0:0:
106,354,130588,21,2,1:2:0:0:
23,358,130752,2,0,P|68:348|102:343,1,72,0|0,3:2|0:0,0:0:0:0:
253,222,131082,6,0,B|339:243|306:203|395:228,1,144,2|0,3:2|3:2,0:0:0:0:
476,170,131577,1,0,3:2:0:0:
418,334,131741,6,0,P|379:319|328:305,1,72,2|0,2:0|1:2,0:0:0:0:
387,192,132071,2,0,P|390:212|396:238,2,36,2|0|0,1:2|1:2|3:2,0:0:0:0:
268,365,132401,5,2,1:2:0:0:
216,360,132483,1,0,1:2:0:0:
185,318,132566,2,0,B|102:331|146:360|40:382,1,144,4|0,3:2|0:0,0:0:0:0:
248,186,133060,21,0,3:2:0:0:
312,251,133225,2,0,B|395:264|351:293|457:315,1,144,0|2,1:2|3:2,0:0:0:0:
497,233,133719,2,0,P|488:195|481:145,1,72,2|2,3:2|2:0,0:0:0:0:
502,30,134049,2,0,B|435:9|435:9|476:89,1,144,0|0,1:2|0:0,0:0:0:0:
387,140,134544,5,0,1:2:0:0:
360,133,134626,1,0,1:2:0:0:
316,122,134708,5,8,2:3:0:0:
289,115,134790,1,8,2:3:0:0:
249,103,134873,6,0,B|193:85|162:137|162:137|161:143|161:143|130:195|45:169,1,215.999993408203,4|4,2:3|3:2,0:0:0:0:
66,174,136357,22,0,B|51:154|51:154|44:214,2,49.5000015106202
300,325,137511,6,0,B|397:299|354:339|446:318,1,148.50000453186,8|0,3:0|0:0,0:0:0:0:
446,319,137840,2,0,P|457:270|466:212,1,99.0000030212403,6|2,1:2|1:2,0:0:0:0:
404,158,138170,5,2,1:2:0:0:
321,175,138335,1,2,1:2:0:0:
293,45,138500,5,2,1:2:0:0:
379,51,138665,1,2,1:2:0:0:
314,196,138829,21,2,1:2:0:0:
204,174,138994,1,2,1:2:0:0:
166,22,139159,5,2,1:2:0:0:
15,49,139324,1,2,1:2:0:0:
251,262,139489,5,2,1:2:0:0:
284,111,139654,1,2,1:2:0:0:
62,154,139818,5,2,1:2:0:0:
17,178,139901,1,0,1:2:0:0:
3,217,139983,1,2,1:2:0:0:
26,256,140066,1,0,1:2:0:0:
72,262,140148,1,2,1:2:0:0:
108,293,140230,1,8,3:0:0:0:
119,331,140313,1,4,3:0:0:0:
89,372,140395,1,4,3:0:0:0:
41,381,140478,21,4,3:2:0:0:
35,372,140807,5,8,3:0:0:0:
34,355,141137,5,8,3:0:0:0:
43,343,141467,5,8,3:0:0:0:
160,224,141796,22,0,L|331:195,1,161.999995056153,4|0,3:2|0:0,0:0:0:0:
446,204,142456,5,0,1:2:0:0:
489,216,142538,1,0,1:2:0:0:
512,261,142621,1,0,1:2:0:0:
499,301,142703,1,0,1:2:0:0:
464,325,142785,1,8,3:0:0:0:
422,327,142868,2,0,B|391:339|391:339|382:356|382:356|331:375,1,90,8|4,3:0|3:0,0:0:0:0:
245,337,143115,5,6,1:2:0:0:
283,244,143280,1,0,3:2:0:0:
210,182,143445,1,2,3:2:0:0:
375,21,143610,5,6,1:2:0:0:
391,102,143775,1,0,3:2:0:0:
406,183,143940,1,2,3:2:0:0:
171,277,144104,22,0,B|89:259|139:218|31:191,1,148.50000453186,4|0,1:2|0:0,0:0:0:0:
50,196,144434,1,0,3:2:0:0:
146,368,144599,2,0,B|199:358|247:369|247:369|242:321|269:257,1,198.000006042481,4|0,1:2|3:2,0:0:0:0:
416,36,145093,5,6,1:2:0:0:
380,152,145258,1,0,3:2:0:0:
476,352,145423,5,6,1:2:0:0:
506,243,145588,1,0,3:2:0:0:
506,243,145670,1,0,3:2:0:0:
506,243,145752,5,4,1:2:0:0:
288,168,145917,1,0,3:2:0:0:
320,384,146082,1,0,3:2:0:0:
406,198,146247,21,4,1:2:0:0:
168,248,146412,1,0,3:2:0:0:
224,2,146577,1,0,3:2:0:0:
300,192,146741,6,0,B|289:248|289:248|264:262|264:262|251:334,1,148.50000453186,6|0,1:2|0:0,0:0:0:0:
310,381,147071,5,2,1:2:0:0:
337,352,147154,1,0,1:2:0:0:
337,304,147236,1,0,1:2:0:0:
304,281,147318,1,0,1:2:0:0:
261,272,147401,1,8,3:0:0:0:
213,260,147483,1,8,3:0:0:0:
181,218,147566,1,4,3:0:0:0:
195,163,147648,1,4,3:0:0:0:
240,137,147730,22,0,B|276:127|276:127|279:121|279:121|314:111,1,80.9999975280763,2|0,1:3|0:0,0:0:0:0:
408,232,147895,2,0,B|444:242|444:242|447:248|447:248|482:257,1,80.9999975280763,2|0,1:3|0:0,0:0:0:0:
483,148,148060,1,0,0:0:0:0:
480,160,148225,1,0,0:0:0:0:
490,155,148390,6,0,B|366:136|418:224|291:212,1,215.999993408203,6|2,3:2|1:3,0:0:0:0:
108,124,148884,1,0,3:2:0:0:
108,124,148967,1,0,1:2:0:0:
108,124,149049,2,0,B|139:114|163:97|163:97|147:127|130:173,1,107.999996704102,2|0,3:0|3:2,0:0:0:0:
52,335,149379,6,0,B|103:331|154:309|154:309|172:350|214:376,1,188.999994232178,6|0,1:2|0:0,0:0:0:0:
207,371,149708,1,2,3:0:0:0:
284,337,149873,1,0,3:2:0:0:
457,286,150038,6,0,B|507:304|507:304|400:328,1,161.999995056153,2|0,1:3|1:2,0:0:0:0:
400,328,150368,2,0,B|409:284|409:284|406:275|406:275|415:211,1,107.999996704102,2|0,3:0|3:2,0:0:0:0:
405,73,150698,2,0,B|433:1|526:1|526:39|492:53|448:34,1,161.999995056153,2|0,1:3|1:2,0:0:0:0:
471,40,151027,6,0,B|445:33|445:33|399:50|399:50|367:42,1,107.999996704102,6|0,3:2|3:2,0:0:0:0:
104,104,151357,2,0,L|50:94,1,53.9999983520508,2|0,1:2|0:0,0:0:0:0:
50,94,151522,2,0,B|145:69|145:69|224:127|141:211,1,215.999993408203,6|0,3:2|1:2,0:0:0:0:
172,170,151934,1,0,1:2:0:0:
172,170,152016,1,8,3:0:0:0:
70,345,152181,21,4,3:0:0:0:
45,306,152263,1,4,3:0:0:0:
84,274,152346,2,0,B|135:264|168:295|144:310|181:342|237:329,1,161.999995056153,2|0,1:2|0:0,0:0:0:0:
296,368,152593,6,0,B|329:332|379:338|379:338|345:312|304:325,1,161.999995056153,2|0,1:2|0:0,0:0:0:0:
225,330,152840,2,0,L|257:116,1,216,6|0,1:2|0:0,0:0:0:0:
197,61,153170,2,0,L|134:70,2,62.9999980773926,2|2|6,1:2|1:2|1:2,0:0:0:0:
352,13,153500,5,0,1:2:0:0:
352,13,153582,1,0,1:2:0:0:
352,13,153665,2,0,B|417:37|478:46|478:46|425:60|392:83,1,215.999993408203,6|2,3:2|1:3,0:0:0:0:
441,244,154241,1,0,1:2:0:0:
451,241,154324,2,0,P|477:201|462:132,1,107.999996704102,2|0,3:0|3:2,0:0:0:0:
500,329,154654,37,2,1:3:0:0:
391,180,154818,2,0,B|339:155|295:191|295:191|292:204|292:204|248:249|176:217,1,215.999993408203,2|0,3:2|3:2,0:0:0:0:
24,163,155313,2,0,P|10:112|36:66,1,107.999996704102,2|0,1:3|3:2,0:0:0:0:
112,32,155560,1,0,1:2:0:0:
127,47,155643,2,0,L|241:26,1,107.999996704102,2|0,3:0|3:2,0:0:0:0:
339,144,155972,6,0,B|374:179|374:179|225:155,1,161.999995056153,2|0,1:3|0:0,0:0:0:0:
152,152,156302,6,0,B|202:137|250:122|250:122|235:168|225:236,1,215.999993408203,2|2,3:0|1:3,0:0:0:0:
108,360,156796,1,0,3:2:0:0:
77,368,156879,1,0,1:2:0:0:
54,349,156961,2,0,B|37:298|37:298|101:262,1,107.999996704102,2|0,3:0|3:2,0:0:0:0:
233,360,157291,6,0,B|315:342|315:342|323:346|323:346|430:323,1,161.999995056153,2|0,1:3|0:0,0:0:0:0:
473,307,157621,6,0,B|458:343|458:343|371:328,1,107.999996704102,2|0,3:0|3:2,0:0:0:0:
328,182,157950,2,0,B|313:146|313:146|226:161,1,107.999996704102,2|0,1:3|3:2,0:0:0:0:
172,170,158198,1,0,3:2:0:0:
159,173,158280,1,2,3:0:0:0:
40,41,158445,5,0,1:2:0:0:
55,33,158527,1,0,1:2:0:0:
67,28,158610,2,0,P|94:29|118:41,1,53.9999983520508,0|0,1:2|1:2,0:0:0:0:
195,9,158774,2,0,P|207:32|208:59,1,53.9999983520508,0|0,1:2|1:2,0:0:0:0:
165,262,158939,6,0,B|116:251|116:251|112:243|112:243|49:230,1,107.999996704102,4|0,3:2|0:0,0:0:0:0:
294,166,159269,6,0,B|363:113|448:143|419:180|386:160,1,161.999995056153,2|0,1:3|1:2,0:0:0:0:
389,161,159599,6,0,B|379:110|379:110|380:102|380:102|371:54,1,107.999996704102,2|0,3:0|3:2,0:0:0:0:
495,117,159928,1,2,1:3:0:0:
375,244,160093,2,0,B|254:211|284:289|148:258,1,215.999993408203,2|0,3:2|3:2,0:0:0:0:
10,166,160588,6,0,B|-15:138|11:89|11:89|49:141,1,121.499996292114,2|0,1:3|3:2,0:0:0:0:
34,120,160917,2,0,B|85:108|85:108|89:111|89:111|154:95,1,107.999996704102,2|0,1:3|1:2,0:0:0:0:
206,144,161165,1,0,1:2:0:0:
216,138,161247,2,0,P|225:113|222:86,1,53.9999983520508,0|8,1:2|3:0,0:0:0:0:
326,21,161412,5,8,3:0:0:0:
355,48,161494,1,4,3:0:0:0:
392,37,161577,2,0,P|417:57|420:90,1,67.5000025749208,4|0,1:2|3:2,0:0:0:0:
377,261,161741,5,2,3:2:0:0:
396,303,161824,1,0,3:2:0:0:
426,327,161906,1,2,3:2:0:0:
473,311,161989,1,0,3:2:0:0:
494,282,162071,2,0,P|496:244|468:202,1,67.5000025749208,4|0,1:2|3:2,0:0:0:0:
292,197,162236,5,0,3:2:0:0:
244,186,162318,1,0,3:2:0:0:
198,200,162401,1,0,3:2:0:0:
151,219,162483,1,0,3:2:0:0:
99,213,162566,2,0,P|91:178|81:133,1,67.5000025749208,6|0,1:2|3:2,0:0:0:0:
152,6,162730,5,2,3:2:0:0:
172,12,162813,1,0,3:2:0:0:
183,26,162895,2,0,P|176:66|169:110,1,67.5000025749208,0|0,3:2|3:2,0:0:0:0:
292,197,163060,5,4,1:2:0:0:
336,220,163143,1,0,3:2:0:0:
381,218,163225,1,0,3:2:0:0:
416,192,163307,1,0,3:2:0:0:
469,183,163390,1,0,3:2:0:0:
509,218,163472,1,0,3:2:0:0:
497,263,163555,2,0,P|460:272|417:287,1,67.5000025749208,2|0,1:2|1:2,0:0:0:0:
340,376,163719,5,2,1:2:0:0:
334,370,163802,1,0,1:2:0:0:
327,367,163884,2,0,P|328:339|337:270,1,67.5000025749208,8|8,3:0|3:0,0:0:0:0:
245,192,164049,2,0,P|241:225|240:259,1,67.5000025749208,4|4,3:0|3:0,0:0:0:0:
320,288,164214,6,0,B|213:267|262:326|164:305,1,161.999995056153,6|0,3:2|0:0,0:0:0:0:
134,319,164544,1,2,1:3:0:0:
112,198,164708,1,0,3:2:0:0:
233,7,164873,5,2,1:3:0:0:
255,128,165037,1,0,3:2:0:0:
32,285,165203,5,2,1:3:0:0:
10,164,165367,1,0,3:2:0:0:
314,210,165533,22,0,B|408:226|379:168|468:182,1,161.999995056153,2|0,1:3|0:0,0:0:0:0:
486,195,165862,5,2,1:3:0:0:
508,94,166027,1,0,3:2:0:0:
326,60,166192,5,2,1:3:0:0:
365,301,166357,1,0,3:2:0:0:
124,340,166522,5,2,1:3:0:0:
83,241,166687,2,0,L|29:250,1,53.9999983520508,0|0,3:2|3:2,0:0:0:0:
21,264,166851,22,0,B|99:249|99:249|134:293|134:293|224:313,1,215.999993408203,6|2,1:2|1:3,0:0:0:0:
369,347,167346,1,0,3:2:0:0:
483,218,167511,5,2,1:3:0:0:
307,268,167676,1,0,3:2:0:0:
242,82,167840,1,2,1:3:0:0:
434,51,168005,5,0,3:2:0:0:
453,67,168087,1,0,3:2:0:0:
445,88,168169,1,4,1:2:0:0:
216,197,168335,2,0,B|171:190|171:190|165:180|165:180|107:170,1,107.999996704102,0|2,3:2|1:3,0:0:0:0:
288,320,168665,2,0,B|198:334|198:334|186:354|186:354|70:374,1,215.999993408203,0|0,3:2|1:2,0:0:0:0:
85,371,169077,1,0,1:2:0:0:
85,371,169159,1,8,3:0:0:0:
0,155,169324,5,4,3:0:0:0:
55,142,169406,1,4,3:0:0:0:
102,181,169489,2,0,P|180:183|238:129,1,161.999995056153,6|0,3:2|0:0,0:0:0:0:
282,45,169818,22,0,B|269:23|269:23|263:52,1,53.9999983520508,2|0,1:2|0:0,0:0:0:0:
169,82,169983,2,0,P|286:116|353:137,1,161.999995056153,4|0,3:2|0:0,0:0:0:0:
457,256,170313,6,0,B|444:277|444:277|438:248,1,53.9999983520508,0|0,1:2|0:0,0:0:0:0:
501,176,170478,2,0,P|384:210|317:231,1,161.999995056153,6|0,3:2|0:0,0:0:0:0:
256,351,170807,6,0,B|269:372|269:372|275:343,1,53.9999983520508,2|0,1:2|0:0,0:0:0:0:
366,305,170972,2,0,P|288:307|230:253,1,161.999995056153,4|0,3:2|0:0,0:0:0:0:
59,234,171302,2,0,B|30:240|30:240|51:253,1,53.9999983520508,0|0,1:2|0:0,0:0:0:0:
116,355,171467,5,4,3:2:0:0:
165,341,171549,1,0,3:2:0:0:
193,301,171632,1,0,1:2:0:0:
180,245,171714,1,0,1:2:0:0:
132,216,171796,1,8,3:0:0:0:
86,197,171879,1,8,3:0:0:0:
65,143,171961,1,4,3:0:0:0:
90,102,172044,1,4,3:0:0:0:
129,85,172126,21,6,3:2:0:0:
193,301,172291,1,2,1:2:0:0:
264,44,172456,5,2,3:2:0:0:
290,300,172621,1,2,1:2:0:0:
445,76,172785,5,2,3:2:0:0:
372,351,172950,1,2,1:2:0:0:
184,104,173115,5,2,1:2:0:0:
512,200,173280,1,2,1:2:0:0:
512,200,173362,1,0,3:2:0:0:
512,200,173445,2,0,B|394:176|425:277|285:251,1,242.999992584229,6|2,3:2|2:0,0:0:0:0:
121,182,174104,21,0,1:2:0:0:
86,173,174187,1,0,1:2:0:0:
46,190,174269,1,0,1:2:0:0:
32,229,174351,1,0,1:2:0:0:
43,250,174434,1,8,3:0:0:0:
19,371,174599,5,4,3:0:0:0:
31,373,174681,1,4,3:0:0:0:
42,378,174763,1,6,1:2:0:0:
112,304,174928,1,0,3:2:0:0:
215,334,175093,1,0,3:2:0:0:
313,121,175258,5,6,1:2:0:0:
243,24,175423,1,0,3:2:0:0:
137,81,175588,1,0,3:2:0:0:
334,238,175752,5,6,1:2:0:0:
504,202,175917,1,0,3:2:0:0:
405,166,176082,1,0,3:2:0:0:
245,342,176247,21,6,1:2:0:0:
67,288,176412,1,0,3:2:0:0:
136,369,176577,1,0,3:2:0:0:
139,115,176741,5,6,1:2:0:0:
125,122,176824,2,0,P|92:124|74:56,1,107.999996704102,2|0,0:0|0:0,0:0:0:0:
137,4,177071,2,0,L|266:37,1,107.999996704102,6|0,1:2|3:2,0:0:0:0:
319,57,177318,1,0,3:2:0:0:
333,64,177401,1,6,1:2:0:0:
484,38,177566,1,0,3:2:0:0:
300,170,177730,1,2,3:2:0:0:
506,264,177895,5,6,1:2:0:0:
402,133,178060,1,0,3:2:0:0:
373,356,178225,1,2,3:2:0:0:
200,204,178390,5,6,1:2:0:0:
69,159,178555,1,0,3:2:0:0:
14,287,178719,1,2,3:2:0:0:
261,359,178884,21,6,1:2:0:0:
326,143,179049,1,0,3:2:0:0:
491,282,179214,1,2,3:2:0:0:
237,177,179379,6,0,B|225:146|225:146|241:93|241:93|230:66,1,116.999994644165,6|0,1:2|3:2,0:0:0:0:
440,215,179708,2,0,B|452:184|452:184|436:131|436:131|446:104,1,116.999994644165,6|0,1:2|3:2,0:0:0:0:
499,18,179956,1,0,3:2:0:0:
488,29,180038,2,0,P|460:29|426:-1,1,58.4999973220826,2|0,3:0|3:2,0:0:0:0:
331,106,180203,5,0,3:2:0:0:
312,70,180285,1,0,3:2:0:0:
266,55,180368,1,0,1:2:0:0:
230,66,180450,1,0,3:2:0:0:
230,66,180533,2,0,L|222:110,1,45,6|0,3:2|3:2,0:0:0:0:
53,179,180698,5,2,1:2:0:0:
41,172,180780,2,0,L|34:123,1,45,0|0,1:2|1:2,0:0:0:0:
210,211,180945,21,2,1:2:0:0:
198,218,181027,2,0,L|191:267,1,45,4|0,3:2|3:2,0:0:0:0:
79,343,181192,2,0,L|72:294,1,45,2|0,3:2|3:2,0:0:0:0:
258,355,181357,5,2,3:2:0:0:
294,367,181439,1,0,3:2:0:0:
344,358,181522,1,4,3:2:0:0:
376,321,181604,2,0,L|369:253,1,58.4999973220826,2|0,3:2|3:2,0:0:0:0:
350,134,181769,5,0,3:2:0:0:
363,143,181851,2,0,P|388:137|421:122,1,58.4999973220826,2|0,3:2|3:2,0:0:0:0:
512,172,182016,5,6,1:2:0:0:
473,191,182099,1,0,1:2:0:0:
434,193,182181,1,0,1:2:0:0:
408,177,182263,1,2,1:2:0:0:
389,142,182346,1,8,3:0:0:0:
341,126,182428,1,8,3:0:0:0:
288,151,182511,1,4,3:0:0:0:
268,184,182593,1,4,3:0:0:0:
268,184,182676,22,0,P|211:170|153:159,1,116.999994644165,4|8,1:2|3:0,0:0:0:0:
108,68,183005,1,8,3:0:0:0:
197,254,183170,5,4,1:2:0:0:
41,338,183335,1,8,3:0:0:0:
74,192,183500,1,8,3:0:0:0:
297,352,183665,5,4,1:2:0:0:
404,318,183829,1,8,3:0:0:0:
512,282,183994,1,8,3:0:0:0:
197,254,184159,6,0,B|125:157|8:180|27:249|99:253|125:189,1,233.999989288331,4|2,1:2|1:2,0:0:0:0:
128,176,184571,1,0,1:2:0:0:
130,140,184654,1,8,3:0:0:0:
239,44,184818,21,4,3:0:0:0:
282,29,184901,1,4,3:0:0:0:
315,64,184983,1,2,1:2:0:0:
363,64,185066,1,0,1:2:0:0:
383,35,185148,1,0,1:2:0:0:
413,41,185230,1,0,1:2:0:0:
430,35,185313,6,0,P|443:83|453:125,1,80.9999975280763,4|0,3:2|0:0,0:0:0:0:
492,294,185643,2,0,B|408:277|429:308|348:297,1,121.499996292114,2|0,1:3|1:2,0:0:0:0:
371,299,185972,2,0,P|417:309|448:328,1,80.9999975280763,2|0,3:0|3:2,0:0:0:0:
268,209,186302,2,0,B|178:221|215:254|93:278,1,161.999995056153,2|2,1:3|3:0,0:0:0:0:
268,209,186796,1,0,3:2:0:0:
50,211,186961,6,0,P|29:149|46:117,1,80.9999975280763,2|0,1:3|3:2,0:0:0:0:
65,87,187208,1,0,1:2:0:0:
79,81,187291,1,2,3:0:0:0:
298,44,187456,5,2,3:2:0:0:
198,19,187621,1,2,1:3:0:0:
228,106,187785,1,2,3:2:0:0:
332,244,187950,21,2,3:0:0:0:
421,224,188115,1,2,2:0:0:0:
506,206,188280,1,2,1:3:0:0:
359,153,188445,5,2,3:2:0:0:
348,161,188527,1,0,1:2:0:0:
363,167,188610,1,2,3:0:0:0:
387,302,188774,1,2,3:2:0:0:
268,384,188939,1,2,1:3:0:0:
117,325,189104,5,2,3:2:0:0:
108,321,189187,1,0,1:2:0:0:
110,331,189269,1,2,3:0:0:0:
230,290,189434,2,0,P|249:285|286:276,2,40.4999987640381,2|0|2,3:2|0:0|1:3,0:0:0:0:
27,159,189763,6,0,B|125:183|68:225|167:251,1,161.999995056153,2|8,3:2|3:0,0:0:0:0:
350,99,190258,21,0,1:2:0:0:
325,62,190340,1,0,1:2:0:0:
276,46,190423,1,0,1:2:0:0:
238,62,190505,1,0,1:2:0:0:
238,62,190588,6,0,P|203:73|166:78,1,40.4999987640381,4|0,3:2|0:0,0:0:0:0:
169,146,190752,2,0,P|134:135|97:130,1,40.4999987640381
266,150,190917,6,0,P|301:161|338:166,1,40.4999987640381,2|0,1:3|0:0,0:0:0:0:
335,234,191081,2,0,P|370:223|407:218,1,40.4999987640381,2|0,3:2|0:0,0:0:0:0:
190,250,191247,6,0,P|155:261|118:266,1,40.4999987640381,2|0,1:3|0:0,0:0:0:0:
121,334,191411,2,0,P|86:323|49:318,1,40.4999987640381,2|0,3:2|0:0,0:0:0:0:
272,300,191577,22,0,P|307:311|344:316,1,40.4999987640381,2|0,1:3|0:0,0:0:0:0:
341,384,191741,2,0,P|376:373|413:368,1,40.4999987640381,2|0,3:2|0:0,0:0:0:0:
498,222,191906,6,0,P|502:189|511:159,1,40.4999987640381,2|0,1:3|0:0,0:0:0:0:
422,176,192071,2,0,P|426:143|435:113,1,40.4999987640381,2|0,3:2|0:0,0:0:0:0:
348,254,192236,6,0,P|352:287|361:317,1,40.4999987640381,2|0,1:3|0:0,0:0:0:0:
272,300,192401,2,0,P|276:333|285:363,1,40.4999987640381,2|0,3:2|0:0,0:0:0:0:
228,173,192566,6,0,P|232:140|241:110,1,40.4999987640381,2|0,1:3|0:0,0:0:0:0:
152,127,192731,2,0,P|156:94|165:64,1,40.4999987640381,2|0,3:2|0:0,0:0:0:0:
101,286,192895,22,0,P|105:319|114:349,1,40.4999987640381,2|0,1:3|0:0,0:0:0:0:
25,332,193060,2,0,P|29:365|38:395,1,40.4999987640381,2|0,3:2|0:0,0:0:0:0:
7,180,193225,6,0,B|88:194|30:222|138:248,1,121.499996292114,4|0,1:2|0:0,0:0:0:0:
109,239,193555,2,0,P|155:221|192:209,1,80.9999975280763,2|0,1:3|3:2,0:0:0:0:
317,87,193884,5,2,1:3:0:0:
502,196,194049,1,2,3:2:0:0:
496,204,194132,1,0,0:0:0:0:
488,211,194214,2,0,B|414:191|453:219|347:192,1,121.499996292114,2|0,1:3|3:2,0:0:0:0:
368,197,194544,1,4,1:2:0:0:
236,45,194708,1,2,3:2:0:0:
232,27,194791,1,0,3:2:0:0:
242,7,194873,1,4,1:2:0:0:
317,87,195038,1,0,0:0:0:0:
180,238,195203,6,0,P|132:223|84:220,1,80.9999975280763,0|4,1:2|3:0,0:0:0:0:
91,226,195450,1,4,3:0:0:0:
85,214,195533,1,2,1:2:0:0:
87,198,195615,1,2,1:2:0:0:
119,173,195698,1,2,1:2:0:0:
127,137,195780,1,2,1:2:0:0:
93,93,195862,21,8,3:0:0:0:
95,138,195945,1,0,1:2:0:0:
131,180,196027,1,0,1:2:0:0:
190,170,196110,1,0,1:2:0:0:
227,131,196192,6,0,L|233:92,1,24.7500007553101,0|0,1:2|1:2,0:0:0:0:
365,13,196357,5,8,3:0:0:0:
392,60,196439,1,0,1:2:0:0:
365,90,196522,1,0,1:2:0:0:
387,135,196604,1,0,1:2:0:0:
387,135,196687,2,0,L|378:195,1,33.7500012874604,0|0,1:2|1:2,0:0:0:0:
460,297,196851,5,8,3:0:0:0:
477,265,196934,1,0,1:2:0:0:
458,239,197016,2,0,P|428:250|382:268,1,42.7499988584519,0|0,1:2|1:2,0:0:0:0:
308,368,197181,21,0,1:2:0:0:
262,376,197263,1,0,1:2:0:0:
225,339,197346,1,4,1:2:0:0:
224,288,197428,1,0,1:2:0:0:
266,260,197511,1,8,3:0:0:0:
312,214,197593,1,8,3:0:0:0:
300,166,197676,1,8,3:0:0:0:
260,134,197758,1,8,3:0:0:0:
211,146,197840,5,4,3:0:0:0:
195,199,197923,1,4,3:0:0:0:
227,239,198005,1,4,3:0:0:0:
268,243,198088,1,4,3:0:0:0:
295,283,198170,1,8,3:0:0:0:
301,322,198252,1,8,3:0:0:0:
267,351,198335,2,0,B|242:344|242:344|241:341|241:341|179:320,1,72,4|4,3:0|3:0,0:0:0:0:
65,277,198500,6,0,B|18:252|-44:281|-67:377|68:441|121:325|68:241|68:241|-33:127|70:-44|324:58|272:229|161:266|70:172|151:94,1,863.999973632813,6|4,3:2|3:2,2:1:0:0:
480,70,211522,5,2,2:0:0:0:
480,70,211604,1,0,0:0:0:0:
480,70,211687,2,0,B|412:77|446:116|332:136,1,135,4|2,3:2|2:0,0:0:0:0:
361,129,212016,2,0,P|371:80|374:44,1,72,0|2,3:2|2:0,0:0:0:0:
460,194,212346,2,0,P|450:243|447:279,1,72,2|0,3:2|0:0,0:0:0:0:
457,306,212593,1,2,2:0:0:0:
462,318,212676,1,0,3:2:0:0:
277,239,212840,22,0,L|317:248,1,36,2|0,1:2|0:0,0:0:0:0:
326,251,213005,2,0,P|251:268|175:293,1,144,2|0,3:2|3:2,0:0:0:0:
114,187,213500,1,2,2:0:0:0:
18,297,213665,6,0,P|50:335|96:326,1,72,2|0,3:2|1:2,0:0:0:0:
132,309,213912,1,2,2:0:0:0:
137,299,213994,1,0,3:2:0:0:
42,202,214159,1,2,1:2:0:0:
109,88,214324,6,0,P|186:107|279:109,1,144,6|2,3:2|3:2,0:0:0:0:
365,363,214818,2,0,P|288:344|195:342,1,144,2|0,2:0|0:0,0:0:0:0:
317,189,215313,2,0,B|326:236|301:220|317:286,1,72,2|2,3:2|1:2,0:0:0:0:
443,172,215643,5,2,3:2:0:0:
484,304,215807,2,0,B|475:257|500:273|484:207,1,72,0|2,1:2|3:2,0:0:0:0:
426,84,216137,2,0,L|381:95,1,36
299,115,216302,21,2,3:2:0:0:
251,123,216412,1,0,1:2:0:0:
211,96,216522,1,0,1:2:0:0:
191,57,216632,1,8,3:0:0:0:
150,36,216741,1,0,3:2:0:0:
102,47,216851,1,0,3:2:0:0:
75,88,216961,6,0,P|63:163|37:253,1,144,4|2,3:2|3:0,0:0:0:0:
45,228,217456,1,0,0:0:0:0:
0,325,217621,2,0,P|57:284|143:290,1,144,2|2,1:3|3:0,0:0:0:0:
200,358,218115,2,0,P|237:348|276:342,1,72,2|2,1:2|3:0,0:0:0:0:
397,250,218445,2,0,P|434:240|473:234,1,72,2|2,1:2|2:3,0:0:0:0:
467,234,218774,1,2,3:2:0:0:
363,328,218939,6,0,B|336:319|297:310|297:310|307:278|311:244,1,135,2|0,1:3|1:2,0:0:0:0:
311,244,219269,1,2,1:3:0:0:
169,84,219434,5,2,3:2:0:0:
141,109,219516,1,0,3:2:0:0:
106,105,219599,2,0,B|31:119|31:119|146:169,1,202.500007724762,4|0,1:2|1:2,0:0:0:0:
213,232,219928,2,0,B|186:238|186:238|181:247|181:247|115:263,1,67.5000025749208,2|0,1:2|1:2,0:0:0:0:
152,253,220093,2,0,B|223:228|259:298|232:291|271:359|335:337,1,202.500007724762,4|0,3:2|1:2,0:0:0:0:
411,303,220423,21,0,1:2:0:0:
433,339,220505,1,0,1:2:0:0:
410,374,220588,2,0,B|387:325|440:272|458:305|506:268|477:192,1,202.500007724762,4|0,3:2|1:2,0:0:0:0:
442,141,220917,6,0,B|404:126|404:126|437:182,1,67.5000025749208,2|0,1:2|1:2,0:0:0:0:
509,319,221082,6,0,B|444:336|414:284|414:284|378:228|309:267,1,202.500007724762,4|0,3:2|1:2,0:0:0:0:
257,285,221412,5,0,1:2:0:0:
214,291,221494,1,0,1:2:0:0:
181,269,221577,21,8,3:0:0:0:
216,254,221659,1,8,0:3:0:0:
257,253,221741,1,2,1:2:0:0:
294,272,221824,1,0,1:2:0:0:
336,271,221906,1,8,3:0:0:0:
373,237,221989,1,8,3:0:0:0:
375,189,222071,1,4,3:0:0:0:
366,165,222154,1,0,3:0:0:0:
354,154,222236,6,0,B|298:168|272:122|272:122|240:55|168:78,1,215.999993408203,4|2,1:2|1:3,0:0:0:0:
89,138,222730,1,2,3:2:0:0:
206,186,222895,5,2,1:3:0:0:
73,256,223060,1,2,3:2:0:0:
215,170,223225,5,2,1:3:0:0:
177,348,223390,2,0,L|166:285,1,53.9999983520508,2|0,3:2|3:2,0:0:0:0:
315,85,223555,21,2,1:3:0:0:
435,126,223719,1,2,3:2:0:0:
193,215,223884,5,2,1:3:0:0:
73,256,224048,1,2,3:2:0:0:
308,328,224214,5,2,1:3:0:0:
428,369,224378,1,2,3:2:0:0:
278,165,224544,5,2,1:3:0:0:
156,344,224708,1,2,3:2:0:0:
156,344,224791,1,2,3:2:0:0:
156,344,224873,2,0,B|101:331|48:322|48:322|57:266|69:203,1,215.999993408203,4|2,1:2|1:3,0:0:0:0:
35,141,225368,1,2,1:2:0:0:
183,197,225533,21,2,1:3:0:0:
162,75,225698,1,2,1:2:0:0:
296,206,225862,5,2,1:3:0:0:
317,59,226027,1,2,1:2:0:0:
421,240,226192,5,2,1:3:0:0:
464,85,226357,1,2,1:2:0:0:
306,227,226522,5,2,1:3:0:0:
297,49,226687,1,2,1:2:0:0:
176,293,226851,21,2,1:3:0:0:
123,67,227016,1,2,1:2:0:0:
374,329,227181,5,2,1:3:0:0:
427,14,227346,1,0,1:2:0:0:
127,52,232126,5,0,1:2:0:0:
175,55,232208,1,0,1:2:0:0:
200,92,232291,1,0,1:2:0:0:
173,141,232373,1,0,1:2:0:0:
130,150,232456,1,8,3:0:0:0:
100,182,232538,1,8,3:0:0:0:
113,229,232621,1,4,3:0:0:0:
152,244,232703,1,4,3:0:0:0:
175,235,232785,6,0,P|198:239|219:245,1,45,4|0,1:2|3:2,0:0:0:0:
406,318,232950,21,0,1:2:0:0:
381,360,233033,1,0,1:2:0:0:
333,371,233115,1,0,1:2:0:0:
298,358,233198,1,0,1:2:0:0:
296,348,233280,2,0,B|303:314|303:314|301:308|301:308|312:263,1,53.9999983520508,4|0,3:2|3:2,0:0:0:0:
411,176,233445,5,0,1:2:0:0:
428,134,233527,1,0,1:2:0:0:
406,88,233610,1,0,1:2:0:0:
354,95,233692,1,0,1:2:0:0:
324,128,233774,2,0,P|305:121|266:110,1,45,4|0,3:2|3:2,0:0:0:0:
146,215,233939,5,0,1:2:0:0:
135,225,234022,1,0,1:2:0:0:
114,220,234104,5,0,1:2:0:0:
144,198,234187,1,0,1:2:0:0:
185,194,234269,1,4,3:2:0:0:
224,219,234351,1,0,3:2:0:0:
235,262,234434,21,0,1:2:0:0:
226,317,234516,1,0,1:2:0:0:
261,355,234599,1,0,1:2:0:0:
306,366,234681,1,0,1:2:0:0:
343,349,234763,6,0,P|346:324|358:283,1,53.9999983520508,4|0,3:2|3:2,0:0:0:0:
431,277,234928,2,0,P|434:252|446:211,1,53.9999983520508,0|0,1:2|1:2,0:0:0:0:
321,175,235093,6,0,P|318:150|306:109,1,53.9999983520508,8|8,3:0|3:0,0:0:0:0:
235,113,235258,2,0,P|232:88|220:47,1,53.9999983520508,4|4,3:0|3:0,0:0:0:0:
349,15,235423,6,0,B|412:27|412:27|430:62|430:62|488:74,1,161.999995056153,4|8,1:2|3:0,0:0:0:0:
487,74,235752,2,0,B|503:55|503:55|427:74,1,53.9999983520508,4|4,3:0|3:0,0:0:0:0:
244,207,235917,22,0,B|191:191|191:191|182:182|182:182|121:168,1,107.999996704102,4|0,3:2|1:2,0:0:0:0:
54,205,236165,5,0,1:2:0:0:
24,181,236247,1,0,1:2:0:0:
18,140,236329,1,0,1:2:0:0:
28,118,236412,2,0,P|59:110|103:91,1,67.5000025749208,4|0,3:2|3:2,0:0:0:0:
292,71,236577,5,8,3:0:0:0:
295,36,236659,1,8,3:0:0:0:
268,12,236741,1,8,3:0:0:0:
227,11,236824,1,8,3:0:0:0:
203,44,236906,2,0,P|213:87|225:134,1,67.5000025749208,4|4,3:0|3:0,0:0:0:0:
119,220,237071,2,0,P|76:210|29:198,3,67.5000025749208,4|4|8|4,3:0|3:0|3:0|3:0,0:0:0:0:
181,335,237401,5,4,3:2:0:0:
213,345,237483,1,0,3:2:0:0:
259,337,237566,1,0,1:2:0:0:
281,309,237648,1,0,1:2:0:0:
298,265,237730,1,4,3:2:0:0:
332,242,237813,1,0,1:2:0:0:
381,239,237895,1,0,1:2:0:0:
415,266,237978,1,0,1:2:0:0:
423,285,238060,22,0,P|402:299|356:297,1,49.5000015106202,4|0,3:2|3:2,0:0:0:0:
201,155,238225,5,0,1:2:0:0:
201,155,238307,1,0,1:2:0:0:
201,155,238390,2,0,P|169:163|130:175,1,49.5000015106202,0|0,1:2|1:2,0:0:0:0:
99,242,238555,2,0,P|67:250|28:262,1,49.5000015106202,4|0,1:2|1:2,0:0:0:0:
239,278,238719,5,8,3:0:0:0:
239,278,238801,1,4,3:0:0:0:
239,278,238884,2,0,P|271:286|310:298,1,49.5000015106202,4|0,3:0|1:2,0:0:0:0:
341,365,239049,2,0,P|373:373|412:385,1,49.5000015106202,0|8,1:2|3:0,0:0:0:0:
489,244,239214,5,4,3:0:0:0:
489,244,239296,1,4,3:0:0:0:
489,244,239379,2,0,B|448:251|448:251|430:280|430:280|319:299,1,135.000005149842,2|0,1:2|0:0,0:0:0:0:
275,314,239626,2,0,B|251:274|212:269|212:269|263:258|289:294,1,161.999995056153,2|0,1:2|0:0,0:0:0:0:
195,378,239873,22,0,B|148:336|176:268|176:268|179:262|179:262|224:214|173:122,1,242.999992584229,6|0,1:2|0:0,0:0:0:0:
98,198,240203,2,0,B|70:217|70:217|125:206,1,80.9999975280763,2|2,1:2|1:2,0:0:0:0:
337,138,240368,6,0,B|447:199|515:128|455:66|393:118|420:190,1,242.999992584229,6|0,1:2|1:2,0:0:0:0:
417,179,240698,6,0,B|435:242|435:242|389:198,1,125.999996154785,6|0,3:2|0:0,0:0:0:0:
226,71,241027,2,0,B|179:80|179:80|177:85|177:85|82:108,1,125.999996154785,2|2,1:3|1:2,0:0:0:0:
62,112,241274,1,0,1:2:0:0:
43,116,241357,1,2,3:0:0:0:
79,217,241522,2,0,B|110:231|121:254|121:254|96:157,1,125.999996154785,0|2,3:2|1:3,0:0:0:0:
292,12,241851,6,0,B|324:63|324:63|297:119|297:119|286:125|286:125|253:188|253:188|293:243,1,251.999992309571,2|0,3:2|3:2,0:0:0:0:
421,347,242346,2,0,B|441:319|479:312|479:312|445:313|417:292,1,125.999996154785,2|0,1:3|3:2,0:0:0:0:
354,253,242593,1,0,1:2:0:0:
345,246,242676,1,2,3:0:0:0:
281,362,242840,1,0,3:2:0:0:
149,339,243005,2,0,B|125:258|166:304|128:169,1,135,2|0,1:3|0:0,0:0:0:0:
137,205,243335,22,0,P|92:196|28:182,1,90,2|0,3:0|0:0,0:0:0:0:
240,161,243665,1,2,1:3:0:0:
295,346,243829,5,0,3:2:0:0:
281,362,243912,1,0,1:2:0:0:
275,341,243994,1,2,3:0:0:0:
341,233,244159,1,0,3:2:0:0:
473,273,244324,2,0,B|519:238|528:190|528:190|491:139,1,135,2|0,1:3|0:0,0:0:0:0:
508,163,244654,6,0,P|455:176|384:187,1,90,2|0,3:0|3:2,0:0:0:0:
352,103,244983,1,2,1:3:0:0:
300,294,245148,5,0,3:2:0:0:
281,289,245230,1,0,3:2:0:0:
266,284,245313,2,0,P|261:258|247:217,1,45,2|0,3:0|0:0,0:0:0:0:
174,170,245478,21,8,3:0:0:0:
137,163,245560,1,8,3:0:0:0:
102,184,245643,1,8,3:0:0:0:
92,213,245725,1,8,3:0:0:0:
59,240,245807,1,4,3:0:0:0:
13,233,245890,1,4,3:0:0:0:
0,203,245972,6,0,P|13:143|38:45,1,135,4|0,3:2|0:0,0:0:0:0:
32,52,246302,1,2,1:3:0:0:
230,111,246467,5,0,3:2:0:0:
221,124,246549,2,0,P|196:117|156:109,1,45,0|2,1:2|3:0,0:0:0:0:
303,60,246796,1,0,3:2:0:0:
388,188,246961,1,2,1:3:0:0:
472,38,247126,6,0,B|446:31|387:14|387:14|408:79|413:125,1,180,2|0,3:2|3:2,0:0:0:0:
485,148,247621,1,2,1:3:0:0:
380,295,247785,1,0,3:2:0:0:
380,295,247868,2,0,P|341:283|308:277,1,45,0|2,3:2|1:3,0:0:0:0:
217,343,248115,21,0,1:2:0:0:
182,332,248198,1,0,1:2:0:0:
142,336,248280,1,0,1:2:0:0:
108,358,248362,1,8,3:0:0:0:
68,363,248445,1,8,3:0:0:0:
46,346,248527,1,4,3:0:0:0:
39,334,248610,6,0,P|50:304|49:264,1,53.9999983520508,4|0,1:2|3:2,0:0:0:0:
19,186,248774,5,2,3:2:0:0:
58,175,248857,1,0,3:2:0:0:
99,184,248939,1,2,3:2:0:0:
132,202,249022,1,0,3:2:0:0:
170,192,249104,2,0,P|183:173|195:127,1,53.9999983520508,4|0,1:2|3:2,0:0:0:0:
121,23,249269,5,0,3:2:0:0:
112,35,249351,1,0,3:2:0:0:
101,46,249434,2,0,P|109:82|116:115,1,53.9999983520508,0|0,3:2|3:2,0:0:0:0:
270,173,249599,21,6,1:2:0:0:
309,183,249681,1,0,3:2:0:0:
351,172,249763,1,2,3:2:0:0:
372,134,249846,1,0,3:2:0:0:
405,103,249928,1,0,3:2:0:0:
452,99,250011,1,0,3:2:0:0:
475,134,250093,5,4,1:2:0:0:
430,150,250176,1,0,3:2:0:0:
381,136,250258,1,0,3:2:0:0:
350,101,250340,1,0,3:2:0:0:
320,65,250423,1,0,3:2:0:0:
266,44,250505,1,0,3:2:0:0:
205,66,250588,6,0,P|217:110|223:157,1,72,8|4,3:0|3:0,0:0:0:0:
129,206,250917,2,0,P|119:171|112:135,1,72,8|4,3:0|3:0,0:0:0:0:
266,284,251247,6,0,B|351:299|305:334|393:357,1,144,6|2,3:2|2:0,0:0:0:0:
266,284,251741,1,0,3:2:0:0:
402,236,251906,2,0,P|349:226|310:218,1,72,0|0,1:2|0:0,0:0:0:0:
204,367,252236,1,2,3:2:0:0:
112,353,252401,22,0,P|102:300|94:261,1,72,0|2,1:2|3:2,0:0:0:0:
180,172,252730,2,0,P|189:224|197:263,1,72,0|2,1:2|3:2,0:0:0:0:
242,122,253060,1,0,3:2:0:0:
102,145,253225,2,0,B|184:151|158:112|263:124,1,144,0|6,1:2|1:2,0:0:0:0:
306,167,253719,1,0,0:0:0:0:
489,84,253884,6,0,P|459:38|361:51,1,144,6|2,3:2|2:0,0:0:0:0:
393,167,254379,2,0,P|380:214|369:258,1,72,2|0,3:2|1:2,0:0:0:0:
429,371,254708,2,0,P|438:336|447:301,1,72,2|0,1:2|3:2,0:0:0:0:
262,275,255038,6,0,B|190:287|234:298|140:318,1,108,2|0,1:2|0:0,0:0:0:0:
161,312,255368,2,0,P|152:277|143:242,1,72,2|4,1:2|3:2,0:0:0:0:
201,189,255698,1,8,3:0:0:0:
114,34,255862,6,0,P|62:50|83:138,1,144,8|4,3:0|3:0,0:0:0:0:
66,127,256522,22,0,B|138:111|138:111|149:118|149:118|195:113|255:95,1,180,6|2,3:2|2:0,0:0:0:0:
308,40,257016,1,0,3:2:0:0:
451,114,257181,2,0,B|490:144|490:144|377:125,1,135,0|0,1:2|0:0,0:0:0:0:
405,129,257511,2,0,B|368:140|368:140|367:147|367:147|307:165,1,90,2|0,3:2|1:2,0:0:0:0:
224,327,257840,5,2,3:2:0:0:
152,370,258005,2,0,P|74:354|92:253,1,180,0|0,1:2|3:2,0:0:0:0:
84,116,258500,2,0,B|51:56|51:56|70:150,1,135,0|0,1:2|0:0,0:0:0:0:
0,175,258829,2,0,P|45:199|108:188,1,90,2|2,2:0|2:0,0:0:0:0:
155,228,259077,1,0,0:0:0:0:
164,225,259159,2,0,L|239:208,1,67.5000025749208,6|0,3:2|3:2,0:0:0:0:
446,174,259324,5,0,1:2:0:0:
474,133,259406,1,0,1:2:0:0:
469,90,259489,1,2,1:2:0:0:
437,58,259571,1,0,1:2:0:0:
437,58,259654,2,0,P|396:47|310:44,1,67.5000025749208,6|0,3:2|3:2,0:0:0:0:
281,133,259818,5,0,1:2:0:0:
299,162,259901,1,0,1:2:0:0:
286,186,259983,1,0,1:2:0:0:
301,219,260066,1,0,1:2:0:0:
301,219,260148,2,0,B|178:198|225:257|104:238,1,202.500007724762,8|4,3:0|3:0,0:0:0:0:
63,226,260478,22,0,B|34:195|120:144|198:148|242:212|163:228|236:314|276:299|356:269|323:237,1,360,4|2,3:2|2:0,0:0:0:0:
383,51,261302,5,8,3:0:0:0:
383,51,261384,1,4,3:0:0:0:
383,51,261467,2,0,B|418:58|418:58|421:63|421:63|472:72,1,80.9999975280763,8|0,3:0|0:0,0:0:0:0:
474,61,261796,53,6,1:2:0:0:
512,210,261961,1,0,3:2:0:0:
375,175,262126,1,2,3:2:0:0:
257,49,262291,5,6,1:2:0:0:
79,103,262456,1,0,3:2:0:0:
148,10,262621,1,0,3:2:0:0:
232,228,262785,5,6,1:2:0:0:
55,191,262950,1,0,3:2:0:0:
134,278,263115,1,2,3:2:0:0:
325,112,263280,6,0,B|388:102|420:83|420:83|416:121|424:171,1,161.999995056153,6|0,1:2|0:0,0:0:0:0:
429,163,263610,1,2,3:2:0:0:
410,294,263774,6,0,B|444:314|462:351|462:351|469:309|441:272,1,161.999995056153,6|0,1:2|0:0,0:0:0:0:
442,273,264104,2,0,B|390:285|411:310|349:325,1,107.999996704102,6|0,1:2|3:2,0:0:0:0:
272,304,264351,1,0,3:2:0:0:
251,294,264434,1,6,1:2:0:0:
107,265,264599,1,0,3:2:0:0:
40,380,264763,1,0,3:2:0:0:
20,265,264928,5,6,1:2:0:0:
174,321,265093,1,0,3:2:0:0:
280,191,265258,1,2,3:2:0:0:
155,17,265423,5,6,1:2:0:0:
77,54,265588,1,0,3:2:0:0:
101,135,265752,1,0,3:2:0:0:
259,143,265917,5,4,1:2:0:0:
272,133,266000,1,0,3:2:0:0:
294,136,266082,1,0,3:2:0:0:
364,202,266247,1,2,3:2:0:0:
455,174,266412,2,0,B|479:139|479:139|482:119|453:62,1,107.999996704102,8|8,3:0|3:0,0:0:0:0:
430,52,266659,1,4,0:3:0:0:
419,49,266741,1,4,3:0:0:0:
276,248,266906,5,4,3:0:0:0:
253,252,266989,1,0,3:2:0:0:
231,245,267071,1,6,1:2:0:0:
152,151,267236,1,0,3:2:0:0:
200,2,267401,1,2,3:2:0:0:
288,160,267566,21,6,1:2:0:0:
140,186,267730,1,0,3:2:0:0:
40,67,267895,1,0,3:2:0:0:
24,301,268060,5,6,1:2:0:0:
135,65,268225,1,0,3:2:0:0:
342,224,268390,1,2,3:2:0:0:
54,150,268555,5,6,1:2:0:0:
226,248,268719,1,0,3:2:0:0:
309,41,268884,1,2,3:2:0:0:
112,211,269049,6,0,B|121:246|121:246|133:253|133:253|152:314,1,107.999996704102,6|0,1:2|3:2,0:0:0:0:
164,354,269296,1,0,3:2:0:0:
170,373,269379,1,6,1:2:0:0:
289,211,269544,2,0,L|347:225,1,53.9999983520508,0|0,3:2|3:2,0:0:0:0:
455,226,269708,22,0,B|489:264|531:271|531:271|493:354|402:319,1,215.999993408203,6|0,1:2|3:2,0:0:0:0:
361,131,270203,2,0,B|382:81|382:81|387:163,1,107.999996704102,6|0,1:2|3:2,0:0:0:0:
332,320,270533,1,2,3:2:0:0:
235,277,270698,2,0,B|187:287|187:287|181:295|181:295|112:311,1,107.999996704102,6|8,1:2|3:0,0:0:0:0:
101,318,270945,1,4,3:0:0:0:
86,327,271027,2,0,B|56:299|50:255|50:255|81:155,1,161.999995056153,6|0,1:2|0:0,0:0:0:0:
171,191,271274,2,0,B|180:136|127:116|127:116|161:140|154:192,1,161.999995056153,2|0,1:2|0:0,0:0:0:0:
73,178,271522,2,0,B|28:168|28:168|65:161,1,80.9999975280763,2|0,1:2|0:0,0:0:0:0:
236,66,271687,6,0,B|310:83|310:83|315:88|315:88|420:106,1,161.999995056153,2|0,1:2|0:0,0:0:0:0:
490,129,271934,2,0,P|422:120|451:182,1,161.999995056153,2|0,1:2|0:0,0:0:0:0:
512,256,272181,2,0,B|454:272|454:272|446:298|446:298|352:322,1,161.999995056153,2|0,1:2|0:0,0:0:0:0:
256,192,272676,5,4,3:2:0:0:
256,192,272758,12,0,279599,2:0:0:0:
