osu file format v14

[General]
AudioFilename: audio.mp3
AudioLeadIn: 0
PreviewTime: 44513
Countdown: 0
SampleSet: Soft
StackLeniency: 0.7
Mode: 0
LetterboxInBreaks: 0
WidescreenStoryboard: 1

[Editor]
DistanceSpacing: 1
BeatDivisor: 4
GridSize: 16
TimelineZoom: 1

[Metadata]
Title:Champagne Day
TitleUnicode:シャンパーニュ・デイ
Artist:Hoshimachi Suisei
ArtistUnicode:星街すいせい
Creator:captin1
Version:Normal
Source:
Tags:luna- dark accelerator kaine hypebeasthijabi raja ナナホシ管弦楽団 鏡音リン nanahoshi kangengakudan hujuniseikouyuup fujuniseikouyuup kagamine rin vocaloid cover japanese rock hololive virtual youtuber vtuber hoshimati hosimati hosimachi suichan
BeatmapID:2934348
BeatmapSetID:1204477

[Difficulty]
HPDrainRate:3
CircleSize:3.3
OverallDifficulty:3
ApproachRate:4.5
SliderMultiplier:0.999999999999999
SliderTickRate:1

[Events]
//Background and Video events
0,0,"EbgozICUwAAtb4U.jpg",0,0
//Break Periods
2,66388,70039
//Storyboard Layer 0 (Background)
//Storyboard Layer 1 (Fail)
//Storyboard Layer 2 (Pass)
//Storyboard Layer 3 (Foreground)
//Storyboard Layer 4 (Overlay)
//Storyboard Sound Samples

[TimingPoints]
2728,329.67032967033,4,2,1,70,1,0
13277,-100,4,2,1,50,0,0
22343,-100,4,2,1,60,0,0
23826,-100,4,2,1,50,0,0
33057,-100,4,2,1,60,0,0
43607,-100,4,2,1,70,0,0
44596,-100,4,2,1,50,0,0
44925,-100,4,2,1,70,0,1
64706,-100,4,2,1,70,0,0
71299,-100,4,2,1,50,0,0
80365,-100,4,2,1,60,0,0
81848,-100,4,2,1,50,0,0
91903,-100,4,2,1,60,0,0
101629,-100,4,2,1,70,0,0
102947,-100,4,2,1,70,0,1
122728,-100,4,2,1,70,0,0
145640,-100,4,2,1,70,0,1
164925,-100,4,2,1,70,0,0
166244,-100,4,2,1,70,0,1
175475,-100,4,2,1,70,0,0

[Colours]
Combo1 : 128,0,255
Combo2 : 0,255,255
Combo3 : 18,124,255
Combo4 : 128,128,255

[HitObjects]
85,257,2068,6,0,L|78:197,2,50,0|0|0,1:0|1:0|1:0,2:0:0:0:
43,297,2563,2,2,P|72:348|168:348,1,150,4|8,1:0|2:0,2:1:0:0:
229,286,3387,1,0,1:0:0:0:
229,286,3552,1,2,2:0:0:0:
317,332,3881,2,2,B|350:295|350:295|452:302,1,150,2|8,2:0|2:0,2:1:0:0:
430,203,4706,2,0,P|436:166|466:107,1,99.9999999999999,0|8,1:0|2:0,2:0:0:0:
506,85,5200,5,6,1:2:0:0:
422,30,5530,2,0,L|371:42,1,50,0|8,1:0|2:0,2:0:0:0:
285,88,6024,2,0,L|229:72,2,50,0|0|8,1:0|1:0|2:0,2:0:0:0:
322,121,6519,2,0,B|298:204|345:177|325:280,1,150,0|8,1:0|2:0,2:0:0:0:
258,341,7343,1,0,1:0:0:0:
164,320,7673,1,8,2:0:0:0:
164,320,7837,6,2,L|175:162,1,150,4|8,1:0|2:0,2:1:0:0:
118,93,8662,1,0,1:0:0:0:
118,93,8826,1,2,2:0:0:0:
23,124,9156,2,2,P|12:162|90:228,1,150,2|8,2:0|2:0,2:1:0:0:
173,273,9980,2,0,P|222:253|277:247,1,99.9999999999999,0|8,1:0|2:0,2:0:0:0:
306,279,10475,5,4,1:2:0:0:
396,321,10804,2,0,L|406:268,1,50,0|8,1:0|2:0,2:0:0:0:
488,216,11299,2,0,B|457:183|457:183|447:126,1,99.9999999999999,0|8,1:0|2:0,2:0:0:0:
466,83,11793,1,4,1:2:0:0:
92,15,13277,5,0,1:0:0:0:
52,98,13607,1,10,2:0:0:0:
96,179,13936,2,0,L|84:231,2,50,0|0|10,1:0|1:0|2:0,2:0:0:0:
134,148,14431,2,0,B|197:158|197:158|222:142|222:142|285:150,1,150,0|10,1:0|2:0,2:0:0:0:
344,75,15255,2,0,P|374:114|377:163,1,99.9999999999999,0|10,1:0|2:0,2:0:0:0:
317,243,15914,6,0,L|330:347,2,99.9999999999999,0|10|0,1:0|2:0|1:0,2:0:0:0:
228,209,16903,1,10,2:0:0:0:
228,209,17068,2,0,B|156:235|156:235|131:210|83:190,1,150,0|10,1:0|2:0,2:0:0:0:
7,243,17892,2,0,P|14:289|44:351,1,99.9999999999999,0|10,1:0|2:0,2:0:0:0:
84,318,18387,1,2,2:0:0:0:
84,318,18552,6,0,L|199:332,1,99.9999999999999,0|10,1:0|2:0,2:0:0:0:
279,359,19211,2,0,L|339:347,2,50,0|0|10,1:0|1:0|2:0,2:0:0:0:
261,311,19706,2,0,L|273:192,1,99.9999999999999,0|0,1:0|1:0,2:0:0:0:
195,145,20365,2,0,L|183:264,1,99.9999999999999,0|0,2:0|1:0,2:0:0:0:
107,190,21024,1,2,2:0:0:0:
107,190,21189,6,0,P|67:194|27:245,2,99.9999999999999,0|10|0,1:0|2:0|1:0,2:0:0:0:
176,262,22178,1,10,2:0:0:0:
176,262,22343,2,0,B|282:254,1,99.9999999999999,4|0,1:2|1:0,2:0:0:0:
304,295,22837,2,0,B|434:266|339:220|475:179,1,200,10|8,2:0|2:0,2:0:0:0:
495,90,23826,5,0,1:0:0:0:
421,22,24156,1,10,2:0:0:0:
331,66,24486,2,0,L|274:54,2,50,0|0|10,1:0|1:0|2:0,2:0:0:0:
361,105,24980,2,0,L|375:267,1,150,0|10,1:0|2:0,2:0:0:0:
345,350,25804,2,0,P|300:329|278:272,1,99.9999999999999,0|10,1:0|2:0,2:0:0:0:
211,211,26464,6,0,L|97:233,2,99.9999999999999,0|10|0,1:0|2:0|1:0,2:0:0:0:
312,190,27453,1,10,2:0:0:0:
312,190,27618,2,0,B|318:131|318:131|301:112|301:112|308:34,1,150,0|10,1:0|2:0,2:0:0:0:
215,6,28442,2,0,P|174:35|108:46,1,99.9999999999999,0|10,1:0|2:0,2:0:0:0:
84,28,28936,1,2,2:0:0:0:
84,28,29101,6,0,L|72:134,1,99.9999999999999,0|10,1:0|2:0,2:0:0:0:
138,203,29760,2,0,L|144:260,2,50,0|0|10,1:0|1:0|2:0,2:0:0:0:
168,163,30255,1,0,1:0:0:0:
262,195,30585,1,0,1:0:0:0:
238,291,30914,2,0,L|346:302,1,99.9999999999999,0|0,2:0|1:0,2:0:0:0:
428,343,31574,1,0,2:0:0:0:
428,343,31738,6,2,P|459:317|466:255,1,99.9999999999999,0|8,1:0|2:0,2:1:0:0:
397,189,32398,2,0,P|390:139|391:85,1,99.9999999999999,0|8,1:0|2:0,2:0:0:0:
318,20,33057,1,8,1:2:0:0:
235,76,33387,2,0,L|243:128,2,50,8|8|8,1:2|1:2|1:2,2:0:0:0:
195,45,33881,1,12,1:2:0:0:
60,112,34376,6,0,P|43:157|37:223,1,99.9999999999999,0|0,1:0|1:0,2:0:0:0:
65,248,34870,2,0,B|116:243|116:243|147:205|147:205|205:199,1,150,2|0,2:0|1:0,2:0:0:0:
207,299,35695,2,0,P|240:329|296:323,1,99.9999999999999,0|0,1:0|1:0,2:0:0:0:
338,345,36189,2,0,P|330:273|333:192,1,150,2|0,2:0|1:0,2:0:0:0:
363,100,37013,6,0,B|408:120|408:120|467:111,1,99.9999999999999,0|0,1:0|1:0,2:0:0:0:
501,138,37508,2,0,P|492:186|488:243,1,99.9999999999999,2|2,2:0|2:0,2:0:0:0:
395,275,38167,1,2,2:0:0:0:
395,275,38332,2,0,L|385:222,2,50,0|0|0,1:0|2:0|1:0,2:0:0:0:
359,310,38826,2,0,B|305:305|305:305|270:277|270:277|211:270,1,150,2|0,2:0|1:0,2:0:0:0:
233,171,39651,5,0,1:0:0:0:
247,72,39980,1,8,2:0:0:0:
166,12,40310,2,0,L|118:1,2,50,0|0|8,1:0|1:0|2:0,2:0:0:0:
152,111,40969,1,0,1:0:0:0:
233,171,41299,1,8,2:0:0:0:
326,135,41629,1,0,1:0:0:0:
247,72,41958,1,8,2:0:0:0:
256,192,42288,12,0,43607,1:0:0:0:
81,73,44596,5,0,2:0:0:0:
150,145,44925,2,2,L|271:124,1,99.9999999999999,6|8,1:0|2:0,2:1:0:0:
281,83,45420,1,4,1:2:0:0:
281,83,45585,2,2,P|320:128|291:222,1,150,0|4,2:0|1:0,2:1:0:0:
263,242,46244,1,2,2:1:0:0:
331,315,46574,1,8,2:0:0:0:
331,315,46738,2,2,B|356:296|356:296|429:307,1,99.9999999999999,2|0,1:0|1:0,2:1:0:0:
461,340,47233,1,8,2:0:0:0:
501,249,47563,6,0,L|485:135,1,99.9999999999999,6|8,1:0|2:0,2:0:0:0:
505,103,48057,2,2,L|384:84,1,99.9999999999999,6|2,1:2|1:2,2:1:0:0:
371,50,48552,1,8,2:0:0:0:
371,50,48717,1,4,1:0:0:0:
316,133,49046,2,0,L|323:184,2,50,2|8|2,1:0|2:0|1:0,2:0:0:0:
237,70,49706,2,0,P|182:71|130:53,1,99.9999999999999,0|8,1:0|2:0,2:0:0:0:
94,36,50200,6,0,L|113:145,1,99.9999999999999,6|8,1:0|2:0,2:0:0:0:
81,175,50695,1,4,1:2:0:0:
162,233,51024,1,2,1:2:0:0:
97,309,51354,2,2,B|133:340|133:340|205:330,1,99.9999999999999,6|0,1:0|1:0,2:1:0:0:
216,371,51848,1,10,2:1:0:0:
315,356,52178,1,2,1:0:0:0:
414,341,52508,1,10,2:1:0:0:
477,264,52837,6,2,P|457:209|318:208,1,200,2|0,1:0|1:0,2:1:0:0:
260,266,53826,1,10,2:1:0:0:
186,197,54156,2,0,L|132:210,2,50,14|0|0,2:0|1:0|1:0,2:0:0:0:
222,162,54651,1,10,2:1:0:0:
244,64,54980,2,0,L|348:51,1,99.9999999999999,14|0,2:1|1:0,2:0:0:0:
383,21,55475,6,2,L|415:189,1,150,4|4,1:0|1:2,2:1:0:0:
380,207,56134,2,2,P|414:238|418:297,1,99.9999999999999,0|8,2:0|2:0,2:1:0:0:
328,330,56793,2,0,L|319:381,2,50,2|0|8,2:1|1:0|2:0,2:0:0:0:
294,292,57288,2,2,L|186:316,1,99.9999999999999,2|0,1:0|1:0,2:1:0:0:
152,289,57782,1,8,2:0:0:0:
62,245,58112,6,2,L|70:134,1,99.9999999999999,6|8,1:0|2:0,2:1:0:0:
119,145,58607,2,2,L|97:36,1,99.9999999999999,4|2,1:2|1:2,2:1:0:0:
147,28,59101,1,8,2:0:0:0:
147,28,59266,2,2,B|195:16|195:16|254:46,1,99.9999999999999,6|0,1:0|1:0,2:1:0:0:
292,124,59925,2,0,L|276:228,1,99.9999999999999,6|0,1:0|1:0,2:0:0:0:
182,256,60585,1,0,1:0:0:0:
182,256,60749,6,0,L|70:241,1,99.9999999999999,4|10,1:0|2:1,2:0:0:0:
46,277,61244,1,6,1:0:0:0:
106,356,61574,1,2,1:0:0:0:
205,349,61903,2,2,P|252:326|307:335,1,99.9999999999999,4|0,1:2|1:0,2:1:0:0:
341,356,62398,1,12,2:0:0:0:
419,293,62728,2,2,L|505:307,2,74.9999999999999,8|8|10,2:0|2:0|2:1,2:1:0:0:
377,264,63387,6,2,B|368:157|435:182|416:64,1,200,6|0,1:0|1:0,2:1:0:0:
330,22,64376,2,0,L|269:39,1,50,8|0,2:0|1:0,2:0:0:0:
235,15,64706,1,4,1:0:0:0:
142,133,65200,1,8,2:0:0:0:
142,133,65365,2,2,L|165:224,2,74.9999999999999,10|6|4,2:1|1:0|1:2,2:1:0:0:
95,114,66024,6,0,L|104:49,1,50,6|0,1:0|1:0,2:0:0:0:
420,369,71299,5,0,1:0:0:0:
460,286,71629,1,10,2:0:0:0:
416,205,71958,2,0,L|428:153,2,50,0|0|10,1:0|1:0|2:0,2:0:0:0:
378,236,72453,2,0,B|315:226|315:226|290:242|290:242|227:234,1,150,0|10,1:0|2:0,2:0:0:0:
168,309,73277,2,0,P|138:270|135:221,1,99.9999999999999,0|10,1:0|2:0,2:0:0:0:
195,141,73936,6,0,L|182:37,2,99.9999999999999,0|10|0,1:0|2:0|1:0,2:0:0:0:
284,175,74925,1,10,2:0:0:0:
284,175,75090,2,0,B|356:149|356:149|381:174|429:194,1,150,0|10,1:0|2:0,2:0:0:0:
505,141,75914,2,0,P|498:95|468:33,1,99.9999999999999,0|10,1:0|2:0,2:0:0:0:
428,66,76409,1,2,2:0:0:0:
428,66,76574,6,0,L|313:52,1,99.9999999999999,0|10,1:0|2:0,2:0:0:0:
233,25,77233,2,0,L|173:37,2,50,0|0|10,1:0|1:0|2:0,2:0:0:0:
251,73,77728,2,0,L|239:192,1,99.9999999999999,0|0,1:0|1:0,2:0:0:0:
317,239,78387,2,0,L|329:120,1,99.9999999999999,0|0,2:0|1:0,2:0:0:0:
405,194,79046,1,2,2:0:0:0:
405,194,79211,6,0,P|445:190|485:139,2,99.9999999999999,0|10|0,1:0|2:0|1:0,2:0:0:0:
336,122,80200,1,10,2:0:0:0:
336,122,80365,2,0,B|230:130,1,99.9999999999999,4|0,1:2|1:0,2:0:0:0:
208,89,80859,2,0,B|78:118|173:164|37:205,1,200,10|8,2:0|2:0,2:0:0:0:
17,294,81848,5,0,1:0:0:0:
91,362,82178,1,10,2:0:0:0:
181,318,82508,2,0,L|238:330,2,50,0|0|10,1:0|1:0|2:0,2:0:0:0:
151,279,83002,2,0,L|137:117,1,150,0|10,1:0|2:0,2:0:0:0:
167,34,83826,2,0,P|212:55|234:112,1,99.9999999999999,0|10,1:0|2:0,2:0:0:0:
301,173,84486,6,0,L|415:151,2,99.9999999999999,0|10|0,1:0|2:0|1:0,2:0:0:0:
200,194,85475,1,10,2:0:0:0:
200,194,85640,2,0,B|194:253|194:253|211:272|211:272|204:350,1,150,0|10,1:0|2:0,2:0:0:0:
297,378,86464,2,0,P|338:349|404:338,1,99.9999999999999,0|10,1:0|2:0,2:0:0:0:
428,356,86958,1,2,2:0:0:0:
428,356,87123,6,0,L|440:250,1,99.9999999999999,0|10,1:0|2:0,2:0:0:0:
374,181,87782,2,0,L|368:124,2,50,0|0|10,1:0|1:0|2:0,2:0:0:0:
344,221,88277,1,0,1:0:0:0:
250,189,88607,1,0,1:0:0:0:
274,93,88936,2,0,L|166:82,1,99.9999999999999,0|0,2:0|1:0,2:0:0:0:
84,41,89596,1,2,2:0:0:0:
84,41,89760,6,2,P|53:67|46:129,1,99.9999999999999,0|8,1:0|2:0,2:1:0:0:
115,195,90420,2,0,P|122:245|121:299,1,99.9999999999999,0|8,1:0|2:0,2:0:0:0:
194,364,91079,1,8,1:3:0:0:
277,308,91409,2,0,L|269:256,2,50,8|8|8,1:2|1:2|1:2,2:0:0:0:
317,339,91903,1,12,1:2:0:0:
452,272,92398,6,0,P|469:227|475:161,1,99.9999999999999,0|0,1:0|1:0,2:0:0:0:
447,136,92892,2,0,B|396:141|396:141|365:179|365:179|307:185,1,150,2|0,2:0|1:0,2:0:0:0:
305,85,93717,2,0,P|272:55|216:61,1,99.9999999999999,0|0,1:0|1:0,2:0:0:0:
174,39,94211,2,0,P|182:111|179:192,1,150,2|0,2:0|1:0,2:0:0:0:
149,284,95035,6,0,B|104:264|104:264|45:273,1,99.9999999999999,0|0,1:0|1:0,2:0:0:0:
11,246,95530,2,0,P|20:198|24:141,1,99.9999999999999,2|2,2:0|2:0,2:0:0:0:
117,109,96189,1,2,2:0:0:0:
117,109,96354,2,0,L|127:162,2,50,0|0|0,1:0|2:0|1:0,2:0:0:0:
153,74,96848,2,0,B|207:79|207:79|242:107|242:107|301:114,1,150,2|0,2:0|1:0,2:0:0:0:
279,213,97673,5,0,1:0:0:0:
265,312,98002,1,8,2:0:0:0:
346,372,98332,2,0,L|394:383,2,50,0|0|8,1:0|1:0|2:0,2:0:0:0:
360,273,98991,1,0,1:0:0:0:
279,213,99321,1,8,2:0:0:0:
186,249,99651,1,0,1:0:0:0:
265,312,99980,1,8,2:0:0:0:
256,192,100310,12,0,101629,1:0:0:0:
431,311,102618,5,0,2:0:0:0:
362,239,102947,2,2,L|241:260,1,99.9999999999999,6|8,1:0|2:0,2:1:0:0:
231,301,103442,1,4,1:2:0:0:
231,301,103607,2,2,P|192:256|221:162,1,150,0|4,2:0|1:0,2:1:0:0:
249,142,104266,1,2,2:1:0:0:
181,69,104596,1,8,2:0:0:0:
181,69,104760,2,2,B|156:88|156:88|83:77,1,99.9999999999999,2|0,1:0|1:0,2:1:0:0:
51,44,105255,1,8,2:0:0:0:
11,135,105585,6,0,L|27:249,1,99.9999999999999,6|8,1:0|2:0,2:0:0:0:
7,281,106079,2,2,L|128:300,1,99.9999999999999,6|2,1:2|1:2,2:1:0:0:
141,334,106574,1,8,2:0:0:0:
141,334,106738,1,4,1:0:0:0:
196,251,107068,2,0,L|189:200,2,50,2|8|2,1:0|2:0|1:0,2:0:0:0:
275,314,107728,2,0,P|330:313|382:331,1,99.9999999999999,0|8,1:0|2:0,2:0:0:0:
418,348,108222,6,0,L|399:239,1,99.9999999999999,6|8,1:0|2:0,2:0:0:0:
431,209,108717,1,4,1:2:0:0:
350,151,109046,1,2,1:2:0:0:
415,75,109376,2,2,B|379:44|379:44|307:54,1,99.9999999999999,6|0,1:0|1:0,2:1:0:0:
296,13,109870,1,10,2:1:0:0:
197,28,110200,1,2,1:0:0:0:
98,43,110530,1,10,2:1:0:0:
35,120,110859,6,2,P|55:175|194:176,1,200,2|0,1:0|1:0,2:1:0:0:
252,118,111848,1,10,2:1:0:0:
326,187,112178,2,0,L|380:174,2,50,14|0|0,2:0|1:0|1:0,2:0:0:0:
290,222,112673,1,10,2:1:0:0:
268,320,113002,2,0,L|164:333,1,99.9999999999999,14|0,2:1|1:0,2:0:0:0:
129,363,113497,6,2,L|97:195,1,150,4|4,1:0|1:2,2:1:0:0:
132,177,114156,2,2,P|98:146|94:87,1,99.9999999999999,0|8,2:0|2:0,2:1:0:0:
184,54,114815,2,0,L|193:3,2,50,2|0|8,2:1|1:0|2:0,2:0:0:0:
218,92,115310,2,2,L|326:68,1,99.9999999999999,2|0,1:0|1:0,2:1:0:0:
360,95,115804,1,8,2:0:0:0:
450,139,116134,6,2,L|442:250,1,99.9999999999999,6|8,1:0|2:0,2:1:0:0:
393,239,116629,2,2,L|415:348,1,99.9999999999999,4|2,1:2|1:2,2:1:0:0:
365,356,117123,1,8,2:0:0:0:
365,356,117288,2,2,B|317:368|317:368|258:338,1,99.9999999999999,6|0,1:0|1:0,2:1:0:0:
220,260,117947,2,0,L|236:156,1,99.9999999999999,6|0,1:0|1:0,2:0:0:0:
330,128,118607,1,0,1:0:0:0:
330,128,118771,6,0,L|442:143,1,99.9999999999999,4|10,1:0|2:1,2:0:0:0:
466,107,119266,1,6,1:0:0:0:
406,28,119596,1,2,1:0:0:0:
307,35,119925,2,2,P|260:58|205:49,1,99.9999999999999,4|0,1:2|1:0,2:1:0:0:
171,28,120420,1,12,2:0:0:0:
93,91,120749,2,2,L|7:77,2,74.9999999999999,8|8|10,2:0|2:0|2:1,2:1:0:0:
135,120,121409,6,2,B|144:227|77:202|96:320,1,200,6|0,1:0|1:0,2:1:0:0:
182,362,122398,2,0,L|243:345,1,50,8|0,2:0|1:0,2:0:0:0:
277,369,122728,1,4,1:0:0:0:
370,251,123222,1,8,2:0:0:0:
370,251,123387,2,2,L|347:160,2,74.9999999999999,10|6|4,2:1|1:0|1:2,2:1:0:0:
411,279,124046,6,2,B|428:201|428:201|466:181|466:181|483:98,1,200,4|2,1:0|1:2,2:1:0:0:
435,16,125035,1,10,2:1:0:0:
361,83,125365,1,2,2:1:0:0:
265,72,125695,1,10,2:1:0:0:
265,72,125859,2,0,L|258:129,1,50,0|2,2:0|1:0,2:0:0:0:
290,216,126354,6,0,L|351:202,2,50,10|0|0,2:0|2:0|1:0,2:0:0:0:
207,272,127013,2,2,P|179:242|117:237,1,99.9999999999999,14|0,2:1|1:0,2:1:0:0:
82,266,127508,1,2,1:0:0:0:
11,194,127837,2,2,B|34:166|34:166|21:96,1,99.9999999999999,2|0,1:0|1:0,2:1:0:0:
41,56,128332,1,10,2:1:0:0:
120,116,128662,1,0,1:0:0:0:
216,88,128991,1,10,2:0:0:0:
312,61,129321,6,2,B|296:209|296:209|328:259,1,200,6|0,1:0|1:0,2:1:0:0:
407,306,130310,1,10,2:1:0:0:
477,236,130640,1,2,2:1:0:0:
460,138,130969,1,10,2:1:0:0:
460,138,131134,2,0,L|452:84,1,50,0|2,2:0|1:0,2:0:0:0:
356,59,131629,6,0,L|365:1,2,50,10|0|0,2:0|2:0|1:0,2:0:0:0:
338,157,132288,1,12,2:0:0:0:
239,137,132618,1,0,1:0:0:0:
142,113,132947,1,14,2:1:0:0:
256,192,133277,12,4,134596,1:0:0:0:
112,151,135255,6,0,L|129:265,1,99.9999999999999,0|8,1:0|2:0,2:0:0:0:
175,261,135749,2,0,P|194:294|259:300,1,99.9999999999999,2|2,2:0|2:0,2:0:0:0:
291,272,136244,1,8,2:0:0:0:
369,334,136574,2,0,L|472:317,1,99.9999999999999,0|8,1:0|2:0,2:0:0:0:
488,219,137233,5,6,1:0:0:0:
501,119,137563,1,10,2:1:0:0:
401,130,137892,1,0,1:0:0:0:
388,230,138222,1,8,2:0:0:0:
288,243,138552,2,0,L|170:260,1,99.9999999999999,2|10,1:0|2:1,2:0:0:0:
101,306,139211,2,0,B|77:286|77:286|84:208,1,99.9999999999999,0|8,1:0|2:0,2:0:0:0:
155,148,139870,5,6,1:0:0:0:
152,52,140200,1,8,2:0:0:0:
152,52,140365,2,2,L|253:36,1,99.9999999999999,2|2,2:0|2:0,2:1:0:0:
294,60,140859,2,0,L|283:120,1,50,8|2,2:0|2:0,2:0:0:0:
372,157,141354,2,0,L|439:141,2,50,2|8|2,2:0|2:0|2:0,2:0:0:0:
308,234,142013,1,2,2:0:0:0:
308,234,142178,2,0,L|300:298,1,50,8|2,2:0|2:0,2:0:0:0:
267,320,142508,6,0,L|206:307,1,50,6|2,1:0|1:0,2:0:0:0:
182,345,142837,1,12,2:0:0:0:
92,301,143167,1,4,1:2:0:0:
47,211,143497,1,12,2:0:0:0:
86,119,143826,2,0,B|161:109|161:109|199:135|199:135|286:121,1,200,4|6,1:0|1:0,2:0:0:0:
472,80,145145,6,0,L|479:30,2,50,2|0|8,2:3|1:0|2:0,2:0:0:0:
496,123,145640,1,4,1:2:0:0:
409,173,145969,2,0,L|417:235,1,50,0|8,1:0|2:0,2:0:0:0:
452,256,146299,2,0,P|414:308|320:294,1,150,4|8,1:0|2:0,2:0:0:0:
294,275,146958,2,0,B|308:250|308:250|300:167,1,99.9999999999999,8|8,2:3|2:3,2:0:0:0:
294,129,147453,1,12,1:0:0:0:
201,165,147782,6,0,L|206:216,2,50,6|2|8,1:0|1:2|2:0,2:0:0:0:
171,124,148277,2,2,L|56:107,1,99.9999999999999,4|2,1:2|1:2,2:1:0:0:
33,77,148771,1,8,2:0:0:0:
33,77,148936,1,4,1:2:0:0:
115,19,149266,2,0,L|179:27,2,50,2|8|0,1:0|2:0|1:0,2:0:0:0:
72,109,149925,2,0,L|92:228,1,99.9999999999999,0|8,1:0|2:0,2:0:0:0:
53,244,150420,6,0,P|93:243|140:289,1,99.9999999999999,6|8,1:0|2:0,2:0:0:0:
124,328,150914,1,4,1:2:0:0:
222,311,151244,1,2,1:2:0:0:
320,292,151574,2,2,L|432:311,1,99.9999999999999,4|0,1:0|1:0,2:1:0:0:
462,332,152068,1,8,2:0:0:0:
447,232,152398,1,0,1:0:0:0:
433,132,152728,1,14,2:1:0:0:
508,67,153057,6,2,P|464:32|338:94,1,200,2|0,1:0|1:0,2:1:0:0:
299,170,154046,1,10,2:1:0:0:
251,258,154376,2,0,L|262:318,2,50,8|8|0,2:0|2:3|1:0,2:0:0:0:
205,237,154870,1,0,1:0:0:0:
160,147,155200,2,2,L|78:163,1,74.9999999999999,4|4,1:2|1:2,2:1:0:0:
37,218,155695,6,2,B|17:132|80:154|54:55,1,150,8|4,2:0|1:2,2:1:0:0:
83,30,156354,2,0,B|134:24|134:24|169:60,1,99.9999999999999,0|8,1:0|2:0,2:0:0:0:
250,115,157013,2,0,L|363:97,1,99.9999999999999,2|8,0:1|2:0,2:0:0:0:
384,64,157508,1,2,1:0:0:0:
475,103,157837,2,0,L|490:55,2,50,4|8|0,1:2|2:0|2:0,2:0:0:0:
440,139,158332,6,2,P|455:191|463:252,1,99.9999999999999,4|8,1:0|2:0,2:1:0:0:
448,284,158826,1,4,1:2:0:0:
351,258,159156,2,0,L|283:275,1,50,2|8,1:2|2:0,2:0:0:0:
259,295,159486,6,0,P|226:258|244:190,1,99.9999999999999,6|0,1:0|1:0,2:0:0:0:
264,173,159980,1,8,2:0:0:0:
264,173,160145,1,4,1:2:0:0:
192,102,160475,2,0,L|197:47,2,50,0|8|8,1:0|2:0|2:0,2:0:0:0:
147,125,160969,6,0,L|39:113,1,99.9999999999999,4|10,1:0|2:1,2:0:0:0:
10,148,161464,1,4,1:2:0:0:
62,232,161793,1,2,1:2:0:0:
36,328,162123,2,2,B|87:332|87:332|130:302,1,99.9999999999999,4|0,1:0|1:0,2:1:0:0:
169,277,162618,1,8,2:0:0:0:
245,213,162947,2,2,L|223:140,2,74.9999999999999,8|8|10,2:0|2:0|2:1,2:1:0:0:
268,257,163607,6,2,B|324:251|324:251|356:219|356:219|419:214,1,150,4|0,1:0|1:0,2:1:0:0:
447,240,164266,2,0,L|463:173,1,50,8|0,2:0|1:0,2:0:0:0:
416,106,164760,1,0,1:0:0:0:
416,106,164925,1,4,1:0:0:0:
218,73,165585,6,2,P|256:52|276:26,2,74.9999999999999,0|12|12,1:0|2:0|2:0,2:1:0:0:
168,66,166244,2,2,P|142:105|156:177,1,99.9999999999999,2|8,1:0|2:0,2:1:0:0:
165,201,166738,1,4,1:0:0:0:
248,256,167068,1,2,1:2:0:0:
248,256,167233,2,0,L|237:315,1,50,8|4,2:0|1:2,2:0:0:0:
324,357,167728,2,0,L|335:298,1,50,2|8,1:2|2:0,2:0:0:0:
381,293,168057,2,0,L|361:182,1,99.9999999999999,4|0,1:2|1:0,2:0:0:0:
386,150,168552,1,8,2:0:0:0:
335,64,168881,6,0,L|388:48,2,50,6|2|8,1:0|2:0|2:0,2:0:0:0:
295,95,169376,2,2,P|251:74|197:78,1,99.9999999999999,4|2,1:2|1:2,2:1:0:0:
159,105,169870,1,8,2:0:0:0:
159,105,170035,1,6,1:0:0:0:
181,202,170365,1,0,1:0:0:0:
181,202,170530,2,0,L|173:257,1,50,10|4,2:1|1:2,2:0:0:0:
129,340,171024,2,0,B|80:351|80:351|21:322,1,99.9999999999999,8|8,2:0|1:2,2:0:0:0:
12,284,171519,6,0,L|30:181,1,99.9999999999999,4|10,1:0|2:1,2:0:0:0:
71,159,172013,1,4,1:2:0:0:
41,63,172343,1,0,1:0:0:0:
134,26,172673,2,2,P|184:36|247:42,1,99.9999999999999,4|0,1:0|1:0,2:1:0:0:
261,82,173167,1,10,2:1:0:0:
355,48,173497,2,2,L|429:31,2,74.9999999999999,8|8|10,2:0|2:0|2:1,2:1:0:0:
379,91,174156,6,2,B|399:198|327:172|350:301,1,200,6|0,1:0|1:0,2:1:0:0:
390,373,175145,2,0,L|453:355,1,50,8|8,2:0|2:3,2:0:0:0:
469,320,175475,1,4,1:0:0:0:
469,174,175969,1,8,2:0:0:0:
469,174,176134,2,2,L|481:80,2,74.9999999999999,8|4|4,2:0|1:0|1:0,2:1:0:0:
256,192,176793,12,4,179266,1:2:0:0:
