osu file format v14

[General]
AudioFilename: audio.ogg
AudioLeadIn: 0
PreviewTime: 46105
Countdown: 0
SampleSet: Normal
StackLeniency: 0.7
Mode: 1
LetterboxInBreaks: 0
WidescreenStoryboard: 0

[Editor]
Bookmarks: 13305,21305,29305,37305,47305,55305,63305,71305,79305,83305,91305,99305,107305,115305,123305,139305,163305
DistanceSpacing: 0.7
BeatDivisor: 5
GridSize: 32
TimelineZoom: 1.699999

[Metadata]
Title:BIBBIDIBA
TitleUnicode:ビビデバ
Artist:Hoshimachi Suisei
ArtistUnicode:星街すいせい
Creator:gaston_2199
Version:BOBBIDI BOOWA
Source:
Tags:ツミキ Tsumiki NNZN ホロライブ hololive vtuber virtual youtuber japanese pop jpop j-pop hoshimati hosimachi suichan sui-chan female vocal
BeatmapID:4576831
BeatmapSetID:2168969

[Difficulty]
HPDrainRate:6
CircleSize:2
OverallDifficulty:5.5
ApproachRate:10
SliderMultiplier:1.4
SliderTickRate:1

[Events]
//Background and Video events
0,0,"BG.jpg",0,40
Video,-100,"TaikoVideo.mp4"
//Break Periods
//Storyboard Layer 0 (Background)
//Storyboard Layer 1 (Fail)
//Storyboard Layer 2 (Pass)
//Storyboard Layer 3 (Foreground)
//Storyboard Layer 4 (Overlay)
//Storyboard Sound Samples

[TimingPoints]
5305,500,4,1,0,10,1,0
13180,-50,4,1,0,75,0,0
13555,-66.6666666666667,4,1,0,75,0,0
21180,-50,4,1,0,75,0,0
21430,-66.6666666666667,4,1,0,75,0,0
27302,-65.6716417910448,4,1,0,75,0,0
27452,-64.2335766423358,4,1,0,75,0,0
27552,-63.3093525179856,4,1,0,75,0,0
27702,-61.9718309859155,4,1,0,75,0,0
27802,-61.1111111111111,4,1,0,75,0,0
27952,-59.8639455782313,4,1,0,75,0,0
28052,-59.0604026845638,4,1,0,75,0,0
28202,-57.8947368421053,4,1,0,75,0,0
28302,-57.1428571428571,4,1,0,75,0,0
28505,-83.3333333333333,4,1,0,70,0,0
29305,-58.8235294117647,4,1,0,80,0,0
37505,-62.5,4,1,0,80,0,0
41302,-62.1212121212121,4,1,0,80,0,0
41452,-61.5615615615616,4,1,0,80,0,0
41552,-60.7142857142857,4,1,0,80,0,0
41702,-60.6508875739645,4,1,0,80,0,0
41802,-60.2941176470588,4,1,0,80,0,0
41952,-59.7667638483965,4,1,0,80,0,0
42052,-59.4202898550725,4,1,0,80,0,0
42202,-58.9080459770115,4,1,0,80,0,0
42302,-58.5714285714286,4,1,0,80,0,0
42452,-58.0736543909348,4,1,0,80,0,0
42552,-57.4324324324324,4,1,0,80,0,0
42702,-57.2625698324022,4,1,0,80,0,0
42802,-56.9444444444444,4,1,0,80,0,0
42952,-56.4738292011019,4,1,0,80,0,0
43052,-56.1643835616438,4,1,0,80,0,0
43202,-55.7065217391304,4,1,0,80,0,0
43302,-55.4054054054054,4,1,0,80,0,0
43452,-54.9597855227882,4,1,0,80,0,0
43552,-54.6666666666667,4,1,0,80,0,0
43702,-54.2328042328042,4,1,0,80,0,0
43802,-53.9473684210526,4,1,0,80,0,0
43952,-53.5248041775457,4,1,0,80,0,0
44052,-53.2467532467533,4,1,0,80,0,0
44202,-52.8350515463918,4,1,0,80,0,0
44302,-52.5641025641026,4,1,0,80,0,0
44452,-52.1628498727735,4,1,0,80,0,0
44552,-51.8987341772152,4,1,0,80,0,0
44702,-51.5075376884422,4,1,0,80,0,0
44802,-51.25,4,1,0,80,0,0
44952,-50.8684863523573,4,1,0,80,0,0
45052,-50.6172839506173,4,1,0,80,0,0
45127,-50.4305043050431,4,1,0,80,0,0
45202,-50.2450980392157,4,1,0,80,0,0
45302,-50,4,1,0,80,0,0
45702,-66.6666666666667,4,1,0,60,0,0
45802,-67.5675675675676,4,1,0,60,0,0
45952,-68.9655172413793,4,1,0,60,0,0
46052,-69.9300699300699,4,1,0,60,0,0
46202,-71.4285714285714,4,1,0,60,0,0
46302,-72.463768115942,4,1,0,60,0,0
46452,-74.0740740740741,4,1,0,60,0,0
46552,-75.187969924812,4,1,0,60,0,0
46627,-76.0456273764259,4,1,0,60,0,0
46702,-76.9230769230769,4,1,0,60,0,0
46802,-78.125,4,1,0,60,0,0
47052,-81.3008130081301,4,1,0,60,0,0
47202,-83.3333333333333,4,1,0,60,0,0
47305,-55.5555555555556,4,1,0,90,0,1
63405,-57.1428571428571,4,1,0,90,0,1
78805,-57.1428571428571,4,1,0,5,0,0
79305,-76.9230769230769,4,1,0,70,0,0
82468,-79.9872020476724,4,1,0,70,0,0
82635,-83.3263894675444,4,1,0,70,0,0
82802,-86.9565217391304,4,1,0,70,0,0
82968,-90.892564988184,4,1,0,70,0,0
83135,-95.229025807066,4,1,0,70,0,0
83302,-100,4,1,0,70,0,0
83555,-100,4,1,0,60,0,0
91302,-66.6666666666667,4,1,0,75,0,0
99430,-76.9230769230769,4,1,0,65,0,0
107305,-58.8235294117647,4,1,0,80,0,0
115305,-55.5555555555556,4,1,0,90,0,1
131305,-55.5555555555556,4,1,0,90,0,0
131430,-66.6666666666667,4,1,0,70,0,0
137555,-83.3333333333333,4,1,0,60,0,0
139305,-55.5555555555556,4,1,0,90,0,1
147430,-57.1428571428571,4,1,0,90,0,1
162805,-100,4,1,0,5,0,0
163180,-76.9230769230769,4,1,0,70,0,0

[HitObjects]
256,192,13305,5,4,0:0:0:0:
256,192,13705,1,0,0:0:0:0:
248,189,13805,1,8,0:0:0:0:
256,192,13955,1,0,0:0:0:0:
256,192,14055,1,8,0:0:0:0:
256,192,14205,1,8,0:0:0:0:
256,192,14305,1,0,0:0:0:0:
256,192,14555,1,0,0:0:0:0:
256,192,14705,1,0,0:0:0:0:
256,192,14805,1,8,0:0:0:0:
256,192,14955,1,8,0:0:0:0:
256,192,15055,1,0,0:0:0:0:
256,192,15205,1,8,0:0:0:0:
256,192,15455,1,0,0:0:0:0:
256,192,15555,1,0,0:0:0:0:
256,192,15705,1,0,0:0:0:0:
256,192,15805,1,8,0:0:0:0:
256,192,15955,1,8,0:0:0:0:
256,192,16055,1,0,0:0:0:0:
256,192,16205,1,0,0:0:0:0:
256,192,16305,1,8,0:0:0:0:
256,192,16555,1,0,0:0:0:0:
256,192,16805,1,8,0:0:0:0:
256,192,17055,1,0,0:0:0:0:
256,192,17130,1,0,0:0:0:0:
256,192,17205,1,0,0:0:0:0:
256,192,17305,1,8,0:0:0:0:
256,192,17555,1,8,0:0:0:0:
256,192,17705,1,0,0:0:0:0:
256,192,17805,1,8,0:0:0:0:
256,192,18055,1,8,0:0:0:0:
256,192,18205,1,0,0:0:0:0:
256,192,18305,1,8,0:0:0:0:
256,160,18555,1,0,0:0:0:0:
256,192,18805,1,8,0:0:0:0:
256,192,19055,1,0,0:0:0:0:
256,192,19205,1,8,0:0:0:0:
256,192,19455,1,8,0:0:0:0:
256,192,19555,1,0,0:0:0:0:
256,192,19705,1,8,0:0:0:0:
256,192,19955,1,0,0:0:0:0:
256,192,20055,1,8,0:0:0:0:
256,192,20205,1,0,0:0:0:0:
256,192,20305,1,0,0:0:0:0:
256,192,20455,1,8,0:0:0:0:
256,192,20555,1,0,0:0:0:0:
256,160,20705,1,0,0:0:0:0:
288,160,20805,1,8,0:0:0:0:
288,160,20930,1,0,0:0:0:0:
288,160,20992,1,0,0:0:0:0:
288,160,21055,1,8,0:0:0:0:
256,192,21305,5,4,0:0:0:0:
256,192,21705,1,0,0:0:0:0:
248,189,21805,1,8,0:0:0:0:
256,192,21955,1,0,0:0:0:0:
256,192,22055,1,0,0:0:0:0:
256,192,22205,1,8,0:0:0:0:
256,192,22305,1,0,0:0:0:0:
256,192,22455,1,0,0:0:0:0:
256,192,22555,1,0,0:0:0:0:
256,192,22705,1,0,0:0:0:0:
256,192,22805,1,8,0:0:0:0:
256,192,23055,1,8,0:0:0:0:
256,192,23205,1,0,0:0:0:0:
256,192,23305,1,8,0:0:0:0:
256,192,23455,1,0,0:0:0:0:
256,192,23555,1,0,0:0:0:0:
256,192,23705,1,8,0:0:0:0:
256,192,23805,1,8,0:0:0:0:
256,192,24055,1,8,0:0:0:0:
256,192,24205,1,0,0:0:0:0:
256,192,24305,1,8,0:0:0:0:
256,192,24455,1,0,0:0:0:0:
256,192,24555,1,0,0:0:0:0:
224,96,24705,1,0,0:0:0:0:
224,96,24805,1,8,0:0:0:0:
256,192,25055,1,0,0:0:0:0:
256,192,25205,1,0,0:0:0:0:
256,192,25305,1,8,0:0:0:0:
239,119,25455,1,0,0:0:0:0:
256,192,25555,1,0,0:0:0:0:
256,192,25705,1,0,0:0:0:0:
256,192,25805,1,8,0:0:0:0:
256,192,26055,1,0,0:0:0:0:
256,192,26205,1,8,0:0:0:0:
256,192,26305,1,0,0:0:0:0:
251,95,26455,1,0,0:0:0:0:
256,160,26555,1,0,0:0:0:0:
224,192,26705,1,0,0:0:0:0:
256,192,26805,1,8,0:0:0:0:
256,192,27055,1,0,0:0:0:0:
256,128,27205,1,0,0:0:0:0:
256,160,27305,1,0,0:0:0:0:
256,192,27455,1,8,0:0:0:0:
256,192,27555,1,0,0:0:0:0:
256,192,27705,1,0,0:0:0:0:
256,192,27805,1,0,0:0:0:0:
256,192,27955,1,8,0:0:0:0:
256,192,28055,1,0,0:0:0:0:
256,192,28205,1,0,0:0:0:0:
256,192,28305,1,8,0:0:0:0:
256,192,28555,1,0,0:0:0:0:
256,160,28630,1,0,0:0:0:0:
288,160,28705,1,8,0:0:0:0:
288,160,28805,1,8,0:0:0:0:
288,160,29055,1,0,0:0:0:0:
256,128,29205,1,0,0:0:0:0:
288,160,29305,1,12,0:0:0:0:
224,96,29555,1,8,0:0:0:0:
224,96,29705,1,0,0:0:0:0:
224,96,29805,1,8,0:0:0:0:
256,128,29955,1,8,0:0:0:0:
224,128,30055,1,0,0:0:0:0:
256,128,30205,1,0,0:0:0:0:
224,128,30305,1,0,0:0:0:0:
224,96,30555,1,0,0:0:0:0:
224,128,30705,1,8,0:0:0:0:
224,128,30805,1,8,0:0:0:0:
224,128,30955,1,0,0:0:0:0:
224,96,31055,1,8,0:0:0:0:
224,128,31205,1,0,0:0:0:0:
224,128,31305,1,0,0:0:0:0:
224,96,31555,1,8,0:0:0:0:
224,96,31705,1,0,0:0:0:0:
256,96,31805,1,8,0:0:0:0:
256,96,31955,1,8,0:0:0:0:
256,96,32055,1,0,0:0:0:0:
256,96,32205,1,0,0:0:0:0:
256,96,32305,1,8,0:0:0:0:
256,96,32455,1,0,0:0:0:0:
256,96,32555,1,0,0:0:0:0:
256,96,32705,1,0,0:0:0:0:
256,96,32805,1,8,0:0:0:0:
256,96,32955,1,8,0:0:0:0:
224,96,33055,1,8,0:0:0:0:
224,96,33205,1,0,0:0:0:0:
256,96,33305,1,0,0:0:0:0:
256,96,33555,1,8,0:0:0:0:
256,96,33705,1,0,0:0:0:0:
256,96,33805,1,8,0:0:0:0:
256,96,33955,1,8,0:0:0:0:
256,96,34055,1,0,0:0:0:0:
256,96,34205,1,0,0:0:0:0:
256,96,34305,1,0,0:0:0:0:
256,96,34555,1,0,0:0:0:0:
256,96,34705,1,0,0:0:0:0:
256,96,34805,1,8,0:0:0:0:
256,96,34955,1,8,0:0:0:0:
256,96,35055,1,8,0:0:0:0:
256,96,35205,1,8,0:0:0:0:
256,96,35305,1,0,0:0:0:0:
256,96,35555,1,8,0:0:0:0:
256,96,35705,1,0,0:0:0:0:
256,96,35805,1,8,0:0:0:0:
256,96,35955,1,8,0:0:0:0:
256,96,36055,1,0,0:0:0:0:
256,96,36205,1,0,0:0:0:0:
256,96,36305,1,8,0:0:0:0:
256,96,36455,1,8,0:0:0:0:
256,96,36555,1,0,0:0:0:0:
256,96,36705,1,0,0:0:0:0:
256,96,36805,1,8,0:0:0:0:
256,96,36955,1,0,0:0:0:0:
256,96,37055,1,0,0:0:0:0:
256,96,37205,1,0,0:0:0:0:
256,96,37305,1,12,0:0:0:0:
224,96,37555,1,8,0:0:0:0:
224,96,37705,1,0,0:0:0:0:
224,96,37805,1,8,0:0:0:0:
224,128,38055,1,0,0:0:0:0:
224,128,38305,1,8,0:0:0:0:
224,128,38455,1,0,0:0:0:0:
224,96,38555,1,0,0:0:0:0:
224,128,38805,1,8,0:0:0:0:
224,128,38955,1,8,0:0:0:0:
224,96,39055,1,8,0:0:0:0:
302,135,39205,1,8,0:0:0:0:
224,128,39305,1,0,0:0:0:0:
224,96,39555,1,8,0:0:0:0:
224,96,39705,1,0,0:0:0:0:
256,96,39805,1,8,0:0:0:0:
256,96,40055,1,0,0:0:0:0:
256,96,40305,1,8,0:0:0:0:
208,163,40455,1,0,0:0:0:0:
256,96,40555,1,0,0:0:0:0:
256,96,40705,1,0,0:0:0:0:
224,64,40805,1,8,0:0:0:0:
256,96,40955,1,8,0:0:0:0:
224,96,41055,1,0,0:0:0:0:
256,96,41205,1,8,0:0:0:0:
256,96,41305,1,8,0:0:0:0:
224,96,41455,1,0,0:0:0:0:
256,96,41705,1,8,0:0:0:0:
256,96,41805,1,8,0:0:0:0:
256,96,41955,1,8,0:0:0:0:
256,96,42055,1,0,0:0:0:0:
256,96,42205,1,0,0:0:0:0:
256,96,42305,1,8,0:0:0:0:
256,96,42455,1,0,0:0:0:0:
256,96,42705,1,0,0:0:0:0:
256,96,42805,1,8,0:0:0:0:
256,96,42955,1,0,0:0:0:0:
256,96,43055,1,0,0:0:0:0:
256,96,43205,1,0,0:0:0:0:
256,96,43305,1,8,0:0:0:0:
256,96,43455,1,8,0:0:0:0:
256,96,43555,1,0,0:0:0:0:
256,96,43705,1,0,0:0:0:0:
256,96,43805,1,8,0:0:0:0:
256,96,43955,1,8,0:0:0:0:
256,96,44055,1,0,0:0:0:0:
256,96,44205,1,0,0:0:0:0:
256,96,44305,1,8,0:0:0:0:
256,96,44455,5,8,0:0:0:0:
256,96,44555,1,8,0:0:0:0:
256,96,44705,1,8,0:0:0:0:
256,96,44805,1,8,0:0:0:0:
256,96,44955,1,0,0:0:0:0:
256,96,45055,1,8,0:0:0:0:
256,96,45130,1,8,0:0:0:0:
256,96,45205,1,8,0:0:0:0:
256,96,45305,1,0,0:0:0:0:
256,96,45705,1,0,0:0:0:0:
256,96,45805,1,8,0:0:0:0:
256,96,45955,1,8,0:0:0:0:
256,96,46055,1,0,0:0:0:0:
256,96,46205,1,8,0:0:0:0:
256,96,46305,1,8,0:0:0:0:
192,64,46455,1,0,0:0:0:0:
256,96,46555,1,0,0:0:0:0:
256,96,46630,1,0,0:0:0:0:
256,96,46705,1,0,0:0:0:0:
256,96,46805,1,8,0:0:0:0:
256,96,47055,1,8,0:0:0:0:
256,96,47205,1,8,0:0:0:0:
224,192,47305,1,4,0:0:0:0:
224,192,47455,1,8,0:0:0:0:
224,192,47705,1,0,0:0:0:0:
224,192,47805,1,8,0:0:0:0:
224,192,48055,1,8,0:0:0:0:
224,192,48205,1,0,0:0:0:0:
224,192,48305,1,0,0:0:0:0:
224,192,48455,1,0,0:0:0:0:
224,192,48555,1,8,0:0:0:0:
224,192,48805,1,8,0:0:0:0:
224,192,48955,1,8,0:0:0:0:
224,192,49055,1,0,0:0:0:0:
224,192,49205,1,0,0:0:0:0:
224,192,49305,1,8,0:0:0:0:
224,128,49455,1,8,0:0:0:0:
224,192,49555,1,0,0:0:0:0:
224,192,49705,1,0,0:0:0:0:
224,192,49805,1,8,0:0:0:0:
256,128,49955,1,0,0:0:0:0:
256,128,50055,1,8,0:0:0:0:
256,128,50205,1,8,0:0:0:0:
256,128,50305,1,0,0:0:0:0:
256,128,50555,1,8,0:0:0:0:
224,160,50705,1,0,0:0:0:0:
224,96,50805,1,8,0:0:0:0:
224,96,50955,1,0,0:0:0:0:
224,96,51055,1,0,0:0:0:0:
224,96,51205,1,0,0:0:0:0:
224,96,51305,1,8,0:0:0:0:
224,96,51455,1,8,0:0:0:0:
224,96,51555,1,8,0:0:0:0:
224,96,51705,1,0,0:0:0:0:
224,96,51805,1,8,0:0:0:0:
224,128,52055,1,0,0:0:0:0:
224,128,52205,1,0,0:0:0:0:
224,128,52305,1,8,0:0:0:0:
224,128,52455,1,0,0:0:0:0:
224,128,52555,1,8,0:0:0:0:
224,128,52705,1,0,0:0:0:0:
224,128,52955,1,8,0:0:0:0:
224,128,53055,1,0,0:0:0:0:
224,128,53205,1,8,0:0:0:0:
224,128,53305,1,8,0:0:0:0:
256,128,53455,1,8,0:0:0:0:
224,128,53555,1,0,0:0:0:0:
224,128,53705,1,0,0:0:0:0:
224,128,53805,1,8,0:0:0:0:
224,128,53955,1,0,0:0:0:0:
224,128,54055,1,8,0:0:0:0:
224,128,54205,1,0,0:0:0:0:
224,128,54305,1,0,0:0:0:0:
224,128,54455,1,0,0:0:0:0:
224,128,54505,1,0,0:0:0:0:
224,128,54555,1,8,0:0:0:0:
224,128,54705,1,8,0:0:0:0:
224,128,54805,1,8,0:0:0:0:
224,128,54955,1,0,0:0:0:0:
224,128,55055,1,8,0:0:0:0:
224,128,55205,1,8,0:0:0:0:
224,192,55305,1,4,0:0:0:0:
224,192,55455,1,8,0:0:0:0:
224,192,55705,1,0,0:0:0:0:
224,192,55805,1,8,0:0:0:0:
224,192,56055,1,8,0:0:0:0:
224,192,56205,1,0,0:0:0:0:
224,192,56305,1,0,0:0:0:0:
224,192,56455,1,0,0:0:0:0:
224,192,56555,1,8,0:0:0:0:
224,192,56805,1,8,0:0:0:0:
224,192,56955,1,0,0:0:0:0:
224,192,57055,1,8,0:0:0:0:
224,192,57205,1,8,0:0:0:0:
224,192,57305,1,0,0:0:0:0:
224,128,57455,1,0,0:0:0:0:
224,192,57555,1,8,0:0:0:0:
224,192,57705,1,8,0:0:0:0:
224,192,57805,1,8,0:0:0:0:
256,128,57955,1,0,0:0:0:0:
256,128,58055,1,8,0:0:0:0:
256,128,58205,1,8,0:0:0:0:
256,128,58305,1,0,0:0:0:0:
256,128,58555,1,8,0:0:0:0:
224,160,58705,1,0,0:0:0:0:
224,96,58805,1,8,0:0:0:0:
224,96,58955,1,0,0:0:0:0:
224,96,59055,1,0,0:0:0:0:
224,96,59205,1,0,0:0:0:0:
224,96,59305,1,8,0:0:0:0:
224,96,59455,1,0,0:0:0:0:
224,96,59555,1,8,0:0:0:0:
224,96,59705,1,0,0:0:0:0:
224,96,59805,1,8,0:0:0:0:
224,64,59955,1,0,0:0:0:0:
224,128,60205,1,0,0:0:0:0:
224,128,60305,1,8,0:0:0:0:
224,128,60455,1,0,0:0:0:0:
224,128,60555,1,8,0:0:0:0:
224,128,60705,1,8,0:0:0:0:
224,128,60955,1,8,0:0:0:0:
224,128,61055,1,0,0:0:0:0:
224,128,61205,1,8,0:0:0:0:
224,128,61305,1,0,0:0:0:0:
239,25,61455,1,0,0:0:0:0:
224,128,61555,1,8,0:0:0:0:
224,128,61805,1,8,0:0:0:0:
224,128,61955,1,0,0:0:0:0:
224,128,62055,1,8,0:0:0:0:
224,128,62205,1,8,0:0:0:0:
224,128,62305,1,0,0:0:0:0:
224,128,62455,1,0,0:0:0:0:
224,128,62555,1,8,0:0:0:0:
224,128,62630,1,0,0:0:0:0:
224,128,62705,1,0,0:0:0:0:
224,128,62805,1,8,0:0:0:0:
224,128,62955,5,0,0:0:0:0:
224,128,63055,1,8,0:0:0:0:
224,128,63205,1,8,0:0:0:0:
224,128,63305,1,4,0:0:0:0:
224,96,63455,1,8,0:0:0:0:
224,96,63555,1,0,0:0:0:0:
224,96,63805,1,8,0:0:0:0:
224,128,63955,1,0,0:0:0:0:
224,128,64055,1,8,0:0:0:0:
224,128,64205,1,8,0:0:0:0:
224,128,64305,1,0,0:0:0:0:
224,128,64455,1,0,0:0:0:0:
224,128,64555,1,0,0:0:0:0:
224,128,64705,1,0,0:0:0:0:
224,128,64805,1,8,0:0:0:0:
224,128,65055,1,8,0:0:0:0:
224,128,65205,1,0,0:0:0:0:
224,128,65305,1,8,0:0:0:0:
224,128,65455,1,8,0:0:0:0:
224,128,65555,1,0,0:0:0:0:
224,128,65705,1,0,0:0:0:0:
224,128,65805,1,8,0:0:0:0:
224,128,65955,1,8,0:0:0:0:
224,128,66055,1,8,0:0:0:0:
224,128,66205,1,8,0:0:0:0:
224,128,66305,1,0,0:0:0:0:
224,128,66555,1,8,0:0:0:0:
224,128,66705,1,0,0:0:0:0:
224,128,66805,1,8,0:0:0:0:
224,128,66955,1,0,0:0:0:0:
224,128,67055,1,8,0:0:0:0:
224,128,67205,1,8,0:0:0:0:
224,128,67305,1,0,0:0:0:0:
224,128,67555,1,8,0:0:0:0:
224,128,67705,1,0,0:0:0:0:
224,128,67805,1,8,0:0:0:0:
224,128,68055,1,8,0:0:0:0:
224,128,68205,1,8,0:0:0:0:
224,128,68305,1,0,0:0:0:0:
224,128,68455,1,0,0:0:0:0:
224,128,68555,1,8,0:0:0:0:
224,128,68705,1,8,0:0:0:0:
224,128,68955,1,0,0:0:0:0:
224,128,69055,1,8,0:0:0:0:
224,128,69205,1,8,0:0:0:0:
224,128,69305,1,0,0:0:0:0:
224,128,69555,1,8,0:0:0:0:
224,128,69705,1,0,0:0:0:0:
224,128,69805,1,8,0:0:0:0:
224,128,69955,1,0,0:0:0:0:
224,128,70055,1,8,0:0:0:0:
224,128,70205,1,8,0:0:0:0:
224,128,70305,1,0,0:0:0:0:
224,128,70455,1,0,0:0:0:0:
221,62,70505,1,0,0:0:0:0:
224,128,70555,1,8,0:0:0:0:
224,128,70705,1,0,0:0:0:0:
224,128,70805,1,8,0:0:0:0:
224,128,70955,1,0,0:0:0:0:
224,128,71055,1,0,0:0:0:0:
224,128,71205,1,8,0:0:0:0:
224,128,71305,1,4,0:0:0:0:
224,96,71455,1,8,0:0:0:0:
224,96,71555,1,0,0:0:0:0:
224,96,71805,1,8,0:0:0:0:
224,128,71955,1,0,0:0:0:0:
224,128,72055,1,8,0:0:0:0:
224,128,72205,1,8,0:0:0:0:
224,128,72305,1,0,0:0:0:0:
224,128,72455,1,0,0:0:0:0:
224,128,72555,1,0,0:0:0:0:
224,128,72705,1,0,0:0:0:0:
224,128,72805,1,8,0:0:0:0:
224,128,73055,1,8,0:0:0:0:
224,128,73205,1,0,0:0:0:0:
224,128,73305,1,8,0:0:0:0:
224,128,73455,1,8,0:0:0:0:
224,128,73555,1,0,0:0:0:0:
224,128,73705,1,0,0:0:0:0:
224,128,73805,1,8,0:0:0:0:
224,128,73955,1,8,0:0:0:0:
224,128,74055,1,8,0:0:0:0:
224,128,74205,1,8,0:0:0:0:
224,128,74305,1,0,0:0:0:0:
224,128,74555,1,8,0:0:0:0:
224,128,74705,1,0,0:0:0:0:
224,128,74805,1,8,0:0:0:0:
224,128,74955,1,0,0:0:0:0:
224,128,75055,1,8,0:0:0:0:
224,128,75205,1,8,0:0:0:0:
224,128,75305,1,0,0:0:0:0:
224,128,75555,1,8,0:0:0:0:
224,128,75705,1,8,0:0:0:0:
224,128,75805,1,0,0:0:0:0:
224,128,76055,1,0,0:0:0:0:
224,128,76205,1,8,0:0:0:0:
224,128,76305,1,0,0:0:0:0:
224,128,76455,1,0,0:0:0:0:
224,128,76555,1,8,0:0:0:0:
224,128,76705,1,8,0:0:0:0:
224,128,76955,1,0,0:0:0:0:
224,128,77055,1,8,0:0:0:0:
224,128,77205,1,8,0:0:0:0:
224,128,77305,1,0,0:0:0:0:
224,128,77555,1,8,0:0:0:0:
224,128,77705,1,0,0:0:0:0:
224,128,77805,1,8,0:0:0:0:
224,128,77955,1,0,0:0:0:0:
224,128,78055,1,0,0:0:0:0:
224,128,78205,1,8,0:0:0:0:
224,128,78305,1,0,0:0:0:0:
224,128,78455,1,0,0:0:0:0:
224,128,78505,1,0,0:0:0:0:
224,128,78555,1,8,0:0:0:0:
224,128,78705,1,0,0:0:0:0:
224,128,79305,1,12,0:0:0:0:
224,128,79455,1,0,0:0:0:0:
224,128,79705,1,0,0:0:0:0:
224,128,79805,1,8,0:0:0:0:
224,128,80055,1,0,0:0:0:0:
224,128,80205,1,8,0:0:0:0:
224,128,80305,1,0,0:0:0:0:
224,128,80455,1,8,0:0:0:0:
224,128,80555,1,0,0:0:0:0:
224,128,80805,1,0,0:0:0:0:
224,96,80955,1,0,0:0:0:0:
224,128,81055,1,8,0:0:0:0:
224,128,81205,1,8,0:0:0:0:
224,128,81555,1,0,0:0:0:0:
224,128,81805,1,8,0:0:0:0:
224,128,81955,1,0,0:0:0:0:
224,128,82055,1,8,0:0:0:0:
224,128,82205,1,8,0:0:0:0:
224,128,82305,1,0,0:0:0:0:
224,128,82471,1,0,0:0:0:0:
224,128,82638,1,0,0:0:0:0:
224,128,82805,1,0,0:0:0:0:
224,128,82971,1,0,0:0:0:0:
224,128,83138,1,0,0:0:0:0:
224,128,83305,1,12,0:0:0:0:
224,128,83705,1,0,0:0:0:0:
224,128,83805,1,8,0:0:0:0:
224,128,83955,1,0,0:0:0:0:
224,128,84055,1,8,0:0:0:0:
224,128,84205,1,0,0:0:0:0:
224,128,84305,1,8,0:0:0:0:
224,128,84555,1,8,0:0:0:0:
224,128,84605,1,0,0:0:0:0:
224,128,84655,1,0,0:0:0:0:
224,128,84805,1,8,0:0:0:0:
224,128,84930,1,0,0:0:0:0:
224,128,85055,1,0,0:0:0:0:
224,128,85180,1,0,0:0:0:0:
224,128,85305,1,8,0:0:0:0:
224,128,85455,1,8,0:0:0:0:
224,128,85555,1,0,0:0:0:0:
224,128,85705,1,0,0:0:0:0:
224,128,85805,1,8,0:0:0:0:
251,125,85955,1,0,0:0:0:0:
224,128,86055,1,0,0:0:0:0:
224,128,86205,1,0,0:0:0:0:
224,128,86305,1,8,0:0:0:0:
224,128,86555,1,0,0:0:0:0:
224,128,86705,1,8,0:0:0:0:
224,128,86805,1,0,0:0:0:0:
224,128,86855,1,0,0:0:0:0:
224,128,86905,1,0,0:0:0:0:
224,128,86955,1,8,0:0:0:0:
224,128,87055,1,0,0:0:0:0:
224,128,87205,1,8,0:0:0:0:
224,128,87305,1,0,0:0:0:0:
224,128,87455,1,8,0:0:0:0:
224,128,87705,1,8,0:0:0:0:
224,128,87805,1,0,0:0:0:0:
192,128,87955,1,8,0:0:0:0:
192,128,88055,1,0,0:0:0:0:
192,128,88205,1,0,0:0:0:0:
192,128,88305,1,8,0:0:0:0:
192,128,88555,1,0,0:0:0:0:
192,128,88805,1,8,0:0:0:0:
192,128,88930,1,0,0:0:0:0:
192,128,89055,1,8,0:0:0:0:
192,128,89180,1,8,0:0:0:0:
186,51,89305,1,0,0:0:0:0:
192,128,89455,1,8,0:0:0:0:
192,128,89555,1,0,0:0:0:0:
224,128,89705,1,0,0:0:0:0:
192,128,89805,1,8,0:0:0:0:
224,128,89955,1,0,0:0:0:0:
224,128,90055,1,0,0:0:0:0:
224,128,90205,1,0,0:0:0:0:
224,128,90305,1,8,0:0:0:0:
224,128,90455,1,0,0:0:0:0:
224,128,90505,1,0,0:0:0:0:
224,128,90555,1,8,0:0:0:0:
224,128,90705,1,0,0:0:0:0:
224,128,90755,1,0,0:0:0:0:
224,128,90805,1,8,0:0:0:0:
224,128,90930,1,8,0:0:0:0:
224,128,91055,1,0,0:0:0:0:
224,128,91117,1,0,0:0:0:0:
224,128,91180,1,0,0:0:0:0:
224,128,91242,1,0,0:0:0:0:
224,128,91305,1,12,0:0:0:0:
224,128,91555,1,8,0:0:0:0:
224,128,91705,1,8,0:0:0:0:
224,128,91805,1,0,0:0:0:0:
224,128,92055,1,8,0:0:0:0:
224,128,92205,1,8,0:0:0:0:
224,128,92305,1,0,0:0:0:0:
224,128,92455,1,0,0:0:0:0:
224,128,92555,1,8,0:0:0:0:
224,128,92605,1,0,0:0:0:0:
224,128,92655,1,0,0:0:0:0:
224,128,92705,1,8,0:0:0:0:
224,128,92805,1,0,0:0:0:0:
224,128,92930,1,0,0:0:0:0:
224,128,93055,1,8,0:0:0:0:
224,160,93180,1,8,0:0:0:0:
224,128,93305,1,0,0:0:0:0:
224,128,93555,1,8,0:0:0:0:
224,128,93705,1,8,0:0:0:0:
224,128,93805,1,0,0:0:0:0:
224,128,94055,1,8,0:0:0:0:
224,128,94205,1,0,0:0:0:0:
224,128,94305,1,8,0:0:0:0:
224,128,94367,1,8,0:0:0:0:
224,128,94430,1,0,0:0:0:0:
210,75,94492,1,0,0:0:0:0:
224,128,94555,1,8,0:0:0:0:
224,128,94705,1,8,0:0:0:0:
224,128,94805,1,0,0:0:0:0:
224,128,94867,1,0,0:0:0:0:
224,128,94930,1,0,0:0:0:0:
224,128,94992,1,0,0:0:0:0:
224,128,95055,1,8,0:0:0:0:
224,128,95205,1,8,0:0:0:0:
224,128,95305,1,0,0:0:0:0:
224,128,95455,1,0,0:0:0:0:
224,96,95555,1,8,0:0:0:0:
224,96,95705,1,8,0:0:0:0:
224,96,95805,1,8,0:0:0:0:
224,128,95955,1,0,0:0:0:0:
224,96,96055,1,8,0:0:0:0:
224,96,96205,1,8,0:0:0:0:
224,96,96305,1,0,0:0:0:0:
224,96,96555,1,0,0:0:0:0:
224,96,96605,1,0,0:0:0:0:
224,96,96655,1,0,0:0:0:0:
224,96,96705,1,8,0:0:0:0:
224,96,96805,1,0,0:0:0:0:
224,96,96955,1,0,0:0:0:0:
224,96,97055,1,8,0:0:0:0:
224,96,97205,1,0,0:0:0:0:
224,96,97305,1,0,0:0:0:0:
224,96,97455,1,0,0:0:0:0:
224,96,97555,1,8,0:0:0:0:
256,192,97705,1,8,0:0:0:0:
256,192,97805,1,0,0:0:0:0:
256,192,97955,1,0,0:0:0:0:
256,192,98055,1,8,0:0:0:0:
256,192,98205,1,8,0:0:0:0:
256,192,98305,1,0,0:0:0:0:
256,192,98367,1,0,0:0:0:0:
256,192,98430,1,0,0:0:0:0:
256,192,98492,1,0,0:0:0:0:
256,192,98555,1,8,0:0:0:0:
288,224,98705,1,0,0:0:0:0:
288,192,98805,1,8,0:0:0:0:
288,192,98867,1,8,0:0:0:0:
288,192,98930,1,0,0:0:0:0:
288,192,98992,1,0,0:0:0:0:
288,192,99055,1,8,0:0:0:0:
256,128,99205,1,0,0:0:0:0:
288,128,99305,1,12,0:0:0:0:
256,128,99555,1,8,0:0:0:0:
256,128,99705,1,8,0:0:0:0:
256,128,99805,1,0,0:0:0:0:
256,128,100055,1,0,0:0:0:0:
256,128,100205,1,8,0:0:0:0:
256,128,100305,1,8,0:0:0:0:
256,128,100455,1,8,0:0:0:0:
256,128,100555,1,0,0:0:0:0:
256,128,100805,1,0,0:0:0:0:
256,128,101055,1,8,0:0:0:0:
256,128,101205,1,8,0:0:0:0:
256,128,101305,1,0,0:0:0:0:
256,128,101455,1,8,0:0:0:0:
256,128,101555,1,0,0:0:0:0:
256,128,101705,1,0,0:0:0:0:
256,128,101805,1,8,0:0:0:0:
256,128,101955,1,8,0:0:0:0:
256,128,102055,1,8,0:0:0:0:
256,128,102205,1,0,0:0:0:0:
256,128,102455,1,8,0:0:0:0:
264,138,102555,1,0,0:0:0:0:
256,128,102705,1,0,0:0:0:0:
256,128,102805,1,8,0:0:0:0:
256,128,102955,1,8,0:0:0:0:
256,128,103055,1,0,0:0:0:0:
256,128,103305,1,0,0:0:0:0:
224,128,103455,1,8,0:0:0:0:
256,128,103555,1,0,0:0:0:0:
256,128,103705,1,0,0:0:0:0:
256,128,103805,1,8,0:0:0:0:
224,160,103955,1,0,0:0:0:0:
256,128,104055,1,8,0:0:0:0:
256,128,104205,1,8,0:0:0:0:
224,160,104305,1,0,0:0:0:0:
224,160,104455,1,8,0:0:0:0:
224,160,104555,1,0,0:0:0:0:
192,160,104805,1,0,0:0:0:0:
224,160,104955,1,8,0:0:0:0:
224,160,105055,1,8,0:0:0:0:
224,160,105205,1,0,0:0:0:0:
224,160,105455,1,8,0:0:0:0:
224,160,105555,1,0,0:0:0:0:
224,160,105705,1,0,0:0:0:0:
224,160,105805,1,8,0:0:0:0:
224,160,105955,1,8,0:0:0:0:
224,160,106055,1,8,0:0:0:0:
224,160,106205,1,0,0:0:0:0:
224,160,106455,1,8,0:0:0:0:
224,160,106555,1,0,0:0:0:0:
224,160,106705,1,0,0:0:0:0:
224,160,106805,1,8,0:0:0:0:
224,160,107305,1,4,0:0:0:0:
224,160,107555,1,8,0:0:0:0:
256,160,107705,1,0,0:0:0:0:
224,160,107805,1,8,0:0:0:0:
224,160,108055,1,8,0:0:0:0:
256,160,108205,1,8,0:0:0:0:
224,160,108305,1,0,0:0:0:0:
256,160,108455,1,8,0:0:0:0:
224,160,108555,1,8,0:0:0:0:
256,160,108705,1,0,0:0:0:0:
224,160,108805,1,8,0:0:0:0:
256,160,108955,1,0,0:0:0:0:
213,153,109055,1,8,0:0:0:0:
224,160,109205,1,0,0:0:0:0:
224,160,109305,1,0,0:0:0:0:
256,160,109455,1,8,0:0:0:0:
224,160,109555,1,0,0:0:0:0:
224,160,109805,1,8,0:0:0:0:
256,160,109955,1,0,0:0:0:0:
213,153,110055,1,8,0:0:0:0:
256,160,110205,1,8,0:0:0:0:
224,160,110305,1,0,0:0:0:0:
256,160,110455,1,8,0:0:0:0:
256,160,110705,1,0,0:0:0:0:
224,160,110805,1,8,0:0:0:0:
256,160,110955,1,0,0:0:0:0:
213,153,111055,1,0,0:0:0:0:
224,160,111305,1,0,0:0:0:0:
256,160,111455,1,8,0:0:0:0:
224,160,111555,1,0,0:0:0:0:
256,160,111705,1,0,0:0:0:0:
224,160,111805,1,8,0:0:0:0:
256,160,111955,1,0,0:0:0:0:
256,160,112055,1,8,0:0:0:0:
256,160,112205,1,8,0:0:0:0:
224,160,112305,1,0,0:0:0:0:
256,160,112455,1,8,0:0:0:0:
224,160,112555,1,8,0:0:0:0:
256,160,112705,1,0,0:0:0:0:
224,160,112805,1,8,0:0:0:0:
213,153,113055,1,8,0:0:0:0:
256,160,113205,1,8,0:0:0:0:
224,160,113305,1,0,0:0:0:0:
224,128,115305,1,4,0:0:0:0:
224,96,115455,1,8,0:0:0:0:
224,96,115555,1,0,0:0:0:0:
224,96,115805,1,8,0:0:0:0:
224,128,115955,1,0,0:0:0:0:
224,128,116055,1,8,0:0:0:0:
224,128,116205,1,8,0:0:0:0:
224,128,116305,1,0,0:0:0:0:
224,128,116455,1,0,0:0:0:0:
224,128,116555,1,0,0:0:0:0:
224,128,116705,1,0,0:0:0:0:
224,128,116805,1,8,0:0:0:0:
224,128,117055,1,8,0:0:0:0:
224,128,117205,1,0,0:0:0:0:
224,128,117305,1,8,0:0:0:0:
224,128,117455,1,8,0:0:0:0:
224,128,117555,1,0,0:0:0:0:
224,128,117705,1,0,0:0:0:0:
224,128,117805,1,8,0:0:0:0:
224,128,117955,1,8,0:0:0:0:
224,128,118055,1,8,0:0:0:0:
224,128,118205,1,8,0:0:0:0:
224,128,118305,1,0,0:0:0:0:
224,128,118555,1,8,0:0:0:0:
224,128,118705,1,0,0:0:0:0:
224,128,118805,1,8,0:0:0:0:
224,128,118955,1,0,0:0:0:0:
224,128,119055,1,8,0:0:0:0:
224,128,119205,1,8,0:0:0:0:
224,128,119305,1,0,0:0:0:0:
256,128,119455,1,8,0:0:0:0:
256,128,119705,1,0,0:0:0:0:
256,128,119955,1,0,0:0:0:0:
256,128,120055,1,0,0:0:0:0:
256,128,120205,1,8,0:0:0:0:
256,128,120305,1,0,0:0:0:0:
256,128,120455,1,8,0:0:0:0:
256,128,120555,1,0,0:0:0:0:
256,128,120705,1,0,0:0:0:0:
256,128,120805,1,8,0:0:0:0:
256,128,120955,1,0,0:0:0:0:
256,128,121205,1,0,0:0:0:0:
256,128,121255,1,0,0:0:0:0:
256,128,121305,1,8,0:0:0:0:
256,128,121455,1,0,0:0:0:0:
256,128,121555,1,0,0:0:0:0:
256,128,121705,1,0,0:0:0:0:
256,128,121805,1,8,0:0:0:0:
256,128,121955,1,8,0:0:0:0:
256,128,122055,1,0,0:0:0:0:
256,128,122205,1,0,0:0:0:0:
256,128,122305,1,8,0:0:0:0:
256,128,122455,1,0,0:0:0:0:
256,128,122555,1,0,0:0:0:0:
256,128,122705,1,0,0:0:0:0:
256,128,122805,1,8,0:0:0:0:
256,128,122855,1,8,0:0:0:0:
256,128,122905,1,0,0:0:0:0:
256,128,122955,1,0,0:0:0:0:
256,128,123055,1,8,0:0:0:0:
256,128,123205,1,8,0:0:0:0:
224,128,123305,1,4,0:0:0:0:
224,96,123455,1,8,0:0:0:0:
224,96,123555,1,0,0:0:0:0:
224,96,123805,1,8,0:0:0:0:
224,128,123955,1,0,0:0:0:0:
224,128,124055,1,8,0:0:0:0:
224,128,124205,1,8,0:0:0:0:
224,128,124305,1,0,0:0:0:0:
224,128,124455,1,0,0:0:0:0:
224,128,124555,1,0,0:0:0:0:
224,128,124705,1,0,0:0:0:0:
224,128,124805,1,8,0:0:0:0:
224,128,125055,1,8,0:0:0:0:
224,128,125205,1,0,0:0:0:0:
224,128,125305,1,8,0:0:0:0:
224,128,125455,1,8,0:0:0:0:
224,128,125555,1,0,0:0:0:0:
224,128,125705,1,0,0:0:0:0:
224,128,125805,1,8,0:0:0:0:
224,128,125955,1,8,0:0:0:0:
224,128,126055,1,8,0:0:0:0:
224,128,126205,1,8,0:0:0:0:
224,128,126305,1,0,0:0:0:0:
224,128,126555,1,8,0:0:0:0:
224,128,126705,1,0,0:0:0:0:
224,128,126805,1,8,0:0:0:0:
224,128,126955,1,0,0:0:0:0:
224,128,127055,1,8,0:0:0:0:
224,128,127205,1,8,0:0:0:0:
224,128,127305,1,0,0:0:0:0:
256,128,127455,1,8,0:0:0:0:
256,128,127705,1,0,0:0:0:0:
256,128,127955,1,0,0:0:0:0:
256,128,128055,1,0,0:0:0:0:
256,128,128205,1,8,0:0:0:0:
256,128,128305,1,0,0:0:0:0:
256,128,128455,1,8,0:0:0:0:
256,128,128555,1,0,0:0:0:0:
256,128,128705,1,0,0:0:0:0:
256,128,128805,1,8,0:0:0:0:
256,128,128955,1,0,0:0:0:0:
256,128,129205,1,0,0:0:0:0:
256,128,129255,1,0,0:0:0:0:
256,128,129305,1,8,0:0:0:0:
256,128,129455,1,0,0:0:0:0:
256,128,129555,1,0,0:0:0:0:
256,128,129705,1,0,0:0:0:0:
256,128,129805,1,8,0:0:0:0:
256,128,129955,1,8,0:0:0:0:
256,128,130055,1,0,0:0:0:0:
256,128,130205,1,0,0:0:0:0:
256,128,130305,1,8,0:0:0:0:
256,128,130455,1,0,0:0:0:0:
256,128,130555,1,0,0:0:0:0:
256,128,130705,1,0,0:0:0:0:
256,128,130805,1,8,0:0:0:0:
256,128,130855,1,8,0:0:0:0:
256,128,130905,1,0,0:0:0:0:
256,128,130955,1,0,0:0:0:0:
256,128,131055,1,8,0:0:0:0:
256,128,131205,1,8,0:0:0:0:
256,128,131305,1,4,0:0:0:0:
256,128,131505,1,8,0:0:0:0:
256,128,132055,1,0,0:0:0:0:
256,128,132305,1,8,0:0:0:0:
256,128,132805,1,8,0:0:0:0:
256,128,132955,1,0,0:0:0:0:
256,128,133055,1,8,0:0:0:0:
256,128,133180,1,8,0:0:0:0:
264,137,133305,1,0,0:0:0:0:
256,128,133555,1,8,0:0:0:0:
256,128,133805,1,8,0:0:0:0:
256,128,133930,1,0,0:0:0:0:
256,128,134055,1,0,0:0:0:0:
256,128,134305,1,8,0:0:0:0:
256,128,134388,1,0,0:0:0:0:
256,128,134471,1,0,0:0:0:0:
256,128,134555,1,0,0:0:0:0:
256,128,134805,1,8,0:0:0:0:
256,128,134888,1,8,0:0:0:0:
256,128,134971,1,8,0:0:0:0:
256,128,135055,1,0,0:0:0:0:
192,64,135180,1,0,0:0:0:0:
224,64,135305,1,8,0:0:0:0:
192,64,135430,1,0,0:0:0:0:
192,64,135555,1,8,0:0:0:0:
192,64,135805,1,0,0:0:0:0:
192,64,136055,1,0,0:0:0:0:
224,64,136180,1,0,0:0:0:0:
224,64,136305,1,8,0:0:0:0:
224,64,136455,1,0,0:0:0:0:
224,64,136555,1,8,0:0:0:0:
224,64,136705,1,8,0:0:0:0:
192,64,136805,1,0,0:0:0:0:
224,64,136955,1,0,0:0:0:0:
192,64,137055,1,8,0:0:0:0:
224,64,137205,1,0,0:0:0:0:
224,64,137305,1,0,0:0:0:0:
224,64,137705,1,0,0:0:0:0:
224,64,137805,1,8,0:0:0:0:
224,64,138055,1,0,0:0:0:0:
224,64,138205,1,8,0:0:0:0:
224,64,138455,1,0,0:0:0:0:
256,96,138555,1,0,0:0:0:0:
256,96,138630,1,0,0:0:0:0:
256,96,138705,1,0,0:0:0:0:
256,96,138805,1,8,0:0:0:0:
256,96,139055,1,8,0:0:0:0:
256,96,139205,1,8,0:0:0:0:
224,192,139305,1,4,0:0:0:0:
224,192,139455,1,8,0:0:0:0:
224,192,139705,1,0,0:0:0:0:
224,192,139805,1,8,0:0:0:0:
224,192,140055,1,8,0:0:0:0:
224,192,140205,1,0,0:0:0:0:
224,192,140305,1,0,0:0:0:0:
224,192,140455,1,0,0:0:0:0:
224,192,140555,1,8,0:0:0:0:
224,192,140805,1,8,0:0:0:0:
224,192,140955,1,0,0:0:0:0:
224,192,141055,1,8,0:0:0:0:
224,192,141205,1,8,0:0:0:0:
224,192,141305,1,0,0:0:0:0:
224,128,141455,1,0,0:0:0:0:
224,192,141555,1,8,0:0:0:0:
224,192,141705,1,8,0:0:0:0:
224,192,141805,1,8,0:0:0:0:
256,128,141955,1,0,0:0:0:0:
256,128,142055,1,8,0:0:0:0:
256,128,142205,1,8,0:0:0:0:
256,128,142305,1,0,0:0:0:0:
256,128,142555,1,8,0:0:0:0:
224,160,142705,1,0,0:0:0:0:
224,96,142805,1,8,0:0:0:0:
224,96,142955,1,0,0:0:0:0:
224,96,143055,1,0,0:0:0:0:
224,96,143205,1,0,0:0:0:0:
224,96,143305,1,8,0:0:0:0:
224,96,143455,1,0,0:0:0:0:
224,96,143555,1,8,0:0:0:0:
224,96,143705,1,0,0:0:0:0:
224,96,143805,1,8,0:0:0:0:
224,64,143955,1,0,0:0:0:0:
224,128,144205,1,0,0:0:0:0:
224,128,144305,1,8,0:0:0:0:
224,128,144455,1,0,0:0:0:0:
224,128,144555,1,8,0:0:0:0:
224,128,144705,1,8,0:0:0:0:
224,128,144955,1,8,0:0:0:0:
224,128,145055,1,0,0:0:0:0:
224,128,145205,1,8,0:0:0:0:
224,128,145305,1,0,0:0:0:0:
316,160,145455,1,0,0:0:0:0:
224,128,145555,1,8,0:0:0:0:
224,128,145805,1,8,0:0:0:0:
224,128,145955,1,0,0:0:0:0:
224,128,146055,1,8,0:0:0:0:
224,128,146205,1,8,0:0:0:0:
224,128,146305,1,0,0:0:0:0:
224,128,146455,1,0,0:0:0:0:
224,128,146555,1,8,0:0:0:0:
224,128,146630,1,0,0:0:0:0:
224,128,146705,1,0,0:0:0:0:
224,128,146805,1,8,0:0:0:0:
224,128,146955,1,0,0:0:0:0:
224,128,147055,1,8,0:0:0:0:
224,128,147205,1,8,0:0:0:0:
224,128,147305,1,4,0:0:0:0:
224,96,147455,1,8,0:0:0:0:
224,96,147555,1,0,0:0:0:0:
224,96,147805,1,8,0:0:0:0:
224,128,147955,1,0,0:0:0:0:
224,128,148055,1,8,0:0:0:0:
224,128,148205,1,8,0:0:0:0:
224,128,148305,1,0,0:0:0:0:
224,128,148455,1,0,0:0:0:0:
224,128,148555,1,0,0:0:0:0:
224,128,148705,1,0,0:0:0:0:
224,128,148805,1,8,0:0:0:0:
224,128,149055,1,8,0:0:0:0:
224,128,149205,1,0,0:0:0:0:
224,128,149305,1,8,0:0:0:0:
224,128,149455,1,8,0:0:0:0:
224,128,149555,1,0,0:0:0:0:
224,128,149705,1,0,0:0:0:0:
224,128,149805,1,8,0:0:0:0:
224,128,149955,1,8,0:0:0:0:
224,128,150055,1,8,0:0:0:0:
224,128,150205,1,8,0:0:0:0:
224,128,150305,1,0,0:0:0:0:
224,128,150555,1,8,0:0:0:0:
224,128,150705,1,0,0:0:0:0:
224,128,150805,1,8,0:0:0:0:
224,128,150955,1,0,0:0:0:0:
224,128,151055,1,8,0:0:0:0:
224,128,151205,1,8,0:0:0:0:
224,128,151305,1,0,0:0:0:0:
224,128,151555,1,8,0:0:0:0:
224,128,151705,1,0,0:0:0:0:
224,128,151805,1,8,0:0:0:0:
224,128,152055,1,8,0:0:0:0:
224,128,152205,1,8,0:0:0:0:
224,128,152305,1,0,0:0:0:0:
224,128,152455,1,0,0:0:0:0:
224,128,152555,1,8,0:0:0:0:
224,128,152705,1,8,0:0:0:0:
224,128,152955,1,0,0:0:0:0:
224,128,153055,1,8,0:0:0:0:
224,128,153205,1,8,0:0:0:0:
224,128,153305,1,0,0:0:0:0:
224,128,153555,1,8,0:0:0:0:
224,128,153705,1,0,0:0:0:0:
224,128,153805,1,8,0:0:0:0:
224,128,153955,1,0,0:0:0:0:
224,128,154055,1,8,0:0:0:0:
224,128,154205,1,8,0:0:0:0:
224,128,154305,1,0,0:0:0:0:
224,128,154455,1,0,0:0:0:0:
221,62,154505,1,0,0:0:0:0:
224,128,154555,1,8,0:0:0:0:
224,128,154705,1,0,0:0:0:0:
224,128,154805,1,8,0:0:0:0:
224,128,154955,1,0,0:0:0:0:
224,128,155055,1,0,0:0:0:0:
224,128,155205,1,8,0:0:0:0:
224,128,155305,1,4,0:0:0:0:
224,96,155455,1,8,0:0:0:0:
224,96,155555,1,0,0:0:0:0:
224,96,155805,1,8,0:0:0:0:
224,128,155955,1,0,0:0:0:0:
224,128,156055,1,8,0:0:0:0:
224,128,156205,1,8,0:0:0:0:
224,128,156305,1,0,0:0:0:0:
224,128,156455,1,0,0:0:0:0:
224,128,156555,1,0,0:0:0:0:
224,128,156705,1,0,0:0:0:0:
224,128,156805,1,8,0:0:0:0:
224,128,157055,1,8,0:0:0:0:
224,128,157205,1,0,0:0:0:0:
224,128,157305,1,8,0:0:0:0:
224,128,157455,1,8,0:0:0:0:
224,128,157555,1,0,0:0:0:0:
224,128,157705,1,0,0:0:0:0:
224,128,157805,1,8,0:0:0:0:
224,128,157955,1,8,0:0:0:0:
224,128,158055,1,8,0:0:0:0:
224,128,158205,1,8,0:0:0:0:
224,128,158305,1,0,0:0:0:0:
224,128,158555,1,8,0:0:0:0:
224,128,158705,1,0,0:0:0:0:
224,128,158805,1,8,0:0:0:0:
224,128,158955,1,0,0:0:0:0:
224,128,159055,1,8,0:0:0:0:
224,128,159205,1,8,0:0:0:0:
224,128,159305,1,0,0:0:0:0:
224,128,159555,1,8,0:0:0:0:
224,128,159705,1,8,0:0:0:0:
224,128,159805,1,0,0:0:0:0:
224,128,160055,1,0,0:0:0:0:
224,128,160205,1,8,0:0:0:0:
224,128,160305,1,0,0:0:0:0:
224,128,160455,1,0,0:0:0:0:
224,128,160555,1,8,0:0:0:0:
224,128,160705,1,8,0:0:0:0:
224,128,160955,1,0,0:0:0:0:
224,128,161055,1,8,0:0:0:0:
224,128,161205,1,8,0:0:0:0:
224,128,161305,1,0,0:0:0:0:
224,128,161555,1,8,0:0:0:0:
224,128,161705,1,0,0:0:0:0:
224,128,161805,1,8,0:0:0:0:
224,128,161955,1,0,0:0:0:0:
224,128,162055,1,0,0:0:0:0:
224,128,162205,1,8,0:0:0:0:
224,128,162305,1,0,0:0:0:0:
224,128,162455,1,0,0:0:0:0:
224,128,162505,1,0,0:0:0:0:
224,128,162555,1,8,0:0:0:0:
224,128,162705,1,0,0:0:0:0:
224,128,163305,5,0,0:0:0:0:
192,96,163455,1,0,0:0:0:0:
224,128,163555,1,8,0:0:0:0:
224,128,163680,1,0,0:0:0:0:
224,128,163742,1,0,0:0:0:0:
224,128,163805,1,8,0:0:0:0:
224,128,163955,1,0,0:0:0:0:
224,128,164205,1,0,0:0:0:0:
224,128,164305,1,8,0:0:0:0:
224,128,164455,1,8,0:0:0:0:
224,128,164555,1,0,0:0:0:0:
224,128,164705,1,8,0:0:0:0:
224,128,164955,1,8,0:0:0:0:
224,128,165055,1,0,0:0:0:0:
224,128,165180,1,8,0:0:0:0:
224,128,165242,1,8,0:0:0:0:
224,128,165305,1,0,0:0:0:0:
224,128,165455,1,8,0:0:0:0:
224,128,165555,1,0,0:0:0:0:
224,128,165705,1,8,0:0:0:0:
224,128,165955,1,8,0:0:0:0:
224,128,166055,1,8,0:0:0:0:
224,128,166205,1,0,0:0:0:0:
224,128,166305,1,8,0:0:0:0:
224,128,166455,1,0,0:0:0:0:
224,128,166705,1,8,0:0:0:0:
224,160,166805,1,0,0:0:0:0:
256,160,166955,1,8,0:0:0:0:
256,160,167055,1,0,0:0:0:0:
256,160,167205,1,8,0:0:0:0:
