osu file format v14

[General]
AudioFilename: audio.mp3
AudioLeadIn: 0
PreviewTime: 74793
Countdown: 0
SampleSet: Soft
StackLeniency: 0.7
Mode: 0
LetterboxInBreaks: 0
WidescreenStoryboard: 0

[Editor]
Bookmarks: 426,11992,29341,40907,52474,64040,75606,104522,116088,127654,139221,150787,162353,191269,202835,214401,228859,257775,263558,282353,291028
DistanceSpacing: 0.9
BeatDivisor: 8
GridSize: 4
TimelineZoom: 2.3

[Metadata]
Title:Andromeda
TitleUnicode:Andromeda
Artist:Hoshimachi Suisei
ArtistUnicode:星街すいせい
Creator:Amateurre
Version:Shooting Star
Source:
Tags:vtuber virtual youtuber hololive ホロライブ ナノウ nanou japanese pop jpop j-pop still stellar suichan hosimati hoshimati hosimachi sui-chan koldnoodl midorijeon bongo
BeatmapID:3416808
BeatmapSetID:1672700

[Difficulty]
HPDrainRate:5
CircleSize:4
OverallDifficulty:7.5
ApproachRate:8.5
SliderMultiplier:3.19999990463257
SliderTickRate:1

[Events]
//Background and Video events
0,0,"suisei5.jpg",0,0
//Break Periods
2,104722,115413
//Storyboard Layer 0 (Background)
//Storyboard Layer 1 (Fail)
//Storyboard Layer 2 (Pass)
//Storyboard Layer 3 (Foreground)
//Storyboard Layer 4 (Overlay)
//Storyboard Sound Samples

[TimingPoints]
426,722.89156626506,4,2,1,40,1,0
9100,-100,4,2,1,60,0,0
10365,-100,4,2,15,60,0,0
11630,-100,4,2,1,60,0,0
11992,-100,4,2,3,75,0,0
12715,-100,4,2,6,75,0,0
12805,-100,4,2,2,75,0,0
13438,-100,4,2,7,75,0,0
13528,-100,4,2,2,75,0,0
14160,-100,4,2,6,75,0,0
14250,-100,4,2,2,75,0,0
14883,-100,4,2,6,75,0,0
14973,-100,4,2,2,75,0,0
15606,-100,4,2,6,75,0,0
15696,-100,4,2,2,75,0,0
16329,-100,4,2,7,75,0,0
16419,-100,4,2,2,75,0,0
17052,-100,4,2,6,75,0,0
17142,-100,4,2,2,75,0,0
17775,-100,4,2,1,75,0,0
18498,-100,4,2,6,75,0,0
18588,-100,4,2,2,75,0,0
19221,-100,4,2,7,75,0,0
19311,-100,4,2,2,75,0,0
19944,-100,4,2,6,75,0,0
20034,-100,4,2,2,75,0,0
20666,-100,4,2,6,75,0,0
20756,-100,4,2,2,75,0,0
21389,-100,4,2,6,75,0,0
21479,-100,4,2,2,75,0,0
22112,-100,4,2,7,75,0,0
22202,-100,4,2,2,75,0,0
22835,-100,4,2,6,75,0,0
22925,-100,4,2,2,75,0,0
23558,-100,4,2,3,75,0,0
24281,-100,4,2,6,75,0,0
24371,-100,4,2,2,75,0,0
25606,-100,4,2,3,75,0,0
25727,-100,4,2,2,75,0,0
26088,-100,4,2,1,75,0,0
29341,-100,4,2,15,55,0,0
29703,-125,4,2,15,55,0,0
52474,-111.111111111111,4,2,15,55,0,0
72715,-111.111111111111,4,2,1,65,0,0
74883,-111.111111111111,4,2,1,75,0,0
75606,-99.9999999999999,4,2,3,80,0,1
76329,-99.9999999999999,4,2,6,80,0,1
76419,-99.9999999999999,4,2,2,80,0,1
77052,-99.9999999999999,4,2,6,80,0,1
77142,-99.9999999999999,4,2,2,80,0,1
77775,-99.9999999999999,4,2,6,80,0,1
77865,-99.9999999999999,4,2,2,80,0,1
78498,-99.9999999999999,4,2,6,80,0,1
78588,-99.9999999999999,4,2,2,80,0,1
79221,-99.9999999999999,4,2,6,80,0,1
79311,-99.9999999999999,4,2,2,80,0,1
79944,-99.9999999999999,4,2,6,80,0,1
80034,-99.9999999999999,4,2,2,80,0,1
80666,-99.9999999999999,4,2,6,80,0,1
80756,-99.9999999999999,4,2,2,80,0,1
81389,-99.9999999999999,4,2,1,80,0,1
82112,-99.9999999999999,4,2,6,80,0,1
82202,-99.9999999999999,4,2,2,80,0,1
82835,-99.9999999999999,4,2,6,80,0,1
82925,-99.9999999999999,4,2,2,80,0,1
83558,-99.9999999999999,4,2,6,80,0,1
83648,-99.9999999999999,4,2,2,80,0,1
84281,-99.9999999999999,4,2,6,80,0,1
84371,-99.9999999999999,4,2,2,80,0,1
85004,-99.9999999999999,4,2,6,80,0,1
85094,-99.9999999999999,4,2,2,80,0,1
85727,-99.9999999999999,4,2,6,80,0,1
85817,-99.9999999999999,4,2,2,80,0,1
86450,-99.9999999999999,4,2,6,80,0,1
86540,-99.9999999999999,4,2,2,80,0,1
87172,-99.9999999999999,4,2,3,80,0,1
87895,-99.9999999999999,4,2,6,80,0,1
87985,-99.9999999999999,4,2,2,80,0,1
88618,-99.9999999999999,4,2,6,80,0,1
88708,-99.9999999999999,4,2,2,80,0,1
89341,-99.9999999999999,4,2,6,80,0,1
89431,-99.9999999999999,4,2,2,80,0,1
90064,-99.9999999999999,4,2,6,80,0,1
90154,-99.9999999999999,4,2,2,80,0,1
90787,-99.9999999999999,4,2,6,80,0,1
90877,-99.9999999999999,4,2,2,80,0,1
91510,-99.9999999999999,4,2,6,80,0,1
91600,-99.9999999999999,4,2,2,80,0,1
92233,-99.9999999999999,4,2,6,80,0,1
92323,-99.9999999999999,4,2,2,80,0,1
92956,-99.9999999999999,4,2,1,80,0,1
93679,-99.9999999999999,4,2,6,80,0,1
93769,-99.9999999999999,4,2,2,80,0,1
94401,-99.9999999999999,4,2,7,80,0,1
94491,-99.9999999999999,4,2,2,80,0,1
95124,-99.9999999999999,4,2,6,80,0,1
95214,-99.9999999999999,4,2,2,80,0,1
95847,-99.9999999999999,4,2,6,80,0,1
95937,-99.9999999999999,4,2,2,80,0,1
96570,-99.9999999999999,4,2,6,80,0,1
96660,-99.9999999999999,4,2,2,80,0,1
97293,-99.9999999999999,4,2,6,80,0,1
97383,-99.9999999999999,4,2,2,80,0,1
98016,-99.9999999999999,4,2,6,80,0,1
98106,-99.9999999999999,4,2,2,80,0,1
98739,-99.9999999999999,4,2,3,80,0,1
99462,-99.9999999999999,4,2,6,80,0,1
99552,-99.9999999999999,4,2,2,80,0,1
101269,-250,4,2,2,70,0,1
102715,-250,4,2,2,65,0,1
104522,-250,4,2,15,55,0,0
116088,-125,4,2,3,65,0,0
116450,-125,4,2,8,65,0,0
116540,-125,4,2,2,65,0,0
116811,-125,4,2,8,65,0,0
116901,-125,4,2,2,65,0,0
117172,-125,4,2,9,65,0,0
117262,-125,4,2,2,65,0,0
117534,-125,4,2,8,65,0,0
117624,-125,4,2,2,65,0,0
117895,-125,4,2,8,65,0,0
117985,-125,4,2,2,65,0,0
118257,-125,4,2,8,65,0,0
118347,-125,4,2,2,65,0,0
118618,-125,4,2,9,65,0,0
118708,-125,4,2,2,65,0,0
118980,-125,4,2,8,65,0,0
119070,-125,4,2,2,65,0,0
119341,-125,4,2,8,65,0,0
119431,-125,4,2,2,65,0,0
119703,-125,4,2,8,65,0,0
119793,-125,4,2,2,65,0,0
120064,-125,4,2,8,65,0,0
120154,-125,4,2,2,65,0,0
120425,-125,4,2,8,65,0,0
120515,-125,4,2,2,65,0,0
120787,-125,4,2,8,65,0,0
120877,-125,4,2,2,65,0,0
121148,-125,4,2,8,65,0,0
121238,-125,4,2,2,65,0,0
121510,-125,4,2,17,65,0,0
121600,-125,4,2,2,65,0,0
121871,-125,4,2,8,65,0,0
121961,-125,4,2,2,65,0,0
122233,-125,4,2,8,65,0,0
122323,-125,4,2,2,65,0,0
122594,-125,4,2,8,65,0,0
122684,-125,4,2,2,65,0,0
122956,-125,4,2,9,65,0,0
123046,-125,4,2,2,65,0,0
123317,-125,4,2,9,65,0,0
123407,-125,4,2,2,65,0,0
123679,-125,4,2,9,65,0,0
123769,-125,4,2,2,65,0,0
124040,-125,4,2,8,65,0,0
124130,-125,4,2,2,65,0,0
124401,-125,4,2,8,65,0,0
124491,-125,4,2,2,65,0,0
124763,-125,4,2,8,65,0,0
124853,-125,4,2,2,65,0,0
125124,-125,4,2,8,65,0,0
125214,-125,4,2,2,65,0,0
125486,-125,4,2,8,65,0,0
125576,-125,4,2,2,65,0,0
125847,-125,4,2,9,65,0,0
125937,-125,4,2,2,65,0,0
126209,-125,4,2,8,65,0,0
126299,-125,4,2,2,65,0,0
126570,-125,4,2,8,65,0,0
126660,-125,4,2,2,65,0,0
126932,-125,4,2,8,65,0,0
127022,-125,4,2,2,65,0,0
127293,-125,4,2,16,65,0,0
127383,-125,4,2,2,65,0,0
128016,-125,4,2,8,65,0,0
128106,-125,4,2,2,65,0,0
128377,-125,4,2,8,65,0,0
128467,-125,4,2,2,65,0,0
128739,-125,4,2,9,65,0,0
128829,-125,4,2,2,65,0,0
129100,-125,4,2,8,65,0,0
129190,-125,4,2,2,65,0,0
129462,-125,4,2,8,65,0,0
129552,-125,4,2,2,65,0,0
129823,-125,4,2,8,65,0,0
129913,-125,4,2,2,65,0,0
130185,-125,4,2,9,65,0,0
130275,-125,4,2,2,65,0,0
130546,-125,4,2,8,65,0,0
130636,-125,4,2,2,65,0,0
130907,-125,4,2,8,65,0,0
130997,-125,4,2,2,65,0,0
131269,-125,4,2,8,65,0,0
131359,-125,4,2,2,65,0,0
131630,-125,4,2,8,65,0,0
131720,-125,4,2,2,65,0,0
131992,-125,4,2,8,65,0,0
132082,-125,4,2,2,65,0,0
132353,-125,4,2,8,65,0,0
132443,-125,4,2,2,65,0,0
132715,-125,4,2,8,65,0,0
132805,-125,4,2,2,65,0,0
133076,-125,4,2,17,65,0,0
133166,-125,4,2,2,65,0,0
133438,-125,4,2,8,65,0,0
133528,-125,4,2,2,65,0,0
133799,-125,4,2,8,65,0,0
133889,-125,4,2,2,65,0,0
134160,-125,4,2,8,65,0,0
134250,-125,4,2,2,65,0,0
134522,-125,4,2,9,65,0,0
134612,-125,4,2,2,65,0,0
134883,-125,4,2,9,65,0,0
134973,-125,4,2,2,65,0,0
135245,-125,4,2,9,65,0,0
135335,-125,4,2,2,65,0,0
135606,-125,4,2,8,65,0,0
135696,-125,4,2,2,65,0,0
135968,-125,4,2,8,65,0,0
136058,-125,4,2,2,65,0,0
136329,-125,4,2,8,65,0,0
136419,-125,4,2,2,65,0,0
136691,-125,4,2,8,65,0,0
136781,-125,4,2,2,65,0,0
137052,-125,4,2,8,65,0,0
137142,-125,4,2,2,65,0,0
137413,-125,4,2,8,65,0,0
137503,-125,4,2,2,65,0,0
137775,-125,4,2,8,65,0,0
137865,-125,4,2,2,65,0,0
138136,-125,4,2,16,65,0,0
138226,-125,4,2,2,65,0,0
139221,-111.111111111111,4,2,3,65,0,0
139582,-111.111111111111,4,2,8,65,0,0
139672,-111.111111111111,4,2,2,65,0,0
139944,-111.111111111111,4,2,8,65,0,0
140034,-111.111111111111,4,2,2,65,0,0
140305,-111.111111111111,4,2,9,65,0,0
140395,-111.111111111111,4,2,2,65,0,0
140666,-111.111111111111,4,2,8,65,0,0
140756,-111.111111111111,4,2,2,65,0,0
141028,-111.111111111111,4,2,8,65,0,0
141118,-111.111111111111,4,2,2,65,0,0
141389,-111.111111111111,4,2,8,65,0,0
141479,-111.111111111111,4,2,2,65,0,0
141751,-111.111111111111,4,2,9,65,0,0
141841,-111.111111111111,4,2,2,65,0,0
142112,-111.111111111111,4,2,8,65,0,0
142202,-111.111111111111,4,2,2,65,0,0
142474,-111.111111111111,4,2,8,65,0,0
142564,-111.111111111111,4,2,2,65,0,0
142835,-111.111111111111,4,2,8,65,0,0
142925,-111.111111111111,4,2,2,65,0,0
143197,-111.111111111111,4,2,9,65,0,0
143287,-111.111111111111,4,2,2,65,0,0
143558,-111.111111111111,4,2,8,65,0,0
143648,-111.111111111111,4,2,2,65,0,0
143919,-111.111111111111,4,2,8,65,0,0
144009,-111.111111111111,4,2,2,65,0,0
144281,-111.111111111111,4,2,8,65,0,0
144371,-111.111111111111,4,2,2,65,0,0
144642,-111.111111111111,4,2,17,65,0,0
144732,-111.111111111111,4,2,2,65,0,0
145004,-111.111111111111,4,2,8,65,0,0
145094,-111.111111111111,4,2,2,65,0,0
145365,-111.111111111111,4,2,8,65,0,0
145455,-111.111111111111,4,2,2,65,0,0
145727,-111.111111111111,4,2,8,65,0,0
145817,-111.111111111111,4,2,2,65,0,0
146088,-111.111111111111,4,2,9,65,0,0
146178,-111.111111111111,4,2,2,65,0,0
146450,-111.111111111111,4,2,8,65,0,0
146540,-111.111111111111,4,2,2,65,0,0
146811,-111.111111111111,4,2,8,65,0,0
146901,-111.111111111111,4,2,2,65,0,0
147172,-111.111111111111,4,2,8,65,0,0
147262,-111.111111111111,4,2,2,65,0,0
147534,-111.111111111111,4,2,9,65,0,0
147624,-111.111111111111,4,2,2,65,0,0
147895,-111.111111111111,4,2,8,65,0,0
147985,-111.111111111111,4,2,2,65,0,0
148257,-111.111111111111,4,2,8,65,0,0
148347,-111.111111111111,4,2,2,65,0,0
148618,-111.111111111111,4,2,8,65,0,0
148708,-111.111111111111,4,2,2,65,0,0
148980,-111.111111111111,4,2,8,65,0,0
149070,-111.111111111111,4,2,2,65,0,0
149341,-111.111111111111,4,2,8,65,0,0
149431,-111.111111111111,4,2,2,65,0,0
149703,-111.111111111111,4,2,8,65,0,0
149793,-111.111111111111,4,2,2,65,0,0
150064,-111.111111111111,4,2,8,65,0,0
150154,-111.111111111111,4,2,2,65,0,0
150425,-111.111111111111,4,2,17,65,0,0
150515,-111.111111111111,4,2,2,65,0,0
150787,-111.111111111111,4,2,3,65,0,0
151148,-111.111111111111,4,2,8,65,0,0
151238,-111.111111111111,4,2,2,65,0,0
151510,-111.111111111111,4,2,8,65,0,0
151600,-111.111111111111,4,2,2,65,0,0
151871,-111.111111111111,4,2,9,65,0,0
151961,-111.111111111111,4,2,2,65,0,0
152233,-111.111111111111,4,2,8,65,0,0
152323,-111.111111111111,4,2,2,65,0,0
152594,-111.111111111111,4,2,8,65,0,0
152684,-111.111111111111,4,2,2,65,0,0
152956,-111.111111111111,4,2,8,65,0,0
153046,-111.111111111111,4,2,2,65,0,0
153317,-111.111111111111,4,2,9,65,0,0
153407,-111.111111111111,4,2,2,65,0,0
153679,-111.111111111111,4,2,8,65,0,0
153769,-111.111111111111,4,2,2,65,0,0
154040,-111.111111111111,4,2,8,65,0,0
154130,-111.111111111111,4,2,2,65,0,0
154401,-111.111111111111,4,2,8,65,0,0
154491,-111.111111111111,4,2,2,65,0,0
154763,-111.111111111111,4,2,9,65,0,0
154853,-111.111111111111,4,2,2,65,0,0
155124,-111.111111111111,4,2,8,65,0,0
155214,-111.111111111111,4,2,2,65,0,0
155486,-111.111111111111,4,2,8,65,0,0
155576,-111.111111111111,4,2,2,65,0,0
155847,-111.111111111111,4,2,8,65,0,0
155937,-111.111111111111,4,2,2,65,0,0
156209,-111.111111111111,4,2,17,65,0,0
156299,-111.111111111111,4,2,2,65,0,0
156570,-111.111111111111,4,2,8,65,0,0
156660,-111.111111111111,4,2,2,65,0,0
156932,-111.111111111111,4,2,8,65,0,0
157022,-111.111111111111,4,2,2,65,0,0
157293,-111.111111111111,4,2,8,65,0,0
157383,-111.111111111111,4,2,2,65,0,0
157654,-111.111111111111,4,2,8,65,0,0
157744,-111.111111111111,4,2,2,65,0,0
158016,-111.111111111111,4,2,8,65,0,0
158106,-111.111111111111,4,2,2,65,0,0
158377,-111.111111111111,4,2,8,65,0,0
158467,-111.111111111111,4,2,2,65,0,0
158739,-111.111111111111,4,2,8,65,0,0
158829,-111.111111111111,4,2,2,65,0,0
159100,-111.111111111111,4,2,17,65,0,0
159190,-111.111111111111,4,2,2,65,0,0
159462,-111.111111111111,4,2,3,65,0,0
160907,-100,4,2,2,75,0,0
161630,-100,4,2,3,75,0,0
162353,-100,4,2,3,80,0,1
163076,-100,4,2,6,80,0,1
163166,-100,4,2,2,80,0,1
163799,-100,4,2,6,80,0,1
163889,-100,4,2,2,80,0,1
164522,-100,4,2,6,80,0,1
164612,-100,4,2,2,80,0,1
165245,-100,4,2,6,80,0,1
165335,-100,4,2,2,80,0,1
165968,-100,4,2,6,80,0,1
166058,-100,4,2,2,80,0,1
166691,-100,4,2,6,80,0,1
166781,-100,4,2,2,80,0,1
167413,-100,4,2,6,80,0,1
167503,-100,4,2,2,80,0,1
168136,-100,4,2,1,80,0,1
168859,-100,4,2,6,80,0,1
168949,-100,4,2,2,80,0,1
169582,-100,4,2,6,80,0,1
169672,-100,4,2,2,80,0,1
170305,-100,4,2,6,80,0,1
170395,-100,4,2,2,80,0,1
171028,-100,4,2,6,80,0,1
171118,-100,4,2,2,80,0,1
171751,-100,4,2,6,80,0,1
171841,-100,4,2,2,80,0,1
172474,-100,4,2,6,80,0,1
172564,-100,4,2,2,80,0,1
173197,-100,4,2,6,80,0,1
173287,-100,4,2,2,80,0,1
173919,-100,4,2,3,80,0,1
174642,-100,4,2,6,80,0,1
174732,-100,4,2,2,80,0,1
175365,-100,4,2,6,80,0,1
175455,-100,4,2,2,80,0,1
176088,-100,4,2,6,80,0,1
176178,-100,4,2,2,80,0,1
176811,-100,4,2,6,80,0,1
176901,-100,4,2,2,80,0,1
177534,-100,4,2,6,80,0,1
177624,-100,4,2,2,80,0,1
178257,-100,4,2,6,80,0,1
178347,-100,4,2,2,80,0,1
178980,-100,4,2,6,80,0,1
179070,-100,4,2,2,80,0,1
179703,-100,4,2,1,80,0,1
180426,-100,4,2,6,80,0,1
180516,-100,4,2,2,80,0,1
181148,-100,4,2,7,80,0,1
181238,-100,4,2,2,80,0,1
181871,-100,4,2,6,80,0,1
181961,-100,4,2,2,80,0,1
182594,-100,4,2,6,80,0,1
182684,-100,4,2,2,80,0,1
183317,-100,4,2,6,80,0,1
183407,-100,4,2,2,80,0,1
184040,-100,4,2,6,80,0,1
184130,-100,4,2,2,80,0,1
184763,-100,4,2,6,80,0,1
184853,-100,4,2,2,80,0,1
185486,-100,4,2,3,80,0,1
186209,-100,4,2,6,80,0,1
186299,-100,4,2,2,80,0,1
186932,-100,4,2,6,80,0,1
187022,-100,4,2,2,80,0,1
187654,-100,4,2,6,80,0,1
187744,-100,4,2,2,80,0,1
188377,-100,4,2,3,80,0,1
188739,-100,4,2,4,80,0,1
191269,-100,4,2,3,75,0,0
191630,-100,4,2,7,75,0,0
191721,-100,4,2,2,75,0,0
191992,-100,4,2,6,75,0,0
192083,-100,4,2,2,75,0,0
192715,-100,4,2,7,75,0,0
192806,-100,4,2,2,75,0,0
193438,-100,4,2,6,75,0,0
193529,-100,4,2,2,75,0,0
194160,-100,4,2,6,75,0,0
194251,-100,4,2,2,75,0,0
194883,-100,4,2,6,75,0,0
194974,-100,4,2,2,75,0,0
195606,-100,4,2,7,75,0,0
195697,-100,4,2,2,75,0,0
196329,-100,4,2,6,75,0,0
196420,-100,4,2,2,75,0,0
197052,-100,4,2,1,75,0,0
197775,-100,4,2,6,75,0,0
197866,-100,4,2,2,75,0,0
198498,-100,4,2,7,75,0,0
198589,-100,4,2,2,75,0,0
199221,-100,4,2,6,75,0,0
199312,-100,4,2,2,75,0,0
199944,-100,4,2,6,75,0,0
200035,-100,4,2,2,75,0,0
200666,-100,4,2,6,75,0,0
200757,-100,4,2,2,75,0,0
202474,-100,4,2,7,75,0,0
202564,-100,4,2,2,75,0,0
202835,-125,4,2,3,70,0,0
203197,-125,4,2,10,70,0,0
203287,-125,4,2,2,70,0,0
203558,-125,4,2,10,70,0,0
203648,-125,4,2,2,70,0,0
203919,-125,4,2,11,70,0,0
204009,-125,4,2,2,70,0,0
204281,-125,4,2,10,70,0,0
204371,-125,4,2,2,70,0,0
204642,-125,4,2,10,70,0,0
204732,-125,4,2,2,70,0,0
205004,-125,4,2,10,70,0,0
205094,-125,4,2,2,70,0,0
205365,-125,4,2,11,70,0,0
205455,-125,4,2,2,70,0,0
205727,-125,4,2,10,70,0,0
205817,-125,4,2,2,70,0,0
206088,-125,4,2,10,70,0,0
206178,-125,4,2,2,70,0,0
206450,-125,4,2,10,70,0,0
206540,-125,4,2,2,70,0,0
206811,-125,4,2,11,70,0,0
206901,-125,4,2,2,70,0,0
207172,-125,4,2,10,70,0,0
207262,-125,4,2,2,70,0,0
207534,-125,4,2,10,70,0,0
207624,-125,4,2,2,70,0,0
207895,-125,4,2,10,70,0,0
207985,-125,4,2,2,70,0,0
208257,-125,4,2,10,70,0,0
208347,-125,4,2,2,70,0,0
208980,-125,4,2,10,70,0,0
209070,-125,4,2,2,70,0,0
209341,-125,4,2,10,70,0,0
209431,-125,4,2,2,70,0,0
209703,-125,4,2,11,70,0,0
209793,-125,4,2,2,70,0,0
210064,-125,4,2,10,70,0,0
210154,-125,4,2,2,70,0,0
210425,-125,4,2,10,70,0,0
210515,-125,4,2,2,70,0,0
210787,-125,4,2,10,70,0,0
210877,-125,4,2,2,70,0,0
211148,-125,4,2,11,70,0,0
211238,-125,4,2,2,70,0,0
211510,-125,4,2,10,70,0,0
211600,-125,4,2,2,70,0,0
211871,-125,4,2,10,70,0,0
211961,-125,4,2,2,70,0,0
212233,-125,4,2,10,70,0,0
212323,-125,4,2,2,70,0,0
212594,-125,4,2,10,70,0,0
212684,-125,4,2,2,70,0,0
212956,-125,4,2,10,70,0,0
213046,-125,4,2,2,70,0,0
213317,-125,4,2,10,70,0,0
213407,-125,4,2,2,70,0,0
214401,-111.111111111111,4,2,3,70,0,0
214763,-111.111111111111,4,2,10,70,0,0
214853,-111.111111111111,4,2,2,70,0,0
215124,-111.111111111111,4,2,10,70,0,0
215214,-111.111111111111,4,2,2,70,0,0
215486,-111.111111111111,4,2,11,70,0,0
215576,-111.111111111111,4,2,2,70,0,0
215847,-111.111111111111,4,2,10,70,0,0
215937,-111.111111111111,4,2,2,70,0,0
216209,-111.111111111111,4,2,10,70,0,0
216299,-111.111111111111,4,2,2,70,0,0
216570,-111.111111111111,4,2,10,70,0,0
216660,-111.111111111111,4,2,2,70,0,0
216932,-111.111111111111,4,2,11,70,0,0
217022,-111.111111111111,4,2,2,70,0,0
217293,-111.111111111111,4,2,10,70,0,0
217383,-111.111111111111,4,2,2,70,0,0
217654,-111.111111111111,4,2,10,70,0,0
217744,-111.111111111111,4,2,2,70,0,0
218016,-111.111111111111,4,2,10,70,0,0
218106,-111.111111111111,4,2,2,70,0,0
218377,-111.111111111111,4,2,10,70,0,0
218467,-111.111111111111,4,2,2,70,0,0
218739,-111.111111111111,4,2,10,70,0,0
218829,-111.111111111111,4,2,2,70,0,0
219100,-111.111111111111,4,2,10,70,0,0
219190,-111.111111111111,4,2,2,70,0,0
219462,-111.111111111111,4,2,10,70,0,0
219552,-111.111111111111,4,2,2,70,0,0
219823,-111.111111111111,4,2,10,70,0,0
219913,-111.111111111111,4,2,2,70,0,0
220185,-100,4,2,2,70,0,0
220727,-100,4,2,3,70,0,0
221269,-100,4,2,2,70,0,0
221811,-100,4,2,3,70,0,0
223076,-100,4,2,2,70,0,0
223438,-100,4,2,4,45,0,0
223799,-100,4,2,4,50,0,0
224161,-100,4,2,4,55,0,0
224522,-100,4,2,4,60,0,0
224884,-100,4,2,4,65,0,0
225245,-100,4,2,4,70,0,0
225606,-100,4,2,4,75,0,0
227413,-100,4,2,2,70,0,0
228859,-100,4,2,3,80,0,1
229582,-100,4,2,6,80,0,1
229672,-100,4,2,2,80,0,1
230305,-100,4,2,6,80,0,1
230395,-100,4,2,2,80,0,1
231028,-100,4,2,6,80,0,1
231118,-100,4,2,2,80,0,1
231751,-100,4,2,6,80,0,1
231841,-100,4,2,2,80,0,1
232474,-100,4,2,6,80,0,1
232564,-100,4,2,2,80,0,1
233197,-100,4,2,6,80,0,1
233287,-100,4,2,2,80,0,1
233919,-100,4,2,6,80,0,1
234009,-100,4,2,2,80,0,1
234642,-100,4,2,1,80,0,1
235365,-100,4,2,6,80,0,1
235455,-100,4,2,2,80,0,1
236088,-100,4,2,6,80,0,1
236178,-100,4,2,2,80,0,1
236811,-100,4,2,6,80,0,1
236901,-100,4,2,2,80,0,1
237534,-100,4,2,6,80,0,1
237624,-100,4,2,2,80,0,1
238257,-100,4,2,6,80,0,1
238347,-100,4,2,2,80,0,1
238980,-100,4,2,6,80,0,1
239070,-100,4,2,2,80,0,1
239703,-100,4,2,6,80,0,1
239793,-100,4,2,2,80,0,1
240425,-100,4,2,3,80,0,1
241148,-100,4,2,6,80,0,1
241238,-100,4,2,2,80,0,1
241871,-100,4,2,6,80,0,1
241961,-100,4,2,2,80,0,1
242594,-100,4,2,6,80,0,1
242684,-100,4,2,2,80,0,1
243317,-100,4,2,6,80,0,1
243407,-100,4,2,2,80,0,1
244040,-100,4,2,6,80,0,1
244130,-100,4,2,2,80,0,1
244763,-100,4,2,6,80,0,1
244853,-100,4,2,2,80,0,1
245486,-100,4,2,6,80,0,1
245576,-100,4,2,2,80,0,1
246209,-100,4,2,1,80,0,1
246932,-100,4,2,6,80,0,1
247022,-100,4,2,2,80,0,1
247654,-100,4,2,7,80,0,1
247744,-100,4,2,2,80,0,1
248377,-100,4,2,6,80,0,1
248467,-100,4,2,2,80,0,1
249100,-100,4,2,6,80,0,1
249190,-100,4,2,2,80,0,1
249823,-100,4,2,6,80,0,1
249913,-100,4,2,2,80,0,1
250546,-100,4,2,6,80,0,1
250636,-100,4,2,2,80,0,1
251269,-100,4,2,6,80,0,1
251359,-100,4,2,2,80,0,1
251992,-100,4,2,3,80,0,1
252715,-100,4,2,6,80,0,1
252805,-100,4,2,2,80,0,1
253438,-100,4,2,6,80,0,1
253528,-100,4,2,2,80,0,1
254160,-100,4,2,6,80,0,1
254250,-100,4,2,2,80,0,1
254883,-100,4,2,6,80,0,1
254973,-100,4,2,2,80,0,1
255606,-100,4,2,6,80,0,1
255696,-100,4,2,2,80,0,1
256329,-100,4,2,6,80,0,1
256419,-100,4,2,2,80,0,1
257775,-100,4,2,3,75,0,1
258498,-100,4,2,6,75,0,1
258588,-100,4,2,3,75,0,1
261751,-100,4,2,3,60,0,1
262112,-100,4,2,3,60,0,0
263558,-100,4,2,3,75,0,0
264281,-100,4,2,6,75,0,0
264371,-100,4,2,2,75,0,0
265004,-100,4,2,7,75,0,0
265094,-100,4,2,2,75,0,0
265726,-100,4,2,6,75,0,0
265816,-100,4,2,2,75,0,0
266449,-100,4,2,6,75,0,0
266539,-100,4,2,2,75,0,0
267172,-100,4,2,6,75,0,0
267262,-100,4,2,2,75,0,0
267895,-100,4,2,7,75,0,0
267985,-100,4,2,2,75,0,0
268618,-100,4,2,6,75,0,0
268708,-100,4,2,2,75,0,0
269341,-100,4,2,1,75,0,0
270064,-100,4,2,6,75,0,0
270154,-100,4,2,2,75,0,0
270787,-100,4,2,7,75,0,0
270877,-100,4,2,2,75,0,0
271510,-100,4,2,6,75,0,0
271600,-100,4,2,2,75,0,0
272232,-100,4,2,6,75,0,0
272322,-100,4,2,2,75,0,0
272955,-100,4,2,6,75,0,0
273045,-100,4,2,2,75,0,0
273678,-100,4,2,7,75,0,0
273768,-100,4,2,2,75,0,0
274401,-100,4,2,6,75,0,0
274491,-100,4,2,2,75,0,0
275124,-100,4,2,3,75,0,0
275847,-100,4,2,6,75,0,0
275937,-100,4,2,2,75,0,0
277172,-100,4,2,3,75,0,0
277293,-100,4,2,2,75,0,0
277654,-100,4,2,1,75,0,0
278377,-100,4,2,4,45,0,0
278738,-100,4,2,4,50,0,0
279100,-100,4,2,4,55,0,0
279461,-100,4,2,4,60,0,0
279823,-100,4,2,4,65,0,0
280184,-100,4,2,4,70,0,0
280546,-100,4,2,16,75,0,0
282444,-212.765957446809,4,2,1,40,0,0

[Colours]
Combo1 : 102,185,247
Combo2 : 242,98,159
Combo3 : 168,228,251
Combo4 : 181,166,249

[HitObjects]
256,192,6209,12,10,10365,0:1:0:0:
22,295,11630,5,0,0:0:0:0:
22,295,11811,1,0,0:0:0:0:
222,356,11992,2,0,P|319:341|387:334,2,159.999995231628,14|8|8,0:1|0:1|0:2,0:0:0:0:
129,285,12895,2,0,L|118:365,1,79.9999976158142,8|0,0:2|0:0,0:0:0:0:
45,206,13257,6,0,P|121:165|206:202,1,159.999995231628,10|8,0:1|0:2,0:0:0:0:
387,115,13799,2,0,P|387:72|367:40,1,79.9999976158142,8|0,0:1|0:0,0:0:0:0:
307,187,14160,2,0,P|313:229|316:267,1,79.9999976158142,10|0,0:2|0:0,0:0:0:0:
470,286,14522,5,0,0:0:0:0:
362,363,14703,1,8,0:2:0:0:
362,363,14793,1,8,0:2:0:0:
362,363,14883,2,0,P|320:357|280:352,1,79.9999976158142,10|8,0:1|0:2,0:0:0:0:
46,309,15245,2,0,P|91:299|130:300,1,79.9999976158142,8|0,0:1|0:0,0:0:0:0:
179,384,15606,1,10,0:2:0:0:
217,198,15787,2,0,P|222:240|226:282,1,79.9999976158142,8|0,0:2|0:0,0:0:0:0:
25,384,16148,6,0,P|16:299|6:221,1,159.999995231628,10|8,0:1|0:2,0:0:0:0:
125,120,16691,2,0,P|120:162|117:200,1,79.9999976158142,8|0,0:1|0:0,0:0:0:0:
221,304,17052,1,10,0:2:0:0:
110,384,17233,1,10,0:2:0:0:
233,314,17413,2,0,P|277:305|313:301,1,79.9999976158142,10|0,0:1|0:0,0:0:0:0:
506,167,17775,6,0,P|442:210|353:182,2,159.999995231628,14|8|8,0:1|0:1|0:2,0:0:0:0:
412,41,18679,2,0,P|420:80|423:120,1,79.9999976158142,8|0,0:2|0:0,0:0:0:0:
269,226,19040,2,0,B|225:212|185:236|205:257|160:291|108:257,1,159.999995231628,10|8,0:1|0:2,0:0:0:0:
38,196,19582,2,0,P|86:191|120:187,1,79.9999976158142,8|0,0:1|0:0,0:0:0:0:
252,303,19944,2,0,P|313:329|402:279,1,159.999995231628,10|0,0:2|0:0,0:0:0:0:
512,229,20486,5,8,0:2:0:0:
512,229,20576,1,8,0:2:0:0:
512,229,20666,2,0,P|506:271|501:311,1,79.9999976158142,10|8,0:1|0:2,0:0:0:0:
359,173,21028,2,0,P|348:134|361:97,1,79.9999976158142,8|0,0:1|0:0,0:0:0:0:
277,231,21389,1,8,0:2:0:0:
512,142,21570,2,0,P|473:136|432:131,1,79.9999976158142,8|0,0:2|0:0,0:0:0:0:
281,23,21932,6,0,B|237:9|197:33|217:54|172:88|120:54,1,159.999995231628,10|8,0:1|0:2,0:0:0:0:
0,142,22474,2,0,P|39:136|79:131,1,79.9999976158142,8|0,0:1|0:0,0:0:0:0:
278,156,22835,1,10,0:2:0:0:
136,62,23016,1,8,0:2:0:0:
295,156,23197,1,8,0:2:0:0:
61,245,23377,1,8,0:2:0:0:
182,142,23558,6,0,P|177:184|174:221,1,79.9999976158142,14|0,0:1|0:0,0:0:0:0:
267,366,23919,2,0,P|269:326|274:286,1,79.9999976158142,8|0,0:1|0:0,0:0:0:0:
92,321,24281,2,0,P|131:316|171:313,1,79.9999976158142,8|0,0:2|0:0,0:0:0:0:
372,244,24642,1,8,0:1:0:0:
213,181,24823,1,8,0:1:0:0:
359,352,25004,6,0,L|441:337,2,53.3333317438762,10|10|10,0:2|0:2|0:2,0:0:0:0:
274,286,25365,1,10,0:3:0:0:
277,268,25485,1,6,0:3:0:0:
280,250,25606,1,10,0:3:0:0:
283,233,25726,1,10,0:2:0:0:
20,338,26088,1,14,0:1:0:0:
256,192,26179,12,8,29341,0:1:0:0:
122,272,29703,6,0,P|91:264|59:257,1,63.9999980926514,10|0,0:1|0:0,0:0:0:0:
10,324,30064,2,0,P|72:337|134:353,1,127.999996185303,10|0,0:2|0:0,0:0:0:0:
206,305,30606,1,2,0:2:0:0:
464,362,30968,6,0,L|471:298,1,63.9999980926514
400,229,31329,2,0,L|407:165,2,63.9999980926514,2|2|0,0:2|0:2|0:0,0:0:0:0:
332,287,31871,1,2,0:2:0:0:
332,287,32052,2,0,P|268:293|192:308,1,127.999996185303,2|2,0:2|0:2,0:0:0:0:
134,353,32594,1,10,0:1:0:0:
15,210,32956,6,0,P|51:172|149:185,1,127.999996185303,8|0,0:2|0:0,0:0:0:0:
123,168,33679,1,0,0:0:0:0:
123,168,34040,1,0,0:0:0:0:
274,124,34401,6,0,L|290:36,1,63.9999980926514,2|0,0:2|0:0,0:0:0:0:
211,9,34763,2,0,L|199:71,1,63.9999980926514,2|2,0:2|0:2,0:0:0:0:
274,124,35124,2,0,P|337:114|424:107,1,127.999996185303,10|8,0:1|0:1,0:0:0:0:
112,46,35847,6,0,P|63:53|20:58,1,63.9999980926514,10|0,0:2|0:0,0:0:0:0:
6,138,36209,2,0,P|37:133|69:129,1,63.9999980926514,2|2,0:2|0:2,0:0:0:0:
142,191,36570,2,0,P|132:251|122:317,1,127.999996185303,2|0,0:2|0:0,0:0:0:0:
198,364,37112,2,0,P|258:354|324:344,1,127.999996185303,2|0,0:2|0:0,0:0:0:0:
324,344,37654,1,0,0:0:0:0:
424,384,37835,5,2,0:2:0:0:
424,384,37925,1,0,0:0:0:0:
424,384,38016,2,0,P|443:316|397:262,1,127.999996185303,10|8,0:1|0:1,0:0:0:0:
330,203,38558,2,0,P|361:149|422:137,1,127.999996185303,2|2,0:2|0:2,0:0:0:0:
422,137,39100,1,2,0:2:0:0:
422,280,39281,5,0,0:0:0:0:
422,280,39371,1,0,0:0:0:0:
422,280,39462,2,0,P|411:320|402:380,2,95.9999971389771
330,203,40185,2,0,P|243:219|71:267,1,255.999992370606,0|8,0:0|0:1,0:0:0:0:
22,103,41269,6,0,P|28:60|36:33,1,63.9999980926514,10|0,0:1|0:0,0:0:0:0:
113,54,41630,2,0,P|105:84|101:116,1,63.9999980926514,10|0,0:2|0:0,0:0:0:0:
57,179,41992,1,2,0:2:0:0:
130,213,42172,2,0,P|191:197|269:185,1,127.999996185303,2|0,0:2|0:0,0:0:0:0:
419,351,42895,6,0,P|466:341|508:339,1,63.9999980926514,2|2,0:2|0:2,0:0:0:0:
470,265,43257,2,0,P|438:268|407:276,1,63.9999980926514,0|2,0:0|0:2,0:0:0:0:
309,360,43618,2,0,P|318:296|328:233,1,127.999996185303,2|2,0:2|0:2,0:0:0:0:
342,154,44160,1,10,0:1:0:0:
174,333,44522,6,0,P|114:342|49:360,1,127.999996185303,8|0,0:2|0:0,0:0:0:0:
49,360,45245,1,0,0:0:0:0:
49,360,45606,1,0,0:0:0:0:
94,203,45968,6,0,P|88:169|81:140,1,63.9999980926514,2|0,0:2|0:0,0:0:0:0:
4,159,46329,2,0,P|11:190|16:221,1,63.9999980926514,2|2,0:2|0:2,0:0:0:0:
176,220,46691,2,0,P|163:154|150:94,1,127.999996185303,10|8,0:1|0:1,0:0:0:0:
246,268,47413,6,0,P|280:274|308:280,1,63.9999980926514,10|0,0:2|0:0,0:0:0:0:
417,224,47774,2,0,P|385:216|354:211,1,63.9999980926514,2|2,0:2|0:2,0:0:0:0:
193,333,48136,2,0,P|161:282|195:200,1,127.999996185303,2|0,0:2|0:0,0:0:0:0:
266,126,48679,2,0,P|256:69|242:0,1,127.999996185303,2|2,0:2|0:2,0:0:0:0:
161,93,49221,1,0,0:0:0:0:
360,52,49401,5,2,0:2:0:0:
360,52,49492,1,0,0:0:0:0:
360,52,49582,2,0,P|426:66|502:88,2,127.999996185303,8|8|8,0:1|0:1|0:2,0:0:0:0:
277,210,50666,6,0,P|282:237|285:273,1,63.9999980926514
267,285,50938,1,0,0:0:0:0:
267,285,51028,2,0,B|216:322|233:388|304:442|438:419|319:243|436:162|539:255|566:320|508:373|463:354,1,479.999985694885
471,356,52474,6,0,P|422:333|379:331,1,71.9999956569673,14|0,0:1|0:0,0:0:0:0:
330,187,52835,1,8,0:1:0:0:
253,233,53016,1,0,0:0:0:0:
253,233,53106,1,0,0:0:0:0:
253,233,53197,2,0,P|287:224|319:206,1,71.9999956569673,8|0,0:2|0:0,0:0:0:0:
451,117,53558,1,2,0:2:0:0:
337,25,53739,1,2,0:2:0:0:
357,113,53919,6,0,P|371:179|384:271,1,143.999991313935,0|2,0:0|0:2,0:0:0:0:
382,254,54462,1,2,0:2:0:0:
253,384,54642,2,0,P|242:312|227:242,1,143.999991313935,0|2,0:0|0:2,0:0:0:0:
227,242,55185,1,2,0:2:0:0:
94,133,55365,6,0,P|101:82|108:49,1,71.9999956569673,8|0,0:1|0:0,0:0:0:0:
171,181,55727,1,8,0:1:0:0:
101,227,55907,1,0,0:0:0:0:
101,227,55998,1,0,0:0:0:0:
101,227,56088,2,0,P|51:217|14:215,1,71.9999956569673,8|0,0:2|0:0,0:0:0:0:
182,94,56450,1,2,0:2:0:0:
256,151,56630,5,2,0:2:0:0:
256,151,56721,1,0,0:0:0:0:
256,151,56811,2,0,P|322:165|414:178,1,143.999991313935,0|2,0:0|0:2,0:0:0:0:
397,176,57353,1,2,0:2:0:0:
512,302,57534,2,0,P|446:288|354:275,1,143.999991313935,0|2,0:0|0:2,0:0:0:0:
370,276,58076,1,2,0:2:0:0:
175,371,58257,5,8,0:1:0:0:
234,235,58438,1,0,0:0:0:0:
326,358,58618,1,8,0:1:0:0:
245,320,58799,1,0,0:0:0:0:
318,199,58980,6,0,P|303:120|283:40,1,143.999991313935,8|2,0:2|0:2,0:0:0:0:
287,58,59522,1,2,0:2:0:0:
403,162,59703,2,0,P|409:197|415:232,1,71.9999956569673
320,361,60064,1,2,0:2:0:0:
228,319,60245,1,2,0:2:0:0:
228,319,60335,1,0,0:0:0:0:
228,319,60425,2,0,P|156:330|86:345,1,143.999991313935,0|2,0:0|0:2,0:0:0:0:
86,345,60968,1,2,0:2:0:0:
129,162,61148,5,8,0:1:0:0:
26,227,61329,1,0,0:0:0:0:
44,143,61510,1,8,0:1:0:0:
110,246,61691,1,0,0:0:0:0:
220,130,61871,2,0,P|282:121|369:102,1,143.999991313935,8|2,0:2|0:2,0:0:0:0:
361,103,62413,1,2,0:2:0:0:
489,203,62594,6,0,P|504:88|509:55,1,143.999991313935,0|2,0:0|0:2,0:0:0:0:
508,60,63136,1,2,0:2:0:0:
381,197,63317,2,0,P|366:312|361:345,1,143.999991313935,0|2,0:0|0:2,0:0:0:0:
361,339,63859,1,2,0:2:0:0:
171,300,64040,5,12,0:1:0:0:
238,198,64221,1,0,0:0:0:0:
153,215,64402,1,8,0:1:0:0:
265,286,64582,1,0,0:0:0:0:
265,286,64672,1,0,0:0:0:0:
265,286,64763,2,0,P|304:274|336:267,1,71.9999956569673,8|0,0:2|0:0,0:0:0:0:
473,128,65124,6,0,P|461:71|452:45,1,71.9999956569673,2|0,0:2|0:0,0:0:0:0:
411,211,65486,2,0,P|420:245|427:281,1,71.9999956569673,2|0,0:2|0:0,0:0:0:0:
299,87,65847,2,0,P|357:102|392:108,1,71.9999956569673,2|0,0:2|0:0,0:0:0:0:
334,268,66209,2,0,P|298:260|264:250,1,71.9999956569673,2|0,0:2|0:0,0:0:0:0:
84,269,66570,2,0,P|91:304|94:340,1,71.9999956569673,2|0,0:2|0:0,0:0:0:0:
174,360,66841,5,0,0:0:0:0:
174,360,66932,2,0,P|166:277|150:208,1,143.999991313935,8|8,0:1|0:1,0:0:0:0:
152,217,67654,2,0,P|162:166|172:132,1,71.9999956569673,10|0,0:2|0:0,0:0:0:0:
161,8,68016,6,0,P|89:19|14:40,1,143.999991313935,2|0,0:2|0:0,0:0:0:0:
20,37,68558,1,0,0:0:0:0:
91,124,68739,2,0,P|160:105|231:94,1,143.999991313935
365,20,69281,1,2,0:2:0:0:
427,149,69462,1,2,0:2:0:0:
334,107,69642,1,0,0:0:0:0:
477,19,69823,6,0,P|455:79|436:160,1,143.999991313935,10|10,0:1|0:1,0:0:0:0:
287,256,70365,2,0,P|311:188|327:118,1,143.999991313935,2|2,0:2|0:2,0:0:0:0:
197,14,70907,2,0,P|212:66|217:111,1,71.9999956569673,2|0,0:2|0:0,0:0:0:0:
149,160,71269,1,0,0:0:0:0:
149,160,71630,6,0,P|84:152|54:153,1,71.9999956569673,2|0,0:2|0:0,0:0:0:0:
307,279,71992,2,0,P|372:287|402:286,1,71.9999956569673,2|0,0:2|0:0,0:0:0:0:
239,160,72353,5,2,0:2:0:0:
216,250,72534,1,0,0:0:0:0:
193,340,72715,1,2,0:2:0:0:
256,192,72805,12,2,74883,0:2:0:0:
12,290,75606,6,0,P|71:278|129:272,1,79.9999976158142,14|0,0:1|0:0,0:0:0:0:
331,240,75968,2,0,P|291:233|252:225,1,79.9999976158142,10|2,0:1|0:2,0:0:0:0:
143,139,76329,1,8,0:2:0:0:
177,292,76510,2,0,P|187:354|187:392,1,79.9999976158142,10|2,0:2|0:2,0:0:0:0:
343,233,76871,6,0,P|381:168|340:71,1,159.999995231628,8|8,0:1|0:2,0:0:0:0:
294,152,77413,1,8,0:1:0:0:
486,32,77594,1,2,0:2:0:0:
486,32,77685,1,0,0:0:0:0:
486,32,77775,2,0,P|466:99|464:131,1,79.9999976158142,10|2,0:2|0:2,0:0:0:0:
260,86,78136,2,0,P|274:123|282:163,1,79.9999976158142,2|10,0:2|0:2,0:0:0:0:
460,299,78498,5,10,0:1:0:0:
393,172,78679,1,8,0:2:0:0:
228,263,78859,2,0,P|278:247|323:246,1,79.9999976158142,10|2,0:1|0:2,0:0:0:0:
475,114,79221,1,8,0:2:0:0:
492,202,79401,2,0,P|452:197|414:183,1,79.9999976158142,10|2,0:2|0:2,0:0:0:0:
248,79,79763,6,0,P|163:95|71:125,1,159.999995231628,8|8,0:1|0:2,0:0:0:0:
190,333,80305,2,0,P|202:262|208:237,1,79.9999976158142,8|2,0:1|0:2,0:0:0:0:
212,231,80576,1,0,0:0:0:0:
212,231,80666,1,10,0:2:0:0:
92,116,80847,1,10,0:2:0:0:
46,280,81028,1,10,0:1:0:0:
119,206,81209,1,2,0:2:0:0:
293,367,81389,6,0,P|332:359|372:355,1,79.9999976158142,14|0,0:1|0:0,0:0:0:0:
125,291,81751,2,0,P|85:283|45:279,1,79.9999976158142,10|2,0:1|0:2,0:0:0:0:
223,203,82112,1,8,0:2:0:0:
202,379,82293,2,0,P|211:320|223:272,1,79.9999976158142,10|2,0:2|0:2,0:0:0:0:
170,118,82654,6,0,P|249:110|318:164,1,159.999995231628,8|8,0:1|0:2,0:0:0:0:
476,82,83197,2,0,P|409:72|390:63,1,79.9999976158142,8|2,0:1|0:2,0:0:0:0:
380,55,83468,1,0,0:0:0:0:
380,55,83558,1,10,0:2:0:0:
443,179,83739,1,2,0:2:0:0:
261,251,83919,1,2,0:2:0:0:
321,162,84100,5,10,0:2:0:0:
321,162,84191,1,10,0:2:0:0:
321,162,84281,1,10,0:1:0:0:
400,281,84462,1,8,0:2:0:0:
206,340,84642,2,0,P|144:317|113:314,1,79.9999976158142,10|2,0:1|0:2,0:0:0:0:
82,197,85004,1,8,0:2:0:0:
0,238,85185,2,0,P|39:229|75:213,1,79.9999976158142,10|2,0:2|0:2,0:0:0:0:
226,58,85546,6,0,P|144:16|73:60,1,159.999995231628,10|8,0:1|0:2,0:0:0:0:
213,149,86088,2,0,P|287:137|324:131,1,79.9999976158142,8|0,0:1|0:0,0:0:0:0:
512,197,86450,5,10,0:2:0:0:
331,45,86630,1,10,0:2:0:0:
502,27,86811,1,10,0:2:0:0:
349,213,86992,1,10,0:2:0:0:
200,0,87172,6,0,P|190:30|182:73,1,79.9999976158142,14|0,0:1|0:0,0:0:0:0:
94,255,87534,2,0,P|86:215|76:177,1,79.9999976158142,10|2,0:1|0:2,0:0:0:0:
19,106,87895,1,8,0:2:0:0:
239,169,88076,2,0,P|163:150|138:147,1,79.9999976158142,10|2,0:2|0:2,0:0:0:0:
16,314,88438,6,0,P|61:341|164:316,1,159.999995231628,8|8,0:1|0:2,0:0:0:0:
373,231,88980,2,0,P|359:294|356:319,1,79.9999976158142,8|2,0:1|0:2,0:0:0:0:
257,360,89251,1,0,0:0:0:0:
257,360,89341,2,0,P|263:320|273:281,1,79.9999976158142,10|2,0:2|0:2,0:0:0:0:
441,167,89703,1,2,0:2:0:0:
257,34,89883,5,8,0:2:0:0:
257,34,89974,1,8,0:2:0:0:
257,34,90064,1,10,0:1:0:0:
283,206,90245,1,8,0:2:0:0:
265,38,90425,2,0,P|282:95|285:124,1,79.9999976158142,10|2,0:1|0:2,0:0:0:0:
201,230,90787,1,8,0:2:0:0:
352,266,90968,2,0,P|402:281|452:314,1,79.9999976158142,10|2,0:2|0:2,0:0:0:0:
502,104,91329,6,0,P|431:86|359:141,1,159.999995231628,8|8,0:1|0:2,0:0:0:0:
179,83,91871,2,0,P|176:43|171:3,1,79.9999976158142,8|0,0:1|0:0,0:0:0:0:
11,193,92233,5,10,0:2:0:0:
181,276,92413,1,10,0:2:0:0:
169,96,92594,1,10,0:1:0:0:
126,183,92775,1,2,0:2:0:0:
350,126,92956,6,0,P|377:180|367:231,1,79.9999976158142,14|0,0:1|0:0,0:0:0:0:
331,291,93317,1,10,0:1:0:0:
271,190,93498,1,2,0:2:0:0:
225,344,93679,1,8,0:2:0:0:
429,262,93859,1,8,0:2:0:0:
212,348,94040,2,0,P|173:340|134:334,1,79.9999976158142,2|8,0:2|0:1,0:0:0:0:
112,339,94311,1,0,0:0:0:0:
112,339,94401,5,2,0:3:0:0:
2,172,94582,1,8,0:2:0:0:
68,116,94763,2,0,P|137:132|174:137,1,79.9999976158142,10|2,0:1|0:2,0:0:0:0:
351,93,95124,2,0,L|333:7,1,79.9999976158142,8|0,0:2|0:0,0:0:0:0:
250,190,95486,2,0,P|250:229|273:261,1,79.9999976158142,10|8,0:1|0:2,0:0:0:0:
295,275,95757,1,8,0:2:0:0:
296,274,95847,5,10,0:1:0:0:
429,130,96028,1,8,0:2:0:0:
512,243,96209,2,0,P|450:216|409:214,1,79.9999976158142,10|2,0:1|0:2,0:0:0:0:
255,99,96570,1,8,0:2:0:0:
296,274,96751,2,0,P|287:338|284:374,1,79.9999976158142,10|2,0:2|0:2,0:0:0:0:
210,216,97112,6,0,P|278:178|355:196,1,159.999995231628,8|8,0:1|0:2,0:0:0:0:
512,99,97654,2,0,P|473:108|433:109,1,79.9999976158142,8|0,0:1|0:0,0:0:0:0:
197,13,98016,1,10,0:2:0:0:
360,207,98197,1,8,0:2:0:0:
375,28,98377,1,10,0:2:0:0:
181,191,98558,1,8,0:2:0:0:
16,47,98739,6,0,P|59:42|95:35,1,79.9999976158142,14|0,0:1|0:0,0:0:0:0:
299,116,99100,2,0,P|259:108|219:104,1,79.9999976158142,10|0,0:1|0:0,0:0:0:0:
72,236,99462,2,0,P|81:194|89:157,1,79.9999976158142,10|0,0:2|0:0,0:0:0:0:
117,29,99823,1,10,0:1:0:0:
4,117,100004,1,8,0:1:0:0:
219,104,100185,5,8,0:2:0:0:
237,110,100305,2,0,P|261:154|251:197,1,53.3333317438762,8|8,0:2|0:2,0:0:0:0:
232,247,100546,5,10,0:3:0:0:
228,228,100666,2,0,P|254:185|296:172,1,53.3333317438762,4|8,0:3|0:1,0:0:0:0:
337,157,100907,5,10,0:2:0:0:
37,265,101269,6,0,B|-29:263|-33:127|83:143|156:205|151:277|116:290|120:349|261:409|299:310|299:310|273:339|227:329,1,543.999983787537,14|0,0:1|0:0,0:0:0:0:
240,331,104522,1,14,0:1:0:0:
47,381,116088,6,0,P|87:367|127:359,1,63.9999980926514,12|0,0:1|0:0,0:0:0:0:
204,277,116450,2,0,P|172:269|142:258,1,63.9999980926514,10|2,0:1|0:2,0:0:0:0:
27,166,116811,2,0,P|45:232|61:308,2,127.999996185303,10|2|2,0:2|0:3|0:3,0:0:0:0:
130,16,117895,1,2,0:3:0:0:
200,74,118076,1,2,0:2:0:0:
200,74,118166,1,0,0:0:0:0:
200,74,118257,2,0,P|230:65|262:60,1,63.9999980926514,10|2,0:2|0:2,0:0:0:0:
371,118,118618,1,2,0:3:0:0:
313,6,118799,5,10,0:2:0:0:
313,6,118889,1,8,0:2:0:0:
313,6,118980,2,0,P|302:58|285:149,2,127.999996185303,8|10|8,0:1|0:1|0:2,0:0:0:0:
452,158,120064,1,2,0:3:0:0:
452,158,120425,2,0,P|442:205|436:248,1,63.9999980926514,2|0,0:3|0:0,0:0:0:0:
386,326,120787,2,0,P|381:295|374:264,1,63.9999980926514,2|0,0:3|0:0,0:0:0:0:
331,383,121148,5,10,0:2:0:0:
244,278,121329,1,10,0:1:0:0:
129,364,121510,1,2,0:3:0:0:
224,363,121691,1,2,0:2:0:0:
153,276,121871,2,0,P|138:228|164:147,1,127.999996185303,10|8,0:1|0:1,0:0:0:0:
222,39,122413,1,0,0:0:0:0:
76,59,122594,2,0,P|123:70|158:76,1,63.9999980926514,10|2,0:2|0:2,0:0:0:0:
304,108,122956,2,0,P|272:114|241:121,1,63.9999980926514,2|2,0:3|0:2,0:0:0:0:
241,121,123317,5,2,0:3:0:0:
55,240,123679,1,2,0:3:0:0:
55,240,123859,1,2,0:2:0:0:
139,253,124040,2,0,P|132:221|124:191,1,63.9999980926514,8|0,0:2|0:0,0:0:0:0:
82,321,124401,2,0,P|73:352|68:384,1,63.9999980926514,2|10,0:3|0:2,0:0:0:0:
218,209,124763,6,0,P|268:241|358:229,1,127.999996185303,10|8,0:1|0:1,0:0:0:0:
421,184,125305,1,2,0:2:0:0:
420,287,125486,2,0,P|407:224|391:162,1,127.999996185303,8|2,0:2|0:3,0:0:0:0:
407,37,126028,5,0,0:0:0:0:
407,37,126118,1,0,0:0:0:0:
407,37,126209,2,0,P|351:54|303:64,1,95.9999971389771,2|0,0:3|0:0,0:0:0:0:
296,84,126570,2,0,P|257:72|220:67,1,63.9999980926514,2|0,0:3|0:0,0:0:0:0:
79,130,126932,1,10,0:2:0:0:
155,173,127112,2,0,P|165:131|123:56,1,127.999996185303,10|0,0:1|0:0,0:0:0:0:
78,217,127654,5,12,0:1:0:0:
78,217,128016,2,0,P|87:259|94:306,1,63.9999980926514,10|2,0:1|0:2,0:0:0:0:
248,181,128377,2,0,P|239:223|232:270,1,63.9999980926514,10|2,0:2|0:2,0:0:0:0:
210,384,128739,1,2,0:3:0:0:
170,300,128919,1,2,0:2:0:0:
292,354,129100,6,0,P|326:343|435:321,1,127.999996185303,2|2,0:3|0:3,0:0:0:0:
491,375,129642,1,2,0:2:0:0:
357,200,129823,2,0,P|347:240|336:284,1,63.9999980926514,10|2,0:2|0:2,0:0:0:0:
448,250,130185,1,2,0:3:0:0:
432,157,130365,5,10,0:2:0:0:
432,157,130456,1,8,0:2:0:0:
432,157,130546,2,0,P|372:166|315:119,2,127.999996185303,10|10|8,0:1|0:1|0:2,0:0:0:0:
237,41,131630,1,2,0:3:0:0:
237,41,131992,2,0,P|229:80|223:124,1,63.9999980926514,2|0,0:3|0:0,0:0:0:0:
157,146,132353,2,0,P|165:185|171:229,1,63.9999980926514,2|0,0:3|0:0,0:0:0:0:
90,295,132715,6,0,P|52:288|14:283,1,63.9999980926514,10|10,0:2|0:1,0:0:0:0:
168,208,133076,1,2,0:3:0:0:
219,356,133257,1,2,0:2:0:0:
219,356,133347,1,0,0:0:0:0:
219,356,133438,2,0,P|271:366|332:325,1,127.999996185303,10|8,0:1|0:1,0:0:0:0:
431,271,133980,1,2,0:2:0:0:
336,182,134160,2,0,P|355:237|361:267,1,63.9999980926514,10|2,0:2|0:2,0:0:0:0:
405,375,134522,1,2,0:3:0:0:
405,375,134703,1,2,0:2:0:0:
512,309,134883,6,0,P|520:260|473:192,1,127.999996185303,2|2,0:3|0:3,0:0:0:0:
345,80,135425,1,2,0:2:0:0:
485,99,135606,2,0,P|452:113|401:129,1,63.9999980926514,8|2,0:2|0:2,0:0:0:0:
263,44,135968,1,2,0:3:0:0:
353,168,136148,5,10,0:2:0:0:
353,168,136239,1,8,0:2:0:0:
353,168,136329,2,0,B|285:152|302:210|220:195,1,127.999996185303,8|10,0:1|0:1,0:0:0:0:
174,146,136871,1,0,0:0:0:0:
31,218,137052,2,0,P|5:164|23:92,1,127.999996185303,8|2,0:2|0:3,0:0:0:0:
114,30,137594,5,0,0:0:0:0:
114,30,137685,1,0,0:0:0:0:
114,30,137775,2,0,P|103:80|98:112,1,63.9999980926514,2|0,0:3|0:0,0:0:0:0:
132,280,138136,2,0,P|137:248|145:217,1,63.9999980926514,2|0,0:3|0:0,0:0:0:0:
217,124,138498,5,8,0:2:0:0:
43,212,138679,1,8,0:2:0:0:
207,318,138859,1,4,0:3:0:0:
207,317,139221,6,0,P|259:299|291:288,1,71.9999956569673,14|0,0:1|0:0,0:0:0:0:
357,170,139582,2,0,P|348:214|343:260,1,71.9999956569673,8|0,0:1|0:0,0:0:0:0:
426,365,139944,2,0,P|438:288|453:208,1,143.999991313935,8|2,0:2|0:3,0:0:0:0:
384,78,140486,1,2,0:2:0:0:
507,157,140666,6,0,P|471:146|429:138,1,71.9999956569673,8|0,0:1|0:0,0:0:0:0:
292,74,141028,2,0,P|328:63|370:55,1,71.9999956569673,10|2,0:1|0:2,0:0:0:0:
338,173,141389,2,0,P|350:220|356:263,1,71.9999956569673,8|0,0:2|0:0,0:0:0:0:
232,153,141751,1,2,0:3:0:0:
146,235,141932,5,10,0:2:0:0:
146,235,142022,1,8,0:2:0:0:
146,235,142112,2,0,P|113:178|137:99,2,143.999991313935,8|8|8,0:1|0:1|0:2,0:0:0:0:
11,371,143197,1,2,0:3:0:0:
0,276,143377,5,2,0:2:0:0:
0,276,143468,1,0,0:0:0:0:
0,276,143558,2,0,P|35:283|84:298,1,71.9999956569673,8|0,0:1|0:0,0:0:0:0:
164,165,143919,2,0,P|153:199|145:234,1,71.9999956569673,10|2,0:1|0:2,0:0:0:0:
300,378,144281,1,8,0:2:0:0:
311,224,144462,1,8,0:1:0:0:
147,343,144642,2,0,P|200:326|262:308,1,107.999993485451,2|0,0:3|0:0,0:0:0:0:
250,311,145004,6,0,P|242:275|231:241,1,71.9999956569673,8|0,0:1|0:0,0:0:0:0:
404,201,145365,2,0,P|393:235|385:270,1,71.9999956569673,8|0,0:1|0:0,0:0:0:0:
301,145,145727,2,0,P|286:91|328:11,1,143.999991313935,8|2,0:2|0:3,0:0:0:0:
322,15,146269,1,2,0:2:0:0:
461,114,146450,6,0,P|426:103|391:96,1,71.9999956569673,8|0,0:1|0:0,0:0:0:0:
309,232,146811,2,0,P|343:221|378:214,1,71.9999956569673,10|2,0:1|0:2,0:0:0:0:
259,73,147172,2,0,P|215:118|121:103,1,143.999991313935,8|2,0:2|0:3,0:0:0:0:
33,41,147715,5,10,0:2:0:0:
33,41,147805,1,8,0:2:0:0:
33,41,147895,2,0,P|43:92|50:141,1,71.9999956569673,8|0,0:1|0:0,0:0:0:0:
140,216,148257,2,0,P|145:180|153:145,1,71.9999956569673,8|0,0:1|0:0,0:0:0:0:
3,236,148618,2,0,P|19:294|33:364,1,107.999993485451,8|0,0:2|0:0,0:0:0:0:
18,363,148980,5,10,0:2:0:0:
240,276,149160,2,0,P|282:288|312:294,1,71.9999956569673,10|2,0:1|0:3,0:0:0:0:
149,375,149522,5,8,0:2:0:0:
358,228,149703,2,0,P|391:273|358:371,1,143.999991313935,10|8,0:1|0:2,0:0:0:0:
284,199,150245,2,0,P|274:150|263:105,1,71.9999956569673,8|2,0:1|0:3,0:0:0:0:
236,24,150606,5,2,0:2:0:0:
142,193,150787,1,12,0:1:0:0:
268,128,150968,1,0,0:0:0:0:
159,97,151148,2,0,P|124:103|89:112,1,71.9999956569673,8|0,0:1|0:0,0:0:0:0:
244,13,151510,2,0,P|279:19|314:28,1,71.9999956569673,8|0,0:2|0:0,0:0:0:0:
444,142,151871,1,2,0:3:0:0:
404,14,152052,5,0,0:0:0:0:
404,14,152142,1,0,0:0:0:0:
404,14,152233,2,0,P|390:58|379:100,1,71.9999956569673,10|0,0:1|0:0,0:0:0:0:
474,280,152594,2,0,P|483:245|494:211,1,71.9999956569673,10|0,0:1|0:0,0:0:0:0:
357,162,152956,2,0,P|309:172|260:180,1,71.9999956569673,10|0,0:2|0:0,0:0:0:0:
313,341,153317,2,0,P|361:331|410:323,1,71.9999956569673,2|8,0:3|0:2,0:0:0:0:
397,242,153588,5,8,0:2:0:0:
397,242,153679,2,0,P|331:253|239:274,1,143.999991313935,10|10,0:1|0:1,0:0:0:0:
121,172,154221,1,2,0:2:0:0:
80,247,154401,2,0,P|136:253|204:193,1,143.999991313935,8|2,0:2|0:3,0:0:0:0:
95,76,154944,5,0,0:0:0:0:
95,76,155034,1,0,0:0:0:0:
95,76,155124,2,0,P|110:129|117:167,1,71.9999956569673,8|0,0:1|0:0,0:0:0:0:
222,24,155486,2,0,P|207:77|200:115,1,71.9999956569673,8|0,0:1|0:0,0:0:0:0:
304,189,155847,1,8,0:2:0:0:
201,200,156028,1,10,0:1:0:0:
307,85,156209,1,2,0:3:0:0:
201,200,156389,1,2,0:2:0:0:
372,270,156570,6,0,P|421:256|519:236,1,143.999991313935,10|10,0:1|0:1,0:0:0:0:
384,176,157112,1,2,0:2:0:0:
293,339,157293,2,0,P|274:294|282:251,1,71.9999956569673,8|2,0:2|0:2,0:0:0:0:
305,192,157654,1,10,0:1:0:0:
305,192,157835,1,8,0:1:0:0:
193,318,158016,6,0,P|133:303|65:292,1,107.999993485451,8|0,0:2|0:0,0:0:0:0:
87,294,158377,2,0,P|81:249|101:216,1,71.9999956569673,10|0,0:1|0:0,0:0:0:0:
153,21,158739,2,0,P|165:54|157:89,1,71.9999956569673,10|0,0:2|0:0,0:0:0:0:
40,137,159100,5,2,0:3:0:0:
129,159,159281,1,0,0:0:0:0:
219,182,159462,1,2,0:2:0:0:
256,192,159552,12,0,160546,0:0:0:0:
467,29,160907,5,8,0:1:0:0:
325,181,161088,1,4,0:3:0:0:
256,116,161269,2,0,P|299:104|350:87,1,79.9999976158142,4|8,0:3|0:1,0:0:0:0:
443,236,161630,5,6,0:3:0:0:
325,181,161811,1,10,0:1:0:0:
222,352,161992,5,10,0:2:0:0:
356,273,162172,1,10,0:2:0:0:
205,364,162353,6,0,P|167:353|127:346,1,79.9999976158142,14|0,0:1|0:0,0:0:0:0:
0,216,162715,2,0,P|39:208|78:198,1,79.9999976158142,10|2,0:1|0:2,0:0:0:0:
230,118,163076,1,8,0:2:0:0:
189,270,163257,2,0,P|179:229|162:183,1,79.9999976158142,10|2,0:2|0:2,0:0:0:0:
1,62,163618,6,0,P|39:100|149:93,1,159.999995231628,8|8,0:1|0:2,0:0:0:0:
306,177,164160,1,8,0:1:0:0:
195,233,164341,1,2,0:2:0:0:
195,233,164432,1,0,0:0:0:0:
195,233,164522,2,0,P|203:194|215:156,1,79.9999976158142,10|2,0:2|0:2,0:0:0:0:
394,321,164883,2,0,P|386:281|374:243,1,79.9999976158142,2|10,0:2|0:2,0:0:0:0:
318,76,165245,5,10,0:1:0:0:
287,245,165425,1,8,0:2:0:0:
468,134,165606,2,0,P|428:141|390:153,1,79.9999976158142,10|2,0:1|0:2,0:0:0:0:
235,47,165968,1,8,0:2:0:0:
279,244,166148,2,0,P|291:200|263:146,1,79.9999976158142,10|2,0:2|0:2,0:0:0:0:
116,29,166510,6,0,P|131:95|152:199,1,159.999995231628,8|8,0:1|0:2,0:0:0:0:
31,323,167052,2,0,P|43:252|49:227,1,79.9999976158142,8|2,0:1|0:2,0:0:0:0:
44,244,167323,1,0,0:0:0:0:
44,244,167413,1,10,0:2:0:0:
178,283,167594,1,10,0:2:0:0:
7,163,167775,1,10,0:1:0:0:
204,60,167956,1,2,0:2:0:0:
144,184,168136,6,0,P|181:172|226:162,1,79.9999976158142,14|0,0:1|0:0,0:0:0:0:
395,105,168498,2,0,P|356:96|317:83,1,79.9999976158142,10|2,0:1|0:2,0:0:0:0:
215,38,168859,1,8,0:2:0:0:
301,251,169040,2,0,P|310:193|322:144,1,79.9999976158142,10|2,0:2|0:2,0:0:0:0:
492,59,169401,6,0,P|478:121|463:220,1,159.999995231628,8|8,0:1|0:2,0:0:0:0:
371,354,169944,2,0,P|362:309|389:265,1,79.9999976158142,8|2,0:1|0:2,0:0:0:0:
381,274,170215,1,0,0:0:0:0:
388,270,170305,1,10,0:2:0:0:
241,189,170486,1,2,0:2:0:0:
229,353,170666,1,2,0:2:0:0:
291,278,170847,5,10,0:2:0:0:
291,278,170938,1,10,0:2:0:0:
291,278,171028,1,10,0:1:0:0:
86,224,171209,1,8,0:2:0:0:
231,99,171389,2,0,P|215:154|218:194,1,79.9999976158142,10|2,0:1|0:2,0:0:0:0:
326,268,171751,1,8,0:2:0:0:
275,355,171932,2,0,P|278:315|291:277,1,79.9999976158142,10|2,0:2|0:2,0:0:0:0:
452,177,172293,6,0,P|382:190|307:126,1,159.999995231628,10|8,0:1|0:2,0:0:0:0:
200,0,172835,2,0,P|214:44|224:93,1,79.9999976158142,8|0,0:1|0:0,0:0:0:0:
147,206,173197,5,10,0:2:0:0:
60,54,173377,1,10,0:2:0:0:
237,156,173558,1,10,0:2:0:0:
58,264,173739,1,10,0:2:0:0:
294,360,173919,6,0,P|346:348|386:340,1,79.9999976158142,14|0,0:1|0:0,0:0:0:0:
241,185,174281,2,0,P|230:223|223:262,1,79.9999976158142,10|2,0:1|0:2,0:0:0:0:
120,348,174642,1,8,0:2:0:0:
58,264,174823,2,0,P|96:252|135:244,1,79.9999976158142,10|2,0:2|0:2,0:0:0:0:
322,147,175185,6,0,P|252:156|187:93,1,159.999995231628,8|8,0:1|0:2,0:0:0:0:
63,32,175727,2,0,P|72:70|79:110,1,79.9999976158142,8|2,0:1|0:2,0:0:0:0:
17,184,175998,1,0,0:0:0:0:
17,184,176088,2,0,P|11:144|1:105,1,79.9999976158142,10|2,0:2|0:2,0:0:0:0:
199,182,176450,1,2,0:2:0:0:
148,29,176630,5,8,0:2:0:0:
148,29,176721,1,8,0:2:0:0:
148,29,176811,1,10,0:1:0:0:
103,198,176992,1,8,0:2:0:0:
151,33,177172,2,0,P|208:16|237:13,1,79.9999976158142,10|2,0:1|0:2,0:0:0:0:
389,122,177534,1,8,0:2:0:0:
331,0,177715,2,0,P|315:36|307:75,1,79.9999976158142,10|2,0:2|0:2,0:0:0:0:
447,278,178076,6,0,P|454:214|383:148,1,159.999995231628,8|8,0:1|0:2,0:0:0:0:
317,303,178618,2,0,P|334:343|341:378,1,79.9999976158142,8|0,0:1|0:0,0:0:0:0:
98,226,178980,5,10,0:2:0:0:
236,335,179160,1,10,0:2:0:0:
273,150,179341,1,10,0:1:0:0:
204,237,179522,1,2,0:2:0:0:
19,121,179703,6,0,P|58:127|97:137,1,79.9999976158142,14|0,0:1|0:0,0:0:0:0:
235,97,180064,1,10,0:1:0:0:
119,5,180245,1,2,0:2:0:0:
186,160,180426,1,8,0:2:0:0:
288,39,180606,1,8,0:2:0:0:
180,172,180787,2,0,P|169:210|163:250,1,79.9999976158142,2|8,0:2|0:1,0:0:0:0:
209,316,181058,1,0,0:0:0:0:
209,316,181148,5,2,0:3:0:0:
334,232,181329,1,8,0:2:0:0:
433,345,181510,2,0,P|394:331|353:323,1,79.9999976158142,10|2,0:1|0:2,0:0:0:0:
268,169,181871,2,0,P|305:155|344:147,1,79.9999976158142,8|0,0:2|0:0,0:0:0:0:
453,24,182233,2,0,P|471:58|470:98,1,79.9999976158142,10|8,0:1|0:2,0:0:0:0:
438,168,182504,1,8,0:2:0:0:
438,168,182594,5,10,0:1:0:0:
317,62,182775,1,8,0:2:0:0:
176,183,182956,2,0,L|194:97,1,79.9999976158142,10|2,0:1|0:2,0:0:0:0:
346,152,183317,1,8,0:2:0:0:
207,6,183498,2,0,P|164:22|125:29,1,79.9999976158142,10|2,0:2|0:2,0:0:0:0:
18,169,183859,6,0,P|93:150|160:197,1,159.999995231628,8|8,0:1|0:2,0:0:0:0:
226,349,184401,2,0,P|236:300|251:257,1,79.9999976158142,8|0,0:1|0:0,0:0:0:0:
314,89,184763,1,10,0:2:0:0:
411,285,184944,1,8,0:2:0:0:
489,146,185124,1,10,0:2:0:0:
314,190,185305,1,8,0:2:0:0:
505,327,185486,6,0,P|500:287|492:247,1,79.9999976158142,14|0,0:1|0:0,0:0:0:0:
400,65,185847,2,0,P|392:104|387:144,1,79.9999976158142,10|0,0:1|0:0,0:0:0:0:
265,260,186209,2,0,P|225:251|186:243,1,79.9999976158142,10|0,0:2|0:0,0:0:0:0:
57,136,186570,1,10,0:1:0:0:
216,88,186751,1,8,0:1:0:0:
103,294,186932,6,0,P|96:241|88:199,1,79.9999976158142,8|0,0:2|0:0,0:0:0:0:
165,21,187293,1,10,0:1:0:0:
236,162,187474,1,8,0:1:0:0:
32,140,187654,2,0,P|81:129|123:114,1,79.9999976158142,10|0,0:2|0:0,0:0:0:0:
347,88,188016,2,0,P|293:94|239:46,1,119.999996423721,10|0,0:1|0:0,0:0:0:0:
237,41,188377,6,0,P|226:93|222:135,1,79.9999976158142,14|0,0:2|0:0,0:0:0:0:
331,255,188739,2,0,P|325:215|316:176,1,79.9999976158142,12|0,0:3|0:0,0:0:0:0:
446,57,189100,2,0,P|407:68|369:78,1,79.9999976158142,12|0,0:3|0:0,0:0:0:0:
159,230,189462,2,0,P|197:218|235:208,1,79.9999976158142,14|0,0:3|0:0,0:0:0:0:
422,302,189823,6,0,P|382:346|274:345,1,159.999995231628,14|14,0:3|0:3,0:0:0:0:
235,208,190365,1,2,0:2:0:0:
70,349,190546,5,8,0:2:0:0:
224,294,190727,1,8,0:2:0:0:
104,166,190907,5,10,0:2:0:0:
323,223,191088,1,8,0:2:0:0:
323,223,191179,1,0,0:0:0:0:
323,223,191269,5,14,0:1:0:0:
208,303,191450,1,2,0:2:0:0:
204,114,191630,2,0,P|211:153|224:191,1,79.9999976158142,2|10,0:3|0:1,0:0:0:0:
383,379,191992,2,0,P|393:299|411:221,1,159.999995231628,10|2,0:2|0:2,0:0:0:0:
381,55,192534,5,10,0:1:0:0:
505,130,192715,1,2,0:3:0:0:
315,206,192895,1,10,0:2:0:0:
489,332,193076,2,0,P|494:292|502:253,1,79.9999976158142,10|0,0:1|0:0,0:0:0:0:
374,127,193438,1,10,0:2:0:0:
274,296,193618,1,2,0:2:0:0:
125,169,193799,2,0,P|173:157|216:152,1,79.9999976158142,2|10,0:2|0:2,0:0:0:0:
226,162,194070,1,8,0:2:0:0:
226,162,194160,6,0,P|249:100|262:75,1,79.9999976158142,10|8,0:1|0:2,0:0:0:0:
36,177,194522,1,2,0:2:0:0:
101,14,194703,1,10,0:1:0:0:
101,14,194794,1,0,0:0:0:0:
101,14,194884,2,0,P|124:76|137:101,1,79.9999976158142,8|10,0:2|0:2,0:0:0:0:
122,232,195245,1,2,0:2:0:0:
329,203,195425,6,0,P|248:146|178:182,1,159.999995231628,8|8,0:1|0:2,0:0:0:0:
64,336,195968,1,10,0:1:0:0:
201,275,196148,1,2,0:2:0:0:
44,162,196329,2,0,P|69:210|79:250,1,79.9999976158142,10|10,0:2|0:2,0:0:0:0:
176,370,196691,2,0,P|188:332|208:297,1,79.9999976158142,10|10,0:1|0:2,0:0:0:0:
406,140,197052,6,0,P|340:178|283:156,1,119.999996423721,14|0,0:1|0:0,0:0:0:0:
239,121,197413,1,2,0:2:0:0:
239,121,197504,1,0,0:0:0:0:
239,121,197594,2,0,P|200:126|160:134,1,79.9999976158142,10|8,0:1|0:2,0:0:0:0:
346,271,197956,1,10,0:2:0:0:
205,227,198136,1,2,0:2:0:0:
338,89,198317,1,10,0:1:0:0:
187,242,198498,6,0,P|134:256|96:268,1,79.9999976158142,2|8,0:3|0:2,0:0:0:0:
88,259,198769,1,2,0:2:0:0:
88,259,198859,2,0,P|51:215|65:169,1,79.9999976158142,8|2,0:1|0:2,0:0:0:0:
194,20,199221,2,0,P|171:88|167:117,1,79.9999976158142,10|0,0:2|0:0,0:0:0:0:
177,118,199492,1,2,0:2:0:0:
177,118,199582,2,0,P|233:130|266:150,1,79.9999976158142,0|10,0:0|0:1,0:0:0:0:
497,79,199944,6,0,P|444:49|374:62,1,119.999996423721,10|0,0:2|0:0,0:0:0:0:
363,74,200305,1,10,0:1:0:0:
414,228,200486,2,0,P|423:174|438:135,1,79.9999976158142,10|2,0:2|0:3,0:0:0:0:
458,7,200847,1,10,0:1:0:0:
327,163,201028,2,0,P|287:165|247:172,1,79.9999976158142,10|0,0:2|0:0,0:0:0:0:
106,110,201389,5,4,0:3:0:0:
194,57,201570,1,8,0:2:0:0:
90,117,201751,1,8,0:2:0:0:
237,187,201932,1,8,0:2:0:0:
43,218,202112,1,8,0:2:0:0:
184,48,202293,1,8,0:2:0:0:
263,271,202474,2,0,P|296:291|336:292,1,79.9999976158142,2|2,0:3|0:2,0:0:0:0:
495,185,202835,6,0,P|431:188|370:207,1,127.999996185303,12|10,0:1|0:1,0:0:0:0:
255,121,203377,1,2,0:2:0:0:
252,285,203558,2,0,P|267:229|285:198,1,63.9999980926514,8|0,0:2|0:0,0:0:0:0:
364,123,203919,1,2,0:3:0:0:
276,19,204100,2,0,P|206:2|137:42,1,127.999996185303,10|8,0:1|0:2,0:0:0:0:
22,106,204642,2,0,P|53:112|83:124,1,63.9999980926514,10|2,0:1|0:2,0:0:0:0:
250,214,205004,2,0,P|209:240|158:233,1,95.9999971389771,8|0,0:2|0:0,0:0:0:0:
146,219,205365,1,2,0:3:0:0:
40,330,205546,5,10,0:2:0:0:
40,330,205636,1,8,0:2:0:0:
40,330,205727,1,8,0:1:0:0:
12,230,205907,1,8,0:2:0:0:
143,326,206088,2,0,P|185:337|221:348,1,63.9999980926514,10|2,0:1|0:2,0:0:0:0:
343,383,206450,6,0,P|335:315|325:256,1,127.999996185303,8|2,0:2|0:3,0:0:0:0:
405,142,206992,2,0,P|430:151|467:157,1,63.9999980926514,10|2,0:1|0:3,0:0:0:0:
418,228,207353,1,8,0:2:0:0:
364,62,207534,2,0,P|338:80|329:167,1,95.9999971389771,10|0,0:1|0:0,0:0:0:0:
324,169,207895,1,8,0:2:0:0:
215,107,208076,1,8,0:2:0:0:
167,266,208257,2,0,P|136:273|106:282,1,63.9999980926514,10|2,0:1|0:2,0:0:0:0:
44,132,208618,6,0,P|61:181|66:214,1,63.9999980926514,12|0,0:1|0:0,0:0:0:0:
177,273,208980,2,0,P|184:241|196:212,1,63.9999980926514,10|2,0:1|0:2,0:0:0:0:
309,80,209341,2,0,P|249:90|182:99,1,127.999996185303,8|2,0:2|0:3,0:0:0:0:
301,177,209883,2,0,P|348:190|373:203,1,63.9999980926514,10|2,0:1|0:3,0:0:0:0:
475,147,210245,1,8,0:2:0:0:
506,311,210425,2,0,P|474:334|398:320,1,95.9999971389771,10|0,0:1|0:0,0:0:0:0:
394,313,210787,2,0,P|357:319|325:326,1,63.9999980926514,8|0,0:2|0:0,0:0:0:0:
190,237,211148,1,2,0:3:0:0:
224,363,211329,5,10,0:2:0:0:
224,363,211419,1,8,0:2:0:0:
224,363,211510,1,8,0:1:0:0:
291,243,211691,1,8,0:2:0:0:
117,310,211871,2,0,P|62:297|33:295,1,63.9999980926514,10|2,0:1|0:2,0:0:0:0:
176,174,212233,2,0,P|181:205|189:236,1,63.9999980926514,8|0,0:2|0:0,0:0:0:0:
321,330,212594,1,10,0:2:0:0:
489,240,212775,6,0,P|435:209|371:210,1,127.999996185303,10|8,0:1|0:2,0:0:0:0:
349,66,213317,2,0,P|310:98|303:139,1,63.9999980926514,10|2,0:1|0:2,0:0:0:0:
227,219,213679,1,8,0:2:0:0:
168,105,213859,1,8,0:2:0:0:
358,220,214040,1,10,0:2:0:0:
154,315,214221,1,10,0:2:0:0:
272,372,214401,6,0,P|261:295|236:208,1,143.999991313935,12|10,0:1|0:1,0:0:0:0:
302,93,214944,1,2,0:2:0:0:
156,118,215124,2,0,P|198:126|227:143,1,71.9999956569673,8|0,0:2|0:0,0:0:0:0:
409,259,215486,1,2,0:3:0:0:
455,177,215666,2,0,P|369:170|326:218,1,143.999991313935,10|8,0:1|0:2,0:0:0:0:
223,302,216209,2,0,P|233:252|242:216,1,71.9999956569673,10|2,0:1|0:2,0:0:0:0:
153,118,216570,2,0,P|103:154|49:145,1,107.999993485451,8|0,0:2|0:0,0:0:0:0:
39,135,216932,1,2,0:3:0:0:
170,28,217112,5,10,0:2:0:0:
170,28,217203,1,8,0:2:0:0:
170,28,217293,1,8,0:1:0:0:
248,137,217474,1,8,0:2:0:0:
395,14,217654,2,0,P|382:47|373:82,1,71.9999956569673,10|2,0:1|0:2,0:0:0:0:
457,248,218016,2,0,P|483:193|475:133,1,107.999993485451,8|0,0:2|0:0,0:0:0:0:
472,126,218377,1,10,0:2:0:0:
316,192,218558,6,0,P|365:184|403:187,1,71.9999956569673,10|2,0:1|0:3,0:0:0:0:
351,285,218919,1,8,0:2:0:0:
235,137,219100,2,0,P|224:188|218:237,1,71.9999956569673,10|2,0:1|0:2,0:0:0:0:
121,380,219462,1,8,0:2:0:0:
78,237,219642,1,8,0:2:0:0:
261,296,219823,2,0,P|225:297|189:302,1,71.9999956569673,10|2,0:1|0:2,0:0:0:0:
8,178,220185,6,0,P|64:147|145:176,1,119.999996423721,12|0,0:2|0:0,0:0:0:0:
177,205,220546,1,8,0:1:0:0:
211,54,220727,2,0,P|230:106|226:148,1,79.9999976158142,12|0,0:2|0:0,0:0:0:0:
366,279,221088,1,8,0:1:0:0:
257,374,221269,2,0,P|259:334|275:297,1,79.9999976158142,14|0,0:2|0:0,0:0:0:0:
378,121,221630,1,10,0:1:0:0:
205,217,221811,2,0,P|244:210|284:206,1,79.9999976158142,12|0,0:2|0:0,0:0:0:0:
394,254,222172,1,8,0:1:0:0:
459,21,222353,5,10,0:2:0:0:
321,120,222534,1,8,0:2:0:0:
493,213,222715,1,8,0:2:0:0:
426,119,222895,1,8,0:1:0:0:
295,227,223076,5,14,0:1:0:0:
211,207,223438,1,12,0:3:0:0:
127,187,223799,1,12,0:3:0:0:
43,167,224160,1,12,0:3:0:0:
153,289,224522,1,12,0:3:0:0:
303,222,224883,1,12,0:3:0:0:
285,58,225245,1,12,0:3:0:0:
124,24,225606,1,12,0:3:0:0:
44,292,227413,6,0,P|36:313|30:343,2,53.3333317438762,4|8|8,0:3|0:2|0:2,0:0:0:0:
124,226,227775,6,0,P|116:205|110:174,2,53.3333317438762,8|8|8,0:2|0:2|0:2,0:0:0:0:
192,308,228136,5,10,0:2:0:0:
235,279,228257,1,8,0:2:0:0:
287,285,228377,1,8,0:2:0:0:
318,317,228498,1,10,0:2:0:0:
361,346,228619,1,8,0:2:0:0:
413,340,228739,1,8,0:2:0:0:
446,295,228859,6,0,P|437:250|427:198,1,79.9999976158142,14|0,0:1|0:0,0:0:0:0:
371,71,229221,2,0,P|363:110|355:149,1,79.9999976158142,10|2,0:1|0:2,0:0:0:0:
318,317,229582,1,8,0:2:0:0:
174,181,229763,2,0,P|212:190|250:203,1,79.9999976158142,10|2,0:2|0:2,0:0:0:0:
186,34,230124,6,0,P|141:79|38:72,1,159.999995231628,8|8,0:1|0:2,0:0:0:0:
99,6,230666,1,8,0:1:0:0:
222,178,230847,1,2,0:2:0:0:
222,178,230938,1,0,0:0:0:0:
222,177,231028,2,0,P|232:139|234:99,1,79.9999976158142,10|2,0:2|0:2,0:0:0:0:
63,261,231389,2,0,P|52:222|50:182,1,79.9999976158142,2|10,0:2|0:2,0:0:0:0:
141,211,231751,5,10,0:1:0:0:
39,349,231932,1,8,0:2:0:0:
242,323,232112,2,0,P|185:310|142:297,1,79.9999976158142,10|2,0:1|0:2,0:0:0:0:
315,209,232474,1,8,0:2:0:0:
381,282,232654,2,0,P|370:331|362:381,1,79.9999976158142,10|2,0:2|0:2,0:0:0:0:
227,209,233016,6,0,P|210:133|257:71,1,159.999995231628,8|8,0:1|0:2,0:0:0:0:
428,0,233558,2,0,P|379:11|329:19,1,79.9999976158142,8|2,0:1|0:2,0:0:0:0:
339,12,233829,1,0,0:0:0:0:
329,9,233919,1,10,0:2:0:0:
471,128,234100,1,10,0:2:0:0:
308,228,234281,1,10,0:1:0:0:
365,115,234462,1,2,0:2:0:0:
227,28,234642,6,0,P|177:42|132:47,1,79.9999976158142,14|0,0:1|0:0,0:0:0:0:
0,163,235004,2,0,P|50:177|95:182,1,79.9999976158142,10|2,0:1|0:2,0:0:0:0:
58,46,235365,1,8,0:2:0:0:
165,208,235546,2,0,P|165:154|137:109,1,79.9999976158142,10|2,0:2|0:2,0:0:0:0:
61,306,235907,6,0,P|124:292|205:346,1,159.999995231628,8|8,0:1|0:2,0:0:0:0:
361,265,236450,2,0,P|350:313|346:349,1,79.9999976158142,8|2,0:1|0:2,0:0:0:0:
350,349,236721,1,0,0:0:0:0:
354,354,236811,1,10,0:2:0:0:
451,177,236992,1,2,0:2:0:0:
260,224,237173,1,2,0:2:0:0:
361,265,237354,5,10,0:2:0:0:
361,265,237444,1,10,0:2:0:0:
361,265,237535,1,10,0:1:0:0:
303,84,237715,1,8,0:2:0:0:
479,166,237895,2,0,P|441:184|399:185,1,79.9999976158142,10|2,0:1|0:2,0:0:0:0:
324,55,238257,1,8,0:2:0:0:
227,64,238438,2,0,P|265:82|307:83,1,79.9999976158142,10|2,0:2|0:2,0:0:0:0:
443,33,238799,6,0,P|418:85|403:192,1,159.999995231628,10|8,0:1|0:2,0:0:0:0:
278,291,239341,2,0,P|272:252|261:213,1,79.9999976158142,8|0,0:1|0:0,0:0:0:0:
62,101,239703,5,10,0:2:0:0:
261,213,239883,1,10,0:2:0:0:
106,257,240064,1,10,0:2:0:0:
218,58,240244,1,10,0:2:0:0:
411,174,240425,6,0,P|406:225|399:267,1,79.9999976158142,14|0,0:1|0:0,0:0:0:0:
307,102,240787,2,0,P|301:62|297:22,1,79.9999976158142,10|2,0:1|0:2,0:0:0:0:
459,98,241148,1,8,0:2:0:0:
249,179,241329,2,0,P|287:189|326:196,1,79.9999976158142,10|2,0:2|0:2,0:0:0:0:
503,326,241691,6,0,P|424:340|347:363,1,159.999995231628,8|8,0:1|0:2,0:0:0:0:
171,324,242233,2,0,P|181:285|194:247,1,79.9999976158142,8|2,0:1|0:2,0:0:0:0:
281,232,242504,1,0,0:0:0:0:
281,232,242594,2,0,P|267:269|257:308,1,79.9999976158142,10|2,0:2|0:2,0:0:0:0:
87,202,242956,2,0,P|77:164|95:129,1,79.9999976158142,2|8,0:2|0:2,0:0:0:0:
56,58,243227,5,8,0:2:0:0:
56,58,243317,2,0,P|116:75|226:96,1,159.999995231628,10|10,0:1|0:1,0:0:0:0:
371,37,243859,1,2,0:2:0:0:
371,37,243950,1,0,0:0:0:0:
371,37,244040,1,8,0:2:0:0:
327,169,244221,1,10,0:2:0:0:
260,4,244401,1,2,0:2:0:0:
332,178,244582,2,0,P|311:255|296:333,1,159.999995231628,8|8,0:1|0:2,0:0:0:0:
435,255,245124,2,0,P|453:208|430:161,1,79.9999976158142,8|0,0:1|0:0,0:0:0:0:
217,184,245486,5,10,0:2:0:0:
354,261,245666,1,10,0:2:0:0:
296,110,245847,1,10,0:1:0:0:
181,271,246028,1,2,0:2:0:0:
91,91,246209,6,0,P|138:109|189:120,1,79.9999976158142,14|0,0:1|0:0,0:0:0:0:
300,197,246570,1,10,0:1:0:0:
228,39,246751,1,2,0:2:0:0:
127,191,246932,1,8,0:2:0:0:
300,106,247112,1,8,0:2:0:0:
115,197,247293,2,0,P|103:245|99:290,1,79.9999976158142,2|8,0:2|0:1,0:0:0:0:
138,340,247564,1,0,0:0:0:0:
138,340,247654,5,2,0:3:0:0:
274,184,247835,1,8,0:2:0:0:
328,249,248016,2,0,P|309:314|306:354,1,79.9999976158142,10|2,0:1|0:2,0:0:0:0:
481,141,248377,2,0,P|416:160|376:163,1,79.9999976158142,8|0,0:2|0:0,0:0:0:0:
230,0,248739,2,0,P|269:7|306:20,1,79.9999976158142,10|8,0:1|0:2,0:0:0:0:
357,81,249010,1,8,0:2:0:0:
357,81,249100,5,10,0:1:0:0:
212,117,249281,2,0,P|196:160|191:199,1,79.9999976158142,8|10,0:2|0:1,0:0:0:0:
87,67,249642,1,2,0:2:0:0:
26,177,249823,2,0,P|84:149|113:141,1,79.9999976158142,8|10,0:2|0:2,0:0:0:0:
261,266,250185,1,2,0:2:0:0:
111,229,250365,6,0,P|82:300|123:365,1,159.999995231628,8|8,0:1|0:2,0:0:0:0:
259,260,250907,2,0,P|248:206|232:158,1,79.9999976158142,8|0,0:1|0:0,0:0:0:0:
45,48,251269,1,10,0:2:0:0:
204,0,251450,1,8,0:2:0:0:
72,169,251630,1,10,0:2:0:0:
256,103,251811,1,8,0:2:0:0:
399,264,251992,6,0,P|410:208|424:168,1,79.9999976158142,14|0,0:1|0:0,0:0:0:0:
321,19,252353,2,0,P|332:57|338:96,1,79.9999976158142,10|0,0:1|0:0,0:0:0:0:
218,233,252715,2,0,P|166:221|129:217,1,79.9999976158142,10|0,0:2|0:0,0:0:0:0:
28,66,253076,1,10,0:1:0:0:
196,143,253257,1,8,0:1:0:0:
140,0,253438,6,0,P|128:38|122:77,1,79.9999976158142,8|0,0:2|0:0,0:0:0:0:
134,230,253799,1,10,0:1:0:0:
17,153,253980,1,10,0:1:0:0:
213,98,254160,2,0,P|257:110|306:122,1,79.9999976158142,8|2,0:2|0:2,0:0:0:0:
233,269,254522,1,10,0:1:0:0:
118,157,254703,1,8,0:1:0:0:
40,337,254883,6,0,P|32:297|22:258,1,79.9999976158142,8|0,0:2|0:0,0:0:0:0:
206,181,255245,1,8,0:1:0:0:
118,259,255425,1,8,0:1:0:0:
273,334,255606,5,8,0:2:0:0:
116,171,255787,1,8,0:2:0:0:
282,346,255968,2,0,P|328:330|380:318,1,79.9999976158142,10|8,0:1|0:1,0:0:0:0:
488,140,256329,2,0,P|449:129|411:116,1,79.9999976158142,10|8,0:2|0:1,0:0:0:0:
271,44,256691,1,10,0:2:0:0:
337,152,256871,1,10,0:1:0:0:
131,237,257052,5,8,0:2:0:0:
255,127,257233,1,10,0:2:0:0:
379,327,257413,5,10,0:2:0:0:
226,221,257594,1,8,0:2:0:0:
58,328,257775,6,0,P|19:263|36:181,1,159.999995231628,12|8,0:1|0:1,0:0:0:0:
102,49,258317,1,0,0:0:0:0:
7,13,258498,2,0,P|16:61|25:102,1,79.9999976158142,8|0,0:2|0:0,0:0:0:0:
179,178,258859,1,8,0:1:0:0:
241,127,259040,2,0,P|205:104|159:101,1,79.9999976158142,8|8,0:1|0:2,0:0:0:0:
104,248,259401,5,8,0:1:0:0:
296,308,259582,1,8,0:2:0:0:
104,248,259763,1,8,0:1:0:0:
205,383,259944,2,0,P|198:333|185:284,1,79.9999976158142,8|8,0:2|0:1,0:0:0:0:
341,105,260305,1,12,0:2:0:0:
256,192,260395,12,2,262112,0:2:0:0:
65,67,263197,5,2,0:2:0:0:
65,67,263378,1,2,0:2:0:0:
154,182,263558,2,0,P|164:125|197:6,2,159.999995231628,14|8|8,0:1|0:1|0:2,0:0:0:0:
76,318,264462,2,0,P|64:272|71:222,1,79.9999976158142,8|0,0:2|0:0,0:0:0:0:
244,170,264824,6,0,P|304:215|411:197,1,159.999995231628,10|8,0:1|0:2,0:0:0:0:
350,41,265365,2,0,P|338:79|332:118,1,79.9999976158142,8|0,0:1|0:0,0:0:0:0:
484,244,265727,2,0,P|477:204|466:166,1,79.9999976158142,10|0,0:2|0:0,0:0:0:0:
421,77,266089,5,0,0:0:0:0:
308,230,266270,1,8,0:2:0:0:
308,230,266360,1,8,0:2:0:0:
308,230,266450,2,0,P|347:218|394:210,1,79.9999976158142,10|8,0:1|0:2,0:0:0:0:
180,181,266811,2,0,P|141:169|94:161,1,79.9999976158142,8|0,0:1|0:0,0:0:0:0:
275,117,267173,1,10,0:2:0:0:
203,276,267354,2,0,P|207:315|211:355,1,79.9999976158142,8|0,0:2|0:0,0:0:0:0:
48,236,267715,6,0,P|11:183|47:87,1,159.999995231628,10|8,0:1|0:2,0:0:0:0:
173,0,268258,2,0,P|162:39|155:90,1,79.9999976158142,8|0,0:1|0:0,0:0:0:0:
221,225,268619,1,10,0:2:0:0:
91,159,268800,1,10,0:2:0:0:
236,235,268980,2,0,P|272:224|328:209,1,79.9999976158142,10|0,0:1|0:0,0:0:0:0:
441,90,269342,6,0,P|363:97|306:44,2,159.999995231628,14|8|8,0:1|0:1|0:2,0:0:0:0:
512,229,270246,2,0,P|475:215|431:205,1,79.9999976158142,8|0,0:2|0:0,0:0:0:0:
283,340,270606,2,0,P|355:319|448:297,1,159.999995231628,10|8,0:1|0:2,0:0:0:0:
313,157,271148,2,0,P|329:213|339:258,1,79.9999976158142,8|0,0:1|0:0,0:0:0:0:
204,384,271510,2,0,P|173:342|196:236,1,159.999995231628,10|0,0:2|0:0,0:0:0:0:
239,101,272053,5,8,0:2:0:0:
239,101,272143,1,8,0:2:0:0:
239,101,272233,2,0,P|192:91|150:85,1,79.9999976158142,10|8,0:1|0:2,0:0:0:0:
354,208,272594,2,0,P|401:204|440:171,1,79.9999976158142,8|0,0:1|0:0,0:0:0:0:
333,92,272956,1,8,0:2:0:0:
264,191,273137,2,0,P|276:234|284:277,1,79.9999976158142,8|0,0:2|0:0,0:0:0:0:
159,70,273499,6,0,B|115:56|75:80|95:101|50:135|-2:101,1,159.999995231628,10|8,0:1|0:2,0:0:0:0:
107,267,274040,2,0,P|112:225|114:171,1,79.9999976158142,8|0,0:1|0:0,0:0:0:0:
256,46,274401,1,10,0:2:0:0:
194,162,274583,1,8,0:2:0:0:
373,251,274763,1,8,0:2:0:0:
283,130,274944,1,8,0:2:0:0:
107,267,275124,6,0,P|149:253|206:243,1,79.9999976158142,14|0,0:1|0:0,0:0:0:0:
365,167,275486,2,0,P|323:153|266:143,1,79.9999976158142,8|0,0:1|0:0,0:0:0:0:
286,340,275848,2,0,P|279:298|264:250,1,79.9999976158142,8|0,0:2|0:0,0:0:0:0:
179,144,276209,1,8,0:1:0:0:
364,245,276390,1,8,0:1:0:0:
284,66,276570,6,0,P|289:39|296:13,2,53.3333317438762,10|10|10,0:2|0:2|0:2,0:0:0:0:
194,276,276932,1,10,0:3:0:0:
188,260,277052,1,6,0:3:0:0:
182,243,277173,1,10,0:3:0:0:
176,226,277293,1,10,0:2:0:0:
459,95,277654,1,14,0:1:0:0:
459,95,278377,5,12,0:3:0:0:
383,124,278739,1,12,0:3:0:0:
310,93,279101,1,12,0:3:0:0:
279,21,279462,1,14,0:3:0:0:
459,95,279823,1,12,0:3:0:0:
385,275,280185,1,12,0:3:0:0:
205,201,280546,1,8,0:1:0:0:
72,346,282233,6,0,L|67:390,2,26.6666658719381
192,304,282444,54,1,B|129:348|200:464|317:382|329:287|256:184|152:221|152:221|47:252|-76:201|-98:33|12:-44|109:-51|189:-11|231:79|207:98|199:96|183:134|262:195|337:178|362:136|362:136|361:137|361:137|334:128|312:94|312:94|340:65|370:61|370:61|370:60|370:60|370:60|370:60|371:32|396:0|396:0|433:18|445:45|445:45|445:45|445:45|474:36|512:52|512:52|506:91|484:111|484:111|485:111|485:111|485:111|485:111|501:135|500:176|500:176|459:184|433:169|433:169|433:169|433:169|416:192|376:203|376:203|358:166|365:147,1,1785.99991952086,2|0,0:0|0:0,0:0:0:0:
