osu file format v14

[General]
AudioFilename: audio.mp3
AudioLeadIn: 0
PreviewTime: 55095
Countdown: 0
SampleSet: Soft
StackLeniency: 0.7
Mode: 0
LetterboxInBreaks: 0
WidescreenStoryboard: 1

[Editor]
DistanceSpacing: 1.2
BeatDivisor: 4
GridSize: 16
TimelineZoom: 1

[Metadata]
Title:Kimochi Signal (TV Size)
TitleUnicode:キモチシグナル (TV Size)
Artist:Horishita Sayuri
ArtistUnicode:堀下さゆり
Creator:Agatsu
Version:Hard
Source:Kokoro Connect
Tags:ココロコネクト BD DVD opening anime japanese
BeatmapID:1964757
BeatmapSetID:940764

[Difficulty]
HPDrainRate:5
CircleSize:3.7
OverallDifficulty:6
ApproachRate:7
SliderMultiplier:1.5
SliderTickRate:1

[Events]
//Background and Video events
0,0,"728615.jpg",0,0
//Break Periods
//Storyboard Layer 0 (Background)
//Storyboard Layer 1 (Fail)
//Storyboard Layer 2 (Pass)
//Storyboard Layer 3 (Foreground)
//Storyboard Sound Samples

[TimingPoints]
1564,375,4,2,1,50,1,0
1564,-111.111111111111,4,2,1,50,0,0
6064,-111.111111111111,4,2,1,55,0,0
7189,-111.111111111111,4,2,1,70,0,0
7564,-100,4,2,1,70,0,0
15626,-111.111111111111,4,2,1,65,0,0
16564,-111.111111111111,4,2,1,55,0,0
27064,-111.111111111111,4,2,1,55,0,0
28564,-111.111111111111,4,2,1,55,0,0
40470,-111.111111111111,4,2,1,5,0,0
40564,-111.111111111111,4,2,1,55,0,0
43470,-111.111111111111,4,2,1,5,0,0
43564,-111.111111111111,4,2,1,55,0,0
52376,-111.111111111111,4,2,1,60,0,0
55564,-100,4,2,1,70,0,1
86876,-111.111111111111,4,2,1,70,0,0
86970,-111.111111111111,4,2,1,50,0,0
88564,-111.111111111111,4,2,1,40,0,0
88939,-111.111111111111,4,2,1,30,0,0
89314,-111.111111111111,4,2,1,20,0,0
89689,-111.111111111111,4,2,1,10,0,0
90064,-111.111111111111,4,2,1,5,0,0

[Colours]
Combo1 : 239,155,80
Combo2 : 78,122,205
Combo3 : 223,192,87
Combo4 : 157,224,84

[HitObjects]
71,303,1564,6,0,L|141:298,1,67.4999979400635,2|2,0:0|0:0,0:0:0:0:
211,249,1939,2,0,L|278:253,1,67.4999979400635,2|2,0:0|0:0,0:0:0:0:
351,302,2314,2,0,P|347:336|345:377,2,67.4999979400635,2|2|2,0:0|0:0|0:0,0:0:0:0:
424,253,2876,1,2,0:0:0:0:
380,176,3064,5,2,0:0:0:0:
439,111,3251,2,0,L|509:116,2,67.4999979400635,2|2|2,0:0|0:0|0:0,0:0:0:0:
383,42,3814,2,0,P|347:34|303:33,1,67.4999979400635,2|2,0:0|0:0,0:0:0:0:
249,89,4189,2,0,P|213:97|169:98,1,67.4999979400635,2|2,0:0|0:0,0:0:0:0:
113,43,4564,6,0,L|34:34,2,67.4999979400635,2|2|2,0:0|0:0|0:0,0:0:0:0:
182,98,5126,1,2,0:0:0:0:
133,171,5314,2,0,L|137:246,1,67.4999979400635,2|2,0:0|0:0,0:0:0:0:
212,282,5689,2,0,L|208:357,1,67.4999979400635,2|2,0:0|0:0,0:0:0:0:
294,369,6064,6,0,P|467:329|495:176,1,337.499989700318,6|0,0:0|1:0,0:0:0:0:
435,130,7189,2,0,L|362:125,1,67.4999979400635,10|0,0:0|0:0,0:0:0:0:
278,43,7564,6,0,L|116:53,1,150,6|10,1:2|0:0,0:0:0:0:
56,106,8126,1,2,0:0:0:0:
122,166,8314,2,0,P|126:207|121:254,1,75,2|2,1:2|1:2,0:0:0:0:
185,306,8689,2,0,L|270:315,1,75,10|2,0:0|0:0,0:0:0:0:
331,258,9064,5,2,1:2:0:0:
404,309,9251,2,0,P|405:349|408:388,2,75,2|8|2,1:2|0:0|0:0,0:0:0:0:
474,252,9814,2,0,L|482:169,1,75,2|0,1:2|1:2,0:0:0:0:
414,117,10189,2,0,L|315:106,1,75,10|0,0:0|0:0,0:0:0:0:
231,143,10564,6,0,P|226:98|226:63,2,75,6|0|10,1:2|0:0|0:0,0:0:0:0:
278,223,11126,1,2,0:0:0:0:
363,194,11314,2,0,L|453:206,1,75,2|2,1:2|1:2,0:0:0:0:
496,272,11689,2,0,L|488:346,1,75,10|2,0:0|0:0,0:0:0:0:
404,379,12064,6,0,B|317:374|355:340|253:341,1,150,2|10,1:2|0:0,0:0:0:0:
176,369,12626,1,2,0:0:0:0:
97,324,12814,2,0,L|103:241,1,75,2|0,1:2|1:0,0:0:0:0:
167,186,13189,2,0,L|161:103,1,75,10|0,0:0|0:0,0:0:0:0:
63,51,13564,6,0,P|126:72|203:31,1,150,6|8,1:2|0:0,0:0:0:0:
282,67,14126,2,0,P|282:105|288:150,1,75,2|0,0:0|1:0,0:0:0:0:
344,210,14501,1,2,1:2:0:0:
407,146,14689,1,10,0:0:0:0:
497,201,14876,6,0,L|481:365,1,150,6|0,1:2|0:0,0:0:0:0:
310,314,15626,2,0,B|146:269|213:387|36:352,1,269.999991760254,2|2,0:0|0:0,0:0:0:0:
3,266,16564,6,0,L|21:126,1,134.999995880127,6|2,1:2|1:2,0:0:0:0:
81,69,17126,1,2,0:0:0:0:
154,116,17314,2,0,P|218:133|289:100,1,134.999995880127,2|10,1:2|0:0,0:0:0:0:
345,50,17876,6,0,P|388:48|439:61,1,67.4999979400635,2|0,0:0|1:0,0:0:0:0:
480,107,18251,1,2,0:0:0:0:
480,107,18439,1,0,1:0:0:0:
437,183,18626,2,0,L|428:335,1,134.999995880127,2|0,0:0|1:0,0:0:0:0:
352,361,19189,2,0,L|266:349,1,67.4999979400635,8|2,0:0|0:0,0:0:0:0:
198,368,19564,6,0,P|142:366|91:306,1,134.999995880127,0|2,1:2|1:2,0:0:0:0:
108,223,20126,1,2,0:0:0:0:
177,169,20314,2,0,P|179:97|177:24,1,134.999995880127,2|10,1:2|0:0,0:0:0:0:
95,2,20876,6,0,P|61:8|26:29,1,67.4999979400635,2|0,0:0|1:0,0:0:0:0:
5,107,21251,2,0,L|6:189,1,67.4999979400635,2|0,0:0|1:0,0:0:0:0:
53,248,21626,2,0,B|135:249|103:287|197:294,1,134.999995880127,2|0,0:0|1:0,0:0:0:0:
254,248,22189,2,0,L|259:173,1,67.4999979400635,8|2,0:0|0:0,0:0:0:0:
287,97,22564,6,0,P|346:57|426:71,1,134.999995880127,2|2,1:2|1:2,0:0:0:0:
485,101,23126,1,2,0:0:0:0:
457,184,23314,2,0,P|453:258|450:339,1,134.999995880127,2|10,1:2|0:2,0:0:0:0:
377,367,23876,6,0,L|296:359,1,67.4999979400635,2|0,0:0|1:0,0:0:0:0:
245,300,24251,2,0,L|164:308,1,67.4999979400635,2|0,0:0|1:0,0:0:0:0:
117,370,24626,2,0,P|131:282|118:216,1,134.999995880127,2|2,0:0|1:2,0:0:0:0:
73,165,25189,2,0,P|75:118|85:76,1,67.4999979400635,8|2,0:0|0:0,0:0:0:0:
151,48,25564,6,0,L|227:46,2,67.4999979400635,0|2|2,1:2|0:0|1:2,0:0:0:0:
78,97,26126,2,0,P|38:150|47:230,1,134.999995880127,2|0,0:0|1:0,0:0:0:0:
86,290,26689,2,0,L|161:298,1,67.4999979400635,10|2,0:0|1:2,0:0:0:0:
247,241,27064,6,0,P|314:233|377:279,1,134.999995880127,4|8,1:2|0:0,0:0:0:0:
466,222,27626,2,0,P|474:151|487:69,1,134.999995880127,6|0,1:2|1:0,0:0:0:0:
440,11,28189,2,0,L|361:0,1,67.4999979400635,8|2,0:0|1:2,0:0:0:0:
280,53,28564,6,0,B|194:45|225:87|137:86,1,134.999995880127,6|10,1:2|0:0,0:0:0:0:
86,143,29126,1,2,0:0:0:0:
117,226,29314,2,0,L|103:371,1,134.999995880127,2|10,1:2|0:0,0:0:0:0:
190,371,29876,6,0,P|229:362|272:361,1,67.4999979400635,2|2,0:0|1:2,0:0:0:0:
325,306,30251,2,0,P|357:314|391:316,1,67.4999979400635,0|8,0:0|0:0,0:0:0:0:
464,267,30626,2,0,L|452:120,1,134.999995880127,2|0,0:0|1:0,0:0:0:0:
385,76,31189,2,0,L|308:67,1,67.4999979400635,8|2,0:0|0:0,0:0:0:0:
234,95,31564,6,0,P|198:127|189:214,1,134.999995880127,2|10,1:2|0:0,0:0:0:0:
249,271,32126,1,2,0:0:0:0:
202,345,32314,2,0,P|141:346|46:351,1,134.999995880127,2|10,1:2|0:0,0:0:0:0:
1,291,32876,6,0,L|-2:213,1,67.4999979400635,2|0,0:0|1:0,0:0:0:0:
61,162,33251,2,0,L|64:84,1,67.4999979400635,2|8,1:2|0:0,0:0:0:0:
127,34,33626,2,0,P|191:26|261:88,1,134.999995880127,2|0,0:0|1:0,0:0:0:0:
281,144,34189,1,8,0:0:0:0:
223,209,34376,1,2,0:0:0:0:
137,186,34564,6,0,P|129:266|117:351,1,134.999995880127,2|8,1:2|0:0,0:0:0:0:
194,370,35126,2,0,P|252:379|329:331,1,134.999995880127,2|2,0:0|1:2,0:0:0:0:
330,258,35689,2,0,P|323:208|321:162,1,67.4999979400635,10|0,0:0|0:0,0:0:0:0:
248,142,36064,6,0,L|172:135,1,67.4999979400635,2|0,1:2|0:0,0:0:0:0:
113,79,36439,1,8,0:0:0:0:
173,15,36626,2,0,L|316:7,1,134.999995880127,2|2,0:0|1:3,0:0:0:0:
387,44,37189,1,10,0:0:0:0:
350,123,37376,1,8,0:0:0:0:
438,192,37564,6,0,L|511:186,2,67.4999979400635,6|0|10,1:2|0:0|0:0,0:0:0:0:
364,274,38126,2,0,B|283:263|314:305|218:302,1,134.999995880127,2|10,1:2|0:0,0:0:0:0:
162,251,38689,1,10,0:0:0:0:
214,157,38876,6,0,P|212:88|136:46,1,134.999995880127,6|0,1:2|1:0,0:0:0:0:
76,37,39439,1,8,0:0:0:0:
13,98,39626,2,0,P|16:179|16:256,1,134.999995880127,2|0,1:2|1:0,0:0:0:0:
63,307,40189,2,0,L|139:311,1,67.4999979400635,8|0,0:0|0:0,0:0:0:0:
223,253,40564,5,6,1:2:0:0:
187,173,40751,2,0,P|188:126|193:82,1,67.4999979400635,2|8,1:2|0:0,0:0:0:0:
255,46,41126,2,0,L|330:51,1,67.4999979400635,2|0,0:0|1:0,0:0:0:0:
379,117,41501,2,0,L|446:112,1,67.4999979400635,2|8,1:2|0:0,0:0:0:0:
504,178,41876,6,0,P|499:220|499:258,1,67.4999979400635,2|0,0:0|1:0,0:0:0:0:
435,307,42251,2,0,P|383:288|308:325,1,134.999995880127,2|2,1:2|0:0,0:0:0:0:
246,376,42814,2,0,L|158:369,1,67.4999979400635,2|0,1:2|1:0,0:0:0:0:
105,321,43189,2,0,P|104:277|110:237,1,67.4999979400635,10|0,0:0|0:0,0:0:0:0:
167,190,43564,5,2,1:2:0:0:
244,230,43751,2,0,L|332:223,1,67.4999979400635,2|8,1:2|0:0,0:0:0:0:
397,244,44126,2,0,P|402:166|410:93,1,134.999995880127,2|2,0:0|1:2,0:0:0:0:
343,49,44689,1,8,0:0:0:0:
259,74,44876,6,0,L|171:62,1,67.4999979400635,2|0,0:0|1:0,0:0:0:0:
122,11,45251,1,2,1:2:0:0:
122,11,45439,1,8,0:0:0:0:
38,38,45626,2,0,P|30:111|21:193,1,134.999995880127,2|0,0:0|1:0,0:0:0:0:
67,249,46189,1,8,0:0:0:0:
228,180,46564,5,6,1:2:0:0:
288,243,46751,2,0,L|276:322,1,67.4999979400635,2|8,1:2|0:0,0:0:0:0:
206,360,47126,2,0,P|132:361|78:320,1,134.999995880127,2|2,1:2|1:2,0:0:0:0:
42,249,47689,1,10,0:0:0:0:
85,172,47876,6,0,P|91:122|94:84,1,67.4999979400635,2|0,0:0|1:0,0:0:0:0:
162,51,48251,2,0,L|234:59,1,67.4999979400635,2|8,1:2|0:0,0:0:0:0:
287,124,48626,2,0,B|368:118|339:153|435:149,1,134.999995880127,2|0,0:0|1:0,0:0:0:0:
485,205,49189,2,0,P|480:249|481:295,1,67.4999979400635,10|0,0:0|0:0,0:0:0:0:
393,339,49564,6,0,P|335:308|262:318,1,134.999995880127,6|8,1:2|0:0,0:0:0:0:
190,275,50126,2,0,P|197:233|199:192,1,67.4999979400635,2|0,1:2|1:0,0:0:0:0:
153,132,50501,2,0,L|72:119,1,67.4999979400635,2|8,1:2|0:0,0:0:0:0:
35,14,50876,6,0,L|183:40,1,134.999995880127,6|0,0:0|1:0,0:0:0:0:
238,90,51439,1,8,0:0:0:0:
318,55,51626,2,0,P|366:58|414:69,1,67.4999979400635,2|0,0:0|1:0,0:0:0:0:
449,120,52001,1,2,1:2:0:0:
382,177,52189,1,10,0:0:0:0:
486,265,52376,6,0,P|415:258|350:313,1,134.999995880127,6|10,0:0|0:0,0:0:0:0:
320,367,52939,1,8,0:0:0:0:
221,318,53126,2,0,P|175:315|128:313,1,67.4999979400635,14|0,1:2|0:0,0:0:0:0:
72,265,53501,1,10,0:0:0:0:
120,183,53689,1,8,0:0:0:0:
28,95,53876,6,0,P|103:55|172:69,1,134.999995880127,6|10,1:2|1:2,0:0:0:0:
250,122,54439,1,10,0:0:0:0:
492,20,55001,1,0,1:0:0:0:
503,114,55189,2,0,L|499:162,3,33.7499989700318,10|2|2|2,0:0|0:0|0:0|0:0,0:0:0:0:
471,191,55564,6,0,B|385:177|412:227|303:220,1,150,6|8,1:2|0:0,0:0:0:0:
257,163,56126,2,0,P|260:116|259:73,1,75,2|0,0:0|1:0,0:0:0:0:
192,27,56501,1,0,1:0:0:0:
124,86,56689,1,10,0:0:0:0:
38,57,56876,6,0,P|83:106|76:192,1,150,2|0,0:0|1:0,0:0:0:0:
136,255,57439,2,0,P|180:261|232:276,1,75,10|0,0:0|0:0,0:0:0:0:
266,338,57814,2,0,P|310:332|362:317,1,75,2|0,1:2|1:0,0:0:0:0:
399,256,58189,2,0,L|405:171,1,75,10|0,0:0|0:0,0:0:0:0:
354,105,58564,6,0,P|317:96|280:91,1,75,6|0,1:2|1:0,0:0:0:0:
214,153,58939,2,0,P|177:161|140:166,1,75,10|0,0:0|0:0,0:0:0:0:
47,105,59314,1,10,0:0:0:0:
86,1,59501,1,8,0:0:0:0:
199,0,59689,6,0,P|272:10|359:24,1,150,14|0,1:2|1:0,0:0:0:0:
408,87,60251,1,0,1:0:0:0:
337,142,60439,1,8,0:0:0:0:
397,208,60626,2,0,P|390:275|383:368,1,150,2|2,0:0|1:2,0:0:0:0:
294,344,61189,2,0,L|214:333,1,75,8|0,0:0|0:0,0:0:0:0:
138,372,61564,6,0,P|181:322|175:235,1,150,2|10,1:2|0:0,0:0:0:0:
118,174,62126,2,0,P|81:165|42:163,1,75,2|0,0:0|0:0,0:0:0:0:
2,243,62501,1,0,1:0:0:0:
28,329,62689,1,10,0:0:0:0:
117,336,62876,6,0,B|203:330|173:375|269:373,1,150,2|0,0:0|1:0,0:0:0:0:
335,324,63439,2,0,P|374:318|424:320,1,75,10|0,0:0|0:0,0:0:0:0:
487,272,63814,2,0,L|494:193,1,75,2|0,1:2|1:0,0:0:0:0:
436,127,64189,2,0,P|398:127|361:121,1,75,10|0,0:0|0:0,0:0:0:0:
261,47,64564,6,0,P|189:41|124:98,1,150,6|8,1:2|0:0,0:0:0:0:
147,174,65126,2,0,L|138:270,1,75,0|0,0:0|1:0,0:0:0:0:
183,327,65501,1,2,1:2:0:0:
110,380,65689,1,10,0:0:0:0:
16,308,65876,6,0,P|14:230|9:145,1,150,6|0,1:2|1:0,0:0:0:0:
67,88,66439,1,8,0:0:0:0:
148,126,66626,2,0,B|237:117|209:163|314:153,1,150,2|0,1:2|1:0,0:0:0:0:
369,105,67189,1,10,0:0:0:0:
317,30,67376,1,2,0:0:0:0:
442,0,67564,6,0,P|497:28|515:119,1,150,6|8,1:2|0:0,0:0:0:0:
473,187,68126,2,0,P|468:247|468:295,1,75,2|0,0:0|1:0,0:0:0:0:
403,325,68501,1,0,1:0:0:0:
329,272,68689,1,10,0:0:0:0:
255,323,68876,6,0,B|169:314|198:360|101:355,1,150,2|0,0:0|1:0,0:0:0:0:
34,307,69439,2,0,P|40:262|44:215,1,75,10|0,0:0|0:0,0:0:0:0:
101,163,69814,2,0,P|95:118|91:71,1,75,2|0,1:2|1:0,0:0:0:0:
153,16,70189,2,0,L|232:21,1,75,10|0,0:0|0:0,0:0:0:0:
307,98,70564,6,0,L|386:93,1,75,6|0,1:2|1:0,0:0:0:0:
470,157,70939,2,0,P|467:200|469:254,1,75,10|0,0:0|0:0,0:0:0:0:
405,318,71314,1,10,0:0:0:0:
316,262,71501,1,8,0:0:0:0:
243,346,71689,6,0,P|171:361|105:302,1,150,14|0,1:2|1:0,0:0:0:0:
67,240,72251,1,0,1:0:0:0:
141,190,72439,2,0,L|227:185,1,75,8|2,0:0|0:0,0:0:0:0:
282,124,72814,2,0,L|368:131,1,75,0|0,1:0|1:0,0:0:0:0:
381,218,73189,1,10,0:0:0:0:
324,288,73376,1,2,0:0:0:0:
383,356,73564,6,0,P|454:364|508:300,1,150,2|8,1:2|0:0,0:0:0:0:
485,223,74126,2,0,P|487:172|492:129,1,75,2|0,0:0|1:0,0:0:0:0:
432,77,74501,1,0,1:0:0:0:
357,127,74689,1,10,0:0:0:0:
290,66,74876,6,0,P|230:57|157:108,1,150,2|0,0:0|1:0,0:0:0:0:
181,192,75439,2,0,P|179:231|173:279,1,75,10|0,0:0|0:0,0:0:0:0:
123,341,75814,2,0,L|40:330,1,75,2|0,1:2|1:0,0:0:0:0:
7,250,76189,2,0,P|8:212|13:175,1,75,10|0,0:0|0:0,0:0:0:0:
58,97,76564,6,0,L|136:94,1,75,6|0,1:2|1:0,0:0:0:0:
205,143,76939,2,0,L|283:146,1,75,10|0,0:0|0:0,0:0:0:0:
367,87,77314,1,2,1:2:0:0:
452,138,77501,1,8,0:0:0:0:
426,21,77689,6,0,B|341:14|370:57|270:55,1,150,14|0,0:0|1:0,0:0:0:0:
193,44,78251,1,0,1:0:0:0:
122,100,78439,2,0,P|131:136|132:173,1,75,8|2,0:0|0:0,0:0:0:0:
88,252,78814,2,0,P|78:286|79:336,1,75,0|0,1:0|1:0,0:0:0:0:
155,372,79189,1,8,0:0:0:0:
258,384,79376,1,8,0:0:0:0:
351,327,79564,6,0,P|352:262|360:173,1,150,6|10,1:2|0:0,0:0:0:0:
300,107,80126,2,0,P|254:93|208:95,1,75,2|0,0:0|1:0,0:0:0:0:
162,154,80501,2,0,P|116:168|70:166,1,75,2|8,1:2|0:0,0:0:0:0:
14,118,80876,6,0,P|26:36|104:3,1,150,2|0,0:0|1:0,0:0:0:0:
167,21,81439,1,8,0:0:0:0:
227,87,81626,2,0,P|222:159|222:264,1,150,2|0,0:0|1:0,0:0:0:0:
275,308,82189,2,0,L|358:313,1,75,8|0,0:0|0:0,0:0:0:0:
428,268,82564,6,0,P|443:197|376:141,1,150,2|10,1:2|0:0,0:0:0:0:
305,124,83126,2,0,P|264:129|214:131,1,75,2|0,0:0|1:0,0:0:0:0:
169,64,83501,2,0,P|128:59|78:57,1,75,2|8,1:2|0:0,0:0:0:0:
20,108,83876,6,0,B|2:155|2:155|28:270,1,150,2|0,0:0|1:0,0:0:0:0:
96,305,84439,1,8,0:0:0:0:
172,257,84626,2,0,P|181:200|193:86,1,150,2|0,0:0|1:0,0:0:0:0:
247,36,85189,1,8,3:0:0:0:
316,92,85376,1,4,3:0:0:0:
403,19,85564,6,0,P|459:25|516:97,1,150,6|10,1:2|0:0,0:0:0:0:
474,174,86126,2,0,L|392:164,1,75,2|0,0:0|1:0,0:0:0:0:
314,224,86501,1,10,0:2:0:0:
394,295,86689,1,8,0:0:0:0:
309,364,86876,6,0,B|191:375|236:296|105:317,1,202.499993820191,6|2,1:2|0:0,0:0:0:0:
40,275,87626,2,0,L|30:206,1,67.4999979400635,2|0,0:0|0:0,0:0:0:0:
68,129,88001,1,2,0:0:0:0:
168,170,88189,1,2,0:0:0:0:
256,192,88282,12,0,90064,0:0:0:0:
