osu file format v14

[General]
AudioFilename: audio.mp3
AudioLeadIn: 0
PreviewTime: 55095
Countdown: 0
SampleSet: Soft
StackLeniency: 0.7
Mode: 0
LetterboxInBreaks: 0
WidescreenStoryboard: 1

[Editor]
DistanceSpacing: 1
BeatDivisor: 2
GridSize: 16
TimelineZoom: 0.8

[Metadata]
Title:Kimochi Signal (TV Size)
TitleUnicode:キモチシグナル (TV Size)
Artist:Horishita Sayuri
ArtistUnicode:堀下さゆり
Creator:Agatsu
Version:Easy
Source:Kokoro Connect
Tags:ココロコネクト BD DVD opening anime japanese
BeatmapID:1964756
BeatmapSetID:940764

[Difficulty]
HPDrainRate:3
CircleSize:3
OverallDifficulty:3
ApproachRate:3
SliderMultiplier:0.9
SliderTickRate:1

[Events]
//Background and Video events
0,0,"728615.jpg",0,0
//Break Periods
//Storyboard Layer 0 (Background)
//Storyboard Layer 1 (Fail)
//Storyboard Layer 2 (Pass)
//Storyboard Layer 3 (Foreground)
//Storyboard Sound Samples

[TimingPoints]
1564,375,4,2,1,50,1,0
1564,-100,4,2,1,50,0,0
6064,-100,4,2,1,55,0,0
7189,-100,4,2,1,70,0,0
7564,-100,4,2,1,70,0,0
15626,-100,4,2,1,65,0,0
16564,-100,4,2,1,55,0,0
27064,-100,4,2,1,55,0,0
28564,-100,4,2,1,55,0,0
40470,-100,4,2,1,5,0,0
40564,-100,4,2,1,55,0,0
43470,-100,4,2,1,5,0,0
43564,-100,4,2,1,55,0,0
52376,-100,4,2,1,60,0,0
55564,-100,4,2,1,70,0,1
86876,-100,4,2,1,70,0,0
86970,-100,4,2,1,50,0,0
88564,-100,4,2,1,40,0,0
88939,-100,4,2,1,30,0,0
89314,-100,4,2,1,20,0,0
89689,-100,4,2,1,10,0,0
90064,-100,4,2,1,5,0,0

[Colours]
Combo1 : 239,155,80
Combo2 : 78,122,205
Combo3 : 223,192,87
Combo4 : 157,224,84

[HitObjects]
27,46,1564,6,0,B|134:39|88:93|196:91,1,180,2|2,0:0|0:0,0:0:0:0:
276,51,2689,1,2,0:0:0:0:
353,97,3064,2,0,P|353:162|361:283,1,180,2|2,0:0|0:0,0:0:0:0:
207,371,4564,6,0,P|122:368|68:288,1,180,2|2,0:0|0:0,0:0:0:0:
108,215,5689,1,2,0:0:0:0:
157,139,6064,2,0,B|321:128|223:243|415:237,1,270,6|10,0:0|0:0,0:0:0:0:
463,180,7564,6,0,L|474:37,2,135,6|2|10,1:2|0:0|0:0,0:0:0:0:
394,237,9064,2,0,P|319:223|234:287,1,180,2|2,1:2|1:2,0:0:0:0:
174,343,10189,1,10,0:0:0:0:
92,304,10564,6,0,P|30:321|-2:385,2,135,6|2|10,1:2|0:0|0:0,0:0:0:0:
166,253,12064,2,0,L|176:67,1,180,2|2,1:2|1:2,0:0:0:0:
251,24,13189,1,10,0:0:0:0:
331,64,13564,6,0,P|394:63|449:115,1,135,6|2,1:2|0:0,0:0:0:0:
481,191,14501,1,2,1:2:0:0:
419,256,14876,2,0,P|310:242|206:238,1,180,6|2,1:2|0:0,0:0:0:0:
97,64,16564,6,0,L|90:160,2,90,6|2|2,1:2|1:2|1:2,0:0:0:0:
171,13,17689,1,10,0:0:0:0:
253,48,18064,2,0,L|394:53,1,135,0|2,1:0|0:0,0:0:0:0:
478,153,19189,1,8,0:0:0:0:
417,219,19564,6,0,P|414:265|424:314,2,90,0|2|2,1:2|1:2|1:2,0:0:0:0:
343,167,20689,1,10,0:0:0:0:
262,206,21064,2,0,B|180:204|210:165|121:168,1,135,0|2,1:0|0:0,0:0:0:0:
38,262,22189,1,8,0:0:0:0:
85,338,22564,6,0,L|181:341,1,90,2|2,1:2|1:2,0:0:0:0:
255,381,23314,2,0,L|344:378,1,90,2|10,1:2|0:2,0:0:0:0:
383,296,24064,2,0,P|389:245|372:192,1,90,0|0,1:0|1:0,0:0:0:0:
298,168,24814,2,0,P|292:117|309:64,1,90,0|8,1:0|0:0,0:0:0:0:
363,15,25564,6,0,P|445:20|501:106,1,180,0|0,1:2|1:0,0:0:0:0:
490,184,26689,1,10,0:0:0:0:
423,244,27064,2,0,L|281:231,2,135,4|6|8,1:2|0:0|0:0,0:0:0:0:
490,184,28564,6,0,P|493:95|398:47,1,180,6|2,1:2|1:2,0:0:0:0:
334,54,29689,1,10,0:0:0:0:
258,103,30064,2,0,B|171:96|206:142|106:142,1,135,2|2,1:2|0:0,0:0:0:0:
46,245,31189,1,8,0:0:0:0:
89,323,31564,6,0,B|155:316|155:316|191:335|191:335|280:324,1,180,2|2,1:2|1:2,0:0:0:0:
341,280,32689,1,10,0:0:0:0:
295,202,33064,2,0,P|289:137|331:74,1,135,0|2,1:0|0:0,0:0:0:0:
456,106,34189,1,8,0:0:0:0:
483,191,34564,6,0,L|478:352,2,135,2|2|10,1:2|0:0|0:0,0:0:0:0:
398,158,36064,2,0,L|393:23,2,135,2|2|10,1:2|0:0|0:0,0:0:0:0:
321,205,37564,6,0,P|255:215|194:170,1,135,6|2,1:2|1:2,0:0:0:0:
168,95,38501,1,10,0:0:0:0:
217,19,38876,2,0,B|324:10|280:70|396:70,1,180,6|2,1:2|1:2,0:0:0:0:
475,169,40189,1,8,0:0:0:0:
435,249,40564,6,0,P|348:251|274:259,1,135,6|2,1:2|0:0,0:0:0:0:
230,312,41501,1,2,1:2:0:0:
152,265,41876,2,0,L|146:169,1,90,2|2,0:0|1:2,0:0:0:0:
219,61,42814,2,0,L|312:56,1,90,2|10,1:2|0:0,0:0:0:0:
390,19,43564,6,0,P|448:59|444:145,1,135,2|2,1:2|0:0,0:0:0:0:
403,192,44501,1,2,1:2:0:0:
461,260,44876,2,0,L|454:359,2,90,2|2|2,0:0|1:2|0:0,0:0:0:0:
334,307,46189,1,8,0:0:0:0:
262,251,46564,6,0,P|267:180|267:102,1,135,6|2,1:2|1:2,0:0:0:0:
231,33,47501,1,2,1:2:0:0:
148,67,47876,2,0,L|52:62,1,90,2|2,0:0|1:2,0:0:0:0:
4,134,48626,2,0,L|12:290,1,135,2|10,0:0|0:0,0:0:0:0:
61,343,49564,6,0,P|134:366|215:334,1,135,6|2,1:2|1:2,0:0:0:0:
263,302,50501,1,2,1:2:0:0:
238,215,50876,2,0,P|239:137|246:26,1,180,6|2,0:0|0:0,0:0:0:0:
333,17,52001,1,2,1:2:0:0:
410,62,52376,6,0,L|514:51,2,90,6|10|14,0:0|0:0|1:2,0:0:0:0:
364,139,53501,1,10,0:0:0:0:
418,210,53876,2,0,P|468:262|460:331,1,135,6|10,1:2|0:0,0:0:0:0:
290,365,55189,1,10,0:0:0:0:
216,313,55564,6,0,P|217:246|215:167,1,135,6|2,1:2|0:0,0:0:0:0:
142,64,56689,1,10,0:0:0:0:
52,69,57064,2,0,L|45:161,1,90,0|10,1:0|0:0,0:0:0:0:
6,240,57814,2,0,L|-1:332,1,90,2|10,1:2|0:0,0:0:0:0:
71,383,58564,6,0,L|169:378,1,90,6|10,1:2|0:0,0:0:0:0:
233,325,59314,1,10,0:0:0:0:
314,364,59689,2,0,P|382:367|446:229,1,225,14|2,1:2|0:0,0:0:0:0:
387,124,61189,1,8,0:0:0:0:
323,188,61564,6,0,L|129:169,1,180,2|0,1:2|1:0,0:0:0:0:
68,219,62689,1,10,0:0:0:0:
6,153,63064,2,0,P|6:104|22:42,1,90,0|10,1:0|0:0,0:0:0:0:
93,20,63814,2,0,L|198:29,1,90,2|10,1:2|0:0,0:0:0:0:
262,69,64564,6,0,B|369:55|327:118|442:106,1,180,6|0,1:2|1:0,0:0:0:0:
489,229,65876,2,0,L|483:332,1,90,6|0,1:2|1:0,0:0:0:0:
405,363,66626,2,0,P|339:355|259:352,1,135,2|10,1:2|0:0,0:0:0:0:
181,364,67564,6,0,P|169:274|206:183,1,180,6|0,1:2|1:0,0:0:0:0:
262,127,68689,1,10,0:0:0:0:
220,47,69064,2,0,P|174:41|95:37,1,90,0|10,1:0|0:0,0:0:0:0:
46,69,69814,2,0,L|36:162,1,90,2|10,1:2|0:0,0:0:0:0:
59,245,70564,6,0,P|104:258|156:249,1,90,6|10,1:2|0:0,0:0:0:0:
211,190,71314,1,10,0:0:0:0:
227,101,71689,2,0,P|305:49|418:115,1,225,14|2,1:2|0:0,0:0:0:0:
448,233,73189,1,10,0:0:0:0:
387,300,73564,6,0,L|248:286,1,135,2|2,1:2|0:0,0:0:0:0:
117,297,74689,2,0,L|122:197,1,90,10|0,0:0|1:0,0:0:0:0:
175,134,75439,2,0,L|170:34,2,90,10|2|10,0:0|1:2|0:0,0:0:0:0:
247,187,76564,6,0,P|299:193|348:174,1,90,6|10,1:2|0:0,0:0:0:0:
387,109,77314,1,2,1:2:0:0:
353,25,77689,2,0,B|208:3|281:88|119:77,1,225,14|2,0:0|0:0,0:0:0:0:
75,195,79189,1,8,0:0:0:0:
155,237,79564,6,0,L|143:378,1,135,6|2,1:2|0:0,0:0:0:0:
233,362,80501,1,2,1:2:0:0:
308,312,80876,2,0,P|339:231|288:136,1,180,2|2,0:0|0:0,0:0:0:0:
183,88,82189,1,8,0:0:0:0:
249,27,82564,6,0,P|322:11|401:28,1,135,2|2,1:2|0:0,0:0:0:0:
457,67,83501,1,2,1:2:0:0:
415,146,83876,2,0,L|408:337,1,180,2|2,0:0|0:0,0:0:0:0:
278,362,85189,1,8,3:0:0:0:
199,318,85564,6,0,B|121:311|146:352|57:345,1,135,6|2,1:2|0:0,0:0:0:0:
19,270,86501,1,10,0:2:0:0:
42,183,86876,2,0,P|36:100|138:48,1,180,6|2,1:2|0:0,0:0:0:0:
237,83,88189,1,2,0:0:0:0:
256,192,88376,12,0,90064,0:0:0:0:
