osu file format v14

[General]
AudioFilename: audio.mp3
AudioLeadIn: 0
PreviewTime: 53625
Countdown: 0
SampleSet: Soft
StackLeniency: 0.6
Mode: 0
LetterboxInBreaks: 0
WidescreenStoryboard: 0

[Editor]
DistanceSpacing: 1.2
BeatDivisor: 4
GridSize: 8
TimelineZoom: 2

[Metadata]
Title:Kimochi Signal (TV Size)
TitleUnicode:キモチシグナル (TV Size)
Artist:Horishita Sayuri
ArtistUnicode:堀下さゆり
Creator:[XV]
Version:Normal
Source:Kokoro Connect
Tags:Inaba Himeko Miriko pkhg Victorica opening bluray
BeatmapID:1564187
BeatmapSetID:529482

[Difficulty]
HPDrainRate:3
CircleSize:3.1
OverallDifficulty:4
ApproachRate:5
SliderMultiplier:1.3
SliderTickRate:1

[Events]
//Background and Video events
0,0,"kimochi-r.jpg",0,0
//Break Periods
//Storyboard Layer 0 (Background)
//Storyboard Layer 1 (Fail)
//Storyboard Layer 2 (Pass)
//Storyboard Layer 3 (Foreground)
//Storyboard Sound Samples

[TimingPoints]
0,375,4,2,1,65,1,0
187,-100,4,2,1,35,0,0
3000,-100,4,2,1,65,0,0
3187,-100,4,2,1,35,0,0
4500,-100,4,2,1,50,0,0
5625,-100,4,2,1,65,0,0
6375,-100,4,2,1,65,0,0
6562,-100,4,2,1,65,0,0
9000,-100,4,2,1,65,0,0
13312,-100,4,2,1,65,0,0
13968,-100,4,2,1,5,0,0
14062,-100,4,2,1,50,0,0
14812,-100,4,2,1,45,0,0
25500,-100,4,2,1,55,0,0
27000,-100,4,2,1,65,0,0
30281,-100,4,2,1,5,0,0
30375,-100,4,2,1,65,0,0
48000,-100,4,2,1,65,0,0
54000,-100,4,2,1,80,0,1
57281,-100,4,2,1,5,0,1
57375,-100,4,2,1,80,0,1
58031,-100,4,2,1,5,0,1
58125,-100,4,2,1,80,0,1
58687,-100,4,2,1,80,0,1
70125,-100,4,2,1,80,0,1
70687,-100,4,2,1,80,0,1
76125,-100,4,2,1,80,0,1
76875,-100,4,2,1,80,0,1
78000,-100,4,2,1,80,0,0
83980,375,4,2,1,65,1,0
85292,-100,4,2,1,60,0,0
85855,-100,4,2,1,40,0,0
86792,-100,4,2,1,30,0,0
87261,-100,4,2,1,20,0,0
87917,-100,4,2,1,10,0,0
88855,-100,4,2,1,5,0,0

[Colours]
Combo1 : 0,255,128
Combo2 : 79,167,255
Combo3 : 128,128,255
Combo4 : 253,157,198
Combo5 : 255,255,128

[HitObjects]
65,33,0,6,0,P|46:89|58:161,1,130,2|0,0:0|0:0,0:0:0:0:
113,219,562,1,2,0:0:0:0:
113,219,750,2,0,L|243:208,1,130,0|0,0:0|0:0,0:0:0:0:
397,195,1500,2,0,P|408:131|388:70,1,130,0|0,0:0|0:0,0:0:0:0:
310,75,2062,1,0,0:0:0:0:
310,75,2250,2,0,L|180:86,1,130,2|2,0:0|0:0,0:0:0:0:
25,98,3000,6,0,P|5:159|17:222,1,130,2|0,0:0|0:0,0:0:0:0:
79,281,3562,1,2,0:0:0:0:
79,281,3750,2,0,L|209:270,1,130,0|2,0:0|0:0,0:0:0:0:
363,254,4500,6,0,P|451:195|353:155,1,260,4|0,0:1|0:0,0:0:0:0:
275,164,5437,1,4,0:3:0:0:
275,164,5625,2,0,L|209:169,1,65,2|2,1:2|0:0,0:0:0:0:
132,178,6000,6,0,P|112:239|125:302,1,130,6|2,0:0|1:2,0:0:0:0:
189,346,6562,2,0,L|319:335,1,130,0|0,0:0|0:0,0:0:0:0:
396,328,7125,1,2,1:2:0:0:
497,209,7500,6,0,P|510:146|490:84,1,130,0|2,0:0|1:2,0:0:0:0:
334,92,8250,2,0,L|268:97,1,65,2|0,0:0|0:0,0:0:0:0:
218,156,8625,2,0,L|152:161,1,65,2|0,1:2|0:0,0:0:0:0:
75,169,9000,6,0,P|55:230|67:293,1,130,4|2,0:0|1:2,0:0:0:0:
127,342,9562,2,0,L|257:331,1,130,2|0,0:0|0:0,0:0:0:0:
334,324,10125,1,2,1:2:0:0:
489,309,10500,2,0,P|501:245|481:184,2,130,0|2|2,0:0|1:2|0:0,0:0:0:0:
334,324,11625,1,2,1:2:0:0:
178,335,12000,6,0,P|165:271|185:210,1,130,4|2,0:0|1:2,0:0:0:0:
249,165,12562,2,0,P|261:101|241:40,1,130,2|2,0:0|0:0,0:0:0:0:
163,47,13125,1,2,1:2:0:0:
163,47,13312,6,0,L|33:58,1,130,4|0,0:0|0:0,0:0:0:0:
60,218,14062,2,0,P|123:230|184:210,1,130,2|0,0:0|0:0,0:0:0:0:
293,98,14812,1,2,0:0:0:0:
293,98,15000,6,0,L|304:228,1,130,4|2,0:1|0:0,0:0:0:0:
316,310,15562,1,0,0:0:0:0:
315,309,15750,2,0,P|253:329|190:317,1,130,2|0,0:0|1:0,0:0:0:0:
66,222,16500,2,0,P|53:158|73:97,1,130,0|0,0:0|0:0,0:0:0:0:
228,88,17250,2,0,L|292:83,1,65,0|0,0:0|0:0,0:0:0:0:
344,24,17625,2,0,L|408:19,1,65,0|2,1:0|0:0,0:0:0:0:
486,11,18000,6,0,P|505:72|492:135,1,130,2|0,0:0|0:0,0:0:0:0:
437,190,18562,1,2,0:0:0:0:
437,190,18750,2,0,L|307:201,1,130,2|0,0:0|1:0,0:0:0:0:
230,209,19312,1,2,0:0:0:0:
230,209,19500,2,0,P|249:270|236:333,1,130,0|0,0:0|0:0,0:0:0:0:
88,282,20250,2,0,L|83:218,1,65,0|0,0:0|0:0,0:0:0:0:
24,166,20625,2,0,L|19:102,1,65,0|2,1:0|0:0,0:0:0:0:
13,23,21000,6,0,L|143:12,1,130,2|0,0:0|0:0,0:0:0:0:
216,55,21562,1,2,0:0:0:0:
216,55,21750,2,0,L|346:44,1,130,2|0,0:0|1:0,0:0:0:0:
429,41,22312,1,2,0:0:0:0:
429,41,22500,2,0,P|448:102|435:165,1,130,0|0,0:0|0:0,0:0:0:0:
279,178,23250,2,0,L|215:183,1,65,0|0,0:0|0:0,0:0:0:0:
163,242,23625,2,0,L|99:247,1,65,0|0,1:0|0:0,0:0:0:0:
20,252,24000,6,0,P|0:313|13:376,1,130,2|0,0:0|0:0,0:0:0:0:
169,366,24750,2,0,P|182:303|162:241,1,130,0|0,0:0|1:0,0:0:0:0:
78,109,25500,2,0,L|208:98,1,130,4|0,0:1|1:0,0:0:0:0:
273,140,26062,2,0,L|403:129,1,130,4|0,0:1|0:0,0:0:0:0:
480,124,26625,1,0,1:0:0:0:
487,279,27000,6,0,P|425:298|362:285,1,130,4|0,0:0|1:0,0:0:0:0:
297,243,27562,1,2,0:0:0:0:
297,243,27750,2,0,P|234:229|172:249,1,130,2|0,0:0|1:0,0:0:0:0:
26,304,28500,2,0,P|12:241|32:179,1,130,0|0,0:0|1:0,0:0:0:0:
78,109,29062,2,0,L|208:98,1,130,0|0,0:0|0:0,0:0:0:0:
285,92,29625,1,0,1:0:0:0:
368,88,29812,1,2,0:0:0:0:
368,88,30000,6,0,P|380:151|360:212,1,130,2|0,0:0|1:0,0:0:0:0:
293,253,30562,1,2,0:0:0:0:
293,253,30750,2,0,L|163:264,1,130,2|0,0:0|1:0,0:0:0:0:
23,332,31500,2,0,P|8:266|21:202,1,130,0|0,0:0|1:0,0:0:0:0:
57,137,32062,2,0,L|187:126,1,130,2|0,0:0|0:0,0:0:0:0:
248,78,32625,2,0,L|312:73,1,65,0|2,1:0|0:0,0:0:0:0:
390,67,33000,6,0,L|401:197,1,130,2|0,0:0|1:0,0:0:0:0:
404,274,33562,2,0,P|342:293|279:280,1,130,2|0,0:0|0:0,0:0:0:0:
209,244,34125,1,0,1:0:0:0:
53,254,34500,2,0,L|42:124,1,130,2|0,0:0|1:0,0:0:0:0:
35,46,35062,2,0,P|96:27|159:39,1,130,2|0,0:0|0:0,0:0:0:0:
215,96,35625,1,0,1:0:0:0:
272,157,35812,1,0,1:0:0:0:
272,157,36000,6,0,P|335:169|396:150,1,130,4|0,0:0|1:0,0:0:0:0:
459,103,36562,2,0,L|470:233,1,130,4|0,0:1|1:0,0:0:0:0:
409,281,37125,1,0,1:0:0:0:
409,281,37312,6,0,P|347:300|284:288,1,130,2|0,0:0|0:0,0:0:0:0:
218,244,37875,1,0,1:0:0:0:
218,244,38062,2,0,P|154:232|93:251,1,130,0|0,0:0|0:0,0:0:0:0:
24,290,38625,1,0,1:0:0:0:
15,134,39000,6,0,L|145:123,1,130,2|0,0:0|1:0,0:0:0:0:
209,80,39562,2,0,L|339:69,1,130,2|2,0:0|0:0,0:0:0:0:
416,61,40125,1,0,1:0:0:0:
485,200,40500,2,0,P|422:214|358:203,1,130,0|0,0:0|1:0,0:0:0:0:
284,177,41062,1,2,0:0:0:0:
214,144,41250,2,0,L|209:80,1,65,2|0,0:0|0:0,0:0:0:0:
201,1,41625,1,0,1:0:0:0:
45,11,42000,6,0,L|56:141,1,130,2|0,0:0|1:0,0:0:0:0:
14,206,42562,2,0,L|25:336,1,130,2|2,0:0|0:0,0:0:0:0:
98,361,43125,1,0,1:0:0:0:
227,274,43500,2,0,P|290:260|354:271,1,130,0|0,0:0|1:0,0:0:0:0:
422,307,44062,2,0,L|411:177,1,130,2|0,0:0|0:0,0:0:0:0:
404,99,44625,1,0,1:0:0:0:
256,47,45000,6,0,P|192:36|129:50,1,130,4|0,0:1|1:0,0:0:0:0:
61,87,45562,2,0,L|72:217,1,130,2|2,0:0|0:0,0:0:0:0:
78,294,46125,1,0,1:0:0:0:
223,356,46500,2,0,P|234:292|220:230,1,130,0|0,0:0|1:0,0:0:0:0:
186,159,47062,2,0,L|316:148,1,130,2|0,0:0|0:0,0:0:0:0:
393,141,47625,1,0,1:0:0:0:
455,283,48000,6,0,P|391:293|328:279,1,130,4|0,0:1|1:0,0:0:0:0:
255,251,48562,2,0,P|191:240|128:254,1,130,2|2,0:0|0:0,0:0:0:0:
68,304,49125,1,0,1:0:0:0:
68,304,49312,2,0,L|57:174,1,130,4|0,0:1|0:0,0:0:0:0:
49,96,49875,1,0,1:0:0:0:
49,96,50062,2,0,L|179:85,1,130,0|2,0:0|0:0,0:0:0:0:
257,113,50625,1,0,1:0:0:0:
257,113,50812,6,0,L|387:102,1,130,4|0,0:1|1:0,0:0:0:0:
470,102,51375,1,0,1:0:0:0:
470,102,51562,2,0,P|482:165|462:226,1,130,4|0,0:1|1:0,0:0:0:0:
395,268,52125,1,0,1:0:0:0:
395,268,52312,2,0,L|265:279,1,130,2|2,0:0|0:0,0:0:0:0:
187,286,52875,1,2,1:2:0:0:
31,172,53625,2,0,L|26:108,1,65,2|0,1:2|0:0,0:0:0:0:
20,29,54000,6,0,L|150:18,1,130,4|2,0:0|1:2,0:0:0:0:
217,56,54562,2,0,L|347:45,1,130,2|2,0:0|0:0,0:0:0:0:
424,36,55125,1,2,1:2:0:0:
493,175,55500,2,0,P|506:238|496:301,1,130,0|2,0:0|1:2,0:0:0:0:
341,320,56250,2,0,L|211:331,1,130,2|2,0:0|1:2,0:0:0:0:
55,321,57000,6,0,P|44:257|58:194,2,130,4|2|2,0:1|1:2|1:2,0:0:0:0:
211,330,58125,2,0,L|406:314,1,195,6|0,0:0|0:0,0:0:0:0:
483,305,58875,1,2,1:2:0:0:
473,149,59250,2,0,L|409:154,1,65,0|0,0:0|0:0,0:0:0:0:
337,119,59625,2,0,L|273:123,1,65,2|2,1:2|0:0,0:0:0:0:
200,92,60000,6,0,L|70:103,1,130,2|0,0:0|1:0,0:0:0:0:
18,161,60562,2,0,P|4:224|15:287,1,130,2|0,0:0|0:0,0:0:0:0:
75,338,61125,1,2,1:2:0:0:
157,341,61312,1,2,0:0:0:0:
157,341,61500,2,0,P|168:277|154:214,1,130,0|2,0:0|1:2,0:0:0:0:
68,83,62250,2,0,L|198:72,1,130,0|2,0:0|1:2,0:0:0:0:
353,64,63000,6,0,P|366:127|355:190,1,130,4|0,0:1|0:0,0:0:0:0:
228,281,63750,1,0,0:0:0:0:
150,287,63937,2,0,L|86:292,1,65,0|2,0:0|1:2,0:0:0:0:
7,295,64312,2,0,P|-4:231|9:168,1,130,4|0,0:1|0:0,0:0:0:0:
61,109,64875,1,2,1:2:0:0:
61,109,65062,2,0,L|191:98,1,130,0|0,0:0|0:0,0:0:0:0:
267,112,65625,2,0,L|331:107,1,65,2|2,1:2|0:0,0:0:0:0:
409,101,66000,6,0,P|422:164|411:227,1,130,6|2,0:2|1:2,0:0:0:0:
355,282,66562,2,0,P|291:293|228:280,1,130,2|0,0:0|0:0,0:0:0:0:
167,230,67125,1,2,1:2:0:0:
26,162,67500,2,0,P|13:225|24:288,1,130,0|2,0:0|1:2,0:0:0:0:
167,230,68250,2,0,P|178:166|165:103,1,130,2|2,0:0|1:2,0:0:0:0:
26,162,69000,6,0,P|13:225|24:288,2,130,4|2|2,0:1|1:2|1:2,0:0:0:0:
165,103,70125,2,0,L|295:92,1,130,4|0,0:0|0:0,0:0:0:0:
449,76,70875,1,2,1:2:0:0:
460,231,71250,2,0,L|396:236,1,65,0|0,0:0|0:0,0:0:0:0:
344,295,71625,2,0,L|280:300,1,65,2|2,1:2|0:0,0:0:0:0:
211,339,72000,6,0,L|81:350,1,130,2|2,0:0|1:2,0:0:0:0:
3,353,72562,2,0,P|-8:289|4:226,1,130,2|0,0:0|0:0,0:0:0:0:
42,157,73125,1,2,1:2:0:0:
160,55,73500,2,0,L|290:44,1,130,0|2,0:0|1:2,0:0:0:0:
370,177,74250,2,0,L|240:188,1,130,2|2,0:0|1:2,0:0:0:0:
183,333,75000,6,0,L|313:322,1,130,4|2,0:1|1:2,0:0:0:0:
370,177,75750,2,0,L|306:182,1,65,2|2,1:2|1:2,0:0:0:0:
227,187,76125,2,0,P|167:121|226:54,1,195,4|0,0:0|0:0,0:0:0:0:
303,49,76875,1,2,1:2:0:0:
458,44,77250,2,0,L|463:108,1,65,0|0,0:0|0:0,0:0:0:0:
506,174,77625,2,0,L|511:238,1,65,2|2,1:2|1:2,0:0:0:0:
466,303,78000,6,0,P|402:314|339:301,1,130,4|2,0:0|1:2,0:0:0:0:
265,273,78562,2,0,P|201:261|138:274,1,130,2|2,0:0|0:0,0:0:0:0:
69,312,79125,1,2,1:2:0:0:
62,156,79500,2,0,L|192:145,1,130,0|2,0:0|1:2,0:0:0:0:
259,107,80062,2,0,L|389:96,1,130,0|0,0:0|0:0,0:0:0:0:
466,89,80625,1,2,1:2:0:0:
433,241,81000,6,0,P|369:254|306:242,1,130,2|2,0:0|1:2,0:0:0:0:
231,217,81562,2,0,P|167:203|104:215,1,130,2|2,0:0|0:0,0:0:0:0:
33,250,82125,1,2,1:2:0:0:
22,94,82500,2,0,L|152:83,1,130,0|2,0:0|1:2,0:0:0:0:
219,45,83062,2,0,L|349:34,1,130,0|0,0:0|0:0,0:0:0:0:
426,27,83625,1,2,1:2:0:0:
511,147,83980,6,0,P|524:210|512:273,1,130,4|2,0:0|1:2,0:0:0:0:
454,326,84542,2,0,L|324:337,1,130,2|2,0:0|1:2,0:0:0:0:
246,343,85105,1,2,0:2:0:0:
246,343,85292,2,0,P|234:279|247:216,1,130,2|0,0:0|0:0,0:0:0:0:
293,153,85855,1,0,0:0:0:0:
293,153,86042,2,0,L|163:164,1,130,2|2,0:0|0:0,0:0:0:0:
85,171,86605,1,0,0:0:0:0:
256,192,86792,12,0,88855,0:0:0:0:
