osu file format v14

[General]
AudioFilename: audio.mp3
AudioLeadIn: 0
PreviewTime: 53625
Countdown: 0
SampleSet: Soft
StackLeniency: 0.6
Mode: 0
LetterboxInBreaks: 0
WidescreenStoryboard: 1

[Editor]
Bookmarks: 75000
DistanceSpacing: 1
BeatDivisor: 4
GridSize: 16
TimelineZoom: 2

[Metadata]
Title:Kimochi Signal (TV Size)
TitleUnicode:キモチシグナル (TV Size)
Artist:Horishita Sayuri
ArtistUnicode:堀下さゆり
Creator:[XV]
Version:Easy
Source:Kokoro Connect
Tags:Inaba Himeko Miriko pkhg Victorica opening bluray
BeatmapID:1565669
BeatmapSetID:529482

[Difficulty]
HPDrainRate:2
CircleSize:2.5
OverallDifficulty:3
ApproachRate:3
SliderMultiplier:1
SliderTickRate:1

[Events]
//Background and Video events
0,0,"kimochi-r.jpg",0,0
//Break Periods
//Storyboard Layer 0 (Background)
//Storyboard Layer 1 (Fail)
//Storyboard Layer 2 (Pass)
//Storyboard Layer 3 (Foreground)
//Storyboard Sound Samples

[TimingPoints]
0,375,4,2,1,65,1,0
187,-100,4,2,1,35,0,0
3000,-100,4,2,1,65,0,0
3187,-100,4,2,1,35,0,0
4500,-100,4,2,1,50,0,0
5625,-100,4,2,1,65,0,0
6375,-100,4,2,1,65,0,0
6562,-100,4,2,1,65,0,0
9000,-100,4,2,1,65,0,0
13312,-100,4,2,1,65,0,0
13968,-100,4,2,1,5,0,0
14062,-100,4,2,1,50,0,0
14812,-100,4,2,1,45,0,0
25500,-100,4,2,1,55,0,0
27000,-100,4,2,1,65,0,0
30281,-100,4,2,1,5,0,0
30375,-100,4,2,1,65,0,0
48000,-100,4,2,1,65,0,0
54000,-100,4,2,1,80,0,1
57281,-100,4,2,1,5,0,1
57375,-100,4,2,1,80,0,1
58031,-100,4,2,1,5,0,1
58125,-100,4,2,1,80,0,1
58687,-100,4,2,1,80,0,1
70125,-100,4,2,1,80,0,1
70687,-100,4,2,1,80,0,1
76125,-100,4,2,1,80,0,1
76875,-100,4,2,1,80,0,1
78000,-100,4,2,1,80,0,0
83980,375,4,2,1,65,1,0
85292,-100,4,2,1,60,0,0
85855,-100,4,2,1,40,0,0
86792,-100,4,2,1,30,0,0
87261,-100,4,2,1,20,0,0
87917,-100,4,2,1,10,0,0
88667,-100,4,2,1,5,0,0

[Colours]
Combo1 : 0,255,128
Combo2 : 79,167,255
Combo3 : 128,128,255
Combo4 : 253,157,198
Combo5 : 255,255,128

[HitObjects]
105,114,0,6,0,L|304:95,1,200,2|0,0:0|0:0,0:0:0:0:
366,173,1125,1,0,0:0:0:0:
266,182,1500,2,0,L|67:201,1,200,0|2,0:0|0:0,0:0:0:0:
25,292,2625,1,2,0:0:0:0:
124,285,3000,6,0,L|323:266,1,200,2|0,0:0|0:0,0:0:0:0:
399,201,4125,1,2,0:0:0:0:
457,119,4500,2,0,B|316:73|320:205|171:113,1,300,4|2,0:1|1:2,0:0:0:0:
87,60,6000,6,0,P|74:108|81:157,1,100,6|2,0:0|1:2,0:0:0:0:
122,184,6562,2,0,B|151:254|105:254|128:331,1,150,0|2,0:0|1:2,0:0:0:0:
219,291,7500,2,0,L|319:283,1,100,0|2,0:0|1:2,0:0:0:0:
418,274,8250,1,2,0:0:0:0:
488,203,8625,1,2,1:2:0:0:
484,103,9000,6,0,P|434:95|386:108,1,100,4|2,0:0|1:2,0:0:0:0:
346,136,9562,2,0,B|276:165|276:119|199:142,1,150,2|2,0:0|1:2,0:0:0:0:
128,212,10500,2,0,L|29:220,2,100,0|2|2,0:0|1:2|0:0,0:0:0:0:
199,141,11625,1,2,1:2:0:0:
269,70,12000,6,0,L|368:61,1,100,4|2,0:0|1:2,0:0:0:0:
418,60,12562,2,0,P|429:108|422:157,1,100,2|2,0:0|0:0,0:0:0:0:
408,256,13312,2,0,L|308:264,1,100,4|0,0:0|0:0,0:0:0:0:
219,311,14062,2,0,P|212:261|224:213,1,100,2|0,0:0|0:0,0:0:0:0:
268,70,15000,6,0,L|168:78,1,100,4|2,0:1|0:0,0:0:0:0:
68,84,15750,2,0,P|55:132|62:181,1,100,2|0,0:0|1:0,0:0:0:0:
133,251,16500,2,0,P|145:298|138:348,2,100,0|0|0,0:0|0:0|0:0,0:0:0:0:
62,181,17625,1,0,1:0:0:0:
71,81,18000,6,0,P|119:69|168:77,1,100,2|0,0:0|0:0,0:0:0:0:
255,126,18750,2,0,L|263:226,1,100,2|0,0:0|1:0,0:0:0:0:
330,299,19500,2,0,P|379:307|427:295,2,100,0|0|0,0:0|0:0|0:0,0:0:0:0:
262,225,20625,1,0,1:0:0:0:
162,232,21000,6,0,L|62:240,1,100,2|0,0:0|0:0,0:0:0:0:
5,157,21750,2,0,L|105:149,1,100,2|0,0:0|1:0,0:0:0:0:
204,143,22500,2,0,P|211:93|198:45,2,100,0|0|0,0:0|0:0|0:0,0:0:0:0:
162,233,23625,1,0,1:0:0:0:
62,242,24000,6,0,P|49:289|56:339,1,100,2|0,0:0|0:0,0:0:0:0:
152,366,24750,2,0,L|252:358,1,100,0|0,0:0|1:0,0:0:0:0:
351,346,25500,2,0,P|358:296|346:248,1,100,4|0,0:1|1:0,0:0:0:0:
315,209,26062,2,0,B|286:139|332:139|309:62,1,150,4|0,0:1|1:0,0:0:0:0:
212,36,27000,6,0,P|162:27|114:39,1,100,4|0,0:0|1:0,0:0:0:0:
66,127,27750,2,0,L|74:227,1,100,2|0,0:0|1:0,0:0:0:0:
86,326,28500,2,0,P|135:334|183:322,1,100,0|0,0:0|1:0,0:0:0:0:
225,295,29062,2,0,L|374:307,1,150,0|0,0:0|1:0,0:0:0:0:
474,317,30000,6,0,P|485:268|478:219,1,100,2|0,0:0|1:0,0:0:0:0:
407,148,30750,1,2,0:0:0:0:
307,148,31125,1,0,1:0:0:0:
207,155,31500,2,0,P|195:106|202:57,1,100,0|0,0:0|1:0,0:0:0:0:
234,20,32062,2,0,L|384:31,1,150,2|0,0:0|1:0,0:0:0:0:
402,129,33000,6,0,P|410:178|398:226,1,100,2|0,0:0|1:0,0:0:0:0:
370,267,33562,2,0,B|300:296|300:250|223:273,1,150,2|0,0:0|1:0,0:0:0:0:
123,286,34500,2,0,P|114:236|126:188,1,100,2|0,0:0|1:0,0:0:0:0:
160,152,35062,2,0,B|237:129|237:175|307:146,1,150,2|0,0:0|1:0,0:0:0:0:
402,129,36000,6,0,P|410:79|398:31,1,100,4|0,0:0|1:0,0:0:0:0:
349,21,36562,2,0,L|249:29,1,100,4|0,0:1|1:0,0:0:0:0:
167,86,37312,2,0,P|155:134|163:183,1,100,2|0,0:0|0:0,0:0:0:0:
211,271,38062,2,0,B|288:248|288:294|358:265,1,150,0|0,0:0|1:0,0:0:0:0:
456,246,39000,6,0,B|479:169|433:169|462:99,2,150,2|2|0,0:0|0:0|1:0,0:0:0:0:
406,333,40500,2,0,P|356:342|308:330,1,100,0|0,0:0|1:0,0:0:0:0:
265,305,41062,2,0,L|254:155,1,150,2|0,0:0|1:0,0:0:0:0:
247,55,42000,6,0,B|170:32|170:78|100:49,2,150,2|2|0,0:0|0:0|1:0,0:0:0:0:
331,109,43500,2,0,P|340:159|328:207,1,100,0|0,0:0|1:0,0:0:0:0:
303,249,44062,2,0,L|153:260,1,150,2|0,0:0|1:0,0:0:0:0:
53,264,45000,6,0,B|30:187|76:187|47:117,2,150,4|2|0,0:1|0:0|1:0,0:0:0:0:
109,346,46500,2,0,P|159:355|207:343,1,100,0|0,0:0|1:0,0:0:0:0:
238,305,47062,2,0,L|227:155,1,150,2|0,0:0|1:0,0:0:0:0:
221,55,48000,6,0,P|269:43|318:52,1,100,4|0,0:1|1:0,0:0:0:0:
352,88,48562,2,0,L|452:80,1,100,2|2,0:0|0:0,0:0:0:0:
510,160,49312,2,0,P|519:210|507:258,1,100,4|0,0:1|0:0,0:0:0:0:
436,327,50062,1,0,0:0:0:0:
336,327,50437,1,2,0:0:0:0:
247,282,50812,6,0,P|239:331|251:380,1,100,4|0,0:1|1:0,0:0:0:0:
336,327,51562,2,0,P|347:278|339:229,1,100,4|0,0:1|1:0,0:0:0:0:
292,140,52312,2,0,L|142:151,1,150,2|2,0:0|1:2,0:0:0:0:
55,331,53625,1,2,1:2:0:0:
154,328,54000,6,0,L|254:320,1,100,4|2,0:0|1:2,0:0:0:0:
301,335,54562,2,0,P|378:348|461:318,1,150,2|2,0:0|1:2,0:0:0:0:
437,227,55500,2,0,L|429:127,2,100,0|2|2,0:0|1:2|0:0,0:0:0:0:
445,327,56625,1,2,1:2:0:0:
349,355,57000,6,0,P|300:366|251:358,2,100,4|2|2,0:1|1:2|1:2,0:0:0:0:
445,327,58125,2,0,L|428:123,1,200,6|2,0:0|1:2,0:0:0:0:
348,67,59250,2,0,P|299:58|251:70,1,100,0|2,0:0|1:2,0:0:0:0:
173,133,60000,6,0,P|124:145|76:136,1,100,2|0,0:0|1:0,0:0:0:0:
31,113,60562,2,0,L|42:263,1,150,2|2,0:0|1:2,0:0:0:0:
118,326,61500,2,0,P|166:334|214:322,1,100,0|2,0:0|1:2,0:0:0:0:
300,270,62250,2,0,P|348:257|396:266,1,100,0|2,0:0|1:2,0:0:0:0:
493,293,63000,6,0,L|477:93,1,200,4|0,0:1|0:0,0:0:0:0:
337,38,64312,2,0,P|288:29|240:41,1,100,4|0,0:1|0:0,0:0:0:0:
158,99,65062,2,0,L|169:249,1,150,0|2,0:0|1:2,0:0:0:0:
183,347,66000,6,0,P|231:355|279:343,1,100,6|2,0:2|1:2,0:0:0:0:
313,307,66562,2,0,L|463:296,1,150,2|2,0:0|1:2,0:0:0:0:
509,207,67500,2,0,P|520:159|512:110,2,100,0|2|2,0:0|1:2|0:0,0:0:0:0:
462,296,68625,1,2,1:2:0:0:
362,303,69000,6,0,L|262:311,2,100,4|2|2,0:1|1:2|1:2,0:0:0:0:
462,296,70125,2,0,P|516:206|511:110,1,200,4|2,0:0|1:2,0:0:0:0:
445,39,71250,2,0,L|345:47,1,100,0|2,0:0|1:2,0:0:0:0:
255,92,72000,6,0,P|206:104|158:95,1,100,2|2,0:0|1:2,0:0:0:0:
117,65,72562,2,0,L|128:215,1,150,2|2,0:0|1:2,0:0:0:0:
140,314,73500,1,0,0:0:0:0:
227,362,73875,2,0,P|275:370|323:358,2,100,2|2|2,1:2|0:0|1:2,0:0:0:0:
140,314,75000,5,4,0:1:0:0:
127,214,75375,2,0,L|119:114,1,100,2|2,1:2|1:2,0:0:0:0:
204,61,76125,2,0,P|300:36|397:61,1,200,4|2,0:0|1:2,0:0:0:0:
445,147,77250,2,0,P|452:196|441:244,1,100,0|2,0:0|1:2,0:0:0:0:
366,311,78000,6,0,L|216:322,2,150,4|2|0,0:0|0:0|0:0,0:0:0:0:
441,244,79500,2,0,P|452:196|445:147,1,100,0|2,0:0|1:2,0:0:0:0:
395,60,80250,1,0,0:0:0:0:
295,50,80625,1,2,1:2:0:0:
195,54,81000,6,0,L|45:65,2,150,2|2|0,0:0|0:0|0:0,0:0:0:0:
208,153,82500,2,0,L|358:142,2,150,0|0|2,0:0|0:0|1:2,0:0:0:0:
113,160,83980,6,0,P|105:209|116:257,1,100,4|2,0:0|1:2,0:0:0:0:
201,310,84730,1,0,0:0:0:0:
350,304,85292,2,0,L|500:293,1,150,2|0,0:0|0:0,0:0:0:0:
412,112,86605,1,0,0:0:0:0:
256,192,86792,12,0,88667,0:0:0:0:
