osu file format v14

[General]
AudioFilename: audio.mp3
AudioLeadIn: 0
PreviewTime: 138833
Countdown: 0
SampleSet: Soft
StackLeniency: 0.7
Mode: 0
LetterboxInBreaks: 0
WidescreenStoryboard: 1

[Editor]
DistanceSpacing: 2.5
BeatDivisor: 8
GridSize: 32
TimelineZoom: 1.7

[Metadata]
Title:silky heart
TitleUnicode:silky heart
Artist:Horie Yui
ArtistUnicode:堀江由衣
Creator:rosario wknd
Version:Heartache
Source:とらドラ!
Tags:toradora op opening full j-pop jpop pop anime japanese
BeatmapID:2615903
BeatmapSetID:1258444

[Difficulty]
HPDrainRate:7
CircleSize:4.3
OverallDifficulty:7.5
ApproachRate:8.5
SliderMultiplier:1.5
SliderTickRate:1

[Events]
//Background and Video events
0,0,"toradora.jpg",0,0
//Break Periods
2,93144,95825
//Storyboard Layer 0 (Background)
//Storyboard Layer 1 (Fail)
//Storyboard Layer 2 (Pass)
//Storyboard Layer 3 (Foreground)
//Storyboard Layer 4 (Overlay)
//Storyboard Sound Samples

[TimingPoints]
500,444.444444444444,4,2,1,40,1,0
3166,-166.666666666667,4,2,1,5,0,0
3389,-166.666666666667,4,2,1,40,0,0
4499,-100,4,2,1,40,0,0
4833,-100,4,2,1,5,0,0
4944,-100,4,2,1,50,0,0
6389,-100,4,2,1,5,0,0
6500,-100,4,2,1,50,0,0
6833,-100,4,2,1,5,0,0
6944,-100,4,2,1,50,0,0
7167,-100,4,2,1,50,0,0
7389,-100,4,2,1,50,0,0
9944,-100,4,2,1,5,0,0
10055,-100,4,2,1,50,0,0
10389,-100,4,2,1,5,0,0
10500,-100,4,2,1,50,0,0
10611,-100,4,2,1,5,0,0
10722,-111.111111111111,4,2,1,50,0,0
11055,-100,4,2,1,5,0,0
11167,-86.9565217391304,4,2,1,60,0,0
11500,-86.9565217391304,4,2,1,5,0,0
11611,-86.9565217391304,4,2,1,60,0,0
11722,-86.9565217391304,4,2,1,5,0,0
11833,-86.9565217391304,4,2,1,60,0,0
13055,-86.9565217391304,4,2,1,5,0,0
13167,-86.9565217391304,4,2,1,60,0,0
13944,-86.9565217391304,4,2,1,5,0,0
14055,-86.9565217391304,4,2,1,60,0,0
14167,-86.9565217391304,4,2,1,5,0,0
14278,-86.9565217391304,4,2,1,60,0,0
14389,-86.9565217391304,4,2,1,5,0,0
14500,-86.9565217391304,4,2,1,60,0,0
15500,-86.9565217391304,4,2,1,5,0,0
15611,-86.9565217391304,4,2,1,60,0,0
16278,-86.9565217391304,4,2,0,55,0,0
17055,-86.9565217391304,4,2,0,5,0,0
17167,-86.9565217391304,4,2,0,55,0,0
18278,-83.3333333333333,4,2,1,50,0,0
20167,-83.3333333333333,4,2,1,5,0,0
20278,-83.3333333333333,4,2,1,50,0,0
21055,-83.3333333333333,4,2,1,5,0,0
21167,-83.3333333333333,4,2,1,50,0,0
21278,-83.3333333333333,4,2,1,5,0,0
21389,-83.3333333333333,4,2,1,50,0,0
22833,-83.3333333333333,4,2,1,5,0,0
22944,-83.3333333333333,4,2,1,50,0,0
24833,-83.3333333333333,4,2,1,5,0,0
24944,-83.3333333333333,4,2,1,50,0,0
25278,-83.3333333333333,4,2,1,5,0,0
25389,-83.3333333333333,4,2,1,50,0,0
27278,-83.3333333333333,4,2,1,5,0,0
27389,-83.3333333333333,4,2,1,50,0,0
29278,-83.3333333333333,4,2,1,5,0,0
29389,-83.3333333333333,4,2,1,50,0,0
29500,-83.3333333333333,4,2,1,5,0,0
29611,-83.3333333333333,4,2,1,50,0,0
29944,-83.3333333333333,4,2,1,5,0,0
30055,-83.3333333333333,4,2,1,50,0,0
30389,-83.3333333333333,4,2,1,5,0,0
30500,-83.3333333333333,4,2,1,50,0,0
31611,-83.3333333333333,4,2,2,50,0,0
32500,-76.9230769230769,4,2,1,60,0,0
32611,-76.9230769230769,4,2,1,5,0,0
32722,-76.9230769230769,4,2,1,60,0,0
32833,-76.9230769230769,4,2,1,5,0,0
32944,-76.9230769230769,4,2,1,60,0,0
33055,-76.9230769230769,4,2,1,5,0,0
33167,-76.9230769230769,4,2,1,60,0,0
33500,-76.9230769230769,4,2,1,5,0,0
33611,-76.9230769230769,4,2,1,60,0,0
34389,-76.9230769230769,4,2,1,5,0,0
34500,-76.9230769230769,4,2,1,60,0,0
35500,-76.9230769230769,4,2,3,60,0,0
35833,-76.9230769230769,4,2,1,60,0,0
36055,-76.9230769230769,4,2,1,60,0,0
36389,-76.9230769230769,4,2,1,5,0,0
36500,-76.9230769230769,4,2,1,60,0,0
36611,-76.9230769230769,4,2,1,5,0,0
36722,-76.9230769230769,4,2,1,60,0,0
37055,-76.9230769230769,4,2,1,5,0,0
37167,-76.9230769230769,4,2,1,60,0,0
37278,-76.9230769230769,4,2,1,5,0,0
37389,-76.9230769230769,4,2,1,60,0,0
39389,-76.9230769230769,4,2,1,60,0,0
39611,-76.9230769230769,4,2,1,60,0,0
39722,-76.9230769230769,4,2,1,5,0,0
39833,-76.9230769230769,4,2,1,60,0,0
39944,-76.9230769230769,4,2,1,5,0,0
40055,-76.9230769230769,4,2,1,60,0,0
40167,-76.9230769230769,4,2,1,5,0,0
40278,-76.9230769230769,4,2,1,60,0,0
40611,-76.9230769230769,4,2,1,5,0,0
40722,-76.9230769230769,4,2,1,60,0,0
41500,-76.9230769230769,4,2,1,5,0,0
41611,-76.9230769230769,4,2,1,60,0,0
41722,-76.9230769230769,4,2,1,5,0,0
41833,-76.9230769230769,4,2,1,60,0,0
41944,-76.9230769230769,4,2,1,5,0,0
42055,-76.9230769230769,4,2,1,60,0,0
42611,-76.9230769230769,4,2,3,60,0,0
42944,-76.9230769230769,4,2,1,60,0,0
43167,-76.9230769230769,4,2,1,60,0,0
43500,-76.9230769230769,4,2,1,5,0,0
43611,-76.9230769230769,4,2,1,60,0,0
43722,-76.9230769230769,4,2,1,5,0,0
43833,-76.9230769230769,4,2,1,60,0,0
45833,-76.9230769230769,4,2,2,60,0,0
46722,-76.9230769230769,4,2,1,60,0,0
47722,-76.9230769230769,4,2,1,5,0,0
47833,-76.9230769230769,4,2,1,60,0,0
47944,-76.9230769230769,4,2,1,5,0,0
48055,-76.9230769230769,4,2,1,60,0,0
48611,-76.9230769230769,4,2,1,5,0,0
48722,-76.9230769230769,4,2,1,60,0,0
49500,-76.9230769230769,4,2,1,5,0,0
49611,-76.9230769230769,4,2,1,60,0,0
51278,-76.9230769230769,4,2,1,5,0,0
51389,-76.9230769230769,4,2,1,60,0,0
51500,-76.9230769230769,4,2,1,5,0,0
51611,-76.9230769230769,4,2,1,60,0,0
52167,-76.9230769230769,4,2,1,5,0,0
52278,-76.9230769230769,4,2,1,60,0,0
53055,-76.9230769230769,4,2,1,5,0,0
53167,-76.9230769230769,4,2,1,60,0,0
53944,-76.9230769230769,4,2,1,5,0,0
54055,-76.9230769230769,4,2,1,60,0,0
54167,-76.9230769230769,4,2,1,5,0,0
54278,-76.9230769230769,4,2,1,60,0,0
54833,-76.9230769230769,4,2,1,5,0,0
54944,-76.9230769230769,4,2,1,60,0,0
55722,-76.9230769230769,4,2,1,5,0,0
55833,-76.9230769230769,4,2,1,60,0,0
55944,-76.9230769230769,4,2,1,60,0,0
56055,-76.9230769230769,4,2,1,60,0,0
57055,-76.9230769230769,4,2,1,5,0,0
57167,-76.9230769230769,4,2,1,60,0,0
57278,-76.9230769230769,4,2,1,5,0,0
57389,-76.9230769230769,4,2,1,65,0,0
57611,-71.4285714285714,4,2,1,65,0,0
57944,-71.4285714285714,4,2,1,5,0,0
58055,-71.4285714285714,4,2,1,65,0,0
58389,-71.4285714285714,4,2,1,5,0,0
58500,-71.4285714285714,4,2,1,65,0,0
58944,-66.6666666666667,4,2,1,65,0,0
59833,-66.6666666666667,4,2,3,65,0,0
60278,-76.9230769230769,4,2,1,75,0,0
60611,-76.9230769230769,4,2,1,5,0,0
60722,-76.9230769230769,4,2,1,75,0,0
60944,-62.5,4,2,1,75,0,1
61055,-62.5,4,2,1,5,0,1
61167,-62.5,4,2,1,75,0,1
61278,-62.5,4,2,1,5,0,1
61389,-62.5,4,2,1,75,0,1
61944,-62.5,4,2,1,5,0,1
62055,-62.5,4,2,1,75,0,1
63722,-62.5,4,2,1,5,0,1
63833,-62.5,4,2,1,75,0,1
63944,-62.5,4,2,1,5,0,1
64055,-62.5,4,2,1,75,0,1
64833,-62.5,4,2,1,5,0,1
64944,-62.5,4,2,1,75,0,1
65500,-62.5,4,2,1,5,0,1
65611,-62.5,4,2,1,75,0,1
65722,-62.5,4,2,1,5,0,1
65833,-62.5,4,2,1,75,0,1
66389,-62.5,4,2,1,5,0,1
66500,-62.5,4,2,1,75,0,1
67278,-62.5,4,2,1,5,0,1
67389,-62.5,4,2,1,75,0,1
67500,-62.5,4,2,1,5,0,1
67611,-62.5,4,2,1,75,0,1
68167,-62.5,4,2,1,5,0,1
68278,-62.5,4,2,1,75,0,1
68389,-62.5,4,2,1,5,0,1
68500,-62.5,4,2,1,75,0,1
69055,-62.5,4,2,1,5,0,1
69167,-62.5,4,2,1,75,0,1
69278,-62.5,4,2,1,5,0,1
69389,-62.5,4,2,1,75,0,1
70167,-62.5,4,2,1,5,0,1
70278,-62.5,4,2,1,75,0,1
70389,-62.5,4,2,1,5,0,1
70500,-62.5,4,2,1,75,0,1
70833,-62.5,4,2,1,5,0,1
70944,-62.5,4,2,1,75,0,1
71055,-62.5,4,2,1,5,0,1
71167,-62.5,4,2,1,75,0,1
71278,-62.5,4,2,1,5,0,1
71389,-62.5,4,2,1,75,0,1
71944,-62.5,4,2,1,5,0,1
72055,-62.5,4,2,1,75,0,1
72833,-62.5,4,2,1,5,0,1
72944,-62.5,4,2,1,75,0,1
73055,-62.5,4,2,1,5,0,1
73167,-58.8235294117647,4,2,1,75,0,1
73500,-62.5,4,2,1,5,0,1
73611,-58.8235294117647,4,2,1,75,0,1
75167,-62.5,4,2,1,75,0,1
75278,-62.5,4,2,1,5,0,1
75389,-62.5,4,2,1,75,0,1
75500,-62.5,4,2,1,5,0,1
75611,-62.5,4,2,1,75,0,1
76167,-62.5,4,2,1,5,0,1
76278,-62.5,4,2,1,75,0,1
77055,-62.5,4,2,1,5,0,1
77167,-62.5,4,2,1,75,0,1
77944,-62.5,4,2,1,5,0,1
78055,-62.5,4,2,1,75,0,1
78167,-62.5,4,2,1,5,0,1
78278,-62.5,4,2,1,75,0,1
79055,-62.5,4,2,1,5,0,1
79167,-62.5,4,2,1,75,0,1
79722,-62.5,4,2,1,5,0,1
79833,-62.5,4,2,1,75,0,1
80389,-62.5,4,2,1,5,0,1
80500,-62.5,4,2,1,75,0,1
81055,-62.5,4,2,1,5,0,1
81167,-62.5,4,2,1,75,0,1
81500,-62.5,4,2,1,5,0,1
81611,-62.5,4,2,1,75,0,1
82389,-62.5,4,2,1,5,0,1
82500,-62.5,4,2,1,75,0,1
82611,-62.5,4,2,1,5,0,1
82722,-62.5,4,2,1,75,0,1
83278,-62.5,4,2,1,5,0,1
83389,-62.5,4,2,1,75,0,1
83500,-62.5,4,2,1,5,0,1
83611,-62.5,4,2,1,75,0,1
85055,-62.5,4,2,1,5,0,1
85167,-62.5,4,2,1,75,0,1
85278,-62.5,4,2,1,5,0,1
85389,-62.5,4,2,1,75,0,1
85944,-62.5,4,2,1,5,0,1
86055,-62.5,4,2,1,75,0,1
86167,-62.5,4,2,1,5,0,1
86278,-62.5,4,2,1,75,0,1
86833,-76.9230769230769,4,2,1,5,0,1
86944,-62.5,4,2,1,75,0,1
87055,-76.9230769230769,4,2,1,5,0,1
87167,-62.5,4,2,1,75,0,1
87944,-76.9230769230769,4,2,1,5,0,1
88055,-62.5,4,2,1,75,0,1
88389,-76.9230769230769,4,2,1,5,0,1
88500,-62.5,4,2,3,75,0,1
89388,-62.5,4,2,3,50,0,0
96500,-62.5,4,2,1,55,0,0
96722,-80,4,2,1,55,0,0
98389,-80,4,2,1,5,0,0
98500,-80,4,2,1,55,0,0
98611,-80,4,2,1,5,0,0
98722,-80,4,2,1,55,0,0
99278,-80,4,2,1,5,0,0
99389,-80,4,2,1,55,0,0
101055,-80,4,2,1,5,0,0
101167,-80,4,2,1,55,0,0
101722,-80,4,2,1,5,0,0
101833,-80,4,2,1,55,0,0
103500,-80,4,2,1,5,0,0
103611,-80,4,2,1,55,0,0
104611,-80,4,2,1,5,0,0
104722,-80,4,2,1,55,0,0
105500,-80,4,2,1,5,0,0
105611,-80,4,2,1,55,0,0
107500,-80,4,2,1,5,0,0
107611,-80,4,2,1,55,0,0
107722,-80,4,2,1,5,0,0
107833,-80,4,2,1,55,0,0
108167,-80,4,2,1,5,0,0
108278,-80,4,2,1,55,0,0
108611,-80,4,2,1,5,0,0
108722,-80,4,2,1,55,0,0
109833,-80,4,2,2,55,0,0
110722,-74.0740740740741,4,2,1,60,0,0
110833,-74.0740740740741,4,2,1,5,0,0
110944,-74.0740740740741,4,2,1,60,0,0
111055,-74.0740740740741,4,2,1,5,0,0
111167,-74.0740740740741,4,2,1,60,0,0
111278,-74.0740740740741,4,2,1,5,0,0
111389,-74.0740740740741,4,2,1,60,0,0
111722,-74.0740740740741,4,2,1,5,0,0
111833,-74.0740740740741,4,2,1,60,0,0
112611,-74.0740740740741,4,2,1,5,0,0
112722,-74.0740740740741,4,2,1,60,0,0
113611,-74.0740740740741,4,2,3,60,0,0
114167,-74.0740740740741,4,2,1,5,0,0
114278,-74.0740740740741,4,2,1,60,0,0
114611,-74.0740740740741,4,2,1,5,0,0
114722,-74.0740740740741,4,2,1,60,0,0
114833,-74.0740740740741,4,2,1,5,0,0
114944,-74.0740740740741,4,2,1,60,0,0
115278,-74.0740740740741,4,2,1,5,0,0
115389,-74.0740740740741,4,2,1,60,0,0
115500,-74.0740740740741,4,2,1,5,0,0
115611,-74.0740740740741,4,2,1,60,0,0
115722,-74.0740740740741,4,2,1,5,0,0
115833,-74.0740740740741,4,2,1,60,0,0
116833,-74.0740740740741,4,2,1,5,0,0
116944,-74.0740740740741,4,2,1,60,0,0
117944,-74.0740740740741,4,2,1,5,0,0
118055,-74.0740740740741,4,2,1,60,0,0
118167,-74.0740740740741,4,2,1,5,0,0
118278,-74.0740740740741,4,2,1,60,0,0
118389,-74.0740740740741,4,2,1,5,0,0
118500,-74.0740740740741,4,2,1,60,0,0
118833,-74.0740740740741,4,2,1,5,0,0
118944,-74.0740740740741,4,2,1,60,0,0
119055,-74.0740740740741,4,2,1,5,0,0
119167,-74.0740740740741,4,2,1,60,0,0
119722,-74.0740740740741,4,2,1,5,0,0
119833,-74.0740740740741,4,2,1,60,0,0
119944,-74.0740740740741,4,2,1,5,0,0
120055,-74.0740740740741,4,2,1,60,0,0
120167,-74.0740740740741,4,2,1,5,0,0
120278,-74.0740740740741,4,2,1,60,0,0
120833,-74.0740740740741,4,2,3,60,0,0
121278,-74.0740740740741,4,2,1,5,0,0
121389,-74.0740740740741,4,2,1,60,0,0
121722,-74.0740740740741,4,2,1,5,0,0
121833,-74.0740740740741,4,2,1,60,0,0
121944,-74.0740740740741,4,2,1,5,0,0
122055,-74.0740740740741,4,2,1,60,0,0
124055,-74.0740740740741,4,2,2,60,0,0
124944,-74.0740740740741,4,2,1,60,0,0
125944,-74.0740740740741,4,2,1,5,0,0
126055,-74.0740740740741,4,2,1,60,0,0
126167,-74.0740740740741,4,2,1,5,0,0
126278,-74.0740740740741,4,2,1,60,0,0
126833,-74.0740740740741,4,2,1,5,0,0
126944,-74.0740740740741,4,2,1,60,0,0
127722,-74.0740740740741,4,2,1,5,0,0
127833,-74.0740740740741,4,2,1,60,0,0
128167,-74.0740740740741,4,2,1,5,0,0
128278,-74.0740740740741,4,2,1,60,0,0
128389,-74.0740740740741,4,2,1,5,0,0
128500,-74.0740740740741,4,2,1,60,0,0
129500,-74.0740740740741,4,2,1,5,0,0
129611,-74.0740740740741,4,2,1,60,0,0
129722,-74.0740740740741,4,2,1,5,0,0
129833,-74.0740740740741,4,2,1,60,0,0
130389,-74.0740740740741,4,2,1,5,0,0
130500,-74.0740740740741,4,2,1,60,0,0
131278,-74.0740740740741,4,2,1,5,0,0
131389,-74.0740740740741,4,2,1,60,0,0
132167,-74.0740740740741,4,2,1,5,0,0
132278,-74.0740740740741,4,2,1,60,0,0
132389,-74.0740740740741,4,2,1,5,0,0
132500,-74.0740740740741,4,2,1,60,0,0
133055,-74.0740740740741,4,2,1,5,0,0
133167,-74.0740740740741,4,2,1,60,0,0
133944,-74.0740740740741,4,2,1,5,0,0
134055,-74.0740740740741,4,2,1,60,0,0
134167,-74.0740740740741,4,2,1,5,0,0
134278,-74.0740740740741,4,2,1,60,0,0
135278,-74.0740740740741,4,2,1,5,0,0
135389,-74.0740740740741,4,2,1,60,0,0
135500,-74.0740740740741,4,2,1,5,0,0
135611,-74.0740740740741,4,2,1,65,0,0
135833,-68.9655172413793,4,2,1,65,0,0
136167,-68.9655172413793,4,2,1,5,0,0
136278,-68.9655172413793,4,2,1,65,0,0
136611,-68.9655172413793,4,2,1,5,0,0
136722,-68.9655172413793,4,2,1,65,0,0
137167,-64.5161290322581,4,2,1,65,0,0
138055,-64.5161290322581,4,2,3,65,0,0
138500,-74.0740740740741,4,2,3,65,0,0
138944,-74.0740740740741,4,2,1,75,0,0
139166,-62.5,4,2,1,75,0,1
139278,-62.5,4,2,1,5,0,1
139389,-62.5,4,2,1,75,0,1
139500,-62.5,4,2,1,5,0,1
139611,-62.5,4,2,1,75,0,1
140167,-62.5,4,2,1,5,0,1
140278,-62.5,4,2,1,75,0,1
141944,-62.5,4,2,1,5,0,1
142055,-62.5,4,2,1,75,0,1
142167,-62.5,4,2,1,5,0,1
142278,-62.5,4,2,1,75,0,1
143055,-62.5,4,2,1,5,0,1
143167,-62.5,4,2,1,75,0,1
143722,-62.5,4,2,1,5,0,1
143833,-62.5,4,2,1,75,0,1
143944,-62.5,4,2,1,5,0,1
144055,-62.5,4,2,1,75,0,1
144611,-62.5,4,2,1,5,0,1
144722,-62.5,4,2,1,75,0,1
145500,-62.5,4,2,1,5,0,1
145611,-62.5,4,2,1,75,0,1
145722,-62.5,4,2,1,5,0,1
145833,-62.5,4,2,1,75,0,1
146389,-62.5,4,2,1,5,0,1
146500,-62.5,4,2,1,75,0,1
146611,-62.5,4,2,1,5,0,1
146722,-62.5,4,2,1,75,0,1
147278,-62.5,4,2,1,5,0,1
147389,-62.5,4,2,1,75,0,1
147500,-62.5,4,2,1,5,0,1
147611,-62.5,4,2,1,75,0,1
148389,-62.5,4,2,1,5,0,1
148500,-62.5,4,2,1,75,0,1
148611,-62.5,4,2,1,5,0,1
148722,-62.5,4,2,1,75,0,1
149055,-62.5,4,2,1,5,0,1
149167,-62.5,4,2,1,75,0,1
149278,-62.5,4,2,1,5,0,1
149389,-62.5,4,2,1,75,0,1
149500,-62.5,4,2,1,5,0,1
149611,-62.5,4,2,1,75,0,1
150167,-62.5,4,2,1,5,0,1
150278,-62.5,4,2,1,75,0,1
151055,-62.5,4,2,1,5,0,1
151167,-62.5,4,2,1,75,0,1
151278,-62.5,4,2,1,5,0,1
151389,-58.8235294117647,4,2,1,75,0,1
151611,-58.8235294117647,4,2,2,75,0,1
152055,-58.8235294117647,4,2,1,75,0,1
153389,-62.5,4,2,1,75,0,1
153500,-62.5,4,2,1,5,0,1
153611,-62.5,4,2,1,75,0,1
153722,-62.5,4,2,1,5,0,1
153833,-62.5,4,2,1,75,0,1
154389,-62.5,4,2,1,5,0,1
154500,-62.5,4,2,1,75,0,1
155278,-62.5,4,2,1,5,0,1
155389,-62.5,4,2,1,75,0,1
156167,-62.5,4,2,1,5,0,1
156278,-62.5,4,2,1,75,0,1
156389,-62.5,4,2,1,5,0,1
156500,-62.5,4,2,1,75,0,1
157278,-62.5,4,2,1,5,0,1
157389,-62.5,4,2,1,75,0,1
157944,-62.5,4,2,1,5,0,1
158055,-62.5,4,2,1,75,0,1
158611,-62.5,4,2,1,5,0,1
158722,-62.5,4,2,1,75,0,1
159278,-62.5,4,2,1,5,0,1
159389,-62.5,4,2,1,75,0,1
159722,-62.5,4,2,1,5,0,1
159833,-62.5,4,2,1,75,0,1
160611,-62.5,4,2,1,5,0,1
160722,-62.5,4,2,1,75,0,1
160833,-62.5,4,2,1,5,0,1
160944,-62.5,4,2,1,75,0,1
161500,-62.5,4,2,1,5,0,1
161611,-62.5,4,2,1,75,0,1
161722,-62.5,4,2,1,5,0,1
161833,-62.5,4,2,1,75,0,1
163278,-62.5,4,2,1,5,0,1
163389,-62.5,4,2,1,75,0,1
163500,-62.5,4,2,1,5,0,1
163611,-62.5,4,2,1,75,0,1
164167,-62.5,4,2,1,5,0,1
164278,-62.5,4,2,1,75,0,1
164389,-62.5,4,2,1,5,0,1
164500,-62.5,4,2,1,75,0,1
165055,-62.5,4,2,1,5,0,1
165167,-62.5,4,2,1,75,0,1
165278,-62.5,4,2,1,5,0,1
165389,-62.5,4,2,1,75,0,1
166167,-62.5,4,2,1,5,0,1
166278,-62.5,4,2,1,75,0,1
166389,-62.5,4,2,1,5,0,1
166500,-62.5,4,2,1,75,0,1
166722,-62.5,4,2,3,75,0,1
167611,-100,4,2,1,50,0,0
168389,-100,4,2,1,5,0,0
168500,-100,4,2,1,50,0,0
169944,-100,4,2,1,5,0,0
170055,-100,4,2,1,50,0,0
170611,-100,4,2,1,5,0,0
170722,-100,4,2,1,50,0,0
170833,-100,4,2,1,5,0,0
170944,-100,4,2,1,50,0,0
173500,-100,4,2,1,5,0,0
173611,-100,4,2,1,50,0,0
174167,-100,4,2,1,5,0,0
174278,-111.111111111111,4,2,1,50,0,0
174722,-86.9565217391304,4,2,1,50,0,0
175055,-86.9565217391304,4,2,1,5,0,0
175167,-86.9565217391304,4,2,1,50,0,0
175278,-86.9565217391304,4,2,1,5,0,0
175389,-86.9565217391304,4,2,1,50,0,0
176611,-86.9565217391304,4,2,1,5,0,0
176722,-86.9565217391304,4,2,1,50,0,0
177500,-86.9565217391304,4,2,1,5,0,0
177611,-86.9565217391304,4,2,1,50,0,0
177722,-86.9565217391304,4,2,1,5,0,0
177833,-86.9565217391304,4,2,1,50,0,0
177944,-86.9565217391304,4,2,1,5,0,0
178055,-86.9565217391304,4,2,1,50,0,0
179055,-86.9565217391304,4,2,1,5,0,0
179167,-86.9565217391304,4,2,1,50,0,0
179944,-86.9565217391304,4,2,1,5,0,0
180055,-86.9565217391304,4,2,1,50,0,0
180611,-86.9565217391304,4,2,1,5,0,0
180722,-86.9565217391304,4,2,1,50,0,0
180833,-86.9565217391304,4,2,1,5,0,0
180944,-86.9565217391304,4,2,3,50,0,0
181833,-74.0740740740741,4,2,1,60,0,0
181944,-74.0740740740741,4,2,1,5,0,0
182055,-74.0740740740741,4,2,1,60,0,0
182167,-74.0740740740741,4,2,1,5,0,0
182278,-74.0740740740741,4,2,1,60,0,0
183055,-74.0740740740741,4,2,1,5,0,0
183167,-74.0740740740741,4,2,1,60,0,0
184611,-74.0740740740741,4,2,1,5,0,0
184722,-74.0740740740741,4,2,1,60,0,0
184833,-74.0740740740741,4,2,1,5,0,0
184944,-74.0740740740741,4,2,1,60,0,0
185055,-74.0740740740741,4,2,1,5,0,0
185167,-74.0740740740741,4,2,1,60,0,0
185500,-74.0740740740741,4,2,1,5,0,0
185611,-74.0740740740741,4,2,1,60,0,0
186389,-74.0740740740741,4,2,1,5,0,0
186500,-74.0740740740741,4,2,1,60,0,0
186611,-74.0740740740741,4,2,1,5,0,0
186722,-74.0740740740741,4,2,1,60,0,0
188167,-74.0740740740741,4,2,1,5,0,0
188278,-74.0740740740741,4,2,1,60,0,0
188389,-74.0740740740741,4,2,1,5,0,0
188500,-74.0740740740741,4,2,1,60,0,0
188611,-74.0740740740741,4,2,1,5,0,0
188722,-74.0740740740741,4,2,1,60,0,0
189278,-74.0740740740741,4,2,1,5,0,0
189389,-74.0740740740741,4,2,1,60,0,0
189500,-74.0740740740741,4,2,1,5,0,0
189611,-74.0740740740741,4,2,1,60,0,0
190833,-74.0740740740741,4,2,1,5,0,0
190944,-74.0740740740741,4,2,1,60,0,0
191722,-74.0740740740741,4,2,1,5,0,0
191833,-74.0740740740741,4,2,1,60,0,0
191944,-74.0740740740741,4,2,1,5,0,0
192055,-74.0740740740741,4,2,1,60,0,0
192167,-74.0740740740741,4,2,1,5,0,0
192278,-74.0740740740741,4,2,1,60,0,0
192611,-74.0740740740741,4,2,1,5,0,0
192722,-74.0740740740741,4,2,1,60,0,0
193278,-74.0740740740741,4,2,1,5,0,0
193389,-74.0740740740741,4,2,1,60,0,0
193500,-74.0740740740741,4,2,1,5,0,0
193611,-74.0740740740741,4,2,1,60,0,0
194278,-74.0740740740741,4,2,1,65,0,0
194500,-66.6666666666667,4,2,1,65,0,0
194833,-66.6666666666667,4,2,1,5,0,0
194944,-66.6666666666667,4,2,1,75,0,0
196055,-62.5,4,2,1,75,0,1
196167,-62.5,4,2,1,5,0,1
196278,-62.5,4,2,1,75,0,1
196389,-62.5,4,2,1,5,0,1
196500,-62.5,4,2,1,75,0,1
197055,-62.5,4,2,1,5,0,1
197167,-62.5,4,2,1,75,0,1
198833,-62.5,4,2,1,5,0,1
198944,-62.5,4,2,1,75,0,1
199055,-62.5,4,2,1,5,0,1
199167,-62.5,4,2,1,75,0,1
199944,-62.5,4,2,1,5,0,1
200055,-62.5,4,2,1,75,0,1
200611,-62.5,4,2,1,5,0,1
200722,-62.5,4,2,1,75,0,1
200833,-62.5,4,2,1,5,0,1
200944,-62.5,4,2,1,75,0,1
201500,-62.5,4,2,1,5,0,1
201611,-62.5,4,2,1,75,0,1
202389,-62.5,4,2,1,5,0,1
202500,-62.5,4,2,1,75,0,1
202611,-62.5,4,2,1,5,0,1
202722,-62.5,4,2,1,75,0,1
203278,-62.5,4,2,1,5,0,1
203389,-62.5,4,2,1,75,0,1
203500,-62.5,4,2,1,5,0,1
203611,-62.5,4,2,1,75,0,1
204167,-62.5,4,2,1,5,0,1
204278,-62.5,4,2,1,75,0,1
204389,-62.5,4,2,1,5,0,1
204500,-62.5,4,2,1,75,0,1
205278,-62.5,4,2,1,5,0,1
205389,-62.5,4,2,1,75,0,1
205500,-62.5,4,2,1,5,0,1
205611,-62.5,4,2,1,75,0,1
205944,-62.5,4,2,1,5,0,1
206055,-62.5,4,2,1,75,0,1
206167,-62.5,4,2,1,5,0,1
206278,-62.5,4,2,1,75,0,1
206389,-62.5,4,2,1,5,0,1
206500,-62.5,4,2,1,75,0,1
207055,-62.5,4,2,1,5,0,1
207167,-62.5,4,2,1,75,0,1
207944,-62.5,4,2,1,5,0,1
208055,-62.5,4,2,1,75,0,1
208167,-62.5,4,2,1,5,0,1
208278,-58.8235294117647,4,2,1,75,0,1
208611,-62.5,4,2,1,5,0,1
208722,-58.8235294117647,4,2,1,75,0,1
210278,-62.5,4,2,1,75,0,1
210389,-62.5,4,2,1,5,0,1
210500,-62.5,4,2,1,75,0,1
210611,-62.5,4,2,1,5,0,1
210722,-62.5,4,2,1,75,0,1
211278,-62.5,4,2,1,5,0,1
211389,-62.5,4,2,1,75,0,1
212167,-62.5,4,2,1,5,0,1
212278,-62.5,4,2,1,75,0,1
213055,-62.5,4,2,1,5,0,1
213167,-62.5,4,2,1,75,0,1
213278,-62.5,4,2,1,5,0,1
213389,-62.5,4,2,1,75,0,1
214167,-62.5,4,2,1,5,0,1
214278,-62.5,4,2,1,75,0,1
214833,-62.5,4,2,1,5,0,1
214944,-62.5,4,2,1,75,0,1
215500,-62.5,4,2,1,5,0,1
215611,-62.5,4,2,1,75,0,1
216167,-62.5,4,2,1,5,0,1
216278,-62.5,4,2,1,75,0,1
216611,-62.5,4,2,1,5,0,1
216722,-62.5,4,2,1,75,0,1
217500,-62.5,4,2,1,5,0,1
217611,-62.5,4,2,1,75,0,1
217722,-62.5,4,2,1,5,0,1
217833,-62.5,4,2,1,75,0,1
218389,-62.5,4,2,1,5,0,1
218500,-62.5,4,2,1,75,0,1
218611,-62.5,4,2,1,5,0,1
218722,-62.5,4,2,1,75,0,1
220167,-62.5,4,2,1,5,0,1
220278,-62.5,4,2,1,75,0,1
220389,-62.5,4,2,1,5,0,1
220500,-62.5,4,2,1,75,0,1
221055,-62.5,4,2,1,5,0,1
221167,-62.5,4,2,1,75,0,1
221278,-62.5,4,2,1,5,0,1
221389,-62.5,4,2,1,75,0,1
221944,-62.5,4,2,1,5,0,1
222055,-62.5,4,2,1,75,0,1
222166,-62.5,4,2,1,5,0,1
222277,-62.5,4,2,1,75,0,1
223055,-62.5,4,2,1,5,0,1
223167,-62.5,4,2,1,75,0,1
223500,-62.5,4,2,1,5,0,1
223611,-62.5,4,2,3,75,0,1
224499,-62.5,4,2,3,75,0,0
227611,-62.5,4,2,3,50,0,0
228055,-62.5,4,2,3,75,0,0
231611,-62.5,4,2,3,40,0,0

[Colours]
Combo1 : 192,192,192
Combo2 : 243,169,137
Combo3 : 241,99,102
Combo4 : 97,39,192

[HitObjects]
256,192,500,12,0,3167,0:0:0:0:
66,52,3389,6,0,L|83:-6,2,44.999998626709,2|2|2,0:0|0:0|0:0,0:0:0:0:
213,129,4056,5,6,3:2:0:0:
304,73,4278,1,2,0:0:0:0:
304,73,4500,2,0,B|362:82|362:82|368:89|368:89|421:97,1,112.5,2|0,0:0|0:0,0:0:0:0:
452,34,4944,2,0,P|479:5|531:16,2,75,2|2|2,0:0|0:0|0:0,0:0:0:0:
365,170,5611,1,2,0:0:0:0:
437,215,5833,5,2,0:0:0:0:
437,215,6055,2,0,L|409:336,1,112.5,2|0,0:0|0:0,0:0:0:0:
348,366,6500,2,0,B|294:380|294:380|238:337,1,112.5,2|0,0:0|0:0,0:0:0:0:
203,286,6944,1,2,0:0:0:0:
252,185,7166,1,2,0:0:0:0:
198,85,7389,1,2,3:2:0:0:
297,255,7611,5,6,3:2:0:0:
100,313,7833,2,0,L|10:295,2,75,2|2|2,0:0|0:0|0:0,0:0:0:0:
297,255,8500,2,0,B|326:281|326:281|309:327,1,75,2|2,0:0|0:0,0:0:0:0:
208,348,8944,2,0,B|179:322|179:322|196:276,1,75,2|2,0:0|0:0,0:0:0:0:
279,183,9389,5,2,0:0:0:0:
279,183,9611,2,0,L|159:157,1,112.5,2|0,0:0|0:0,0:0:0:0:
104,112,10055,2,0,P|75:72|107:18,1,112.5,2|0,0:0|0:0,0:0:0:0:
173,0,10500,2,0,B|188:26|196:53,1,37.5,2|0,0:0|0:0,0:0:0:0:
283,89,10722,2,0,B|334:102|334:102|339:108|339:108|389:121,1,101.249996910095,8|0,0:3|0:0,0:0:0:0:
450,59,11167,5,6,3:2:0:0:
312,178,11389,2,0,P|322:205|333:236,1,43.1250008225441,2|0,0:0|0:0,0:0:0:0:
358,283,11611,2,0,P|349:303|341:327,1,43.1250008225441,10|0,0:3|0:0,0:0:0:0:
280,374,11833,1,2,0:0:0:0:
439,249,12055,2,0,P|494:258|506:296,2,86.2500016450882,2|2|10,3:2|0:0|0:3,0:0:0:0:
493,367,12722,1,2,0:0:0:0:
405,178,12944,6,0,L|423:116,1,43.1250008225441,2|0,3:2|0:0,0:0:0:0:
379,73,13167,2,0,B|336:58|336:58|273:106,1,86.2500016450882,2|8,0:0|0:3,0:0:0:0:
216,249,13611,2,0,B|184:265|185:301|185:301|170:267|132:262,1,129.375002467632,2|0,0:0|0:0,0:0:0:0:
79,214,14055,2,0,P|101:163|104:148,1,43.1250008225441,2|0,0:0|0:0,0:0:0:0:
147,111,14278,2,0,P|128:61|127:57,1,43.1250008225441,2|0,3:2|0:0,0:0:0:0:
69,24,14500,1,10,0:3:0:0:
221,141,14722,5,2,3:2:0:0:
79,214,14944,1,2,0:0:0:0:
79,214,15167,2,0,B|120:248|120:248|59:336,1,129.375002467632,10|0,0:3|0:0,0:0:0:0:
137,355,15611,2,0,P|175:340|181:300,1,86.2500016450882,2|2,3:2|0:0,0:0:0:0:
34,379,16055,1,10,0:3:0:0:
299,241,16278,1,2,3:2:0:0:
299,241,16389,1,0,3:2:0:0:
299,241,16500,6,0,B|326:179|326:179|255:110|255:110|278:170,1,215.625004112721,6|0,3:2|0:0,0:0:0:0:
214,207,17167,2,0,B|145:190|145:190|133:199|133:199|41:177,1,172.500003290176,2|0,0:0|0:0,0:0:0:0:
229,89,17833,1,0,3:0:0:0:
258,81,17944,1,0,3:0:0:0:
287,74,18055,1,0,3:0:0:0:
316,67,18167,1,0,3:0:0:0:
350,56,18278,5,4,3:2:0:0:
169,151,18500,2,0,P|137:106|150:62,1,89.9999972534181,2|10,0:0|0:3,0:0:0:0:
313,257,18944,2,0,B|269:214|221:242|221:242|191:298|126:267,1,179.999994506836,2|2,0:0|0:0,0:0:0:0:
88,224,19611,1,10,0:3:0:0:
259,355,19833,2,0,L|412:317,1,134.999995880127,2|0,0:0|0:0,0:0:0:0:
455,268,20278,6,0,B|472:224|472:224|425:176,1,89.9999972534181,2|8,0:0|0:3,0:0:0:0:
300,84,20722,2,0,P|333:152|408:119,1,134.999995880127,2|0,0:0|0:0,0:0:0:0:
449,100,21167,2,0,P|456:77|468:55,1,44.999998626709,2|0,0:0|0:0,0:0:0:0:
422,0,21389,1,10,0:3:0:0:
501,179,21611,1,2,0:0:0:0:
300,84,21833,5,0,3:2:0:0:
300,84,22055,2,0,L|180:109,1,89.9999972534181,2|10,0:0|0:3,0:0:0:0:
98,182,22500,2,0,B|110:120|110:120|118:114|118:114|133:42,1,134.999995880127,2|0,0:0|0:0,0:0:0:0:
71,13,22944,2,0,P|27:18|13:63,2,89.9999972534181,2|10|2,0:0|0:3|0:0,0:0:0:0:
229,139,23611,6,0,P|270:152|337:172,1,89.9999972534181,2|2,3:2|0:0,0:0:0:0:
359,87,24055,1,10,0:3:0:0:
223,336,24278,2,0,B|112:285|153:222|176:204|245:198|254:273|230:284,1,224.999993133545,2|0,0:0|0:0,0:0:0:0:
303,300,24944,2,0,P|380:279|435:269,1,134.999995880127,8|0,0:3|0:0,0:0:0:0:
482,327,25389,5,0,3:2:0:0:
323,222,25611,2,0,P|331:169|375:162,1,89.9999972534181,2|10,0:0|0:3,0:0:0:0:
466,7,26055,2,0,B|396:27|396:27|376:102|462:129,1,179.999994506836,2|2,0:0|0:0,0:0:0:0:
505,148,26722,1,10,0:3:0:0:
307,50,26944,2,0,L|149:28,1,134.999995880127,2|0,0:0|0:0,0:0:0:0:
103,58,27389,6,0,B|73:96|73:96|109:141,2,89.9999972534181,2|10|2,0:0|0:3|0:0,0:0:0:0:
249,152,28055,2,0,P|216:121|153:147,1,89.9999972534181,2|2,3:2|0:0,0:0:0:0:
146,215,28500,2,0,P|177:245|220:241,1,89.9999972534181,10|2,0:3|0:0,0:0:0:0:
327,57,28944,6,0,B|340:116|340:116|335:123|335:123|354:209,1,134.999995880127,2|0,3:2|0:0,0:0:0:0:
407,232,29389,2,0,P|457:206|467:203,1,44.999998626709,10|0,0:3|0:0,0:0:0:0:
469,352,29611,2,0,B|479:331|444:309|444:309|347:356,1,134.999995880127,2|0,0:0|0:0,0:0:0:0:
297,364,30055,2,0,P|217:337|161:327,1,134.999995880127,2|0,0:0|0:0,0:0:0:0:
95,369,30500,1,2,0:0:0:0:
257,276,30722,5,0,3:2:0:0:
91,190,30944,2,0,P|85:166|70:132,1,44.999998626709,2|0,0:0|0:0,0:0:0:0:
134,97,31167,2,0,P|139:77|148:48,2,44.999998626709,10|2|2,0:3|0:0|0:0,0:0:0:0:
200,151,31500,1,0,0:0:0:0:
200,151,31611,2,0,L|266:133,1,44.999998626709,2|2,3:2|0:0,0:0:0:0:
301,97,31833,2,0,L|374:115,1,44.999998626709,2|0,3:2|0:0,0:0:0:0:
421,77,32055,1,10,3:3:0:0:
458,102,32167,1,2,3:2:0:0:
473,144,32278,1,2,3:2:0:0:
463,187,32389,1,2,3:2:0:0:
430,223,32500,6,0,P|403:214|358:204,1,48.7499977684022,0|0,3:2|0:0,0:0:0:0:
205,321,32722,2,0,P|231:311|272:304,1,48.7499977684022,2|0,0:0|0:0,0:0:0:0:
320,278,32944,2,0,P|347:287|392:297,1,48.7499977684022,10|0,0:3|0:0,0:0:0:0:
219,109,33167,2,0,B|193:134|165:149|165:149|197:186|217:229,1,146.249993305207,2|0,0:0|0:0,0:0:0:0:
154,265,33611,2,0,P|93:253|83:213,1,97.4999955368044,2|10,0:0|0:3,0:0:0:0:
322,27,34055,2,0,L|286:193,1,146.249993305207,2|0,0:0|0:0,0:0:0:0:
364,227,34500,5,2,0:0:0:0:
220,112,34722,2,0,L|109:124,1,97.4999955368044,10|2,0:3|0:0,0:0:0:0:
76,69,35055,1,0,0:0:0:0:
76,69,35167,2,0,B|70:19|70:19|138:-12,1,97.4999955368044,2|2,3:2|0:0,0:0:0:0:
220,112,35500,2,0,L|206:143,2,24.3749988842011,0|0|10,3:0|3:0|3:3,0:0:0:0:
299,71,35722,1,0,0:0:0:0:
299,71,35833,2,0,B|327:76|327:76|354:105,1,48.7499977684022,2|0,0:0|0:0,0:0:0:0:
205,219,36055,5,2,3:2:0:0:
338,283,36278,2,0,P|381:267|421:256,1,48.7499977684022,2|0,0:0|0:0,0:0:0:0:
428,208,36500,2,0,P|469:224|494:231,1,48.7499977684022,10|0,0:3|0:0,0:0:0:0:
259,295,36722,2,0,B|192:288|192:288|184:291|184:291|112:284,1,146.249993305207,2|0,0:0|0:0,0:0:0:0:
59,221,37167,2,0,P|60:192|103:175,1,48.7499977684022,2|0,0:0|0:0,0:0:0:0:
222,363,37389,1,10,0:3:0:0:
299,210,37611,1,2,0:0:0:0:
299,210,37722,1,0,0:0:0:0:
299,210,37833,6,0,L|261:80,2,97.4999955368044,2|2|10,3:2|0:0|0:3,0:0:0:0:
188,100,38500,2,0,B|187:71|187:71|221:49,1,48.7499977684022,2|0,0:0|0:0,0:0:0:0:
260,5,38722,1,0,3:2:0:0:
135,169,38944,2,0,P|149:230|219:233,1,97.4999955368044,2|8,0:0|0:3,0:0:0:0:
322,346,39389,1,2,3:0:0:0:
322,346,39500,1,0,3:0:0:0:
322,346,39611,5,0,3:2:0:0:
70,290,39833,2,0,P|123:308|139:312,1,48.7499977684022,2|0,0:0|0:0,0:0:0:0:
190,338,40055,2,0,P|243:325|266:322,1,48.7499977684022,10|0,0:3|0:0,0:0:0:0:
279,156,40278,2,0,B|321:119|321:119|278:224,1,146.249993305207,2|0,0:0|0:0,0:0:0:0:
337,261,40722,2,0,P|381:256|400:201,1,97.4999955368044,2|10,0:0|0:3,0:0:0:0:
286,45,41167,2,0,B|365:29|365:29|371:32|371:32|448:16,1,146.249993305207,2|0,0:0|0:0,0:0:0:0:
477,88,41611,6,0,P|460:126|448:168,1,48.7499977684022,2|0,0:0|0:0,0:0:0:0:
426,196,41833,2,0,P|443:251|448:277,1,48.7499977684022,10|0,0:3|0:0,0:0:0:0:
485,316,42055,1,2,0:0:0:0:
485,316,42167,1,0,0:0:0:0:
485,316,42278,2,0,B|472:338|476:364|476:364|458:341|419:339,1,97.4999955368044,2|2,3:2|0:0,0:0:0:0:
319,257,42611,2,0,L|309:234,2,24.3749988842011,0|0|10,3:0|3:0|3:3,0:0:0:0:
267,307,42833,1,0,0:0:0:0:
267,307,42944,2,0,L|203:297,1,48.7499977684022,2|0,0:0|0:0,0:0:0:0:
31,367,43167,6,0,B|68:344|80:324|80:324|120:347|169:362,1,146.249993305207,2|0,3:2|0:0,0:0:0:0:
229,340,43611,2,0,B|235:314|235:314|207:289,1,48.7499977684022,10|0,0:3|0:0,0:0:0:0:
112,176,43833,2,0,P|179:171|198:135,1,97.4999955368044,2|0,0:0|3:2,0:0:0:0:
159,56,44278,2,0,P|92:61|73:97,1,97.4999955368044,2|8,0:0|0:3,0:0:0:0:
226,240,44722,6,0,B|275:204|320:236|320:236|353:290|417:262,1,194.999991073609,2|0,3:2|0:0,0:0:0:0:
456,191,45389,1,8,0:3:0:0:
326,369,45611,1,0,0:0:0:0:
326,369,45722,1,0,0:0:0:0:
326,369,45833,6,0,P|265:351|245:349,1,48.7499977684022,0|0,3:2|3:0,0:0:0:0:
215,306,46055,2,0,P|154:324|134:326,1,48.7499977684022,2|0,3:0|3:0,0:0:0:0:
58,373,46278,1,10,3:3:0:0:
17,355,46389,1,2,3:0:0:0:
0,314,46500,1,2,3:0:0:0:
21,275,46611,1,2,3:0:0:0:
57,250,46722,6,0,B|68:210|68:210|65:202|65:202|79:152,2,97.4999955368044,6|2|10,3:2|0:0|0:3,0:0:0:0:
242,53,47389,2,0,P|210:115|132:96,1,146.249993305207,2|0,0:0|0:0,0:0:0:0:
112,22,47833,2,0,P|94:28|38:38,1,48.7499977684022,2|0,0:0|0:0,0:0:0:0:
0,85,48055,1,10,0:3:0:0:
187,197,48278,6,0,B|221:193|249:180|249:180|284:188|284:188|314:176|374:171,1,146.249993305207,2|0,0:0|0:0,0:0:0:0:
372,116,48722,2,0,P|362:60|317:53,1,97.4999955368044,2|10,0:0|0:3,0:0:0:0:
255,261,49167,2,0,B|227:340|227:340|257:386|317:350,1,146.249993305207,2|0,0:0|0:0,0:0:0:0:
343,313,49611,1,2,0:0:0:0:
343,313,49722,1,0,0:0:0:0:
343,313,49833,2,0,B|370:310|370:310|402:337,1,48.7499977684022,10|0,0:3|0:0,0:0:0:0:
445,373,50055,2,0,B|476:377|476:377|507:359,1,48.7499977684022,2|0,0:0|0:0,0:0:0:0:
255,261,50278,6,0,L|141:284,2,97.4999955368044,2|2|10,3:2|0:0|0:3,0:0:0:0:
226,41,50944,2,0,B|250:35|271:66|271:66|229:96|213:149,1,146.249993305207,2|0,0:0|0:0,0:0:0:0:
148,161,51389,2,0,P|123:150|97:147,1,48.7499977684022,2|0,0:0|0:0,0:0:0:0:
49,95,51611,1,10,0:3:0:0:
251,269,51833,6,0,P|269:211|358:228,1,146.249993305207,2|0,0:0|0:0,0:0:0:0:
410,256,52278,2,0,P|481:235|519:230,1,97.4999955368044,2|10,0:0|0:3,0:0:0:0:
211,344,52722,2,0,B|173:325|173:325|173:263|173:263|110:227,1,146.249993305207,2|0,0:0|0:0,0:0:0:0:
71,203,53167,2,0,P|27:251|-31:228,1,97.4999955368044,2|8,0:0|0:3,0:0:0:0:
298,310,53611,1,2,0:0:0:0:
298,310,53722,1,0,0:0:0:0:
298,310,53833,6,0,P|350:291|372:287,1,48.7499977684022,2|0,3:2|0:0,0:0:0:0:
392,233,54055,2,0,P|451:251|476:253,1,48.7499977684022,2|0,0:0|0:0,0:0:0:0:
504,300,54278,1,10,0:3:0:0:
266,114,54500,2,0,B|306:147|306:147|245:234,1,146.249993305207,2|0,0:0|0:0,0:0:0:0:
187,263,54944,2,0,P|133:236|135:204,1,97.4999955368044,2|10,0:0|0:3,0:0:0:0:
396,102,55389,6,0,B|384:63|396:28|396:28|368:50|315:51,1,146.249993305207,2|0,0:0|0:0,0:0:0:0:
258,79,55833,2,0,P|189:66|168:66,1,48.7499977684022,2|0,0:0|0:0,0:0:0:0:
152,23,56055,1,10,0:3:0:0:
32,159,56278,2,0,B|9:167|-15:195|-15:195|25:67,1,194.999991073609,2|0,0:0|0:0,0:0:0:0:
130,273,56944,2,0,B|105:278|105:278|85:247,1,48.7499977684022,10|0,0:3|0:0,0:0:0:0:
133,167,57167,2,0,B|158:162|158:162|178:193,1,48.7499977684022,2|0,0:0|0:0,0:0:0:0:
0,279,57389,5,2,3:2:0:0:
235,384,57611,2,0,B|253:356|285:336|285:336|246:294|228:232,1,157.499995193482,2|0,3:2|0:0,0:0:0:0:
265,191,58055,2,0,B|344:206|344:206|349:211|349:211|431:226,1,157.499995193482,2|0,3:2|0:0,0:0:0:0:
498,207,58500,1,2,3:2:0:0:
238,262,58722,1,10,0:3:0:0:
119,137,58944,6,0,B|25:176|69:285|161:243|195:220|147:161|102:82|181:28,1,337.500012874604,6|0,3:2|0:0,0:0:0:0:
305,182,59833,2,0,L|335:176,2,28.1250010728836,0|0|0,3:0|3:0|3:0,0:0:0:0:
237,123,60055,1,8,0:3:0:0:
373,240,60278,2,0,B|400:280|369:315|369:315|313:361,1,146.249993305207,0|0,3:0|0:0,0:0:0:0:
249,202,60722,1,2,0:0:0:0:
249,202,60833,1,2,0:0:0:0:
249,202,60945,6,0,P|313:180|331:174,1,60,6|0,3:2|0:0,0:0:0:0:
366,125,61167,2,0,P|423:146|441:150,1,60,2|0,0:0|0:0,0:0:0:0:
488,209,61389,1,10,0:3:0:0:
314,40,61611,2,0,B|272:8|227:37|227:37|202:83|144:71,1,180,2|0,0:0|0:0,0:0:0:0:
98,15,62056,1,2,0:0:0:0:
236,148,62278,2,0,P|254:216|206:236,1,120,10|2,0:3|0:0,0:0:0:0:
142,193,62611,1,0,0:0:0:0:
142,193,62722,6,0,B|92:202|92:202|83:198|83:198|24:210,2,120,2|2|10,3:2|0:0|0:3,0:0:0:0:
237,313,63389,2,0,B|192:320|158:283|158:283|173:333|136:381,1,180,2|0,0:0|0:0,0:0:0:0:
62,372,63833,2,0,B|36:355|36:355|54:312,1,60
222,240,64055,1,8,0:3:0:0:
32,156,64278,6,0,P|22:120|12:78,2,60,2|2|2,0:0|0:0|3:2,0:0:0:0:
122,41,64722,2,0,P|152:47|198:61,1,60,2|0,0:0|0:0,0:0:0:0:
252,32,64944,1,10,0:3:0:0:
430,211,65167,2,0,B|394:94|394:94|395:125|380:149,1,180,2|0,0:0|0:0,0:0:0:0:
336,211,65611,2,0,P|276:183|274:173,1,60,2|0,0:0|0:0,0:0:0:0:
253,129,65833,1,10,0:3:0:0:
485,33,66055,1,2,0:0:0:0:
485,33,66167,1,0,0:0:0:0:
485,33,66278,6,0,P|458:105|455:123,1,60,2|0,3:2|0:0,0:0:0:0:
430,153,66500,2,0,P|464:238|473:288,1,120,2|10,0:0|0:3,0:0:0:0:
352,384,66944,2,0,B|293:363|316:309|316:309|400:276,1,180,2|0,0:0|0:0,0:0:0:0:
469,265,67389,2,0,P|488:295|479:327,1,60
270,246,67611,2,0,L|136:218,1,120,8|2,0:3|0:0,0:0:0:0:
87,186,67944,1,2,0:0:0:0:
87,186,68055,6,0,P|68:136|56:109,1,60,2|0,3:2|0:0,0:0:0:0:
127,91,68278,2,0,P|146:41|158:14,1,60,2|0,0:0|0:0,0:0:0:0:
349,64,68500,2,0,B|319:61|292:40|292:40|281:73|240:98,1,120,10|2,0:3|0:0,0:0:0:0:
282,170,68833,2,0,B|312:173|339:194|339:194|350:161|391:136,1,120,2|0,0:0|0:0,0:0:0:0:
199,202,69167,2,0,B|186:237|186:237|213:269,1,60,2|0,0:0|0:0,0:0:0:0:
268,309,69389,1,10,0:3:0:0:
119,182,69611,1,2,0:0:0:0:
1,297,69833,6,0,B|51:258|94:292|94:292|116:338|174:323,1,180,2|0,3:2|0:0,0:0:0:0:
225,303,70278,2,0,P|229:264|198:239,1,60,8|0,0:3|0:0,0:0:0:0:
45,157,70500,2,0,B|12:78|12:78|72:40|72:40|50:86,1,180,2|0,0:0|0:0,0:0:0:0:
119,108,70944,2,0,P|157:114|207:124,1,60,2|0,0:0|0:0,0:0:0:0:
249,153,71167,2,0,P|317:135|341:133,1,60,10|0,0:3|0:0,0:0:0:0:
366,85,71389,1,2,0:0:0:0:
470,268,71611,6,0,B|389:248|389:248|379:255|379:255|283:235,1,180,2|0,3:2|0:0,0:0:0:0:
228,251,72055,2,0,P|200:323|264:340,1,120,8|0,0:3|0:0,0:0:0:0:
297,372,72389,1,0,0:0:0:0:
297,372,72500,1,0,3:2:0:0:
361,175,72722,2,0,P|350:147|341:107,1,60
287,72,72944,2,0,P|297:44|305:15,1,60,8|0,0:3|0:0,0:0:0:0:
444,130,73167,6,0,B|457:184|542:175|549:99|510:50|424:47,1,191.250003647804,10|0,3:0|0:0,0:0:0:0:
419,10,73611,1,10,3:0:0:0:
276,148,73833,1,10,0:3:0:0:
142,101,74055,1,2,0:0:0:0:
142,101,74167,1,2,0:0:0:0:
142,101,74278,1,2,3:2:0:0:
60,157,74500,1,2,3:2:0:0:
220,45,74722,1,10,0:3:0:0:
408,137,74944,1,2,3:2:0:0:
408,137,75055,1,2,0:0:0:0:
408,137,75167,6,0,P|385:200|383:212,1,60,6|0,3:2|0:0,0:0:0:0:
336,253,75389,2,0,P|358:316|359:320,1,60,2|0,0:0|0:0,0:0:0:0:
428,341,75611,1,10,0:3:0:0:
262,280,75833,2,0,B|227:229|227:229|69:299,1,180,2|0,0:0|0:0,0:0:0:0:
42,311,76278,2,0,B|2:307|4:262|4:262|47:204,2,120,2|10|2,0:0|0:3|0:0,0:0:0:0:
180,144,76833,1,0,0:0:0:0:
180,144,76944,6,0,L|103:160,1,60,2|0,3:2|0:0,0:0:0:0:
58,105,77167,1,2,0:0:0:0:
205,224,77389,1,10,0:3:0:0:
329,111,77611,2,0,B|446:87|446:87|418:111|405:143,1,180,2|0,0:0|0:0,0:0:0:0:
365,192,78055,2,0,B|362:227|362:227|398:250,1,60
476,319,78278,1,8,0:3:0:0:
289,384,78500,6,0,L|209:365,2,60,2|0|2,0:0|0:0|3:2,0:0:0:0:
460,221,78944,2,0,P|430:155|426:147,1,60,2|0,0:0|0:0,0:0:0:0:
480,101,79167,1,8,0:3:0:0:
363,10,79389,2,0,B|292:36|312:79|312:117|246:143,1,180,2|0,0:0|0:0,0:0:0:0:
195,88,79833,1,2,0:0:0:0:
346,198,80055,1,8,0:3:0:0:
259,323,80278,2,0,P|224:311|193:306,1,60,2|0,0:0|0:0,0:0:0:0:
134,258,80500,6,0,B|81:273|81:273|76:280|76:280|11:298,1,120,2|2,3:2|0:0,0:0:0:0:
148,380,80833,1,0,0:0:0:0:
148,380,80944,2,0,P|172:356|167:314,1,60,10|0,0:3|0:0,0:0:0:0:
219,90,81167,2,0,B|167:123|167:123|229:235,1,180,2|0,0:0|0:0,0:0:0:0:
295,251,81611,1,0,0:0:0:0:
93,175,81833,1,8,0:3:0:0:
312,43,82055,1,2,0:0:0:0:
312,43,82167,1,2,0:0:0:0:
312,43,82278,6,0,L|292:114,1,60,2|0,3:2|0:0,0:0:0:0:
349,159,82500,2,0,L|363:221,1,60,2|0,0:0|0:0,0:0:0:0:
179,228,82722,2,0,P|229:187|283:214,1,120,10|2,0:3|0:0,0:0:0:0:
293,281,83055,2,0,P|243:322|189:295,1,120,2|0,0:0|0:0,0:0:0:0:
131,107,83389,2,0,L|113:177,1,60,2|0,0:0|0:0,0:0:0:0:
50,217,83611,1,10,0:3:0:0:
205,97,83833,1,2,0:0:0:0:
303,184,84055,6,0,B|367:169|367:169|378:174|378:174|451:159,2,120,2|2|8,3:2|0:0|0:3,0:0:0:0:
297,293,84722,2,0,B|335:279|354:250|354:250|322:320|359:387,1,180,2|0,0:0|0:0,0:0:0:0:
418,368,85167,2,0,P|459:352|485:346,1,60
512,279,85389,1,8,0:3:0:0:
241,357,85611,1,2,0:0:0:0:
241,357,85722,1,2,0:0:0:0:
241,357,85833,6,0,L|159:342,1,60,2|0,3:2|0:0,0:0:0:0:
130,293,86055,2,0,L|56:313,1,60,2|0,0:0|0:0,0:0:0:0:
1,290,86278,2,0,B|-28:232|-28:232|18:166,1,120,10|2,0:3|0:0,0:0:0:0:
71,144,86611,2,0,B|103:93|103:93|70:38,1,120,2|0,0:0|0:0,0:0:0:0:
291,86,86944,2,0,P|262:94|234:104,1,60,2|0,0:0|0:0,0:0:0:0:
173,164,87167,1,10,0:3:0:0:
330,18,87389,1,2,0:0:0:0:
505,144,87611,6,0,B|464:104|415:139|415:139|398:194|336:186,1,180,2|0,3:2|0:0,0:0:0:0:
284,169,88055,2,0,B|241:218|241:218|277:303|277:303|311:256,1,180,10|0,0:3|0:0,0:0:0:0:
363,260,88500,2,0,P|385:299|367:332,1,60,2|0,3:2|0:0,0:0:0:0:
221,373,88722,2,0,P|198:333|216:300,1,60,2|0,3:2|0:0,0:0:0:0:
357,187,88944,1,8,3:3:0:0:
357,187,89055,2,0,L|398:175,2,30,0|0|2,3:0|3:0|3:0,0:0:0:0:
287,138,89278,1,0,3:0:0:0:
346,83,89389,1,0,0:0:0:0:
256,192,89444,12,0,92944,0:0:0:0:
0,11,96500,5,0,3:2:0:0:
103,95,96722,2,0,B|141:60|141:60|119:-3,1,93.75,2|10,0:0|0:3,0:0:0:0:
62,193,97167,2,0,B|193:158|193:158|166:181|152:215,1,187.5,2|2,0:0|0:0,0:0:0:0:
110,268,97833,1,10,0:3:0:0:
238,94,98055,2,0,B|307:106|307:106|312:111|312:111|394:127,1,140.625,2|0,0:0|0:0,0:0:0:0:
430,61,98500,6,0,P|416:26|397:20,1,46.875,2|0,0:0|0:0,0:0:0:0:
284,183,98722,2,0,P|310:253|324:293,1,93.75,10|2,0:3|0:0,0:0:0:0:
377,318,99055,1,0,0:0:0:0:
377,318,99167,2,0,P|423:303|437:301,1,46.875,2|0,3:2|0:0,0:0:0:0:
466,239,99389,1,2,0:0:0:0:
321,370,99611,1,10,0:3:0:0:
245,326,99833,1,2,0:0:0:0:
245,326,99944,1,0,0:0:0:0:
245,326,100055,5,0,3:2:0:0:
131,367,100278,2,0,B|103:339|103:339|124:311|129:290,1,93.75,2|10,0:0|0:3,0:0:0:0:
211,157,100722,2,0,P|195:211|105:195,1,140.625,2|0,0:0|0:0,0:0:0:0:
60,164,101167,1,2,0:0:0:0:
257,328,101389,2,0,B|222:302|252:265|252:265|320:243,1,140.625,10|0,0:3|0:0,0:0:0:0:
385,216,101833,6,0,P|440:230|498:241,2,93.75,2|2|10,3:2|0:0|0:3,0:0:0:0:
308,80,102500,1,2,0:0:0:0:
308,80,102722,2,0,P|310:19|357:-2,1,93.75,0|0,3:2|0:0,0:0:0:0:
512,89,103166,2,0,P|445:101|372:120,1,140.625,8|0,0:3|0:0,0:0:0:0:
308,80,103611,5,0,3:2:0:0:
217,170,103833,2,0,B|183:130|183:130|216:66,1,93.75,2|10,0:0|0:3,0:0:0:0:
288,264,104278,2,0,B|259:265|224:243|224:243|234:275|217:325,1,140.625,2|0,0:0|0:0,0:0:0:0:
152,351,104722,1,2,0:0:0:0:
365,287,104944,1,10,0:3:0:0:
245,171,105167,2,0,L|107:139,1,140.625,2|0,0:0|0:0,0:0:0:0:
53,78,105611,6,0,P|61:29|128:36,2,93.75,2|10|2,0:0|0:3|0:0,0:0:0:0:
155,263,106278,2,0,B|142:285|119:295|119:295|93:295|72:280,1,93.75,2|2,3:2|0:0,0:0:0:0:
53,197,106722,2,0,B|66:175|89:165|89:165|115:165|136:180,1,93.75,10|2,0:3|0:0,0:0:0:0:
220,384,107166,6,0,B|235:324|235:324|231:314|231:314|247:238,1,140.625,2|0,3:2|0:0,0:0:0:0:
309,213,107611,2,0,P|295:176|289:159,1,46.875,10|0,0:3|0:0,0:0:0:0:
421,107,107833,2,0,B|401:86|398:61|398:61|359:76|293:94,1,140.625,2|0,0:0|0:0,0:0:0:0:
235,102,108277,2,0,L|95:67,1,140.625,2|0,0:0|0:0,0:0:0:0:
45,8,108722,1,2,0:0:0:0:
195,169,108944,5,0,3:2:0:0:
145,241,109167,2,0,P|154:275|161:297,1,46.875,2|0,0:0|0:0,0:0:0:0:
217,340,109389,2,0,P|204:375|199:405,2,46.875,10|2|2,0:3|0:0|0:0,0:0:0:0:
286,300,109722,1,0,0:0:0:0:
286,300,109833,2,0,B|318:304|318:304|337:325,1,46.875,2|2,3:2|0:0,0:0:0:0:
394,366,110055,2,0,B|424:371|424:371|448:348,1,46.875,2|0,3:2|0:0,0:0:0:0:
493,283,110278,1,10,3:3:0:0:
486,244,110389,1,2,3:2:0:0:
478,205,110500,1,2,3:2:0:0:
470,166,110611,1,2,3:2:0:0:
465,125,110722,6,0,L|393:106,1,50.6250001931191,0|0,3:2|0:0,0:0:0:0:
243,25,110944,2,0,P|265:78|269:93,1,50.6250001931191,2|0,0:0|0:0,0:0:0:0:
303,132,111167,2,0,P|283:186|279:200,1,50.6250001931191,10|0,0:3|0:0,0:0:0:0:
111,253,111389,2,0,B|151:218|191:245|191:245|221:281|267:255,1,151.875000579357,2|0,0:0|0:0,0:0:0:0:
312,301,111833,2,0,P|314:352|233:360,1,101.250000386238,2|10,0:0|0:3,0:0:0:0:
22,287,112278,2,0,B|42:218|42:218|51:209|51:209|74:138,1,151.875000579357,2|0,0:0|0:0,0:0:0:0:
17,87,112722,5,2,0:0:0:0:
192,10,112944,2,0,L|305:28,1,101.250000386238,10|0,0:3|0:0,0:0:0:0:
357,74,113278,1,0,0:0:0:0:
357,74,113389,2,0,P|368:123|314:156,1,101.250000386238,2|2,3:2|0:0,0:0:0:0:
218,267,113722,2,0,L|208:297,2,25.3125000965595,0|0|10,3:0|3:0|3:3,0:0:0:0:
270,205,113944,1,0,0:0:0:0:
270,205,114055,2,0,P|256:162|250:139,1,50.6250001931191,2|0,0:0|0:0,0:0:0:0:
171,89,114277,5,0,3:2:0:0:
365,257,114500,2,0,P|408:241|439:230,1,50.6250001931191,2|0,0:0|0:0,0:0:0:0:
467,181,114722,2,0,P|508:197|533:204,1,50.6250001931191,10|0,0:3|0:0,0:0:0:0:
323,342,114944,2,0,B|299:324|286:298|286:298|245:326|185:350,1,151.875000579357,2|0,0:0|0:0,0:0:0:0:
132,358,115389,2,0,B|103:364|103:364|66:325,1,50.6250001931191,2|0,0:0|0:0,0:0:0:0:
120,229,115611,2,0,B|149:223|149:223|186:262,1,50.6250001931191,10|0,0:3|0:0,0:0:0:0:
49,123,115833,1,2,0:0:0:0:
49,123,115944,1,0,0:0:0:0:
49,123,116055,6,0,P|51:64|98:46,2,101.250000386238,2|2|10,3:2|0:0|0:3,0:0:0:0:
315,103,116722,2,0,P|249:75|242:71,1,50.6250001931191,2|0,0:0|0:0,0:0:0:0:
201,120,116944,1,0,3:2:0:0:
382,19,117167,1,0,0:0:0:0:
499,199,117389,1,8,3:3:0:0:
470,203,117500,1,0,3:0:0:0:
441,210,117611,1,0,3:0:0:0:
412,216,117722,1,0,3:0:0:0:
382,218,117833,6,0,P|371:187|350:143,1,50.6250001931191,0|0,3:2|0:0,0:0:0:0:
204,325,118055,2,0,B|226:308|226:308|277:319,1,50.6250001931191,2|0,0:0|0:0,0:0:0:0:
320,350,118278,2,0,B|342:356|342:356|368:340,1,50.6250001931191,10|0,0:3|0:0,0:0:0:0:
191,206,118500,2,0,B|86:174|86:174|126:214,1,151.875000579357,2|0,0:0|0:0,0:0:0:0:
140,273,118944,2,0,P|102:311|87:309,1,50.6250001931191,2|0,0:0|0:0,0:0:0:0:
0,201,119166,1,10,0:3:0:0:
150,0,119389,2,0,B|107:44|107:44|169:129,1,151.875000579357,2|0,0:0|0:0,0:0:0:0:
230,143,119833,6,0,P|280:127|306:119,1,50.6250001931191,2|0,0:0|0:0,0:0:0:0:
335,78,120055,2,0,P|359:85|383:93,1,50.6250001931191,10|0,0:3|0:0,0:0:0:0:
256,277,120278,1,2,0:0:0:0:
256,277,120389,1,0,0:0:0:0:
256,277,120500,2,0,L|120:251,1,101.250000386238,2|2,3:2|0:0,0:0:0:0:
66,165,120833,2,0,L|49:207,2,25.3125000965595,0|0|10,3:0|3:0|3:3,0:0:0:0:
119,103,121055,1,0,0:0:0:0:
119,103,121167,2,0,P|100:52|97:44,1,50.6250001931191,2|0,0:0|0:0,0:0:0:0:
317,81,121389,6,0,P|231:93|226:155,1,151.875000579357,0|0,3:2|0:0,0:0:0:0:
271,197,121833,2,0,P|331:214|340:218,1,50.6250001931191,10|0,0:3|0:0,0:0:0:0:
149,361,122055,2,0,B|111:324|111:324|137:261,1,101.250000386238,2|0,0:0|3:2,0:0:0:0:
229,262,122500,2,0,B|267:299|267:299|241:362,1,101.250000386238,2|8,0:0|0:3,0:0:0:0:
46,181,122944,2,0,B|36:130|5:86|5:86|48:18|114:89,1,202.500000772476,2|0,3:2|3:2,0:0:0:0:
180,124,123611,1,8,0:3:0:0:
38,292,123833,1,0,0:0:0:0:
38,292,123944,1,0,0:0:0:0:
38,292,124055,6,0,P|94:275|119:272,1,50.6250001931191,0|0,3:2|3:0,0:0:0:0:
158,242,124277,2,0,P|219:260|233:263,1,50.6250001931191,2|0,3:0|3:0,0:0:0:0:
292,309,124500,1,10,3:3:0:0:
327,328,124611,1,2,3:0:0:0:
366,320,124722,1,2,3:0:0:0:
395,291,124833,1,2,3:0:0:0:
395,250,124944,6,0,P|422:205|470:206,2,101.250000386238,6|2|10,3:2|0:0|0:3,0:0:0:0:
201,125,125611,2,0,L|392:163,1,151.875000579357,2|0,0:0|0:0,0:0:0:0:
414,115,126055,2,0,P|401:64|388:58,1,50.6250001931191,2|0,0:0|0:0,0:0:0:0:
335,21,126277,1,10,0:3:0:0:
137,175,126500,6,0,B|126:144|100:123|100:123|139:84|158:31,1,151.875000579357,2|0,0:0|0:0,0:0:0:0:
88,3,126944,2,0,P|23:13|15:52,1,101.250000386238,2|10,0:0|0:3,0:0:0:0:
192,232,127389,2,0,B|295:202|295:202|276:215|259:239,1,151.875000579357,2|0,0:0|0:0,0:0:0:0:
232,306,127833,1,2,0:0:0:0:
232,306,127944,1,0,0:0:0:0:
232,306,128055,2,0,P|247:328|268:368,1,50.6250001931191,10|0,0:3|0:0,0:0:0:0:
331,367,128278,2,0,P|394:343|403:340,1,50.6250001931191,2|0,0:0|0:0,0:0:0:0:
478,214,128500,6,0,B|447:247|447:247|491:308,2,101.250000386238,2|2|10,3:2|0:0|0:3,0:0:0:0:
311,210,129167,2,0,B|249:199|249:199|242:204|242:204|155:189,1,151.875000579357,2|0,0:0|0:0,0:0:0:0:
100,152,129611,2,0,B|99:119|99:119|142:98,1,50.6250001931191,2|0,0:0|0:0,0:0:0:0:
176,65,129833,1,10,0:3:0:0:
73,239,130055,6,0,P|12:241|-16:317,1,151.875000579357,2|0,0:0|0:0,0:0:0:0:
49,366,130500,2,0,P|120:345|161:339,1,101.250000386238,2|10,0:0|0:3,0:0:0:0:
374,288,130944,2,0,B|351:368|351:368|290:391|274:319,1,151.875000579357,2|0,0:0|0:0,0:0:0:0:
250,290,131389,2,0,P|187:252|167:282,1,101.250000386238,2|10,0:0|0:3,0:0:0:0:
351,197,131833,1,2,0:0:0:0:
351,197,131944,1,0,0:0:0:0:
351,197,132055,6,0,P|367:144|370:124,1,50.6250001931191,2|0,3:2|0:0,0:0:0:0:
438,116,132278,2,0,P|416:54|412:41,1,50.6250001931191,2|0,0:0|0:0,0:0:0:0:
354,27,132500,1,10,0:3:0:0:
495,178,132722,2,0,L|456:342,1,151.875000579357,2|0,0:0|0:0,0:0:0:0:
395,359,133167,2,0,P|363:316|302:334,1,101.250000386238,2|10,0:0|0:3,0:0:0:0:
133,189,133611,6,0,B|149:206|148:266|148:266|169:223|199:212,1,151.875000579357,2|0,0:0|0:0,0:0:0:0:
252,162,134055,2,0,P|326:147|338:147,1,50.6250001931191,2|0,0:0|0:0,0:0:0:0:
363,204,134277,1,10,0:3:0:0:
200,54,134500,2,0,B|156:9|108:41|108:41|67:96|-21:50,1,202.500000772476,2|0,0:0|0:0,0:0:0:0:
203,145,135055,1,0,0:0:0:0:
203,145,135167,2,0,P|218:165|205:218,1,50.6250001931191,10|0,0:3|0:0,0:0:0:0:
123,222,135389,2,0,P|108:202|121:149,1,50.6250001931191,2|0,0:0|0:0,0:0:0:0:
290,93,135611,5,2,3:2:0:0:
453,280,135833,2,0,P|418:215|333:234,1,163.12500497818,2|0,3:2|0:0,0:0:0:0:
284,282,136278,2,0,B|214:292|214:292|208:300|208:300|125:310,1,163.12500497818,2|0,3:2|0:0,0:0:0:0:
55,271,136722,1,2,3:2:0:0:
257,373,136944,1,2,0:0:0:0:
439,144,137167,6,0,B|398:129|366:95|366:95|371:161|403:193|400:263|400:263|373:218|321:192,1,348.750002660751,6|0,3:2|0:0,0:0:0:0:
453,57,138055,2,0,L|487:49,2,29.0625002217293,0|0|0,3:0|3:0|3:0,0:0:0:0:
381,1,138277,1,0,0:0:0:0:
258,110,138500,2,0,P|206:76|237:-5,1,151.875000579357,0|0,3:0|0:0,0:0:0:0:
331,188,138944,1,2,0:0:0:0:
331,188,139055,1,2,0:0:0:0:
331,188,139167,6,0,P|267:212|250:219,1,60,6|0,3:2|0:0,0:0:0:0:
205,244,139389,2,0,P|148:223|130:219,1,60,2|0,0:0|0:0,0:0:0:0:
93,156,139611,1,10,0:3:0:0:
248,336,139833,2,0,B|284:337|310:319|310:319|349:332|349:332|377:306|435:310,1,180,2|0,0:0|0:0,0:0:0:0:
487,367,140278,1,2,0:0:0:0:
341,246,140500,2,0,P|349:180|398:167,1,120,10|2,0:3|0:0,0:0:0:0:
464,121,140833,1,0,0:0:0:0:
464,121,140944,6,0,B|455:57|455:57|448:51|448:51|437:-16,2,120,2|2|10,3:2|0:0|0:3,0:0:0:0:
256,274,141611,2,0,B|161:240|161:240|116:276|151:323,1,180,2|0,0:0|0:0,0:0:0:0:
101,368,142055,2,0,P|66:362|50:320,1,60
217,170,142278,1,8,0:3:0:0:
342,248,142500,6,0,L|413:228,2,60,2|0|2,0:0|0:0|3:2,0:0:0:0:
144,122,142944,2,0,B|121:100|121:100|137:57,1,60,2|0,0:0|0:0,0:0:0:0:
157,0,143167,1,10,0:3:0:0:
38,263,143389,2,0,B|67:234|84:207|84:207|126:231|224:262,1,180,2|0,0:0|0:0,0:0:0:0:
235,308,143833,2,0,P|299:290|319:286,1,60,2|0,0:0|0:0,0:0:0:0:
343,232,144055,1,10,0:3:0:0:
472,357,144278,1,2,0:0:0:0:
472,357,144389,1,0,0:0:0:0:
472,357,144500,6,0,L|453:271,1,60,2|0,3:2|0:0,0:0:0:0:
508,239,144722,2,0,P|505:169|433:160,1,120,2|10,0:0|0:3,0:0:0:0:
314,94,145167,2,0,B|266:54|266:54|403:92,1,180,2|0,0:0|0:0,0:0:0:0:
446,60,145611,2,0,B|458:23|458:23|424:-3,1,60
270,175,145833,2,0,L|315:321,1,120,8|2,0:3|0:0,0:0:0:0:
256,345,146167,1,2,0:0:0:0:
256,345,146278,6,0,P|219:333|190:325,1,60,2|0,3:2|0:0,0:0:0:0:
136,284,146500,2,0,P|85:304|56:312,1,60
232,45,146722,2,0,P|299:55|315:111,1,120,10|2,0:3|0:0,0:0:0:0:
270,175,147055,2,0,P|212:172|185:122,1,120,2|0,0:0|0:0,0:0:0:0:
392,19,147389,2,0,P|398:46|416:93,1,60,2|0,0:0|0:0,0:0:0:0:
467,120,147611,1,10,0:3:0:0:
363,221,147833,1,2,0:0:0:0:
464,360,148055,6,0,B|382:338|382:338|366:346|366:346|281:326,1,180,2|0,3:2|0:0,0:0:0:0:
226,294,148500,2,0,P|226:253|260:232,1,60,8|0,0:3|0:0,0:0:0:0:
372,57,148722,2,0,P|445:45|397:110,1,180,2|0,0:0|0:0,0:0:0:0:
352,151,149167,2,0,P|288:133|274:130,1,60,2|0,0:0|0:0,0:0:0:0:
222,101,149389,2,0,P|143:130|134:132,1,60,10|0,0:3|0:0,0:0:0:0:
112,176,149611,1,2,0:0:0:0:
326,259,149833,6,0,B|392:300|354:361|354:361|333:335|293:336,1,180,2|0,3:2|0:0,0:0:0:0:
232,297,150278,2,0,P|169:296|153:347,1,120,8|0,0:3|0:0,0:0:0:0:
82,373,150611,1,0,0:0:0:0:
82,373,150722,1,0,3:2:0:0:
243,194,150944,2,0,P|232:166|223:126,1,60
176,80,151166,2,0,P|186:52|194:23,1,60,8|0,0:3|0:0,0:0:0:0:
36,208,151389,6,0,B|96:216|144:181|144:181|115:215|123:263,1,191.250003647804,10|0,0:3|3:0,0:0:0:0:
52,291,151833,1,2,3:0:0:0:
243,194,152055,1,10,0:3:0:0:
354,260,152277,1,2,0:0:0:0:
354,260,152389,1,2,0:0:0:0:
354,260,152500,1,2,3:2:0:0:
422,204,152722,1,2,3:2:0:0:
250,342,152944,1,10,0:3:0:0:
97,264,153167,1,2,3:2:0:0:
97,264,153278,1,2,0:0:0:0:
97,264,153389,6,0,P|120:199|125:185,1,60,6|0,3:2|0:0,0:0:0:0:
162,144,153611,2,0,P|139:68|138:59,1,60,2|0,0:0|0:0,0:0:0:0:
80,40,153833,1,10,0:3:0:0:
289,202,154055,2,0,B|328:158|382:184|382:184|408:233|477:201,1,180,2|0,0:0|0:0,0:0:0:0:
505,165,154500,2,0,B|501:137|513:105|513:105|497:75|430:67,2,120,2|10|2,0:0|0:3|0:0,0:0:0:0:
367,288,155055,1,0,0:0:0:0:
367,288,155166,6,0,L|444:304,1,60,2|0,3:2|0:0,0:0:0:0:
493,344,155389,1,2,0:0:0:0:
289,202,155611,1,10,0:3:0:0:
170,361,155833,2,0,B|146:336|107:314|107:314|144:258|150:222,1,180,2|0,0:0|0:0,0:0:0:0:
110,165,156278,2,0,B|78:163|78:163|52:192,1,60
253,329,156500,1,8,0:3:0:0:
64,384,156722,6,0,L|-16:365,2,60,2|2|2,0:0|0:0|3:2,0:0:0:0:
250,258,157166,2,0,P|220:192|216:184,1,60,2|0,0:0|0:0,0:0:0:0:
271,144,157389,1,10,0:3:0:0:
57,123,157611,2,0,P|120:147|166:57,1,180,2|0,0:0|0:0,0:0:0:0:
100,12,158055,1,2,0:0:0:0:
271,144,158277,1,10,0:3:0:0:
397,41,158500,2,0,P|428:39|456:80,1,60,2|0,0:0|0:0,0:0:0:0:
433,130,158722,6,0,B|447:183|447:183|453:188|453:188|470:253,1,120,2|2,3:2|0:0,0:0:0:0:
427,307,159055,1,0,0:0:0:0:
427,307,159167,2,0,L|411:375,1,60,10|0,0:3|0:0,0:0:0:0:
239,240,159389,2,0,B|171:170|213:120|269:122|281:167,1,180,2|0,0:0|0:0,0:0:0:0:
346,202,159833,1,0,0:0:0:0:
178,86,160055,1,8,0:3:0:0:
50,195,160277,1,2,0:0:0:0:
50,195,160389,1,2,0:0:0:0:
50,195,160500,6,0,P|63:228|75:268,1,60,2|0,3:2|0:0,0:0:0:0:
113,312,160722,2,0,P|100:345|88:385,1,60,2|0,0:0|0:0,0:0:0:0:
244,212,160944,2,0,B|275:223|303:207|303:207|294:241|314:281,1,120,10|2,0:3|0:0,0:0:0:0:
257,332,161278,2,0,B|225:320|197:336|197:336|206:302|186:262,1,120,2|0,0:0|0:0,0:0:0:0:
164,92,161611,2,0,L|146:162,1,60,2|0,0:0|0:0,0:0:0:0:
84,194,161833,1,10,0:3:0:0:
246,92,162055,1,2,0:0:0:0:
392,145,162278,6,0,P|457:140|476:81,2,120,2|2|8,3:2|0:0|0:3,0:0:0:0:
212,371,162944,2,0,B|232:316|275:297|275:297|273:244|217:249,1,180,2|0,0:0|0:0,0:0:0:0:
156,280,163389,2,0,P|115:264|89:258,1,60
41,214,163611,1,8,0:3:0:0:
321,362,163833,1,2,0:0:0:0:
321,362,163944,1,0,0:0:0:0:
321,362,164055,6,0,L|403:347,1,60,2|0,3:2|0:0,0:0:0:0:
445,309,164277,2,0,L|519:329,1,60,2|0,0:0|0:0,0:0:0:0:
456,93,164500,2,0,P|391:77|356:131,1,120,10|2,0:3|0:0,0:0:0:0:
319,183,164833,2,0,P|276:220|221:202,1,120,2|0,0:0|0:0,0:0:0:0:
108,162,165167,2,0,B|77:154|77:154|29:193,1,60,2|0,0:0|0:0,0:0:0:0:
0,229,165389,1,10,0:3:0:0:
177,65,165611,1,2,0:0:0:0:
379,207,165833,6,0,B|372:174|340:134|340:134|399:85|399:85|392:110|389:132,1,180,2|0,3:2|0:0,0:0:0:0:
454,154,166278,2,0,L|557:128,1,60,10|0,0:3|0:0,0:0:0:0:
327,272,166500,1,2,0:0:0:0:
327,272,166611,1,0,0:0:0:0:
327,272,166722,2,0,B|300:253|300:253|300:214,1,60,2|0,3:2|3:0,0:0:0:0:
454,154,166944,2,0,B|481:173|481:173|481:212,1,60,2|0,3:0|3:0,0:0:0:0:
258,311,167166,1,8,3:3:0:0:
258,311,167277,2,0,L|217:299,2,30,0|0|2,3:0|3:0|3:0,0:0:0:0:
327,272,167500,1,0,3:0:0:0:
263,222,167611,5,6,3:2:0:0:
315,128,167833,1,2,0:0:0:0:
315,128,168055,2,0,L|438:108,1,112.5,2|0,0:0|0:0,0:0:0:0:
466,173,168500,2,0,P|465:222|439:239,2,75,2|2|2,0:0|0:0|0:0,0:0:0:0:
365,47,169166,1,2,0:0:0:0:
293,84,169388,5,2,0:0:0:0:
293,84,169611,2,0,B|239:79|239:79|233:82|233:82|176:76,1,112.5,2|0,0:0|0:0,0:0:0:0:
118,30,170055,2,0,P|65:44|56:111,1,112.5,2|0,0:0|0:0,0:0:0:0:
103,146,170499,2,0,P|97:163|92:181,1,37.5,2|0,0:0|0:0,0:0:0:0:
62,246,170722,2,0,P|67:263|72:281,1,37.5,2|0,0:0|0:0,0:0:0:0:
134,334,170944,1,0,3:2:0:0:
11,192,171166,5,0,3:2:0:0:
174,104,171389,2,0,L|197:7,2,75,2|2|2,0:0|0:0|0:0,0:0:0:0:
328,218,172055,2,0,P|281:241|250:214,1,75,2|2,0:0|0:0,0:0:0:0:
247,122,172500,2,0,P|293:98|324:125,1,75,2|2,0:0|0:0,0:0:0:0:
428,214,172944,5,2,0:0:0:0:
428,214,173166,2,0,L|396:322,1,112.5,2|0,0:0|0:0,0:0:0:0:
326,361,173611,2,0,B|274:375|274:375|224:343,1,112.5,2|0,0:0|0:0,0:0:0:0:
154,315,174055,2,0,P|129:321|113:327,1,37.5,2|0,0:0|0:0,0:0:0:0:
232,178,174278,2,0,P|206:123|150:124,1,101.249996910095,8|0,0:3|0:0,0:0:0:0:
106,164,174722,5,2,3:2:0:0:
300,41,174944,2,0,P|310:68|321:99,1,43.1250008225441,2|0,0:0|0:0,0:0:0:0:
363,145,175166,2,0,P|354:165|346:189,1,43.1250008225441,10|0,0:3|0:0,0:0:0:0:
294,247,175388,1,2,0:0:0:0:
416,335,175611,2,0,B|462:328|462:328|468:331|468:331|539:320,2,86.2500016450882,2|2|10,3:2|0:0|0:3,0:0:0:0:
235,195,176277,1,2,0:0:0:0:
133,358,176500,6,0,P|110:361|75:371,1,43.1250008225441,2|0,3:2|0:0,0:0:0:0:
21,341,176722,2,0,P|-6:295|32:264,1,86.2500016450882,2|8,0:0|0:3,0:0:0:0:
240,280,177167,2,0,L|372:305,1,129.375002467632,2|0,0:0|0:0,0:0:0:0:
411,249,177611,2,0,P|395:208|391:182,1,43.1250008225441,2|0,0:0|0:0,0:0:0:0:
344,151,177833,2,0,P|352:131|360:107,1,43.1250008225441,2|0,3:2|0:0,0:0:0:0:
424,65,178055,1,10,0:3:0:0:
244,189,178278,5,2,3:2:0:0:
120,59,178500,1,2,0:0:0:0:
120,59,178722,2,0,B|144:80|164:92|164:92|143:125|124:161,1,129.375002467632,10|0,0:3|0:0,0:0:0:0:
59,191,179167,2,0,P|9:168|8:123,1,86.2500016450882,2|2,3:2|0:0,0:0:0:0:
189,19,179610,1,10,0:3:0:0:
316,114,179833,2,0,B|342:118|342:118|365:94,1,43.1250008225441,2|0,0:0|0:0,0:0:0:0:
418,57,180055,5,2,3:2:0:0:
260,180,180278,2,0,L|295:323,1,129.375002467632,2|0,0:0|0:0,0:0:0:0:
236,352,180722,2,0,P|207:338|201:311,1,43.1250008225441,2|0,0:0|0:0,0:0:0:0:
374,219,180944,1,2,3:2:0:0:
374,219,181055,1,2,0:0:0:0:
374,219,181167,1,2,0:0:0:0:
194,60,181389,1,2,3:2:0:0:
160,68,181500,1,2,0:0:0:0:
126,73,181611,1,2,0:0:0:0:
92,82,181722,1,2,0:0:0:0:
58,86,181833,6,0,P|87:145|94:164,1,50.6250001931191,2|0,3:2|0:0,0:0:0:0:
42,191,182055,2,0,P|29:243|19:265,1,50.6250001931191,2|0,0:0|0:0,0:0:0:0:
213,268,182278,2,0,B|165:277|165:277|163:283|163:283|75:301,1,101.250000386238,10|0,0:3|0:0,0:0:0:0:
55,340,182611,1,0,0:0:0:0:
55,340,182722,1,2,3:2:0:0:
248,192,182944,2,0,P|233:146|226:121,1,50.6250001931191,2|0,0:0|0:0,0:0:0:0:
167,101,183167,1,10,0:3:0:0:
364,29,183389,1,2,0:0:0:0:
364,29,183500,1,0,0:0:0:0:
364,29,183611,6,0,L|478:55,2,101.250000386238,2|2|8,3:2|0:0|0:3,0:0:0:0:
422,310,184278,2,0,B|466:322|478:278|478:278|418:188,1,151.875000579357,2|0,0:0|0:0,0:0:0:0:
372,178,184722,2,0,P|324:192|297:195,1,50.6250001931191,2|0,0:0|0:0,0:0:0:0:
264,237,184944,2,0,P|219:225|190:223,1,50.6250001931191,10|0,0:3|0:0,0:0:0:0:
135,120,185167,1,2,0:0:0:0:
135,120,185278,1,0,0:0:0:0:
135,120,185389,6,0,B|115:137|115:137|123:176,1,50.6250001931191,2|0,3:2|0:0,0:0:0:0:
77,221,185611,2,0,P|21:218|-1:168,1,101.250000386238,2|10,0:0|0:3,0:0:0:0:
248,54,186055,1,2,0:0:0:0:
248,54,186167,1,0,0:0:0:0:
248,54,186278,2,0,L|323:32,1,50.6250001931191,2|0,3:2|0:0,0:0:0:0:
356,81,186500,2,0,L|409:99,1,50.6250001931191,2|0,0:0|0:0,0:0:0:0:
473,56,186722,1,10,0:3:0:0:
270,158,186944,1,2,0:0:0:0:
270,158,187055,1,0,0:0:0:0:
270,158,187167,6,0,P|242:182|282:258,2,101.250000386238,2|2|8,3:2|0:0|0:3,0:0:0:0:
382,365,187833,2,0,B|351:344|351:295|351:295|330:340|276:342,1,151.875000579357,2|0,0:0|0:0,0:0:0:0:
232,366,188278,2,0,P|169:339|157:335,1,50.6250001931191,2|0,0:0|0:0,0:0:0:0:
128,292,188500,2,0,P|102:305|58:315,1,50.6250001931191,10|0,0:3|0:0,0:0:0:0:
8,356,188722,1,2,0:0:0:0:
8,356,188833,1,0,0:0:0:0:
8,356,188944,5,2,3:2:0:0:
216,238,189167,2,0,L|201:184,1,50.6250001931191,2|0,0:0|0:0,0:0:0:0:
152,141,189389,2,0,L|170:91,1,50.6250001931191,10|0,0:3|0:0,0:0:0:0:
224,45,189611,1,2,0:0:0:0:
393,156,189833,2,0,P|449:157|481:113,1,101.250000386238,2|2,3:2|0:0,0:0:0:0:
437,23,190278,2,0,P|381:22|349:66,1,101.250000386238,10|2,0:3|0:0,0:0:0:0:
296,107,190611,1,0,0:0:0:0:
296,107,190722,6,0,P|237:88|214:86,1,50.6250001931191,2|0,3:2|0:0,0:0:0:0:
183,51,190944,2,0,P|149:63|48:77,1,101.250000386238,2|8,0:0|0:3,0:0:0:0:
32,234,191389,2,0,P|37:168|75:211,1,151.875000579357,2|0,0:0|0:0,0:0:0:0:
140,245,191833,2,0,B|165:228|165:228|212:238,1,50.6250001931191,2|0,0:0|0:0,0:0:0:0:
248,267,192055,2,0,B|267:271|267:271|292:254,1,50.6250001931191,10|0,0:3|0:0,0:0:0:0:
419,110,192278,1,2,0:0:0:0:
419,110,192389,1,0,0:0:0:0:
419,110,192500,6,0,P|441:159|453:182,1,50.6250001931191,2|0,3:2|0:0,0:0:0:0:
512,195,192722,1,2,0:0:0:0:
328,98,192944,2,0,B|261:113|261:113|250:110|250:110|166:128,1,151.875000579357,10|0,0:3|0:0,0:0:0:0:
118,77,193389,2,0,P|117:48|151:21,1,50.6250001931191,2|0,3:2|0:0,0:0:0:0:
197,6,193611,1,2,0:0:0:0:
388,152,193833,2,0,P|362:231|335:234,1,101.250000386238,8|2,0:3|0:0,0:0:0:0:
289,259,194167,1,0,0:0:0:0:
289,259,194278,5,2,0:0:0:0:
30,343,194500,2,0,B|68:309|107:333|107:333|142:368|190:348,1,168.750006437302,2|0,0:0|0:0,0:0:0:0:
211,279,194944,2,0,B|216:246|216:246|182:211,1,56.2500021457673,2|0,3:0|3:0,0:0:0:0:
0,176,195167,5,2,3:0:0:0:
32,129,195278,1,0,3:0:0:0:
87,118,195389,1,0,3:0:0:0:
136,143,195500,1,0,3:0:0:0:
165,169,195611,1,0,3:0:0:0:
203,178,195722,1,0,3:0:0:0:
241,169,195833,1,2,3:0:0:0:
270,142,195944,1,2,3:0:0:0:
284,113,196055,6,0,P|326:100|366:85,1,60,6|0,3:2|0:0,0:0:0:0:
409,49,196277,2,0,P|466:70|484:74,1,60,2|0,0:0|0:0,0:0:0:0:
507,137,196499,1,10,0:3:0:0:
356,326,196722,2,0,B|317:357|317:357|379:232,1,180,2|0,0:0|0:0,0:0:0:0:
329,176,197166,1,2,0:0:0:0:
451,354,197389,2,0,P|495:338|489:272,1,120,10|2,0:3|0:0,0:0:0:0:
455,207,197721,1,0,0:0:0:0:
455,207,197833,6,0,B|467:157|467:157|474:151|474:151|488:90,2,120,2|2|10,3:2|0:0|0:3,0:0:0:0:
258,337,198500,2,0,B|197:367|166:307|181:254|236:243|294:238,1,180,2|0,0:0|0:0,0:0:0:0:
293,187,198944,2,0,B|299:153|299:153|270:126,1,60
117,300,199167,1,8,0:3:0:0:
24,222,199389,6,0,P|13:184|2:151,2,60,2|2|2,0:0|0:0|3:2,0:0:0:0:
222,357,199833,2,0,P|288:341|306:338,1,60,2|0,0:0|0:0,0:0:0:0:
323,282,200055,1,10,0:3:0:0:
198,180,200278,2,0,B|100:148|100:148|89:88|153:81,1,180,2|0,0:0|0:0,0:0:0:0:
198,50,200722,2,0,P|195:21|172:-2,1,60,2|0,0:0|0:0,0:0:0:0:
30,176,200943,1,10,0:3:0:0:
207,298,201167,1,2,0:0:0:0:
207,298,201277,1,0,0:0:0:0:
207,298,201388,6,0,P|180:370|177:388,1,60,2|0,3:2|0:0,0:0:0:0:
110,378,201611,2,0,P|37:360|38:305,1,120,2|10,0:0|0:3,0:0:0:0:
264,218,202055,2,0,B|344:201|344:201|366:211|366:211|463:193,1,180,2|0,0:0|0:0,0:0:0:0:
497,242,202499,2,0,P|516:272|507:304,1,60
283,141,202721,2,0,L|149:113,1,120,8|2,0:3|0:0,0:0:0:0:
99,158,203054,1,2,0:0:0:0:
99,158,203167,6,0,P|118:208|130:235,1,60,2|0,3:2|0:0,0:0:0:0:
172,270,203388,2,0,P|161:297|151:326,1,60,2|0,0:0|0:0,0:0:0:0:
294,361,203611,2,0,B|354:375|354:375|410:316,1,120,10|2,0:3|0:0,0:0:0:0:
369,254,203944,2,0,B|309:240|309:240|253:299,1,120,2|0,0:0|0:0,0:0:0:0:
416,172,204278,2,0,P|415:138|377:111,1,60,2|0,0:0|0:0,0:0:0:0:
331,78,204500,1,10,0:3:0:0:
500,210,204722,1,2,0:0:0:0:
379,313,204944,6,0,B|320:324|285:362|285:362|312:313|300:260,1,180,2|0,3:2|0:0,0:0:0:0:
249,244,205389,2,0,B|215:243|215:243|200:264,1,60,8|0,0:3|0:0,0:0:0:0:
0,352,205611,2,0,B|75:327|88:364|106:410|194:360,1,180,2|0,0:0|0:0,0:0:0:0:
226,318,206055,6,0,P|208:286|196:252,1,60,2|0,0:0|0:0,0:0:0:0:
136,220,206278,2,0,P|150:191|163:159,1,60,10|0,0:3|0:0,0:0:0:0:
228,122,206499,1,2,0:0:0:0:
17,11,206722,6,0,B|46:44|74:48|74:48|42:96|28:164,1,180,2|0,3:2|0:0,0:0:0:0:
0,222,207167,2,0,P|41:280|93:266,1,120,8|0,0:3|0:0,0:0:0:0:
136,220,207499,1,0,0:0:0:0:
136,220,207610,1,0,3:2:0:0:
296,384,207832,2,0,P|285:356|276:316,1,60
238,261,208055,2,0,P|248:233|256:204,1,60,8|0,0:3|0:0,0:0:0:0:
388,108,208278,6,0,B|329:60|329:60|399:216,1,191.250003647804,2|0,0:0|0:0,0:0:0:0:
452,205,208721,1,2,3:2:0:0:
263,108,208943,1,10,0:3:0:0:
435,52,209167,1,2,0:0:0:0:
435,52,209277,1,2,0:0:0:0:
435,52,209388,1,2,3:2:0:0:
512,99,209610,1,2,3:2:0:0:
361,6,209832,1,10,0:3:0:0:
277,122,210055,1,2,3:2:0:0:
277,122,210167,1,2,0:0:0:0:
277,122,210278,6,0,L|206:104,1,60,6|0,3:2|0:0,0:0:0:0:
157,149,210500,2,0,L|78:162,1,60,2|0,0:0|0:0,0:0:0:0:
35,109,210721,1,10,0:3:0:0:
224,247,210944,2,0,B|290:288|252:349|252:349|231:323|191:324,1,180,2|0,0:0|0:0,0:0:0:0:
131,309,211389,2,0,B|72:323|72:323|65:321|65:321|-5:337,2,120,2|10|2,0:0|0:3|0:0,0:0:0:0:
263,234,211943,1,0,0:0:0:0:
263,234,212055,6,0,L|340:250,1,60,2|0,3:2|0:0,0:0:0:0:
373,305,212277,1,2,0:0:0:0:
222,155,212499,1,10,0:3:0:0:
366,11,212722,2,0,B|405:4|430:37|430:37|375:83|365:142,1,180,2|0,0:0|0:0,0:0:0:0:
402,191,213167,2,0,B|437:192|437:192|456:155,1,60
289,58,213388,1,8,0:3:0:0:
148,104,213610,6,0,L|68:85,2,60,2|2|2,0:0|0:0|3:2,0:0:0:0:
288,281,214055,2,0,P|271:244|253:218,1,60,2|0,0:0|0:0,0:0:0:0:
308,168,214277,1,8,0:3:0:0:
148,350,214500,2,0,B|107:278|107:278|158:236|158:236|154:279,1,180,2|0,0:0|0:0,0:0:0:0:
220,304,214943,1,2,0:0:0:0:
58,212,215167,1,10,0:3:0:0:
230,123,215389,2,0,L|311:140,1,60,2|0,0:0|0:0,0:0:0:0:
350,182,215611,6,0,P|420:187|442:123,1,120,2|2,3:2|0:0,0:0:0:0:
257,211,215944,1,0,0:0:0:0:
257,211,216055,2,0,L|280:280,1,60,10|0,0:3|0:0,0:0:0:0:
463,339,216278,2,0,B|403:320|403:320|398:313|398:313|351:297|351:297|341:328|301:346,1,180,2|0,0:0|0:0,0:0:0:0:
232,381,216721,1,0,0:0:0:0:
461,258,216943,1,8,0:3:0:0:
291,169,217167,1,2,0:0:0:0:
291,169,217278,1,2,0:0:0:0:
291,169,217389,6,0,B|271:142|271:142|287:103,1,60,2|0,3:2|0:0,0:0:0:0:
346,67,217611,2,0,B|356:42|356:42|336:15,1,60,2|0,0:0|0:0,0:0:0:0:
97,110,217833,2,0,P|140:156|191:139,1,120,10|2,0:3|0:0,0:0:0:0:
222,59,218167,2,0,P|179:13|128:30,1,120,2|0,0:0|0:0,0:0:0:0:
160,267,218500,2,0,L|254:243,1,60,2|0,0:0|0:0,0:0:0:0:
300,278,218721,1,10,0:3:0:0:
95,215,218943,1,2,0:0:0:0:
304,151,219167,6,0,P|303:79|250:62,2,120,2|2|8,3:2|0:0|0:3,0:0:0:0:
414,252,219833,2,0,B|389:254|357:266|357:266|316:249|316:249|278:262|242:266,1,180,2|0,0:0|0:0,0:0:0:0:
180,222,220278,2,0,P|179:185|213:157,1,60
249,101,220499,1,8,0:3:0:0:
92,277,220721,1,2,0:0:0:0:
92,277,220832,1,2,0:0:0:0:
92,277,220943,6,0,P|89:312|77:346,1,60,2|0,3:2|0:0,0:0:0:0:
143,375,221167,2,0,P|176:361|209:353,1,60,2|0,0:0|0:0,0:0:0:0:
321,306,221389,2,0,P|339:236|289:205,1,120,10|2,0:3|0:0,0:0:0:0:
240,170,221722,2,0,P|204:124|228:72,1,120,2|0,0:0|0:0,0:0:0:0:
418,130,222055,2,0,P|389:138|361:148,1,60,2|0,0:0|0:0,0:0:0:0:
309,208,222277,1,10,0:3:0:0:
460,61,222499,1,2,0:0:0:0:
313,291,222722,6,0,B|276:294|225:320|225:320|172:287|204:237,1,180,2|0,3:2|0:0,0:0:0:0:
187,174,223167,2,0,B|104:157|104:157|96:161|96:161|7:142,1,180,10|0,0:3|0:0,0:0:0:0:
2,68,223611,2,0,P|24:40|64:48,1,60,2|0,3:2|0:0,0:0:0:0:
116,235,223833,2,0,P|93:262|53:254,1,60,2|0,3:2|0:0,0:0:0:0:
258,130,224054,5,8,3:3:0:0:
258,130,224167,2,0,L|270:166,2,30,0|0|2,3:0|3:0|3:0,0:0:0:0:
223,53,224388,1,0,3:0:0:0:
301,68,224499,1,4,0:0:0:0:
256,192,224611,12,2,227611,0:0:0:0:
256,192,228055,12,0,231611,0:0:0:0:
