osu file format v14

[General]
AudioFilename: audio.mp3
AudioLeadIn: 0
PreviewTime: 138833
Countdown: 0
SampleSet: Soft
StackLeniency: 0.7
Mode: 0
LetterboxInBreaks: 0
WidescreenStoryboard: 1

[Editor]
Bookmarks: 68536
DistanceSpacing: 1.2
BeatDivisor: 4
GridSize: 32
TimelineZoom: 1.7

[Metadata]
Title:silky heart
TitleUnicode:silky heart
Artist:Horie Yui
ArtistUnicode:堀江由衣
Creator:rosario wknd
Version:Hard
Source:とらドラ!
Tags:toradora op opening full j-pop jpop pop anime japanese
BeatmapID:2641609
BeatmapSetID:1258444

[Difficulty]
HPDrainRate:6
CircleSize:4.3
OverallDifficulty:6
ApproachRate:7.5
SliderMultiplier:1.4
SliderTickRate:1

[Events]
//Background and Video events
0,0,"toradora.jpg",0,0
//Break Periods
2,93144,95675
2,167811,173452
//Storyboard Layer 0 (Background)
//Storyboard Layer 1 (Fail)
//Storyboard Layer 2 (Pass)
//Storyboard Layer 3 (Foreground)
//Storyboard Layer 4 (Overlay)
//Storyboard Sound Samples

[TimingPoints]
500,444.444444444444,4,2,1,40,1,0
3166,-100,4,2,1,5,0,0
3389,-111.111111111111,4,2,1,40,0,0
4056,-111.111111111111,4,2,1,50,0,0
11055,-111.111111111111,4,2,1,5,0,0
11167,-100,4,2,1,60,0,0
11389,-100,4,2,1,60,0,0
13500,-100,4,2,1,5,0,0
13611,-100,4,2,1,60,0,0
13944,-100,4,2,1,5,0,0
14055,-100,4,2,1,60,0,0
15500,-100,4,2,1,5,0,0
15611,-100,4,2,1,60,0,0
16278,-100,4,2,0,55,0,0
18278,-100,4,2,1,50,0,0
18500,-111.111111111111,4,2,1,50,0,0
22833,-111.111111111111,4,2,1,5,0,0
22944,-111.111111111111,4,2,1,50,0,0
24833,-111.111111111111,4,2,1,5,0,0
24944,-111.111111111111,4,2,1,50,0,0
29278,-111.111111111111,4,2,1,5,0,0
29389,-111.111111111111,4,2,1,50,0,0
31611,-111.111111111111,4,2,2,50,0,0
32500,-99.9999999999999,4,2,1,60,0,0
34389,-99.9999999999999,4,2,1,5,0,0
34500,-99.9999999999999,4,2,1,60,0,0
35500,-99.9999999999999,4,2,3,60,0,0
35833,-99.9999999999999,4,2,1,60,0,0
37055,-99.9999999999999,4,2,1,5,0,0
37167,-99.9999999999999,4,2,1,60,0,0
39389,-99.9999999999999,4,2,3,60,0,0
39611,-99.9999999999999,4,2,1,60,0,0
41500,-99.9999999999999,4,2,1,5,0,0
41611,-99.9999999999999,4,2,1,60,0,0
42611,-99.9999999999999,4,2,3,60,0,0
42944,-99.9999999999999,4,2,1,60,0,0
43500,-99.9999999999999,4,2,1,5,0,0
43611,-99.9999999999999,4,2,1,60,0,0
45833,-99.9999999999999,4,2,2,60,0,0
46722,-99.9999999999999,4,2,1,60,0,0
48611,-99.9999999999999,4,2,1,5,0,0
48722,-99.9999999999999,4,2,1,60,0,0
52167,-99.9999999999999,4,2,1,5,0,0
52278,-99.9999999999999,4,2,1,60,0,0
53500,-99.9999999999999,4,2,1,5,0,0
53611,-99.9999999999999,4,2,1,60,0,0
55722,-99.9999999999999,4,2,1,5,0,0
55833,-99.9999999999999,4,2,1,60,0,0
57389,-99.9999999999999,4,2,1,65,0,0
57611,-83.3333333333333,4,2,1,65,0,0
57944,-83.3333333333333,4,2,1,5,0,0
58055,-83.3333333333333,4,2,1,65,0,0
58389,-83.3333333333333,4,2,1,5,0,0
58500,-83.3333333333333,4,2,1,65,0,0
59833,-83.3333333333333,4,2,3,65,0,0
60278,-83.3333333333333,4,2,1,75,0,0
60944,-76.9230769230769,4,2,1,75,0,1
61944,-76.9230769230769,4,2,1,5,0,1
62055,-76.9230769230769,4,2,1,75,0,1
65500,-76.9230769230769,4,2,1,5,0,1
65611,-76.9230769230769,4,2,1,75,0,1
69055,-76.9230769230769,4,2,1,5,0,1
69166,-76.9230769230769,4,2,1,75,0,1
73167,-71.4285714285714,4,2,1,75,0,1
75167,-76.9230769230769,4,2,1,75,0,1
76167,-76.9230769230769,4,2,1,5,0,1
76278,-76.9230769230769,4,2,1,75,0,1
79722,-76.9230769230769,4,2,1,5,0,1
79833,-76.9230769230769,4,2,1,75,0,1
83278,-76.9230769230769,4,2,1,5,0,1
83389,-76.9230769230769,4,2,1,75,0,1
86833,-76.9230769230769,4,2,1,5,0,1
86944,-76.9230769230769,4,2,1,75,0,1
87611,-71.4285714285714,4,2,1,75,0,1
87944,-76.9230769230769,4,2,1,5,0,1
88055,-71.4285714285714,4,2,1,75,0,1
88389,-76.9230769230769,4,2,1,5,0,1
88500,-71.4285714285714,4,2,3,75,0,1
89388,-71.4285714285714,4,2,3,50,0,0
96500,-71.4285714285714,4,2,1,55,0,0
96722,-100,4,2,1,55,0,0
101055,-100,4,2,1,5,0,0
101167,-100,4,2,1,55,0,0
101722,-100,4,2,1,5,0,0
101833,-100,4,2,1,55,0,0
103500,-100,4,2,1,5,0,0
103611,-100,4,2,1,55,0,0
107500,-100,4,2,1,5,0,0
107611,-100,4,2,1,55,0,0
109833,-100,4,2,2,55,0,0
110722,-100,4,2,1,60,0,0
110944,-90.9090909090909,4,2,1,60,0,0
112611,-90.9090909090909,4,2,1,5,0,0
112722,-90.9090909090909,4,2,1,60,0,0
113611,-90.9090909090909,4,2,3,60,0,0
114278,-90.9090909090909,4,2,1,60,0,0
115278,-90.9090909090909,4,2,1,5,0,0
115389,-90.9090909090909,4,2,1,60,0,0
119722,-90.9090909090909,4,2,1,5,0,0
119833,-90.9090909090909,4,2,1,60,0,0
120833,-90.9090909090909,4,2,3,60,0,0
121389,-90.9090909090909,4,2,1,60,0,0
124055,-90.9090909090909,4,2,2,60,0,0
124944,-90.9090909090909,4,2,1,60,0,0
126833,-90.9090909090909,4,2,1,5,0,0
126944,-90.9090909090909,4,2,1,60,0,0
130389,-90.9090909090909,4,2,1,5,0,0
130500,-90.9090909090909,4,2,1,60,0,0
131278,-90.9090909090909,4,2,1,5,0,0
131389,-90.9090909090909,4,2,1,60,0,0
131722,-90.9090909090909,4,2,1,5,0,0
131833,-90.9090909090909,4,2,1,60,0,0
133944,-90.9090909090909,4,2,1,5,0,0
134055,-90.9090909090909,4,2,1,60,0,0
135611,-90.9090909090909,4,2,1,65,0,0
135833,-83.3333333333333,4,2,1,65,0,0
136167,-83.3333333333333,4,2,1,5,0,0
136278,-83.3333333333333,4,2,1,65,0,0
136611,-83.3333333333333,4,2,1,5,0,0
136722,-83.3333333333333,4,2,3,65,0,0
138055,-83.3333333333333,4,2,3,65,0,0
138944,-83.3333333333333,4,2,1,75,0,0
139166,-76.9230769230769,4,2,1,75,0,1
140167,-76.9230769230769,4,2,1,5,0,1
140278,-76.9230769230769,4,2,1,75,0,1
143722,-76.9230769230769,4,2,1,5,0,1
143833,-76.9230769230769,4,2,1,75,0,1
151389,-71.4285714285714,4,2,1,75,0,1
151611,-71.4285714285714,4,2,2,75,0,1
152055,-71.4285714285714,4,2,1,75,0,1
153389,-76.9230769230769,4,2,1,75,0,1
154389,-76.9230769230769,4,2,1,5,0,1
154500,-76.9230769230769,4,2,1,75,0,1
157944,-76.9230769230769,4,2,1,5,0,1
158055,-76.9230769230769,4,2,1,75,0,1
161500,-76.9230769230769,4,2,1,5,0,1
161611,-76.9230769230769,4,2,1,75,0,1
165055,-76.9230769230769,4,2,1,5,0,1
165167,-76.9230769230769,4,2,1,75,0,1
166167,-76.9230769230769,4,2,1,5,0,1
166278,-76.9230769230769,4,2,1,75,0,1
166722,-76.9230769230769,4,2,3,75,0,1
167611,-76.9230769230769,4,2,1,50,0,0
174277,-90.9090909090909,4,2,1,50,0,0
174944,-83.3333333333333,4,2,1,50,0,0
180944,-76.9230769230769,4,2,3,50,0,0
181833,-76.9230769230769,4,2,1,60,0,0
182278,-90.9090909090909,4,2,1,60,0,0
182611,-90.9090909090909,4,2,1,5,0,0
182722,-90.9090909090909,4,2,1,60,0,0
184611,-90.9090909090909,4,2,1,5,0,0
184722,-90.9090909090909,4,2,1,60,0,0
188167,-90.9090909090909,4,2,1,5,0,0
188278,-90.9090909090909,4,2,1,60,0,0
191722,-90.9090909090909,4,2,1,5,0,0
191833,-90.9090909090909,4,2,1,60,0,0
193278,-90.9090909090909,4,2,1,5,0,0
193389,-90.9090909090909,4,2,1,60,0,0
194278,-90.9090909090909,4,2,1,65,0,0
194500,-83.3333333333333,4,2,1,65,0,0
194833,-83.3333333333333,4,2,1,5,0,0
194944,-83.3333333333333,4,2,1,75,0,0
196055,-76.9230769230769,4,2,1,75,0,1
197055,-76.9230769230769,4,2,1,5,0,1
197167,-76.9230769230769,4,2,1,75,0,1
200611,-76.9230769230769,4,2,1,5,0,1
200722,-76.9230769230769,4,2,1,75,0,1
204167,-76.9230769230769,4,2,1,5,0,1
204278,-76.9230769230769,4,2,1,75,0,1
208278,-71.4285714285714,4,2,1,75,0,1
210278,-76.9230769230769,4,2,1,75,0,1
211278,-76.9230769230769,4,2,1,5,0,1
211389,-76.9230769230769,4,2,1,75,0,1
214833,-76.9230769230769,4,2,1,5,0,1
214944,-76.9230769230769,4,2,1,75,0,1
218389,-76.9230769230769,4,2,1,5,0,1
218500,-76.9230769230769,4,2,1,75,0,1
221944,-76.9230769230769,4,2,1,5,0,1
222055,-76.9230769230769,4,2,1,75,0,1
223055,-76.9230769230769,4,2,1,5,0,1
223167,-76.9230769230769,4,2,1,75,0,1
223500,-76.9230769230769,4,2,1,5,0,1
223611,-76.9230769230769,4,2,3,75,0,1
224499,-76.9230769230769,4,2,3,75,0,0
227611,-76.9230769230769,4,2,3,50,0,0
228055,-76.9230769230769,4,2,3,75,0,0
231611,-76.9230769230769,4,2,3,40,0,0

[Colours]
Combo1 : 192,192,192
Combo2 : 243,169,137
Combo3 : 241,99,102
Combo4 : 97,39,192

[HitObjects]
256,192,500,12,0,3166,0:0:0:0:
25,210,3389,6,0,B|11:243|11:243|50:276,2,62.9999980773926,2|2|2,0:0|0:0|0:0,0:0:0:0:
96,122,4056,5,6,3:2:0:0:
172,165,4278,1,2,0:0:0:0:
172,165,4500,2,0,B|228:158|228:158|237:161|237:161|300:152,1,125.999996154785,2|2,0:0|0:0,0:0:0:0:
374,110,5167,1,2,0:0:0:0:
374,110,5389,2,0,P|405:119|451:131,1,62.9999980773926,2|2,0:0|0:0,0:0:0:0:
512,85,5833,6,0,P|513:49|483:26,2,62.9999980773926,2|2|0,0:0|0:0|0:0,0:0:0:0:
434,126,6500,2,0,B|425:145|399:164|399:164|433:232,1,125.999996154785,2|2,0:0|0:0,0:0:0:0:
500,285,7166,1,2,0:0:0:0:
428,355,7389,1,2,3:2:0:0:
325,326,7611,5,4,3:2:0:0:
325,326,7833,2,0,L|236:342,2,62.9999980773926,2|2|2,0:0|0:0|0:0,0:0:0:0:
373,252,8500,2,0,P|357:214|346:187,1,62.9999980773926,2|2,0:0|0:0,0:0:0:0:
286,131,8944,2,0,P|306:69|312:47,1,62.9999980773926,2|2,0:0|0:0,0:0:0:0:
233,19,9389,5,2,0:0:0:0:
233,19,9611,2,0,P|202:28|165:40,1,62.9999980773926,2|0,0:0|0:0,0:0:0:0:
106,95,10055,2,0,B|72:78|59:54|59:54|27:72|-6:67,1,125.999996154785,2|2,0:0|0:0,0:0:0:0:
19,237,10722,2,0,L|42:131,1,94.499997116089,8|0,0:3|0:0,0:0:0:0:
39,144,11167,5,6,3:2:0:0:
119,209,11389,2,0,B|156:218|156:218|203:188,1,70,2|10,0:0|0:3,0:0:0:0:
219,117,11833,1,2,0:0:0:0:
295,166,12055,2,0,L|384:178,1,70,2|2,3:2|0:0,0:0:0:0:
328,91,12500,2,0,L|417:103,1,70,10|2,0:3|0:0,0:0:0:0:
464,39,12944,5,2,3:2:0:0:
511,119,13167,2,0,P|534:175|497:216,1,105,2|0,0:0|0:0,0:0:0:0:
472,230,13611,2,0,B|421:238|421:238|410:235|410:235|344:246,1,105,2|0,0:0|0:0,0:0:0:0:
368,241,14055,1,2,0:0:0:0:
285,202,14278,1,2,3:2:0:0:
201,237,14500,1,10,0:3:0:0:
116,202,14722,5,2,3:2:0:0:
35,244,14944,1,2,0:0:0:0:
35,244,15167,2,0,B|15:272|15:272|27:317|27:317|52:329,1,105,10|0,0:3|0:0,0:0:0:0:
93,334,15611,2,0,P|127:317|173:332,1,70,2|2,3:2|0:0,0:0:0:0:
234,369,16055,1,10,0:3:0:0:
341,318,16278,1,2,3:2:0:0:
341,318,16389,1,0,3:2:0:0:
341,318,16500,6,0,B|334:285|319:268|319:268|329:235|329:235|312:205|307:168,1,140,6|0,3:2|0:0,0:0:0:0:
360,110,17167,2,0,B|335:123|305:156|305:156|273:137|225:128,1,140,2|0,0:0|0:0,0:0:0:0:
136,15,17833,1,0,3:0:0:0:
163,20,17944,1,0,3:0:0:0:
190,25,18055,1,0,3:0:0:0:
217,29,18167,1,0,3:0:0:0:
244,33,18278,5,4,3:2:0:0:
325,45,18500,2,0,P|359:23|402:31,1,62.9999980773926,2|10,0:0|0:3,0:0:0:0:
432,84,18944,2,0,L|397:224,1,125.999996154785,2|2,0:0|0:0,0:0:0:0:
425,285,19611,1,10,0:3:0:0:
425,285,19833,2,0,L|342:304,1,62.9999980773926,2|0,0:0|3:2,0:0:0:0:
289,264,20278,6,0,P|229:259|198:324,2,125.999996154785,2|2|2,0:0|0:0|0:0,0:0:0:0:
330,192,21389,1,10,0:3:0:0:
285,123,21611,1,2,0:0:0:0:
311,45,21833,5,0,3:2:0:0:
311,45,22055,2,0,L|225:57,1,62.9999980773926,2|10,0:0|0:3,0:0:0:0:
168,73,22500,2,0,P|150:111|185:163,1,94.499997116089,2|0,0:0|0:0,0:0:0:0:
192,190,22944,2,0,L|175:271,2,62.9999980773926,2|10|2,0:0|0:3|0:0,0:0:0:0:
26,164,23611,5,2,3:2:0:0:
76,228,23833,1,2,0:0:0:0:
37,300,24055,1,10,0:3:0:0:
110,344,24278,2,0,B|137:321|137:321|189:329|189:329|206:369|249:372,1,157.499995193482,2|0,0:0|0:0,0:0:0:0:
268,341,24944,2,0,B|329:331|329:331|339:335|339:335|393:326,1,125.999996154785,8|0,0:3|3:2,0:0:0:0:
447,266,25611,6,0,P|447:225|419:205,1,62.9999980773926,2|10,0:0|0:3,0:0:0:0:
371,156,26055,2,0,B|342:159|314:184|314:184|280:170|224:171,1,125.999996154785,2|2,0:0|0:0,0:0:0:0:
198,111,26722,1,10,0:3:0:0:
198,111,26944,2,0,B|194:73|194:73|216:48,1,62.9999980773926,2|0,0:0|3:2,0:0:0:0:
286,24,27389,6,0,L|369:41,2,62.9999980773926,2|10|2,0:0|0:3|0:0,0:0:0:0:
408,85,28055,2,0,P|424:112|421:143,1,62.9999980773926,2|2,3:2|0:0,0:0:0:0:
342,165,28500,2,0,P|325:139|330:109,1,62.9999980773926,10|2,0:3|0:0,0:0:0:0:
391,230,28944,6,0,L|372:329,1,94.499997116089,2|0,3:2|0:0,0:0:0:0:
373,322,29389,1,10,0:3:0:0:
294,298,29611,2,0,P|262:304|213:316,1,62.9999980773926,2|0,0:0|3:2,0:0:0:0:
158,346,30055,2,0,P|106:335|79:330,1,62.9999980773926,2|8,0:0|0:3,0:0:0:0:
42,271,30500,1,2,0:0:0:0:
90,174,30722,5,0,3:2:0:0:
33,113,30944,1,2,0:0:0:0:
33,113,31055,1,0,0:0:0:0:
33,113,31167,2,0,L|13:60,2,31.4999990386963,10|2|2,0:3|0:0|0:0,0:0:0:0:
96,47,31611,2,0,L|76:-6,2,31.4999990386963,2|2|2,3:2|0:0|3:2,0:0:0:0:
164,112,32055,1,10,3:3:0:0:
194,103,32167,1,2,3:2:0:0:
224,96,32278,1,2,3:2:0:0:
255,90,32389,1,2,3:2:0:0:
285,83,32500,5,0,3:2:0:0:
376,24,32722,2,0,L|286:0,1,70,2|10,0:0|0:3,0:0:0:0:
228,11,33167,2,0,B|167:21|167:21|161:30|161:30|85:43,1,140,2|2,0:0|0:0,0:0:0:0:
23,108,33833,1,10,0:3:0:0:
82,183,34055,2,0,P|91:231|41:281,1,105,2|0,0:0|0:0,0:0:0:0:
59,273,34500,5,2,0:0:0:0:
125,335,34722,1,10,0:3:0:0:
195,277,34944,1,2,0:0:0:0:
195,277,35055,1,0,0:0:0:0:
195,277,35167,2,0,L|290:261,1,70,2|2,3:2|0:0,0:0:0:0:
264,265,35500,1,0,3:0:0:0:
264,265,35611,1,10,3:3:0:0:
345,304,35833,1,2,0:0:0:0:
442,238,36055,5,2,3:2:0:0:
392,161,36278,2,0,L|416:78,1,70,2|10,0:0|0:3,0:0:0:0:
336,41,36722,2,0,B|307:41|284:30|284:30|280:68|254:94,1,105,2|0,0:0|0:0,0:0:0:0:
227,101,37167,2,0,P|179:102|157:134,2,70,2|10|2,0:0|0:3|0:0,0:0:0:0:
327,196,37833,5,2,3:2:0:0:
412,164,38055,1,2,0:0:0:0:
464,240,38278,1,10,0:3:0:0:
405,309,38500,2,0,P|349:294|321:287,1,70,2|0,0:0|3:2,0:0:0:0:
257,334,38944,2,0,P|220:340|164:352,1,70,2|8,0:0|0:3,0:0:0:0:
82,365,39389,1,2,3:0:0:0:
82,365,39500,1,0,3:0:0:0:
82,365,39611,5,0,3:2:0:0:
1,302,39833,2,0,B|-1:263|-1:263|26:239,1,70,2|10,0:0|0:3,0:0:0:0:
96,187,40278,2,0,P|48:165|56:86,1,140,2|2,0:0|0:0,0:0:0:0:
125,30,40944,1,10,0:3:0:0:
188,95,41167,2,0,L|324:75,1,105,2|0,0:0|0:0,0:0:0:0:
291,79,41611,5,2,0:0:0:0:
344,152,41833,2,0,P|355:203|363:241,1,70,10|2,0:3|0:0,0:0:0:0:
358,220,42167,1,0,0:0:0:0:
358,220,42278,1,2,3:2:0:0:
409,295,42500,2,0,L|467:275,2,35,2|0|10,0:0|3:0|3:3,0:0:0:0:
335,348,42944,1,2,0:0:0:0:
258,296,43167,6,0,B|229:278|239:247|239:247|291:204,1,105,2|0,3:2|0:0,0:0:0:0:
275,216,43611,1,10,0:3:0:0:
342,155,43833,2,0,P|320:93|315:74,1,70,2|0,0:0|3:2,0:0:0:0:
253,138,44278,2,0,P|231:76|226:57,1,70,2|8,0:0|0:3,0:0:0:0:
65,100,44722,6,0,P|133:91|159:166,1,140,2|0,3:2|0:0,0:0:0:0:
116,224,45389,1,8,0:3:0:0:
170,296,45611,1,0,0:0:0:0:
170,296,45722,1,0,0:0:0:0:
170,296,45833,2,0,L|160:348,2,35,0|0|2,3:2|3:0|3:0,0:0:0:0:
246,339,46278,2,0,L|236:391,2,35,10|2|2,3:3|3:0|3:0,0:0:0:0:
74,346,46722,6,0,L|-9:368,2,70,6|2|10,3:2|0:0|0:3,0:0:0:0:
127,280,47389,2,0,B|125:249|145:209|145:209|132:173|78:151,1,140,2|2,0:0|0:0,0:0:0:0:
32,113,48055,1,10,0:3:0:0:
85,47,48278,6,0,P|129:91|188:73,1,105,2|0,0:0|0:0,0:0:0:0:
167,87,48722,1,2,0:0:0:0:
234,36,48944,1,10,0:3:0:0:
306,79,49167,2,0,L|396:64,1,70,2|0,0:0|3:2,0:0:0:0:
453,38,49611,1,2,0:0:0:0:
453,38,49722,1,0,0:0:0:0:
453,38,49833,2,0,P|473:73|473:106,1,70,10|2,0:3|0:0,0:0:0:0:
449,136,50167,1,0,0:0:0:0:
449,136,50278,6,0,L|430:219,2,70,2|2|10,3:2|0:0|0:3,0:0:0:0:
325,157,50944,2,0,B|292:165|259:167|259:167|242:185|242:185|212:187|167:196,1,140,2|2,0:0|0:0,0:0:0:0:
122,147,51611,1,10,0:3:0:0:
61,205,51833,6,0,B|40:257|40:257|85:319,1,105,2|0,0:0|0:0,0:0:0:0:
108,312,52278,2,0,P|146:293|189:313,1,70,2|10,0:0|0:3,0:0:0:0:
235,352,52722,2,0,P|269:356|298:338,1,70,2|0,0:0|3:2,0:0:0:0:
334,262,53167,2,0,P|325:223|306:151,1,105,2|0,0:0|0:0,0:0:0:0:
308,160,53611,1,2,0:0:0:0:
351,88,53833,6,0,P|390:89|414:119,2,70,2|2|10,3:2|0:0|0:3,0:0:0:0:
324,8,54500,2,0,B|264:32|271:59|282:93|199:113,1,140,2|2,0:0|0:0,0:0:0:0:
155,63,55167,1,10,0:3:0:0:
120,139,55389,6,0,P|164:192|150:240,1,105,2|0,0:0|0:0,0:0:0:0:
159,223,55833,1,2,0:0:0:0:
106,288,56055,1,10,0:3:0:0:
24,260,56278,2,0,B|11:240|-17:223|-17:223|17:184|39:131|39:131,1,140,2|0,0:0|0:0,0:0:0:0:
79,87,56944,1,10,0:3:0:0:
156,118,57167,1,2,0:0:0:0:
245,21,57389,5,2,3:2:0:0:
322,98,57611,2,0,P|307:147|284:244,1,125.999996154785,2|0,3:2|0:0,0:0:0:0:
222,251,58055,2,0,P|238:310|261:376,1,125.999996154785,2|0,3:2|0:0,0:0:0:0:
259,371,58500,1,2,3:2:0:0:
335,311,58722,1,10,0:3:0:0:
512,373,58944,6,0,B|477:318|478:251|478:251|459:322|407:363,1,251.999992309571,6|0,3:2|0:0,0:0:0:0:
335,312,59833,1,0,3:0:0:0:
335,312,59944,1,0,3:0:0:0:
335,312,60055,1,8,0:3:0:0:
246,263,60278,2,0,B|212:270|212:270|205:267|205:267|136:283,1,83.9999974365235,0|0,3:0|0:0,0:0:0:0:
11,302,60722,5,2,0:0:0:0:
11,302,60833,1,2,0:0:0:0:
11,302,60944,2,0,P|11:251|63:222,2,90.9999958343508,6|2|10,3:2|0:0|0:3,0:0:0:0:
105,354,61611,2,0,B|174:342|174:342|179:348|179:348|273:333,1,136.499993751526,2|0,0:0|0:0,0:0:0:0:
237,339,62055,1,2,0:0:0:0:
334,289,62278,2,0,P|381:299|450:318,1,90.9999958343508,10|2,0:3|0:0,0:0:0:0:
474,294,62611,1,0,0:0:0:0:
474,294,62722,6,0,P|480:242|452:212,1,90.9999958343508,2|2,3:2|0:0,0:0:0:0:
357,167,63167,1,10,0:3:0:0:
401,67,63389,2,0,B|365:38|322:55|322:55|293:121|222:100,1,181.999991668702,2|0,0:0|0:0,0:0:0:0:
165,31,64055,1,8,0:3:0:0:
61,66,64278,6,0,L|7:56,2,45.4999979171754,2|2|2,0:0|0:0|3:2,0:0:0:0:
165,31,64722,2,0,P|201:55|215:102,1,90.9999958343508,2|10,0:0|0:3,0:0:0:0:
146,184,65167,2,0,B|116:197|110:227|110:227|140:253|160:302,1,136.499993751526,2|0,0:0|0:0,0:0:0:0:
154,290,65611,1,2,0:0:0:0:
87,376,65833,1,10,0:3:0:0:
24,276,66055,1,2,0:0:0:0:
24,276,66167,1,0,0:0:0:0:
24,276,66278,6,0,L|0:177,2,90.9999958343508,2|2|10,3:2|0:0|0:3,0:0:0:0:
87,375,66944,2,0,B|127:375|158:364|158:364|190:377|190:377|231:355|284:362,1,181.999991668702,2|0,0:0|0:0,0:0:0:0:
354,301,67611,1,8,0:3:0:0:
462,346,67833,2,0,L|447:285,1,45.4999979171754,2|2,0:0|0:0,0:0:0:0:
480,255,68055,6,0,B|489:208|489:208|444:160,1,90.9999958343508,2|2,3:2|0:0,0:0:0:0:
355,143,68500,1,10,0:3:0:0:
393,40,68722,1,2,0:0:0:0:
393,40,68833,2,0,L|285:64,1,90.9999958343508,2|0,0:0|0:0,0:0:0:0:
304,59,69166,1,0,0:0:0:0:
206,28,69389,2,0,P|154:36|134:72,1,90.9999958343508,10|2,0:3|0:0,0:0:0:0:
156,160,69833,6,0,B|191:202|191:202|164:280|164:280|117:289,1,181.999991668702,2|8,3:2|0:3,0:0:0:0:
19,331,70500,2,0,B|94:313|101:346|108:383|221:347,1,181.999991668702,2|2,0:0|0:0,0:0:0:0:
284,302,71167,1,10,0:3:0:0:
204,227,71389,1,2,0:0:0:0:
278,147,71611,6,0,P|262:100|246:38,1,90.9999958343508,2|0,3:2|0:0,0:0:0:0:
344,3,72055,1,8,0:3:0:0:
433,65,72278,1,0,0:0:0:0:
433,65,72389,1,0,0:0:0:0:
433,65,72500,2,0,P|473:35|527:47,2,90.9999958343508,0|0|8,3:2|0:0|0:3,0:0:0:0:
386,242,73167,6,0,B|355:116|355:116|386:150|425:159,1,195.999994018555,10|10,3:0|3:0,0:0:0:0:
494,214,73833,1,10,0:3:0:0:
390,342,74055,1,2,0:0:0:0:
390,342,74167,1,2,0:0:0:0:
390,342,74278,2,0,P|339:337|304:279,1,97.9999970092774,2|2,3:2|3:2,0:0:0:0:
393,237,74722,1,10,0:3:0:0:
237,365,74944,1,2,3:2:0:0:
237,365,75055,1,2,0:0:0:0:
237,365,75167,6,0,L|140:381,2,90.9999958343508,6|2|10,3:2|0:0|0:3,0:0:0:0:
322,297,75833,2,0,B|355:263|355:263|361:230|316:164,1,136.499993751526,2|0,0:0|0:0,0:0:0:0:
326,180,76278,1,2,0:0:0:0:
276,82,76500,1,10,0:3:0:0:
384,20,76722,1,2,0:0:0:0:
384,20,76833,1,0,0:0:0:0:
384,20,76944,6,0,P|436:25|460:60,2,90.9999958343508,2|2|10,3:2|0:0|0:3,0:0:0:0:
276,82,77611,2,0,B|207:69|207:69|196:74|196:74|95:57,1,181.999991668702,2|0,0:0|0:0,0:0:0:0:
11,125,78278,1,8,0:3:0:0:
97,191,78500,2,0,L|110:251,1,45.4999979171754,2|0,0:0|0:0,0:0:0:0:
68,280,78722,6,0,L|47:376,1,90.9999958343508,2|2,3:2|0:0,0:0:0:0:
49,369,79055,1,0,0:0:0:0:
49,369,79167,1,8,0:3:0:0:
149,327,79389,2,0,P|214:328|246:407,1,136.499993751526,2|0,0:0|0:0,0:0:0:0:
244,384,79833,1,2,0:0:0:0:
309,296,80055,2,0,B|353:308|353:308|401:271,1,90.9999958343508,8|2,0:3|0:0,0:0:0:0:
423,235,80389,1,0,0:0:0:0:
423,235,80500,6,0,L|521:254,2,90.9999958343508,2|2|10,3:2|0:0|0:3,0:0:0:0:
325,184,81167,2,0,B|276:180|247:143|247:143|222:183|168:197,1,181.999991668702,2|0,0:0|0:0,0:0:0:0:
79,142,81833,1,8,0:3:0:0:
167,78,82055,1,2,0:0:0:0:
167,78,82167,1,2,0:0:0:0:
167,78,82278,6,0,P|165:24|122:-3,1,90.9999958343508,2|2,3:2|0:0,0:0:0:0:
30,0,82722,1,10,0:3:0:0:
3,100,82944,1,2,0:0:0:0:
3,100,83055,2,0,L|23:208,1,90.9999958343508,2|0,0:0|0:0,0:0:0:0:
19,189,83389,1,2,0:0:0:0:
93,269,83611,1,10,0:3:0:0:
43,366,83833,6,0,L|-14:381,2,45.4999979171754,2|0|2,0:0|0:0|3:2,0:0:0:0:
93,269,84278,2,0,B|137:264|137:264|174:309,1,90.9999958343508,2|8,0:0|0:3,0:0:0:0:
242,221,84722,2,0,B|294:179|282:120|248:95|188:115|191:163,1,181.999991668702,2|0,0:0|0:0,0:0:0:0:
102,83,85389,1,8,0:3:0:0:
155,7,85611,2,0,L|237:20,1,45.4999979171754,2|2,0:0|0:0,0:0:0:0:
242,48,85833,6,0,L|363:30,1,90.9999958343508,2|2,3:2|0:0,0:0:0:0:
413,107,86278,1,10,0:3:0:0:
483,21,86500,1,2,0:0:0:0:
483,21,86611,2,0,P|514:68|488:122,1,90.9999958343508,2|0,0:0|0:0,0:0:0:0:
508,100,86944,1,2,0:0:0:0:
458,198,87167,1,10,0:3:0:0:
512,288,87389,1,2,0:0:0:0:
426,368,87611,6,0,P|395:318|297:330,1,146.999995513916,2|0,3:2|0:0,0:0:0:0:
277,362,88055,2,0,B|286:298|286:298|293:289|293:289|305:209,1,146.999995513916,10|0,0:3|0:0,0:0:0:0:
334,168,88500,2,0,L|318:103,2,48.9999985046387,2|0|2,3:2|0:0|3:2,0:0:0:0:
218,220,88944,1,8,3:3:0:0:
174,228,89055,1,0,3:0:0:0:
141,197,89167,1,2,3:0:0:0:
145,153,89278,1,0,3:0:0:0:
184,132,89389,1,0,0:0:0:0:
256,192,89500,12,0,92944,0:0:0:0:
27,316,96500,5,0,3:2:0:0:
27,316,96722,2,0,P|76:320|99:293,1,70,2|10,0:0|0:3,0:0:0:0:
160,261,97167,2,0,B|224:276|224:276|229:283|229:283|298:301,1,140,2|2,0:0|0:0,0:0:0:0:
358,351,97833,1,10,0:3:0:0:
358,351,98055,2,0,P|393:342|434:334,1,70,2|0,0:0|3:2,0:0:0:0:
468,262,98500,5,2,0:0:0:0:
468,262,98722,2,0,B|485:226|485:226|467:189,1,70,10|2,0:3|0:0,0:0:0:0:
390,170,99167,2,0,B|374:136|374:136|392:105,1,70,2|2,3:2|0:0,0:0:0:0:
457,52,99611,1,10,0:3:0:0:
386,6,99833,1,2,0:0:0:0:
386,6,99944,1,0,0:0:0:0:
386,6,100055,1,0,3:2:0:0:
309,40,100277,6,0,L|219:54,1,70,2|10,0:0|0:3,0:0:0:0:
160,14,100722,2,0,B|175:37|193:53|193:53|172:70|167:107,1,105,2|0,0:0|0:0,0:0:0:0:
168,99,101167,1,2,0:0:0:0:
219,164,101389,2,0,P|282:170|298:227,1,105,10|0,0:3|0:0,0:0:0:0:
294,243,101833,6,0,L|273:325,2,70,2|2|10,3:2|0:0|0:3,0:0:0:0:
359,189,102500,1,2,0:0:0:0:
359,189,102722,2,0,P|405:217|415:241,1,70,0|0,3:2|0:0,0:0:0:0:
462,297,103167,2,0,B|475:317|459:337|459:337|376:361,1,105,8|0,0:3|0:0,0:0:0:0:
398,355,103611,5,0,3:2:0:0:
315,371,103833,2,0,P|293:344|301:299,1,70,2|10,0:0|0:3,0:0:0:0:
352,249,104278,2,0,B|358:215|360:186|360:186|372:172|372:172|375:139|384:93,1,140,2|2,0:0|0:0,0:0:0:0:
323,52,104944,1,10,0:3:0:0:
323,52,105167,2,0,P|260:63|245:85,1,70,2|0,0:0|3:2,0:0:0:0:
184,104,105611,6,0,L|87:121,2,70,2|10|2,0:0|0:3|0:0,0:0:0:0:
275,156,106278,2,0,B|302:181|302:181|301:226,1,70,2|2,3:2|0:0,0:0:0:0:
222,245,106722,2,0,B|194:219|194:219|195:187,1,70,10|2,0:3|0:0,0:0:0:0:
259,339,107167,6,0,L|139:306,1,105,2|0,3:2|0:0,0:0:0:0:
157,311,107611,1,10,0:3:0:0:
82,348,107833,2,0,P|19:362|2:366,1,70,2|0,0:0|3:2,0:0:0:0:
0,282,108278,2,0,P|16:237|26:196,1,70,2|8,0:0|0:3,0:0:0:0:
74,150,108722,1,2,0:0:0:0:
13,91,108944,5,0,3:2:0:0:
109,39,109166,1,2,0:0:0:0:
109,39,109277,1,0,0:0:0:0:
109,39,109389,2,0,L|164:19,2,35,10|2|2,0:3|0:0|0:0,0:0:0:0:
168,102,109833,2,0,L|225:81,2,35,2|2|2,3:2|0:0|3:2,0:0:0:0:
208,169,110277,5,10,3:3:0:0:
200,199,110389,1,2,3:2:0:0:
190,228,110500,1,2,3:2:0:0:
179,258,110611,1,2,3:2:0:0:
170,287,110722,5,0,3:2:0:0:
234,355,110944,2,0,L|327:337,1,77.0000023498536,2|10,0:0|0:3,0:0:0:0:
399,318,111389,2,0,B|423:228|423:228|419:197|367:188,1,154.000004699707,2|2,0:0|0:0,0:0:0:0:
325,116,112055,1,10,0:3:0:0:
250,171,112278,2,0,P|203:176|160:122,1,115.50000352478,2|0,0:0|0:0,0:0:0:0:
161,128,112722,5,2,0:0:0:0:
222,59,112944,1,10,0:3:0:0:
141,13,113166,1,0,0:0:0:0:
141,13,113277,1,0,0:0:0:0:
141,13,113389,2,0,L|54:35,1,77.0000023498536,2|2,3:2|0:0,0:0:0:0:
66,31,113722,1,0,3:0:0:0:
66,31,113833,1,10,3:3:0:0:
12,106,114055,1,2,0:0:0:0:
85,161,114277,5,0,3:2:0:0:
19,226,114500,2,0,P|16:275|42:298,1,77.0000023498536,2|10,0:0|0:3,0:0:0:0:
114,336,114944,2,0,B|175:329|175:329|183:331|183:331|251:322,1,115.50000352478,2|0,0:0|0:0,0:0:0:0:
272,310,115389,2,0,B|279:269|279:269|245:242,2,77.0000023498536,2|10|2,0:0|0:3|0:0,0:0:0:0:
165,235,116055,5,2,3:2:0:0:
223,163,116277,1,2,0:0:0:0:
161,93,116500,1,10,0:3:0:0:
235,39,116722,2,0,P|277:34|329:27,1,77.0000023498536,2|0,0:0|3:2,0:0:0:0:
393,72,117167,2,0,P|471:91|499:98,1,77.0000023498536,0|8,0:0|0:3,0:0:0:0:
486,203,117611,1,0,3:0:0:0:
486,203,117722,1,0,3:0:0:0:
486,203,117833,5,0,3:2:0:0:
419,267,118055,2,0,P|379:268|344:228,1,77.0000023498536,2|10,0:0|0:3,0:0:0:0:
298,169,118500,2,0,B|270:181|233:182|233:182|222:199|222:199|189:199|154:213,1,154.000004699707,2|2,0:0|0:0,0:0:0:0:
84,153,119166,1,10,0:3:0:0:
20,220,119389,2,0,B|-8:257|-8:257|37:326,1,115.50000352478,2|0,0:0|0:0,0:0:0:0:
29,314,119833,5,2,0:0:0:0:
110,357,120055,2,0,P|140:330|188:336,1,77.0000023498536,10|2,0:3|0:0,0:0:0:0:
174,329,120389,1,0,0:0:0:0:
174,329,120500,1,2,3:2:0:0:
250,277,120722,2,0,L|300:291,2,38.5000011749268,2|0|10,0:0|3:0|3:3,0:0:0:0:
185,211,121166,1,2,0:0:0:0:
259,155,121389,6,0,B|290:144|304:131|304:131|344:153|370:199,1,115.50000352478,0|0,3:2|0:0,0:0:0:0:
352,173,121833,1,10,0:3:0:0:
383,259,122055,2,0,L|405:332,1,77.0000023498536,2|0,0:0|3:2,0:0:0:0:
332,380,122500,2,0,L|312:306,1,77.0000023498536,2|8,0:0|0:3,0:0:0:0:
160,252,122944,6,0,B|197:249|234:285|234:285|247:248|285:225,1,154.000004699707,2|0,3:2|3:2,0:0:0:0:
341,163,123611,1,8,0:3:0:0:
284,89,123833,1,0,0:0:0:0:
284,89,123944,1,0,0:0:0:0:
284,89,124055,2,0,L|274:32,2,38.5000011749268,0|0|2,3:2|3:0|3:0,0:0:0:0:
202,42,124500,2,0,L|190:-15,2,38.5000011749268,10|2|2,3:3|3:0|3:0,0:0:0:0:
138,89,124944,6,0,P|100:62|54:75,2,77.0000023498536,6|2|10,3:2|0:0|0:3,0:0:0:0:
178,188,125611,2,0,B|145:167|145:167|112:174|112:174|97:220|35:225,1,154.000004699707,2|2,0:0|0:0,0:0:0:0:
13,301,126277,1,10,0:3:0:0:
97,331,126500,6,0,P|131:285|211:298,1,115.50000352478,2|0,0:0|0:0,0:0:0:0:
185,281,126944,1,2,0:0:0:0:
250,215,127166,1,10,0:3:0:0:
176,158,127389,2,0,L|154:72,1,77.0000023498536,2|0,0:0|3:2,0:0:0:0:
238,40,127833,1,2,0:0:0:0:
238,40,127944,1,0,0:0:0:0:
238,40,128055,2,0,L|257:114,1,77.0000023498536,10|2,0:3|0:0,0:0:0:0:
296,139,128389,1,0,0:0:0:0:
296,139,128500,6,0,P|342:131|368:79,2,77.0000023498536,2|2|10,3:2|0:0|0:3,0:0:0:0:
283,230,129167,2,0,B|391:203|391:203|370:248,1,154.000004699707,2|2,0:0|0:0,0:0:0:0:
410,325,129833,1,10,0:3:0:0:
488,276,130055,6,0,L|504:159,1,115.50000352478,2|0,0:0|0:0,0:0:0:0:
500,115,130500,2,0,P|462:95|420:106,1,77.0000023498536,2|10,0:0|0:3,0:0:0:0:
347,142,130944,2,0,B|288:128|288:128|276:130|276:130|198:114,1,115.50000352478,2|0,0:0|0:0,0:0:0:0:
207,83,131389,2,0,P|164:68|117:124,1,115.50000352478,2|0,0:0|0:0,0:0:0:0:
117,111,131833,1,2,0:0:0:0:
60,184,132055,6,0,P|23:172|8:126,2,77.0000023498536,2|2|10,3:2|0:0|0:3,0:0:0:0:
145,219,132722,2,0,B|180:202|180:202|209:214|209:214|247:258|220:315,1,154.000004699707,2|2,0:0|0:0,0:0:0:0:
153,345,133389,1,10,0:3:0:0:
66,311,133611,6,0,B|50:295|34:287|34:287|51:250|65:202,1,115.50000352478,2|0,0:0|0:0,0:0:0:0:
60,216,134055,1,2,0:0:0:0:
6,137,134277,1,10,0:3:0:0:
68,68,134500,2,0,B|105:41|145:63|145:63|172:106|227:82,1,154.000004699707,2|0,0:0|0:0,0:0:0:0:
285,41,135166,1,10,0:3:0:0:
365,86,135389,1,2,0:0:0:0:
304,180,135611,5,2,3:2:0:0:
384,257,135833,2,0,P|450:258|480:324,1,125.999996154785,2|0,3:2|0:0,0:0:0:0:
444,369,136278,2,0,P|378:368|348:302,1,125.999996154785,2|0,3:2|0:0,0:0:0:0:
347,322,136722,1,2,3:2:0:0:
259,360,136944,1,2,0:0:0:0:
141,298,137167,6,0,B|91:206|91:206|169:152|169:152|152:205,1,251.999992309571,6|0,3:2|0:0,0:0:0:0:
244,95,138055,1,0,3:0:0:0:
244,95,138166,1,0,3:0:0:0:
244,95,138277,1,0,0:0:0:0:
321,160,138500,2,0,B|364:155|364:155|373:157|373:157|425:149,1,83.9999974365235,0|0,3:0|0:0,0:0:0:0:
512,280,138944,5,2,0:0:0:0:
512,280,139055,1,2,0:0:0:0:
512,280,139167,2,0,P|504:229|448:209,2,90.9999958343508,6|2|10,3:2|0:0|0:3,0:0:0:0:
429,351,139833,2,0,B|398:347|373:333|373:333|345:342|345:342|288:327,1,136.499993751526,2|0,0:0|0:0,0:0:0:0:
298,329,140277,1,2,0:0:0:0:
208,266,140500,2,0,P|159:269|131:311,1,90.9999958343508,10|2,0:3|0:0,0:0:0:0:
107,347,140833,1,0,0:0:0:0:
107,347,140944,6,0,L|83:226,1,90.9999958343508,2|2,3:2|0:0,0:0:0:0:
16,175,141389,1,10,0:3:0:0:
119,140,141611,2,0,B|244:160|244:160|209:174|188:205,1,181.999991668702,2|0,0:0|0:0,0:0:0:0:
111,247,142277,1,8,0:3:0:0:
206,301,142500,6,0,P|234:295|272:290,1,45.4999979171754,2|0,0:0|0:0,0:0:0:0:
290,255,142722,2,0,P|344:263|373:326,1,90.9999958343508,2|2,3:2|0:0,0:0:0:0:
440,370,143167,1,10,0:3:0:0:
505,282,143389,2,0,B|521:236|540:208|540:208|510:195|480:151,1,136.499993751526,2|0,0:0|0:0,0:0:0:0:
497,174,143833,1,2,0:0:0:0:
395,214,144055,1,10,0:3:0:0:
288,128,144277,1,2,0:0:0:0:
288,128,144389,1,0,0:0:0:0:
288,128,144500,6,0,L|264:29,2,90.9999958343508,2|2|10,3:2|0:0|0:3,0:0:0:0:
193,179,145167,2,0,B|89:150|89:150|51:122|95:64,1,181.999991668702,2|0,0:0|0:0,0:0:0:0:
167,15,145833,1,8,0:3:0:0:
269,52,146055,1,2,0:0:0:0:
269,52,146167,1,2,0:0:0:0:
269,52,146278,6,0,L|370:36,1,90.9999958343508,2|0,3:2|0:0,0:0:0:0:
441,108,146722,1,10,0:3:0:0:
385,202,146944,1,2,0:0:0:0:
385,202,147055,2,0,P|335:155|286:169,1,90.9999958343508,2|0,0:0|0:0,0:0:0:0:
316,154,147388,1,2,0:0:0:0:
219,206,147611,2,0,B|184:232|184:232|128:213,1,90.9999958343508,10|2,0:3|0:0,0:0:0:0:
35,250,148055,6,0,B|-5:307|39:364|39:364|73:331|106:329,1,181.999991668702,2|8,3:2|0:3,0:0:0:0:
189,371,148722,2,0,B|223:352|223:352|270:362|270:362|278:376|278:376|329:387|329:387|365:356,1,181.999991668702,2|2,0:0|0:0,0:0:0:0:
403,274,149389,1,10,0:3:0:0:
319,203,149611,1,2,0:0:0:0:
400,108,149833,6,0,P|402:57|352:16,1,90.9999958343508,2|0,3:2|0:0,0:0:0:0:
280,10,150277,1,8,0:3:0:0:
180,56,150500,1,0,0:0:0:0:
180,56,150611,1,0,0:0:0:0:
180,56,150722,2,0,L|71:39,2,90.9999958343508,0|0|8,3:2|0:0|0:3,0:0:0:0:
243,237,151389,6,0,B|289:191|307:125|253:84|169:126|217:190,1,195.999994018555,10|2,0:3|3:0,0:0:0:0:
135,262,152055,1,10,0:3:0:0:
244,340,152277,1,2,0:0:0:0:
244,340,152389,1,2,0:0:0:0:
244,340,152500,2,0,P|289:303|335:310,1,97.9999970092774,2|2,3:2|3:2,0:0:0:0:
396,365,152944,1,10,0:3:0:0:
242,237,153166,1,2,3:2:0:0:
242,237,153277,1,2,0:0:0:0:
242,237,153389,6,0,L|268:146,2,90.9999958343508,6|2|10,3:2|0:0|0:3,0:0:0:0:
149,294,154055,2,0,B|113:303|74:323|74:323|61:296|33:270,1,136.499993751526,2|0,0:0|0:0,0:0:0:0:
40,278,154500,1,2,0:0:0:0:
119,203,154722,1,10,0:3:0:0:
35,132,154944,1,2,0:0:0:0:
35,132,155055,1,0,0:0:0:0:
35,132,155166,6,0,P|3:90|12:49,2,90.9999958343508,2|2|10,3:2|0:0|0:3,0:0:0:0:
127,73,155833,2,0,B|184:76|211:90|211:90|227:81|227:81|271:99|305:97,1,181.999991668702,2|0,0:0|0:0,0:0:0:0:
387,165,156500,1,8,0:3:0:0:
485,119,156722,2,0,L|475:74,1,45.4999979171754,2|2,0:0|0:0,0:0:0:0:
465,20,156944,6,0,B|415:8|415:8|380:47,1,90.9999958343508,2|2,3:2|0:0,0:0:0:0:
388,37,157277,1,0,0:0:0:0:
388,37,157389,1,10,0:3:0:0:
302,97,157611,2,0,B|292:124|258:148|258:148|219:149|174:119,1,136.499993751526,2|0,0:0|0:0,0:0:0:0:
192,130,158055,1,2,0:0:0:0:
105,62,158278,2,0,P|68:81|78:153,1,90.9999958343508,10|2,0:3|0:0,0:0:0:0:
90,172,158611,1,0,0:0:0:0:
90,172,158722,6,0,L|70:269,2,90.9999958343508,2|2|10,3:2|0:0|0:3,0:0:0:0:
182,231,159389,2,0,B|258:208|269:252|272:289|362:260,1,181.999991668702,2|0,0:0|0:0,0:0:0:0:
430,190,160055,1,8,0:3:0:0:
491,285,160277,1,2,0:0:0:0:
491,285,160389,1,2,0:0:0:0:
491,285,160500,6,0,P|477:342|466:382,1,90.9999958343508,2|2,3:2|0:0,0:0:0:0:
370,383,160944,1,10,0:3:0:0:
275,328,161166,1,2,0:0:0:0:
275,328,161278,2,0,P|211:325|184:365,1,90.9999958343508,2|0,0:0|0:0,0:0:0:0:
194,340,161611,1,2,0:0:0:0:
117,262,161833,1,10,0:3:0:0:
193,184,162055,1,2,0:0:0:0:
116,105,162278,6,0,P|103:43|97:10,2,90.9999958343508,2|2|8,3:2|0:0|0:3,0:0:0:0:
33,176,162944,2,0,B|63:188|85:231|85:231|23:264|15:335,1,181.999991668702,2|0,0:0|0:0,0:0:0:0:
114,367,163611,1,8,0:3:0:0:
203,303,163833,2,0,L|285:316,1,45.4999979171754,2|0,0:0|0:0,0:0:0:0:
294,338,164055,6,0,L|415:320,1,90.9999958343508,2|2,3:2|0:0,0:0:0:0:
467,253,164500,1,10,0:3:0:0:
398,168,164722,1,2,0:0:0:0:
398,168,164833,2,0,P|401:111|432:90,1,90.9999958343508,2|0,0:0|0:0,0:0:0:0:
424,92,165166,1,2,0:0:0:0:
339,22,165389,1,10,0:3:0:0:
242,72,165611,1,2,0:0:0:0:
137,42,165833,6,0,B|147:112|147:112|154:121|154:121|163:185,1,136.499993751526,2|0,3:2|0:0,0:0:0:0:
162,174,166278,1,10,0:3:0:0:
233,256,166500,1,2,0:0:0:0:
150,326,166722,2,0,L|76:313,2,45.4999979171754,2|0|2,3:2|3:0|3:0,0:0:0:0:
255,352,167166,1,8,3:3:0:0:
295,344,167277,1,0,3:0:0:0:
335,339,167389,1,2,3:0:0:0:
375,332,167500,1,0,3:0:0:0:
415,324,167611,1,6,3:2:0:0:
272,277,174277,6,0,B|312:274|332:262|332:262|347:282|388:305,1,115.50000352478,10|0,0:3|0:0,0:0:0:0:
373,296,174722,5,2,3:0:0:0:
439,360,174944,2,0,P|496:356|519:319,2,83.9999974365235,2|10|2,0:0|0:3|0:0,0:0:0:0:
373,296,175611,2,0,L|406:197,1,83.9999974365235,2|2,3:0|0:0,0:0:0:0:
463,149,176055,2,0,L|430:50,1,83.9999974365235,10|2,0:3|0:0,0:0:0:0:
356,22,176499,5,2,3:0:0:0:
356,22,176722,2,0,P|314:58|281:58,1,83.9999974365235,2|8,0:0|0:3,0:0:0:0:
199,87,177166,2,0,B|216:164|216:164|224:171|224:171|242:250,1,167.999994873047,2|2,0:0|0:0,0:0:0:0:
263,337,177833,1,10,0:3:0:0:
263,337,178055,1,10,0:3:0:0:
174,312,178277,5,2,3:0:0:0:
174,312,178499,2,0,P|125:313|95:351,2,83.9999974365235,2|10|0,0:0|0:3|0:0,0:0:0:0:
263,337,179166,2,0,B|296:364|296:364|358:346,1,83.9999974365235,2|2,3:0|0:0,0:0:0:0:
354,261,179611,2,0,B|321:234|321:234|259:252,1,83.9999974365235,10|2,0:3|0:0,0:0:0:0:
204,200,180055,5,2,3:0:0:0:
204,200,180277,2,0,B|221:171|238:155|238:155|214:127|189:92,1,125.999996154785,2|0,0:0|0:0,0:0:0:0:
195,100,180722,1,2,0:0:0:0:
108,50,180944,2,0,L|124:2,2,45.4999979171754,2|2|2,3:0|3:0|3:0,3:0:0:0:
25,106,181388,1,10,3:3:0:0:
31,132,181499,1,2,3:0:0:0:
37,158,181611,1,2,3:0:0:0:
43,184,181722,1,2,3:0:0:0:
49,207,181833,5,2,3:2:0:0:
123,249,182055,1,2,0:0:0:0:
195,204,182278,2,0,B|250:213|250:213|258:220|258:220|330:232,1,115.50000352478,10|0,0:3|0:0,0:0:0:0:
348,225,182722,2,0,P|369:189|345:142,1,77.0000023498536,2|2,3:2|0:0,0:0:0:0:
295,102,183167,2,0,P|287:65|307:33,1,77.0000023498536,10|2,0:3|0:0,0:0:0:0:
385,66,183611,6,0,L|478:52,2,77.0000023498536,2|2|8,3:2|0:0|0:3,0:0:0:0:
295,102,184278,2,0,P|245:61|185:81,1,115.50000352478,2|0,0:0|0:0,0:0:0:0:
198,69,184722,1,2,0:0:0:0:
118,39,184944,2,0,P|89:66|25:61,1,77.0000023498536,10|2,0:3|0:0,0:0:0:0:
15,147,185389,5,2,3:2:0:0:
71,209,185611,1,2,0:0:0:0:
71,209,185833,2,0,P|124:198|165:192,1,77.0000023498536,10|2,0:3|0:0,0:0:0:0:
227,169,186278,2,0,B|253:199|253:199|243:240,1,77.0000023498536,2|2,3:2|0:0,0:0:0:0:
193,302,186722,2,0,B|184:338|184:338|210:368,1,77.0000023498536,10|2,0:3|0:0,0:0:0:0:
292,346,187167,6,0,P|343:344|370:377,2,77.0000023498536,2|2|8,3:2|0:0|0:3,0:0:0:0:
210,368,187833,2,0,L|93:348,1,115.50000352478,2|0,0:0|0:0,0:0:0:0:
96,348,188278,1,2,0:0:0:0:
34,289,188500,2,0,P|20:244|41:212,1,77.0000023498536,10|2,0:3|0:0,0:0:0:0:
93,160,188944,5,2,3:2:0:0:
171,193,189167,1,2,0:0:0:0:
171,193,189389,2,0,L|256:182,1,77.0000023498536,10|2,0:3|0:0,0:0:0:0:
322,222,189833,2,0,L|414:241,2,77.0000023498536,2|2|10,3:2|0:0|0:3,0:0:0:0:
364,148,190500,1,2,0:0:0:0:
313,80,190722,5,2,3:2:0:0:
386,37,190944,2,0,P|441:47|457:76,1,77.0000023498536,2|8,0:0|0:3,0:0:0:0:
488,137,191389,2,0,B|468:157|451:168|451:168|482:204|493:242,1,115.50000352478,2|0,0:0|0:0,0:0:0:0:
486,224,191833,1,2,0:0:0:0:
450,300,192055,2,0,L|363:280,1,77.0000023498536,10|2,0:3|0:0,0:0:0:0:
309,337,192500,5,2,3:2:0:0:
234,297,192722,1,2,0:0:0:0:
155,328,192944,2,0,B|129:335|107:351|107:351|87:332|45:324,1,115.50000352478,10|0,0:3|0:0,0:0:0:0:
19,297,193389,2,0,P|7:250|32:219,1,77.0000023498536,2|2,3:2|0:0,0:0:0:0:
91,182,193833,1,8,0:3:0:0:
214,222,194055,1,2,0:0:0:0:
214,222,194167,1,0,0:0:0:0:
214,222,194278,5,2,0:0:0:0:
264,153,194500,2,0,B|262:126|249:102|249:102|255:84|255:84|237:51|232:10,1,125.999996154785,2|0,0:0|0:0,0:0:0:0:
196,11,194944,1,2,0:0:0:0:
107,58,195167,6,0,L|57:47,3,41.9999987182618,2|0|0|0,3:0|3:0|3:0|3:0,0:0:0:0:
28,76,195611,1,0,3:0:0:0:
19,121,195722,1,0,3:0:0:0:
48,156,195833,1,2,3:0:0:0:
93,165,195944,1,2,3:0:0:0:
141,152,196055,6,0,P|199:165|218:215,2,90.9999958343508,6|2|10,3:2|0:0|0:3,0:0:0:0:
46,227,196722,2,0,B|35:282|35:282|24:296|24:296|9:374,1,136.499993751526,2|0,0:0|0:0,0:0:0:0:
12,357,197166,1,2,0:0:0:0:
115,295,197389,2,0,P|160:300|189:354,1,90.9999958343508,10|2,0:3|0:0,0:0:0:0:
222,375,197722,1,0,0:0:0:0:
222,375,197833,6,0,L|336:354,1,90.9999958343508,2|2,3:2|0:0,0:0:0:0:
392,297,198278,1,10,0:3:0:0:
497,326,198500,2,0,B|533:214|533:214|503:251|472:261,1,181.999991668702,2|0,0:0|0:0,0:0:0:0:
400,186,199166,1,8,0:3:0:0:
293,213,199389,1,2,0:0:0:0:
293,213,199500,1,2,0:0:0:0:
293,213,199611,6,0,P|248:200|192:191,1,90.9999958343508,2|2,3:2|0:0,0:0:0:0:
137,106,200056,1,10,0:3:0:0:
224,41,200278,2,0,B|252:32|265:11|265:11|293:40|349:58,1,136.499993751526,2|0,0:0|0:0,0:0:0:0:
337,54,200722,1,2,0:0:0:0:
444,33,200944,1,10,0:3:0:0:
500,144,201166,1,2,0:0:0:0:
500,144,201278,1,0,0:0:0:0:
500,144,201389,6,0,B|510:187|510:187|468:235,2,90.9999958343508,2|2|10,3:2|0:0|0:3,0:0:0:0:
397,158,202055,2,0,B|352:186|296:190|296:190|328:190|364:220,1,181.999991668702,2|0,0:0|0:0,0:0:0:0:
437,301,202722,1,8,0:3:0:0:
341,353,202944,1,2,0:0:0:0:
341,353,203056,1,2,0:0:0:0:
341,353,203167,6,0,L|240:337,1,90.9999958343508,2|2,3:2|0:0,0:0:0:0:
164,272,203611,1,10,0:3:0:0:
243,197,203833,1,2,0:0:0:0:
243,197,203944,2,0,P|249:124|224:103,1,90.9999958343508,2|0,0:0|0:0,0:0:0:0:
241,114,204278,1,2,0:0:0:0:
163,36,204500,2,0,P|93:62|69:70,1,90.9999958343508,10|2,0:3|0:0,0:0:0:0:
48,172,204944,6,0,B|16:149|-11:185|-11:185|32:237|43:285,1,181.999991668702,2|8,3:2|0:3,0:0:0:0:
138,336,205611,2,0,B|192:323|192:323|197:316|197:316|241:307|241:307|258:345|308:345,1,181.999991668702,2|2,0:0|0:0,0:0:0:0:
395,293,206278,1,10,0:3:0:0:
332,203,206500,1,2,0:0:0:0:
409,126,206722,6,0,P|411:75|361:34,1,90.9999958343508,2|0,3:2|0:0,0:0:0:0:
284,8,207166,1,8,0:3:0:0:
192,68,207389,1,0,0:0:0:0:
192,68,207500,1,0,0:0:0:0:
192,68,207611,2,0,L|83:51,2,90.9999958343508,0|0|8,3:2|0:0|0:3,0:0:0:0:
318,107,208278,6,0,B|357:102|384:80|384:80|423:99|423:99|458:70|504:69,1,195.999994018555,2|2,0:0|3:2,0:0:0:0:
395,202,208944,1,10,0:3:0:0:
279,173,209166,1,2,0:0:0:0:
279,173,209278,1,2,0:0:0:0:
279,173,209389,2,0,P|239:131|242:87,1,97.9999970092774,2|2,3:2|3:2,0:0:0:0:
320,32,209833,1,10,0:3:0:0:
166,153,210055,1,2,3:2:0:0:
166,153,210166,1,2,0:0:0:0:
166,153,210278,6,0,L|74:130,2,90.9999958343508,6|2|10,3:2|0:0|0:3,0:0:0:0:
241,231,210944,2,0,P|261:180|341:177,1,136.499993751526,2|0,0:0|0:0,0:0:0:0:
335,172,211389,1,2,0:0:0:0:
430,231,211611,1,10,0:3:0:0:
508,154,211833,1,2,0:0:0:0:
508,154,211944,1,0,0:0:0:0:
508,154,212055,6,0,P|503:106|449:70,2,90.9999958343508,2|2|10,3:2|0:0|0:3,0:0:0:0:
430,231,212722,2,0,B|342:266|342:266|296:231|328:188,1,181.999991668702,2|0,0:0|0:0,0:0:0:0:
294,86,213389,1,8,0:3:0:0:
209,155,213611,2,0,L|151:146,1,45.4999979171754,2|2,0:0|0:0,0:0:0:0:
116,121,213833,6,0,B|66:109|66:109|31:148,1,90.9999958343508,2|2,3:2|0:0,0:0:0:0:
39,138,214166,1,0,0:0:0:0:
39,138,214278,1,8,0:3:0:0:
102,226,214500,2,0,P|49:251|51:325,1,136.499993751526,2|0,0:0|0:0,0:0:0:0:
48,321,214944,1,2,0:0:0:0:
151,357,215167,2,0,L|240:340,1,90.9999958343508,10|2,0:3|0:0,0:0:0:0:
275,298,215500,1,0,0:0:0:0:
275,298,215611,6,0,P|346:317|357:346,2,90.9999958343508,2|2|10,3:2|0:0|0:3,0:0:0:0:
215,205,216278,2,0,B|176:126|176:126|238:92|238:92|223:129,1,181.999991668702,2|0,0:0|0:0,0:0:0:0:
328,160,216944,1,8,0:3:0:0:
413,91,217166,1,2,0:0:0:0:
413,91,217278,1,2,0:0:0:0:
413,91,217389,6,0,P|471:101|485:140,1,90.9999958343508,2|2,3:2|0:0,0:0:0:0:
412,207,217833,1,10,0:3:0:0:
485,287,218055,1,2,0:0:0:0:
485,287,218167,2,0,L|368:307,1,90.9999958343508,2|0,0:0|0:0,0:0:0:0:
395,302,218500,1,2,0:0:0:0:
295,256,218722,1,10,0:3:0:0:
214,329,218944,1,2,0:0:0:0:
127,261,219167,6,0,P|77:264|52:307,2,90.9999958343508,2|2|8,3:2|0:0|0:3,0:0:0:0:
225,213,219833,2,0,B|174:184|180:136|180:136|208:88|163:41,1,181.999991668702,2|0,0:0|0:0,0:0:0:0:
74,12,220500,1,8,0:3:0:0:
5,96,220722,2,0,L|-2:145,1,45.4999979171754,2|2,0:0|0:0,0:0:0:0:
43,171,220944,6,0,P|67:209|58:253,1,90.9999958343508,2|2,3:2|0:0,0:0:0:0:
134,331,221389,1,10,0:3:0:0:
212,254,221611,1,2,0:0:0:0:
212,254,221722,2,0,B|249:227|249:227|320:252,1,90.9999958343508,2|0,0:0|0:0,0:0:0:0:
291,242,222055,1,2,0:0:0:0:
375,311,222278,1,10,0:3:0:0:
459,241,222500,1,2,0:0:0:0:
384,172,222722,6,0,B|384:135|365:106|365:106|405:92|431:64,1,136.499993751526,2|0,3:2|0:0,0:0:0:0:
470,45,223167,2,0,B|407:34|407:34|401:38|401:38|319:22,1,136.499993751526,10|0,0:3|0:0,0:0:0:0:
286,46,223611,2,0,L|261:-25,2,45.4999979171754,2|0|2,3:2|0:0|3:2,0:0:0:0:
255,150,224055,1,8,3:3:0:0:
226,191,224166,1,0,3:0:0:0:
175,195,224278,1,2,3:0:0:0:
128,177,224389,1,0,3:0:0:0:
113,129,224500,1,4,0:0:0:0:
256,192,224611,12,2,227611,0:0:0:0:
256,192,228055,12,0,231611,0:0:0:0:
