osu file format v14

[General]
AudioFilename: audio.mp3
AudioLeadIn: 0
PreviewTime: 43308
Countdown: 0
SampleSet: Drum
StackLeniency: 0.7
Mode: 3
LetterboxInBreaks: 0
SpecialStyle: 0
WidescreenStoryboard: 1

[Editor]
Bookmarks: 1203,6817,12431,25062,43308,54536,65764,76992
DistanceSpacing: 0.8
BeatDivisor: 2
GridSize: 32
TimelineZoom: 0.7999998

[Metadata]
Title:YAHHO!! (TV Size)
TitleUnicode:YAHHO!! (TV Size)
Artist:Horie Yui
ArtistUnicode:堀江由衣
Creator:Drum-Hitnormal
Version:Easy
Source:かなめも
Tags:Kanamemo Anime Japanese Pop jpop j-pop ed dudehacker _Rokii Amiichii King Record Super Live 2015 KICA-991 ost Original Soundtrack KICM-1282 ending yaho yahoo
BeatmapID:3447351
BeatmapSetID:1460209

[Difficulty]
HPDrainRate:6.5
CircleSize:7
OverallDifficulty:6.5
ApproachRate:3
SliderMultiplier:1.28
SliderTickRate:2

[Events]
//Background and Video events
Video,-1922,"King Super Live 2015.mp4"
0,0,"69278476_p0.jpg",0,0
//Break Periods
//Storyboard Layer 0 (Background)
//Storyboard Layer 1 (Fail)
//Storyboard Layer 2 (Pass)
//Storyboard Layer 3 (Foreground)
//Storyboard Layer 4 (Overlay)
//Storyboard Sound Samples
Sample,10325,0,"Tom1.wav",70
Sample,12080,0,"Tom3.wav",70
Sample,12255,0,"Tom3.wav",70
Sample,66992,0,"CrashRight.wav",70
Sample,69799,0,"CrashRight.wav",70
Sample,81202,0,"Tom2.wav",70
Sample,82080,0,"Tom3.wav",70
Sample,82255,0,"Tom3.wav",70
Sample,82431,0,"Tom3.wav",70
Sample,87518,0,"Tom2.wav",70
Sample,87694,0,"Tom2.wav",70
Sample,87869,0,"Tom3.wav",70
Sample,88045,0,"CrashRight.wav",70

[TimingPoints]
1203,350.877192982456,4,3,1,20,1,0
6817,-100,4,3,1,70,0,0
43308,-100,4,3,1,70,0,1
65764,-100,4,3,1,70,0,0

[HitObjects]
36,192,1203,5,0,0:0:0:0:
36,192,1378,1,0,0:0:0:0:
329,192,1904,1,0,0:0:0:0:
329,192,2080,1,0,0:0:0:0:
182,192,2606,1,0,0:0:0:0:
182,192,2781,1,0,0:0:0:0:
475,192,3132,1,0,0:0:0:0:
475,192,3483,1,0,0:0:0:0:
109,192,4010,1,0,0:0:0:0:
109,192,4185,1,0,0:0:0:0:
402,192,4711,1,0,0:0:0:0:
402,192,4887,1,0,0:0:0:0:
182,192,5413,1,0,0:0:0:0:
182,192,5588,1,0,0:0:0:0:
402,192,5939,1,0,0:0:0:0:
36,192,6290,1,0,0:0:0:70:Tom2.wav
329,192,6466,1,0,0:0:0:70:Tom3.wav
109,192,6817,1,2,0:0:0:0:
475,192,6817,128,0,7167:0:0:0:70:CrashRight.wav
256,192,7167,1,12,0:0:0:0:
182,192,7518,1,6,0:0:0:0:
329,192,7694,1,2,0:0:0:0:
36,192,7869,1,12,0:0:0:0:
402,192,8220,1,6,0:0:0:0:
109,192,8571,1,12,0:0:0:0:
329,192,8746,1,2,0:0:0:0:
329,192,9097,1,2,0:0:0:0:
182,192,9273,1,12,0:0:0:0:
475,192,9624,128,6,9974:0:0:0:0:
36,192,9974,1,12,0:0:0:0:
182,192,10325,128,4,10676:0:0:0:0:
256,192,10676,1,8,0:0:0:0:
329,192,10852,1,2,0:0:0:0:
475,192,10852,1,0,0:0:0:70:CrashRight.wav
36,192,11202,1,2,0:0:0:0:
182,192,11378,1,12,0:0:0:0:
329,192,11729,1,0,0:0:0:70:Tom1.wav
182,192,11904,1,0,0:0:0:70:Tom2.wav
475,192,12080,1,8,0:0:0:0:
329,192,12255,1,8,0:0:0:0:
36,192,12431,1,2,0:0:0:0:
182,192,12431,1,0,0:0:0:70:CrashRight.wav
329,192,12781,1,12,0:0:0:0:
109,192,13132,1,6,0:0:0:0:
256,192,13308,1,2,0:0:0:0:
475,192,13483,1,12,0:0:0:0:
36,192,13834,1,6,0:0:0:0:
329,192,14185,1,12,0:0:0:0:
109,192,14360,1,2,0:0:0:0:
109,192,14711,1,2,0:0:0:0:
402,192,14887,1,12,0:0:0:0:
182,192,15238,1,2,0:0:0:0:
475,192,15588,1,12,0:0:0:0:
36,192,15939,1,6,0:0:0:0:
256,192,16115,1,2,0:0:0:0:
402,192,16290,1,12,0:0:0:0:
109,192,16641,1,2,0:0:0:0:
475,192,16817,1,2,0:0:0:0:
256,192,16992,1,12,0:0:0:0:
36,192,17167,1,2,0:0:0:0:
329,192,17518,1,2,0:0:0:0:
109,192,17694,1,12,0:0:0:0:
402,192,18045,1,2,0:0:0:0:
182,192,18395,1,12,0:0:0:0:
475,192,18746,1,6,0:0:0:0:
256,192,18922,1,2,0:0:0:0:
36,192,19097,1,12,0:0:0:0:
402,192,19448,1,6,0:0:0:0:
182,192,19799,1,12,0:0:0:0:
329,192,19974,1,2,0:0:0:0:
329,192,20325,1,2,0:0:0:0:
109,192,20501,1,12,0:0:0:0:
475,192,20852,1,6,0:0:0:0:
329,192,21027,1,2,0:0:0:0:
36,192,21202,1,8,0:0:0:0:
182,192,21202,1,0,0:0:0:70:CrashRight.wav
36,192,21553,1,6,0:0:0:0:
182,192,21729,1,2,0:0:0:0:
329,192,21904,1,8,0:0:0:0:
475,192,21904,1,0,0:0:0:70:CrashRight.wav
109,192,22255,1,6,0:0:0:0:
256,192,22606,1,12,0:0:0:0:
475,192,22957,1,0,0:0:0:70:Tom1.wav
329,192,23132,1,0,0:0:0:70:Tom2.wav
182,192,23308,1,0,0:0:0:70:Tom3.wav
36,192,23483,1,2,0:0:0:0:
329,192,23659,1,8,0:0:0:0:
475,192,23659,1,4,0:0:0:0:
329,192,24010,1,0,0:0:0:0:
329,192,24360,1,2,0:0:0:0:
256,192,24711,1,8,0:0:0:0:
36,192,25062,1,2,0:0:0:0:
182,192,25062,1,0,0:0:0:70:CrashRight.wav
109,192,25588,1,2,0:0:0:0:
329,192,25764,1,2,0:0:0:0:
256,192,26115,1,8,0:0:0:0:
475,192,26115,1,0,0:0:0:0:
36,192,26466,1,2,0:0:0:0:
402,192,26992,1,2,0:0:0:0:
182,192,27167,1,2,0:0:0:0:
36,192,27518,1,8,0:0:0:0:
256,192,27518,1,0,0:0:0:0:
475,192,27869,1,2,0:0:0:0:
402,192,28395,1,2,0:0:0:0:
182,192,28571,1,2,0:0:0:0:
36,192,28922,1,8,0:0:0:0:
256,192,28922,1,0,0:0:0:0:
475,192,29273,1,2,0:0:0:0:
109,192,29799,1,2,0:0:0:0:
329,192,29974,1,6,0:0:0:0:
256,192,30325,1,8,0:0:0:0:
475,192,30325,1,0,0:0:0:0:
36,192,30676,1,6,0:0:0:0:
109,192,31202,1,2,0:0:0:0:
329,192,31378,1,6,0:0:0:0:
256,192,31729,1,8,0:0:0:0:
475,192,31729,1,0,0:0:0:0:
182,192,32080,1,6,0:0:0:0:
182,192,32431,1,4,0:0:0:0:
402,192,32781,1,2,0:0:0:0:
36,192,33132,1,8,0:0:0:0:
475,192,33308,1,0,0:0:0:70:CrashRight.wav
329,192,33308,1,2,0:0:0:0:
109,192,33659,1,2,0:0:0:0:
402,192,33834,1,12,0:0:0:0:
36,192,34185,1,2,0:0:0:0:
182,192,34536,1,8,0:0:0:0:
329,192,34711,1,2,0:0:0:0:
475,192,34711,1,0,0:0:0:70:CrashRight.wav
256,192,35062,1,2,0:0:0:0:
36,192,35238,1,12,0:0:0:0:
329,192,35588,1,2,0:0:0:0:
182,192,35764,1,2,0:0:0:0:
36,192,35939,1,12,0:0:0:0:
329,192,36290,1,2,0:0:0:0:
475,192,36290,1,0,0:0:0:70:CrashRight.wav
109,192,36641,1,8,0:0:0:0:
402,192,36992,1,2,0:0:0:0:
182,192,37343,1,8,0:0:0:0:
329,192,37518,1,2,0:0:0:0:
475,192,37518,1,0,0:0:0:70:CrashRight.wav
109,192,37869,1,2,0:0:0:0:
402,192,38045,1,8,0:0:0:0:
329,192,38395,1,6,0:0:0:0:
36,192,38746,1,12,0:0:0:0:
475,192,39097,1,0,0:0:0:70:CrashRight.wav
182,192,39097,1,2,0:0:0:0:
109,192,39448,1,8,0:0:0:0:
402,192,39624,1,6,0:0:0:0:
182,192,39974,1,2,0:0:0:0:
329,192,40150,1,8,0:0:0:0:
36,192,40325,1,2,0:0:0:0:
475,192,40325,1,0,0:0:0:70:CrashRight.wav
182,192,40852,1,8,0:0:0:0:
329,192,41202,1,0,0:0:0:70:Tom3.wav
329,192,41553,1,8,0:0:0:0:
475,192,41904,128,0,42255:0:0:0:0:
109,192,42606,128,0,42957:0:0:0:0:
329,192,42957,128,0,43308:0:0:0:70:Tom3.wav
182,192,43308,1,8,0:0:0:0:
475,192,43308,1,0,0:0:0:70:CrashRight.wav
182,192,43659,1,8,0:0:0:0:
475,192,43659,1,4,0:0:0:0:
182,192,44010,1,12,0:0:0:0:
329,192,44185,1,2,0:0:0:0:
182,192,44360,1,12,0:0:0:0:
329,192,44536,1,2,0:0:0:0:
36,192,44711,1,10,0:0:0:0:
402,192,44711,1,4,0:0:0:0:
402,192,45062,1,4,0:0:0:0:
36,192,45062,1,8,0:0:0:0:
402,192,45413,1,12,0:0:0:0:
256,192,45588,1,2,0:0:0:0:
402,192,45764,1,12,0:0:0:0:
256,192,45939,1,2,0:0:0:0:
109,192,46115,1,10,0:0:0:0:
475,192,46115,1,4,0:0:0:0:
109,192,46466,1,8,0:0:0:0:
475,192,46466,1,4,0:0:0:0:
109,192,46817,1,12,0:0:0:0:
329,192,46992,1,2,0:0:0:0:
109,192,47167,1,12,0:0:0:0:
182,192,47518,1,6,0:0:0:0:
182,192,47694,1,2,0:0:0:0:
256,192,47869,1,8,0:0:0:0:
475,192,47869,1,0,0:0:0:70:CrashRight.wav
329,192,48220,1,6,0:0:0:0:
329,192,48395,1,2,0:0:0:0:
36,192,48571,1,8,0:0:0:0:
256,192,48571,1,0,0:0:0:70:CrashRight.wav
109,192,48922,1,10,0:0:0:0:
475,192,48922,1,0,0:0:0:70:CrashRight.wav
475,192,49273,1,4,0:0:0:0:
109,192,49273,1,8,0:0:0:0:
475,192,49624,1,12,0:0:0:0:
256,192,49799,1,2,0:0:0:0:
475,192,49974,1,12,0:0:0:0:
256,192,50150,1,2,0:0:0:0:
36,192,50325,1,10,0:0:0:0:
329,192,50325,1,4,0:0:0:0:
36,192,50676,1,8,0:0:0:0:
329,192,50676,1,4,0:0:0:0:
36,192,51027,1,12,0:0:0:0:
182,192,51202,1,2,0:0:0:0:
36,192,51378,1,12,0:0:0:0:
182,192,51553,1,2,0:0:0:0:
402,192,51729,1,2,0:0:0:0:
109,192,51729,1,12,0:0:0:0:
109,192,52080,1,8,0:0:0:0:
402,192,52080,1,4,0:0:0:0:
402,192,52431,1,12,0:0:0:0:
256,192,52606,1,2,0:0:0:0:
402,192,52781,1,12,0:0:0:0:
256,192,52957,1,2,0:0:0:0:
475,192,52957,1,0,0:0:0:70:CrashRight.wav
329,192,53308,1,2,0:0:0:0:
182,192,53483,1,4,0:0:0:0:
36,192,53483,1,8,0:0:0:0:
475,192,53834,1,6,0:0:0:0:
329,192,54010,1,0,0:0:0:0:
36,192,54185,1,2,0:0:0:0:
256,192,54185,128,0,54536:0:0:0:0:
109,192,54536,1,10,0:0:0:0:
475,192,54536,1,0,0:0:0:70:CrashRight.wav
109,192,54887,1,4,0:0:0:0:
475,192,54887,1,8,0:0:0:0:
109,192,55238,1,12,0:0:0:0:
329,192,55413,1,2,0:0:0:0:
109,192,55588,1,12,0:0:0:0:
329,192,55764,1,2,0:0:0:0:
402,192,55939,1,4,0:0:0:0:
36,192,55939,1,10,0:0:0:0:
36,192,56290,1,4,0:0:0:0:
402,192,56290,1,8,0:0:0:0:
402,192,56641,1,12,0:0:0:0:
256,192,56817,1,2,0:0:0:0:
402,192,56992,1,12,0:0:0:0:
256,192,57167,1,2,0:0:0:0:
109,192,57343,1,6,0:0:0:0:
475,192,57343,1,8,0:0:0:0:
109,192,57694,1,4,0:0:0:0:
475,192,57694,1,8,0:0:0:0:
109,192,58045,1,12,0:0:0:0:
402,192,58220,1,2,0:0:0:0:
109,192,58395,1,12,0:0:0:0:
182,192,58746,1,6,0:0:0:0:
182,192,58922,1,2,0:0:0:0:
256,192,59097,1,8,0:0:0:0:
475,192,59097,1,0,0:0:0:70:CrashRight.wav
329,192,59448,1,6,0:0:0:0:
329,192,59624,1,2,0:0:0:0:
36,192,59799,1,8,0:0:0:0:
256,192,59799,1,0,0:0:0:70:CrashRight.wav
109,192,60150,1,10,0:0:0:0:
475,192,60150,1,0,0:0:0:70:CrashRight.wav
475,192,60501,1,4,0:0:0:0:
109,192,60501,1,8,0:0:0:0:
475,192,60852,1,12,0:0:0:0:
256,192,61027,1,2,0:0:0:0:
475,192,61202,1,12,0:0:0:0:
256,192,61378,1,2,0:0:0:0:
36,192,61553,1,12,0:0:0:0:
329,192,61553,1,2,0:0:0:0:
36,192,61904,1,4,0:0:0:0:
329,192,61904,1,8,0:0:0:0:
36,192,62255,1,12,0:0:0:0:
182,192,62431,1,2,0:0:0:0:
36,192,62606,1,12,0:0:0:0:
182,192,62781,1,2,0:0:0:0:
109,192,62957,1,12,0:0:0:0:
402,192,62957,1,2,0:0:0:0:
109,192,63308,1,4,0:0:0:0:
402,192,63308,1,8,0:0:0:0:
402,192,63659,1,12,0:0:0:0:
256,192,63834,1,2,0:0:0:0:
402,192,64010,1,12,0:0:0:0:
109,192,64185,1,2,0:0:0:0:
256,192,64185,1,0,0:0:0:70:CrashRight.wav
329,192,64536,1,2,0:0:0:0:
182,192,64711,1,4,0:0:0:0:
36,192,64711,1,8,0:0:0:0:
109,192,65062,128,6,65413:0:0:0:0:
329,192,65413,1,8,0:0:0:0:
182,192,65588,1,0,0:0:0:70:Tom1.wav
36,192,65764,1,2,0:0:0:0:
475,192,65764,128,0,66466:0:0:0:70:CrashRight.wav
256,192,66115,1,12,0:0:0:0:
329,192,66466,128,6,66817:0:0:0:0:
109,192,66817,1,12,0:0:0:0:
402,192,66992,1,2,0:0:0:0:
182,192,67167,128,0,67869:0:0:0:0:
475,192,67518,1,12,0:0:0:0:
329,192,67869,128,12,68220:0:0:0:0:
109,192,68220,1,4,0:0:0:0:
36,192,68571,128,2,69273:0:0:0:0:
256,192,68571,1,4,0:0:0:0:
329,192,68922,1,12,0:0:0:0:
402,192,69273,128,12,69624:0:0:0:0:
182,192,69624,1,12,0:0:0:0:
329,192,69799,1,2,0:0:0:0:
109,192,69974,128,0,70676:0:0:0:0:
475,192,70325,1,12,0:0:0:0:
256,192,70676,1,12,0:0:0:0:
402,192,71027,1,12,0:0:0:0:
182,192,71378,1,0,0:0:0:70:CrashRight.wav
36,192,71378,1,2,0:0:0:0:
329,192,71729,1,12,0:0:0:0:
109,192,72080,1,12,0:0:0:0:
475,192,72431,1,12,0:0:0:0:
36,192,72606,1,2,0:0:0:0:
329,192,72606,1,0,0:0:0:70:CrashRight.wav
182,192,72957,1,2,0:0:0:0:
402,192,73132,1,12,0:0:0:0:
109,192,73483,1,12,0:0:0:0:
329,192,73834,1,12,0:0:0:0:
182,192,74185,1,0,0:0:0:70:CrashRight.wav
36,192,74185,1,2,0:0:0:0:
256,192,74536,1,12,0:0:0:0:
475,192,74887,1,6,0:0:0:0:
109,192,75238,1,12,0:0:0:0:
182,192,75413,1,2,0:0:0:0:
402,192,75413,1,0,0:0:0:70:CrashRight.wav
329,192,75764,1,2,0:0:0:0:
36,192,75939,1,8,0:0:0:0:
256,192,75939,1,4,0:0:0:0:
182,192,76290,128,2,76641:0:0:0:0:
329,192,76641,128,8,76992:0:0:0:0:
109,192,76992,1,2,0:0:0:0:
475,192,76992,1,0,0:0:0:70:CrashRight.wav
475,192,77167,1,0,0:0:0:0:
256,192,77343,1,4,0:0:0:0:
36,192,77343,1,8,0:0:0:0:
182,192,77694,1,6,0:0:0:0:
182,192,77869,1,2,0:0:0:0:
109,192,78045,1,8,0:0:0:0:
402,192,78045,1,4,0:0:0:0:
329,192,78395,1,6,0:0:0:0:
329,192,78571,1,2,0:0:0:0:
36,192,78746,1,8,0:0:0:0:
256,192,78746,1,4,0:0:0:0:
475,192,78922,1,2,0:0:0:0:
475,192,79273,1,2,0:0:0:0:
402,192,79448,1,4,0:0:0:0:
109,192,79448,1,8,0:0:0:0:
182,192,79799,1,6,0:0:0:0:
182,192,79974,1,0,0:0:0:0:
329,192,80501,1,6,0:0:0:0:
329,192,80676,1,2,0:0:0:0:
36,192,81202,1,4,0:0:0:0:
36,192,81378,1,0,0:0:0:70:Tom1.wav
475,192,81553,1,8,0:0:0:0:
109,192,81729,1,2,0:0:0:0:
329,192,81729,1,4,0:0:0:0:
182,192,82080,1,8,0:0:0:0:
402,192,82255,1,8,0:0:0:0:
182,192,82431,1,8,0:0:0:0:
36,192,82606,1,2,0:0:0:0:
402,192,82606,1,0,0:0:0:70:CrashRight.wav
256,192,82957,1,12,0:0:0:0:
329,192,83308,1,6,0:0:0:0:
329,192,83483,1,2,0:0:0:0:
109,192,83659,1,8,0:0:0:0:
475,192,83659,1,4,0:0:0:0:
182,192,84010,1,6,0:0:0:0:
182,192,84185,1,2,0:0:0:0:
36,192,84360,1,4,0:0:0:0:
402,192,84360,1,8,0:0:0:0:
256,192,84536,1,2,0:0:0:0:
256,192,84887,1,2,0:0:0:0:
182,192,85062,1,8,0:0:0:0:
475,192,85062,1,4,0:0:0:0:
109,192,85413,1,2,0:0:0:0:
329,192,85413,1,4,0:0:0:0:
329,192,85588,1,0,0:0:0:0:
182,192,85764,1,12,0:0:0:0:
36,192,86115,1,0,0:0:0:70:Tom2.wav
329,192,86290,1,0,0:0:0:70:Tom1.wav
182,192,86466,1,8,0:0:0:0:
475,192,86641,1,0,0:0:0:70:CrashRight.wav
36,192,86641,1,2,0:0:0:0:
329,192,86992,1,0,0:0:0:70:Tom2.wav
109,192,87167,128,0,87518:0:0:0:70:Tom2.wav
182,192,87518,1,8,0:0:0:0:
256,192,87694,1,2,0:0:0:0:
329,192,87869,1,8,0:0:0:0:
36,192,88045,1,2,0:0:0:0:
402,192,88045,1,0,0:0:0:70:Tom2.wav
182,192,88571,1,4,0:0:0:0:
182,192,88922,1,4,0:0:0:0:
475,192,89273,1,8,0:0:0:0:
36,192,89624,1,10,0:0:0:0:
329,192,89624,1,0,0:0:0:70:CrashRight.wav
